Welcome Guest ( Log In | Register )

История благодарностей участнику Ainar ::: Спасибо сказали: 2983 раз(а)
Дата поста: В теме: За сообщение: Спасибо сказали:
Aug 21 2019, 08:13:08 Поиск Музыки
ЦИТАТА(Froze @ 21st August 2019 - 07:27:32) *
Особенно интересует правый верхний диск, не могу его идентифицировать.


https://www.metal-archives.com/albums/The_I...itiation/678429
(1) Froze,
Sep 24 2018, 13:35:50 Rundagor - Beastreal (2018)
ЦИТАТА(Golodomor @ 24th September 2018 - 11:59:50) *
В итоге так и непонятно - кто из двух моднейших бутлегеров (Ragnarok, Hanged Traitors) наиболее кошерный

[youtube]g1-mmr3bRCw[/youtube]
(1) HA7tur,
Mar 8 2017, 19:18:29 IC Rex - Tulen Jumalat (2017)
ЦИТАТА(aesteticvice @ 6th March 2017 - 18:28:07) *
а тут сразу полноценная группа возродилась и дает концерты, впрочем год назад уже планировался альбом


Был на этом концерте, странное впечатление осталось. Вокалист поехавший, очень похож на Пахома из "Зеленого слоника", танцевал мистические шаманские танцы, раздевался-одевался, бил молотком зрителей (легонько) и сцену (сильно). Через неделю после этого концерта они должны были играть вместе с Warloghe, Cosmic Church и Urn в Хельсинки, но вокалист успел разо[мат->бан]ся с остальными музыкантами и отменить выступление.
По музыке я узнал одну-две знакомые темы на концерте, значит, по всей видимости, играли в основном телеги с нового альбома. Надо послушать! dwarf-1.gif
(2) DarkHorde, yarrsuaa,
Nov 9 2016, 15:40:44 Sacrificio - Guerra Eterna (2016)
ЦИТАТА(Vakhanal @ 7th November 2016 - 19:17:37) *
в надежде начать давать концерты на модных европейских фестах


У Proclamation с концертами нормально все было. Они изначально хотели записать четыре альбома (чтобы названия образовывали слово AMEN) и после этого распустить группу. Причем эту телегу я прочитал вроде на NWN форуме примерно в то время, когда у них вышел второй альбом. Потом спрашивал у них, когда они в Москве выступали, они сказали, что все так и уже есть идеи на другую музыку, которую они будут играть после Proclamation.
Этот альбом не понравился, как-то никак, скучно.
(2) Anhra Mainyu, Абигор,
Jul 27 2016, 09:29:43 Veter Daemonaz & Shadow Ov Fenris - Vade Retro Sonnenlicht [split] (2015)
Сплит клевый, а их новая телега (которой тут нет), вообще отличная - Veter Daemonaz - Voice~Key [single] (2016), .
Зацените вокал!
(4) infiltrator, sethurius, Абигор, Холод,
Mar 12 2016, 21:52:51 Blasphemy
ЦИТАТА(tireheb @ 12th March 2016 - 19:46:31) *
А 3 Black Hearts где?


В 2009-м году на гиге в Хельсинки он играл. После этого я видел их в 2012-м в Берлине, играл уже Ваз.
Думаю, 3 Black Hearts забил на группу из-за возраста. Как вариант - опять сидит за что-то. Году в 94-м он устроил дебош на борту самолета, подрался с бортпроводниками и попал в тюрьму на несколько лет banana.gif
(1) WarmasterChorus,
Jul 23 2015, 21:01:36 R. Nikolaenko - Sinner Versus Satan (2015)
ЦИТАТА(RNikolaenko @ 20th July 2015 - 06:51:55) *
03. I Want To My Mother
06. Love Me Sinner
07. Kissing Like Kids

11.gif
(2) Deze, SAPOGi,
Apr 23 2015, 21:01:02 Christfighter - Satan's Perversion - The Best Of The Ultimate Greatest Hits Collection [best of/compilation] (2012)


*Artist: Christfighter
*Album: Satan's Perversion - The Best Of The Ultimate Greatest Hits Collection [best of/compilation]
*Year: 2012
*Genre: Black Metal
*Country: Netherlands
*Format: mp3@CBR320kbps
*Size: 171MB

Tracklist:
1. [Intro] 00:47
2. Christfuck 01:16
3. [Intro] 00:04
4. Godverdomme 00:56
5. [Intro] 00:10
6. Sterven zal je 01:22
7. [Intro] 00:35
8. Vuile Christenhonden 01:20
9. [Intro] 00:12
10. Satan's Zaad 01:00
11. [Intro] 00:05
12. Anale Sex in het Huis van God 02:15
13. [Intro] 00:18
14. In de Ban van Satan 00:46
15. [Intro] 00:07
16. In de Naam der Duisternis 01:40
17. [Intro] 03:34
18. Duivelsgebroed 01:29
19. [Intro] 00:04
20. Heil Satan 00:50
21. [Intro] 00:05
22. Gedreven door Lust 00:34
23. [Intro] 00:08
24. Dood en Verderf 01:19
25. [Intro] 00:07
26. De Wraak van het Beest 01:51
27. [Intro] 00:36
28. Het kwaad zal Overheersen 01:08
29. [Intro] 00:07
30. Helse Bezetenheid 02:40
31. [Intro] 00:07
32. Satan's Lust 01:56
33. [Intro] 00:09
34. Onheilig 00:52
35. [Intro] 00:04
36. Verslaafd aan de Duisternis 01:19
37. [Intro] 00:46
38. Pervers en Ziekelijk 01:26
39. [Intro] 00:43
40. Wereldexecutie 01:51
41. [Intro] 00:12
42. Hel, Lust en hoeren 01:50
43. [Intro] 00:12
44. Verkrachting der Engelen 02:29
45. [Intro] 00:21
46. Duivelse Masturbatie 00:50
47. [Intro] 00:08
48. Er is een Kinneke 00:24
49. [Intro] 00:07
50. Martel, Martel 00:50
51. [Intro] 00:04
52. Swing Your Axe, Baby 01:37
53. [Intro] 00:13
54. Zieke zielen 02:41
55. [Intro] 00:08
56. Vagina Maria 01:45
57. [Intro] 00:45
58. Horny as Hell 01:50
59. [Intro] 01:40
60. Sletten voor mij 02:14
61. [Intro] 01:33
62. Holocaust Holiday 01:25
63. [Intro] 00:07
64. Kotsen in de Kerk 01:08
65. [Intro] 03:52
66. Mijn Ziel voor Satan 02:24
67. [Intro] 03:02
68. Give Me Some Pussy 02:04
69. [Intro] 00:06
70. Neuken, Neuken, Neuken 01:01
71. [Intro] 01:34
72. Heilige Nacht / Obscure 01:46
73. [Outro] 00:04
******************************
Total playing time: 1:17:04

[more=Technical info]
Input File: 56. CD Track 56.mp3
Channels : 2
Sample Rate : 44100
Precision : 16-bit
Duration : 00:01:45.03 = 4631603 samples = 7876.88 CDDA sectors
File Size : 4.20M
Bit Rate : 320k
Sample Encoding: MPEG audio (layer I, II or III)
Comments :
Title=Vagina Maria
Artist=Christfighter
Album=Satan's Perversion - The Best of the Ultimate Greatest Hits Collection
Tracknumber=56/73
Year=2012

[/more]

Register
(12) DarkHorde, ddarkthrone, morbidangelo, randumbum, rom666, Rosen, RUSP73, stub888, tont, varlam4, vasiljev_sergej, zotyo1975,
Jan 14 2015, 22:08:30 Лучший шлягер GOAT метала в истории!
Не могу пройти мимо темы. Вообще с интересом следил за темами типа "давайте выберем лучшую песню в трэше в шесть этапов, сначала 20 групп, потом 20 альбомов, потом 20 песен и т.д.", потому что всякие такие выборы - это, на мой взгляд, полная фигня 11.gif
Обладая определенными представлениями о металлической музыке, легко предсказать, что Angel of death, Hammer smashed face и Freezing Moon будут лучшими песнями соответствующих жанров. Это логично и естественно 10.gif
В принципе, все, кто в теме, и так могут назвать главные хиты жанра. А лучшей песней из ГОАТ РОКА всяко должна быть телега Blasphemy под названием Ritual. Это ритуал! true_black.gif РОССБЭЙГРЭЙВ! БЛЭК МАСС БЕГИНС!

Остальные хиты:
Beherit - Gate Of Nanna, Salomon's gate
Von - Satanic Blood
Archgoat - Goat and the Moon, Lord of the Void
Black Witchery - Command of the Iron Baphomet, Unholy Vengeance of War
Morbosidad - Morboso Metal

Касаемо вышеперечисленых BLASPHEMOPHAGER, GOAT SEMEN, GOATPENIS, SADOMATOR, NUCLEAR DESECRATION, REVENGE, DEIPHAGO, PROCLAMATION - окей, все банды очень культовые, но у них сложно выделить какие-либо выдающиеся песни, так называемые хиты. Условно, например те же Revenge живьем всегда играют одни и те же песни, но могли бы играть совершенно другой набор телег. Общее восприятие осталось бы таким же, так как песни воздействуют на восприятие одинаково. Нет такой песни как "RITUAL", которая четко воспринимается как главный хит, который должен прозвучать в самом конце выступления. У упомянутых групп тем самым главным хитом может быть любая песня, так как выделяющихся песен, "хитов" просто нет.
Такая тема у многих банд в козлином стиле - рубят сплошным потоком, а выделить нечего. И музыканты, сами понимая эту тему, играют на концертах (и на записях тоже) каверы на старые хиты соответствующего жанра. С другой стороны, лучше замутить клевый кавер на BLASPHEMY, чем записать какой-то унылый гоаткал! 25.gif
(8) acerbus, Beazth, crackedbrain, HA7tur, Hostis, Nocturnal_Grave_Desecrator, Old Vyaine, ripper33,
Aug 13 2014, 15:29:34 Hell Spirit - Dawn Under Curse (2014)


*Artist: Hell Spirit
*Album: Dawn Under Curse
*Year: 2014
*Genre: Black/Heavy/Thrash Metal
*Country: Finland
*Format: mp3@CBR320kbps
*Size: 85MB

Tracklist:
1. Call to Arms 03:41
2. Weak Flesh / Filthy Blood 07:09
3. Total Holocaust 05:21
4. Unholy Redemption 06:46
5. Eternal Night 11:05
6. Blood and Metal 03:29
******************************
Total playing time: 37:31

[more=Extended info]http://www.saturnalrecords.com[/more]

[more=Technical info]
Input File: 06 - Blood & Metal.mp3
Channels : 2
Sample Rate : 44100
Precision : 16-bit
Duration : 00:03:29.32 = 9230792 samples = 15698.6 CDDA sectors
File Size : 8.38M
Bit Rate : 320k
Sample Encoding: MPEG audio (layer I, II or III)
Comments :
Title=Blood & Metal
Artist=Hell Spirit
Album=Dawn Under Curse
Tracknumber=06/06
Year=2014
Genre=Black Metal

[/more]

Register
(40) 666BlackDeath, anatolibugar, artscald, Buregon, Corpse_Of_The_Christ, craP_cillA, desekrator, drbutcher, Evilded, Kehl05, killingod, Koscheyushka, kyrkovisan, LastSupper, lucifix, marilin, metala, neoatheist, Oath19, oldvarg, Ostinato, randumbum, Representer, ripper33, Rosen, satanist666, serach, Sergei78, smes, sperminator, Tino, Torlof, varlam4, vasiljev_sergej, Velmi, vov7609, waldemardr, wgs73, wreak, ZA670,
Jul 15 2014, 19:34:10 Necros Christos - Nine Graves [ep] (2014)


*Artist: Necros Christos
*Album: Nine Graves [ep]
*Year: 2014
*Genre: Death Metal
*Country: Germany
*Format: mp3@CBR320kbps
*Size: 92MB

Tracklist:
1. Temple I 01:43
2. Black Bone Crucifix 07:02
3. Temple II 00:58
4. Va Koram Do Rex Satan 06:40
5. Gate: Solh 05:13
6. Baptized by the Black Urine of the Deceased 05:50
7. Temple III 01:15
8. Nine Graves 05:05
9. Temple IV 06:30
******************************
Total playing time: 40:16

[more=Extended info]http://www.sepulchralvoice.de/[/more]

[more=Technical info]
Input File: 08. Nine Graves.mp3
Channels : 2
Sample Rate : 44100
Precision : 16-bit
Duration : 00:05:06.03 = 13495923 samples = 22952.2 CDDA sectors
File Size : 12.2M
Bit Rate : 320k
Sample Encoding: MPEG audio (layer I, II or III)
Comments :
Title=Nine Graves
Artist=Necros Christos
Album=Nine Graves
Tracknumber=08/09
Year=2014
Genre=Death Metal

[/more]

Register
(57) acerbus, AHBAnep, andreikun, as71, Bergthron, Boozer, Buregon, Chasm, CORROSIOR, craP_cillA, Darkthronefoad, ddarkthrone, Demonologist, El_Chibo, fishish, Fryz, garml2, Hell_Is_Here, Henmik, Infidel, jpvalentim, killingod, Koscheyushka, kotekpsotek, leiru, Lux, marilin, MeathookSeed, metala, Mist13Signifier, MMMMM, Moonshtook, Necrodictator, Ostinato, Pinhead666, Premature_Devotion, princeshr, randumbum, rom666, Rosen, RUSP73, sperminator, Spunkynut, Tino, Torlof, troll_swamp, Ugly13, umor, Urfeuer, VALERY, varlam4, Velmi, wreak, wtk.412, xska, Zaephar, zar2005,
May 11 2014, 16:08:05 Black Wood - The Worst (2013)
Недавно пластинку подогнали нежданно-негаданно. Больше всего понравилось, как они сыграли самое начало первой телеги alkash.gif
(1) добрыйКот,
May 6 2014, 22:10:38 Ride For Revenge - Enter The Gauntlet (2014)
ЦИТАТА(sethurius @ 6th May 2014 - 21:56:20) *
записано это где нибудь в карцере 2 на 2 метра в сырой холодной камере , где по по шершавым стенам растет плесень


Чувак, это же строго положительная рекомендация! crazy.gif
В карцере для смертников! Терять уже не88уй 6.gif
И ваще, пройди-ка сквозь строй! 7.gif
(5) Daale, DHS, Fess, Goatrex, UlvhedinGrom,
May 6 2014, 22:06:07 Dead Congregation - Promulgation Of The Fall (2014)
С предыдущего альбома прошло 6 лет.
За это время они объездили весь мир, играя живьем дебютник.
При этом, дебютный альбом - абсолютно шикарный стафф, фэнам блэк-метала особенно нравится, судя по восприятию.
Стоил ли новый альбом ожиданий - ну да, вроде рок! true_black.gif
Стоил ли он шести лет - я не уверен пока. redp.gif
Слушаю! 5.gif
(3) CORROSIOR, KVRT, vosmidesijatye,
May 4 2014, 21:41:52 Ride For Revenge - Enter The Gauntlet (2014)
ЦИТАТА(Келебрин @ 4th May 2014 - 22:52:07) *
"Run the gauntlet" = "прогнать сквозь строй". Скорей всего, связано с этим. Обложка с одинокой фигурой и руками, торчащими из стен коридора, вроде соответствует.


Клево, не знал. Раз так, то скажи, как можно красиво перевести "Enter the gauntlet" на русский язык? "Войди в строй" как-то не звучит, в голове крутится мысль про "приглашение на казнь". Созвучно музыке. crazy.gif

ЦИТАТА(Windom_Earle @ 4th May 2014 - 18:57:36) *
Кстати, ни у кого рипа или кассетки нет?
http://www.discogs.com/RFR-SADOS-RFRSADOS/release/5171082


Специально сгонял за ней на их выступление в Хельсинки, когда увидел рассылку про эту кассету. THIS_IS_SPARTA_v2_0_by_DoooM.gif
Но вот рипать не умею. В принципе, не уверен в необходимости этого - обе песни с кассеты есть на альбоме, а у SADOS слушать особо нечего. Там какие-то непонятные грязные нойзово-блэковые эксперименты за авторством того же Ментора.
May 4 2014, 15:23:39 Ride For Revenge - Enter The Gauntlet (2014)
ЦИТАТА(Sarcis @ 4th May 2014 - 00:15:00) *
Если смотреть чисто с музыкальной точки зрения - есть колоссальное различие между тем же 09 и сплитом с Кровемолотом, выпущенным годом позже, например.


Сплит с Бладхаммером отличается от всего остального, там Ментор разогнался до предела.
Новый альбом, конечно, внезапно вышел. Тут они продолжают доктрину, заданную на первом диске Disturbances, если я правильно уловил вектор. Колоссальная мрачная хрень! true_black.gif
Песни с недавнего сплита с SADOS переиграли еще зачем-то, на сплите они звучали более сурово.
Правда, я не понимаю название. "Войди в перчатку"? fear.gif

ЦИТАТА(Chasm @ 3rd May 2014 - 23:39:49) *
Сплиты и прочие обрубки особо не слушал.


Кстати зря. "Ridiculed by ladies of the Moon" со сплита с Undor, как мне кажется - их лучшая вещь.
(1) smes,
Mar 14 2014, 08:00:16 Teitanblood - Death (2014)
Фиг знает, мне вот Бегемот не нравится. Новый альбом послушал, но не видел смысла что-то писать в теме. Нафига?

А тут реально непонятное месиво, если не в теме, но потом начинаешь въезжать в риффы. Нету ни длинного вступления, ни интерлюдий, как на дебютнике, а сразу начинается штормовое взрывное варево. Очень понравился звук, свежий такой, если так можно выразиться вообще про данный коллектив 25.gif
Думаю, что этот альбом сильнее их дебютника. Хотя вот он в свое время стал неким откровением, потому что так тогда никто не играл. То есть, козлоблэка было много, ортодоксального блэка типа Катарсиса тоже дофига, а у Тейтанблада отлично получилось соединить это все вместе. Новый альбом не вызывает чувств типа "ухты, я раньше такого не слышал", зато он просто нереально мощный, если расслушать. И концепт великолепный.
Ничего нового, но и так прекрасно THIS_IS_SPARTA_v2_0_by_DoooM.gif
(2) acerbus, vosmidesijatye,
Jan 27 2014, 09:08:28 Moscow DOOM Festival: Ch. VII, 18 мая 2014, Rock House, Мск
Наверно прищемлю погрустить под Скептицизм.
Никого не слышал из остальных групп, но и хрен с ними alkash.gif
(1) Darkiya,
Dec 5 2013, 13:20:11 Новости Black-направления


Myyntipistettд pitдд ainakin Bestial Burst, sekд Filth & Violence. Ja Bestial Burstilta tiedote:
Tддllдhдn julkaistaan R.F.R./S.A.D.O.S. split kasetti (F&V), kannattanee myцs napata paikanpддllд talteen, 100 painos ei varmaan kauaa vanhene...
Kettu tuo myцs noisekokoelmaa ja KSNK kasettia myyntiin.

spitggis0.gif
(3) abomination2, Daale, infiltrator,
Nov 6 2013, 20:49:07 Ildjarn & Hate Forest - Those Once Mighty Fallen [split] (2013)
ЦИТАТА(T.H.U.L.E. @ 6th November 2013 - 16:10:15) *
в духе каких работ материал Hate Forest?


Purity с очень чистым звуком banana.gif

Современные технологии делают черти что! HF еще узнаваемы, а Ildjarn - вообще не понял, что это такое. Крайне странно такое услышать, тем более от него. Не спорю, музыка интересная, но очень непривычно alkash.gif
(4) Forrrrest, HA7tur, T.H.U.L.E., UlvhedinGrom,
Oct 27 2013, 09:09:57 Ride For Revenge & Below - Ride For Revenge/Below [split] (2013)
Ломовая кассета. На Хаммер Опен Эйре мне ее презентовал J. Pervertor как самому упоротому 11.gif
(6) acerbus, D.S.Embassy, Daale, drbutcher, sacrut, smes,
Oct 22 2013, 14:52:26 Ride For Revenge - Disturbances 2001-2013 [best of/compilation] (2013)
Чето я тут особенно вошел в угар от телег с первой демки, "Path of Dominion" которая. Уже и забыл, что они такие крутые.
С первого диска да, рулят "The Privilege" и места без нойза на первых двух темах pray.gif
Живые телеги как-то так себе, бешеных тарелок нет и вопли надоедают 11.gif
Короче, компиляция строго для фанатов true_black.gif
(1) smes,
Oct 17 2013, 14:40:09 Заводь - Through The Circle And Five Angles (2013)
Я думал, что это какая-то антифа-шляпа, а тут оказался реально клевый стафф alkash.gif
(1) Daale,
Oct 15 2013, 22:50:51 Ride For Revenge - Disturbances 2001-2013 [best of/compilation] (2013)


*Artist: Ride For Revenge
*Album: Disturbances 2001-2013 [best of/compilation]
*Year: 2013
*Genre: Black Metal
*Country: Finland
*Format: mp3@CBR320kbps
*Size: 313MB

Tracklist:
Disc 1:
1. Disturbing the Dream pt.1 20:58
2. Disturbing the Dream pt.2 11:30
3. Storm of Fire 09:53
4. The Privilege 19:58
Disc 2:
1. Disturbed by Spiritual Tormentors 04:10
2. Wisdom of the Few 02:34
3. No Saviour No Return 07:48
4. Passages for Greater Self 02:13
5. Morning Won't Bring a Twinkling Star 12:26
6. Calling the Ancient Spirits 03:34
7. Path of Dominion / Wind of Torment 04:49
8. Final Harvest 09:30
9. Wir Sind Götter III 14:00
10. Declaration of Darkness 06:46
11. Dedicated to Destruction 03:55
12. Day of the Man 07:05
******************************
Total playing time: 2:21:09

[more=Extended info]Disc one:

1. Disturbing the Dream pt.1 (20:58)
2. Disturbing the Dream pt.2 (11:30) (Recorded February 2013, line up Harald Mentor & J. Pervertor)
3. Storm of Fire (9:53) (Recorded 2009, line up Harald Mentor, Spirit Krusher & BlackGoat Gravedesecrator)
4. The Privilege (19:58) (Recorded May 2013, Harald Mentor)

Disc two:
1. Disturbed by Spiritual Tormentors (4:10)
2. Wisdom of the Few (2:34)
3. No Saviour No Return (7:48)
4. Passages for Greater Self (2:13)
5. Morning Won't Bring a Twinkling Star (12:26) (Recorded live in Trondheim, Norway, November 2010, line up Harald Mentor, J. Pervertor, Spirit Krusher & BlackGoat Gravedesecrator)
6. Calling the Ancient Spirits (3:34)
7. Path of Dominion / Wind of Torment (4:49) (Previously released as "Path of Dominion" demo cassette recorded 2004, Harald Mentor)
8. Final Harvest (9:30) (Recorded 2008, line up Harald Mentor & Spirit Krusher)
9. Wir Sind Götter III (14:00) (Recorded December 2008, line up Harald Mentor & Spirit Krusher)
10. Declaration of Darkness (6:46)
11. Dedicated to Destruction (3:55)
12. Day of the Man (7:05) (Unreleased "Declaration of Darkness" demo, recorded December 2001, line up Harald Mentor & Susej)[/more]

[more=Technical info]
Input File: 02 - Wisdom of the Few.mp3
Channels : 2
Sample Rate : 44100
Precision : 16-bit
Duration : 00:02:36.05 = 6881673 samples = 11703.5 CDDA sectors
File Size : 6.25M
Bit Rate : 320k
Sample Encoding: MPEG audio (layer I, II or III)
Comments :
Title=Wisdom of the Few
Artist=Ride For Revenge
Album=Disturbances 2001-2013 Disc Two
Tracknumber=02/12
Year=2013
Genre=Black Metal

[/more]

Register
:
(44) abob, abomination2, acerbus, Ambercandle, artscald, Boozer, caro, Chasm, craP_cillA, current, D.S.Embassy, Daale, Darkthronefoad, ddarkthrone, Forrrrest, garretje, gena, Hell_Is_Here, homelike, Infidel, Koscheyushka, maochen, marilin, mizantrophist, Nomad_AG, Oath19, princeshr, Razorbladeswaltz, rom666, RUSP73, skeletron215, smes, spiritualdecay666, stub888, svartrest, svndvst, the_cleanser, Thunderbird, tont, UlvhedinGrom, VALERY, vasiljev_sergej, wreak, Фо,
Sep 6 2013, 13:33:17 Satanic Warmaster
Только Ингрия, только зиговать! alkash.gif alkash.gif alkash.gif
(2) D.S.Embassy, mondblut,

12 Pages V   1 2 3 > » 
- Lo-Fi Version Support form
Copyrights and abuse reports form
Time is now: 24th August 2019 - 17:12:15