Welcome Guest ( Log In | Register )

История благодарностей участнику добрыйКот ::: Спасибо сказали: 21519 раз(а)
Дата поста: В теме: За сообщение: Спасибо сказали:
Mar 28 2019, 21:44:48 Black Metal
ЦИТАТА(Borderline1991 @ 28th March 2019 - 21:21:49) *
Yet, both bands are interestingly blocked from sale on Discogs.

Давайте тогда шаблон нарушим , музон выложим , а обсуждение закроем 13.gif
(3) infiltrator, SSWolf88, vosmidesijatye,
Apr 21 2018, 17:53:32 Kirchenbrand - Gegenkultur (2018)
Блин офигенно , чет тока ознакомился 13.gif , телка классная 19.gif 10.gif , которая блондинка , блин у нее баки что ли ? или мне кажется hmm.gif
(1) vovenom,
Apr 6 2018, 15:50:20 Iceaxe & Deafest - Iceaxe/Deafest [split] (2018)


*Artist: Iceaxe & Deafest
*Album: Iceaxe/Deafest [split]
*Year: 2018
*Genre: Atmospheric Black/Doom Metal | Atmospheric Black Metal
*Country: United States | United States
*Format: mp3@CBR320kbps
*Size: 93MB

Tracklist:
Iceaxe:
01. Windhaven 11:18
02. Snowmass 12:55
Deafest:
03. Pika In The Boulder Field 02:05
04. Huron 06:00
05. Shavano 07:09
******************************
Total playing time: 39:27





[more=Technical info]
Input File: 04 - Deafest - Huron.mp3
Channels : 2
Sample Rate : 44100
Precision : 16-bit
Duration : 00:06:00.34 = 15891126 samples = 27025.7 CDDA sectors
File Size : 14.4M
Bit Rate : 320k
Sample Encoding: MPEG audio (layer I, II or III)
Comments :
Title=Huron
Artist=Deafest
Album=Iceaxe & Deafest (Split)
Tracknumber=04/05
Year=2018
Genre=Atmospheric Black Metal

[/more]

Register
(15) 1968_janeart, artscald, doomTemplar, Doooomed, kim666, Lanceatum, Rosen, satanist666, SilentNidhogg, stub888, thenecromancer, VALERY, varlam4, vasiljev_sergej, wreak,
Apr 3 2018, 16:49:31 Cultor Noctis - III [ep] (2018)


*Artist: Cultor Noctis
*Album: III [ep]
*Year: 2018
*Genre: Depressive Black Metal
*Country: Belgium
*Format: mp3@CBR320kbps
*Size: 29MB

Tracklist:
01. You Will Learn To Hate 05:36
02. As You Have Known To Suffer 05:26
******************************
Total playing time: 11:02



[more=Technical info]
Input File: 01 - You Will Learn To Hate.mp3
Channels : 2
Sample Rate : 44100
Precision : 16-bit
Duration : 00:05:36.10 = 14821966 samples = 25207.4 CDDA sectors
File Size : 13.5M
Bit Rate : 320k
Sample Encoding: MPEG audio (layer I, II or III)
Comments :
Title=You Will Learn To Hate
Artist=Cultor Noctis
Album=III (EP)
Tracknumber=01/02
Year=2018
Genre=Depressive Black Metal

[/more]

Register
(9) 1968_janeart, artscald, kim666, Rosen, satanist666, SilentNidhogg, stub888, varlam4, vasiljev_sergej,
Mar 13 2018, 14:50:28 Storm Kvlt - Demo 2018 [demo] (2018)


*Artist: Storm Kvlt
*Album: Demo 2018 [demo]
*Year: 2018
*Genre: Pagan Black Metal
*Country: Germany
*Format: mp3@CBR320kbps
*Size: 53MB

Tracklist:
01. Wenn Schwere Winde Sich Heben 04:31
02. Der Gott Der Stadt 04:17
03. Eala Frya Fresena 04:26
04. Grimnismal 09:20
******************************
Total playing time: 22:34





[more=Technical info]
Input File: 02 - Der Gott Der Stadt.mp3
Channels : 2
Sample Rate : 44100
Precision : 16-bit
Duration : 00:04:17.26 = 11344946 samples = 19294.1 CDDA sectors
File Size : 10.3M
Bit Rate : 320k
Sample Encoding: MPEG audio (layer I, II or III)
Comments :
Title=Der Gott der Stadt
Artist=Storm Kvlt
Album=Demo 2018
Tracknumber=02/04
Year=2018
Genre=Pagan Black Metal

[/more]

Register
(11) 1968_janeart, infiltrator, kim666, obituarydark, Rosen, satanist666, SilentNidhogg, stub888, thenecromancer, varlam4, vasiljev_sergej,
Mar 9 2018, 23:28:34 EmptyLife - Ep 2018 [ep] (2018)


*Artist: EmptyLife
*Album: Ep 2018 [ep]
*Year: 2018
*Genre: Depressive Black Metal
*Country: Unknown
*Format: mp3@CBR320kbps
*Size: 32MB

Tracklist:
01. First Night In A Coffin 02:48
02. Homeless 03:46
03. Empty Life 03:12
04. My Self Destruction 03:36
******************************
Total playing time: 13:22



[more=Technical info]
Input File: 01 - First Night In A Coffin.mp3
Channels : 2
Sample Rate : 44100
Precision : 16-bit
Duration : 00:02:48.09 = 7412769 samples = 12606.8 CDDA sectors
File Size : 6.80M
Bit Rate : 324k
Sample Encoding: MPEG audio (layer I, II or III)
Comments :
Title=First Night In A Coffin
Artist=EmptyLife
Album=EP
Tracknumber=01/04
Year=2018
Genre=Depressive Black Metal

[/more]

Register
(13) 1968_janeart, kim666, Ludwig Hagen, Razorbladeswaltz, Rosen, satanist666, SilentNidhogg, stub888, VALERY, varg-38ru, varlam4, vasiljev_sergej, Victim of fate,
Jan 17 2018, 15:35:12 HexenHammer's Flame - Кровь Концлагерей (2017)
ЦИТАТА(Borderline1991 @ 17th January 2018 - 15:23:46) *
Aufschwung is fucking awesome, and I wish they weren't forbidden on MA. It's one of the best Russian bands, next to m8l8th.

Самые Лучшие банды Руси !!! , хотя Aufschwung , очень жаль 6.gif
(2) Borderline1991, Goatrex,
Jan 8 2018, 14:09:36 Schrei Aus Stein - Philosophie [demo] (2013)


*Artist: Schrei Aus Stein
*Album: Philosophie [demo]
*Year: 2013
*Genre: Atmospheric Black Metal/Ambient
*Country: United States
*Format: mp3@CBR320kbps
*Size: 56MB

Tracklist:
01. Philosophie 07:40
02. Auf Einer Berg 09:28
03. Neverending Peak 07:22
******************************
Total playing time: 24:30




[more=Technical info]
Input File: 01 - Philosophie.mp3
Channels : 2
Sample Rate : 44100
Precision : 16-bit
Duration : 00:07:40.90 = 20325602 samples = 34567.4 CDDA sectors
File Size : 18.4M
Bit Rate : 320k
Sample Encoding: MPEG audio (layer I, II or III)
Comments :
Title=Philosophie
Artist=Schrei Aus Stein
Album=Philosophie (Demo)
Tracknumber=01/03
Year=2013
Genre=Atmospheric Black Metal/Ambient

[/more]

Register
(12) 1968_janeart, Doooomed, kim666, Rosen, satanist666, SilentNidhogg, smysl, stub888, TAKATAEL, varg-38ru, varlam4, vasiljev_sergej,
Dec 17 2017, 10:27:10 Nortt - Endeligt (2017)
Полная ху-та
(3) andeimon, infiltrator, krotovich,
Dec 15 2017, 13:27:56 Может ли Христианский Блек быть Тру Блеком?
Вы тут дорисуетесь россияне особенно , какой нить дурак напишет ,что оскорблены его чувства , статья 148 , хотя шучу 1488.gif
(3) Goatrex, neoatheist, suseka,
Nov 9 2017, 13:56:43 Tetelis - La Última Mesnada [compilation] (2017)


*Artist: Tetelis
*Album: La Última Mesnada [compilation]
*Year: 2017
*Genre: Pagan Black Metal
*Country: Spain
*Format: mp3@CBR320kbps
*Size: 97MB

Tracklist:
01. En Campo De Gules 06:23
02. Nostalgia Y Silencio 03:01
03. iDespierta Castilla! 07:01
04. Gutton 09:13
05. El Castellano Bizarro - Honor A Candamio 03:21
06. La Última Mesnada 05:51
07. Nuevo Pueblo 05:23
08. Ebro (Parte I) 02:23
09. El Monte De Las Ánimas (Uruk-Hai Cover) 03:45
******************************
Total playing time: 46:21



[more=Technical info]
Input File: 04 - Gutton.mp3
Channels : 2
Sample Rate : 44100
Precision : 16-bit
Duration : 00:09:13.38 = 24404102 samples = 41503.6 CDDA sectors
File Size : 22.2M
Bit Rate : 320k
Sample Encoding: MPEG audio (layer I, II or III)
Comments :
Title=Gutton
Artist=Tetelis ‎
Album=La Гљltima Mesnada (Compilation)
Tracknumber=04/09
Year=2017
Genre=Pagan Black Metal

[/more]

Register
(12) 1968_janeart, Buregon, Maximvs, pfk505, rom666, Rosen, satanist666, stub888, Styx, varlam4, vasiljev_sergej, Victim of fate,
Nov 2 2017, 17:16:37 Lustre - Still Innocence (2017)
ЦИТАТА(Deze @ 2nd November 2017 - 17:15:19) *
Вот их отечественный клон Elderwind - умеет.

dooo.gif
(1) BERZERK,
Sep 21 2017, 13:55:45 Satyricon - Deep Calleth Upon Deep (2017)
Да надоел уже как этот сартирикон 22.gif
(3) EvilSurround, infiltrator, SSWolf88,
Sep 21 2017, 09:40:31 Неясыть - Навьи Чары [demo] (2017)


*Artist: Неясыть
*Album: Навьи Чары [demo]
*Year: 2017
*Genre: Pagan Metal
*Country: Russian Federation
*Format: mp3@CBR320kbps
*Size: 71MB

Tracklist:
01. Кличет Меня Неясыть 03:49
02. Морок 04:07
03. Лесное Таинство 04:06
04. Навьи Чары 03:53
05. Заклятие 02:08
06. Моровая Дева 03:05
07. Путь Ведьмы 03:31
08. Глаза Ворона (Ildjarn "Mørklagt Sti" Cover) 03:07
09. Женщина Тёмной Страсти (Bathory Cover) 04:03
******************************
Total playing time: 31:49



[more=Technical info]
Input File: 02 - Морок.mp3
Channels : 2
Sample Rate : 44100
Precision : 16-bit
Duration : 00:04:07.93 = 10933625 samples = 18594.6 CDDA sectors
File Size : 9.97M
Bit Rate : 322k
Sample Encoding: MPEG audio (layer I, II or III)
Comments :
Title=РњРѕСЂРѕРє
Artist=Неясыть
Album=Навьи Чары (Demo)
Tracknumber=02/09
Year=2017
Genre=Pagan Metal

[/more]

Register
(8) Dark_Viking, oldvarg, Ratibor366, Rosen, SAPOGi, satanist666, varlam4, wreak,
Sep 17 2017, 15:13:50 Eldiarn - Иван-Дурак [single] (2017)


*Artist: Eldiarn
*Album: Иван-Дурак [single]
*Year: 2017
*Genre: Folk Metal
*Country: Russian Federation
*Format: mp3@CBR320kbps
*Size: 10MB

Tracklist:
01. Иван-Дурак 04:16
******************************
Total playing time: 4:16

Preview 1

[more=Technical info]
Input File: 01 - Иван-Дурак.mp3
Channels : 2
Sample Rate : 44100
Precision : 16-bit
Duration : 00:04:16.66 = 11318530 samples = 19249.2 CDDA sectors
File Size : 10.3M
Bit Rate : 321k
Sample Encoding: MPEG audio (layer I, II or III)
Comments :
Title=Р?ван-Дурак
Artist=Eldiarn
Album=Р?ван-Дурак (Single)
Tracknumber=01/01
Year=2017
Genre=Folk Metal

[/more]

Register
(11) Aresson, Cartman223, csgmnk, Druidir, fabriziomagno, MikkeFFF, Ratibor366, Rosen, satanist666, varlam4, wreak,
Sep 17 2017, 14:48:03 OwlCraft - Hide From Sun [ep] (2017)


*Artist: OwlCraft
*Album: Hide From Sun [ep]
*Year: 2017
*Genre: Black Metal
*Country: Ukraine
*Format: mp3@CBR320kbps
*Size: 62MB

Tracklist:
01. Hide from Sun 05:14
02. Ninox 05:23
03. The Moon 04:00
04. Local Woods 05:30
05. December Night 07:05
******************************
Total playing time: 27:12



[more=Technical info]
Input File: 03 - The Moon.mp3
Channels : 2
Sample Rate : 44100
Precision : 16-bit
Duration : 00:04:00.72 = 10615620 samples = 18053.8 CDDA sectors
File Size : 9.68M
Bit Rate : 322k
Sample Encoding: MPEG audio (layer I, II or III)
Comments :
Title=The Moon
Artist=OwlCraft
Album=Hide From Sun (EP)
Tracknumber=03/05
Year=2017
Genre=Black Metal

[/more]

Register
(13) 1968_janeart, kim666, Moonshtook, Razorbladeswaltz, Rosen, Sanc, satanist666, smysl, thenecromancer, VALERY, varlam4, vasiljev_sergej, wreak,
Sep 8 2017, 14:31:58 Asgardsrei VI
Похер на все , лишь бы увидеть Absurd , даже в Антарктиду поеду 9.gif 9.gif 9.gif
(3) Goatrex, neoatheist, SSWolf88,
Sep 1 2017, 08:24:44 Azarok - Oodi [demo] (2013)


*Artist: Azarok
*Album: Oodi [demo]
*Year: 2013
*Genre: Black/Folk Metal
*Country: Finland
*Format: mp3@CBR320kbps
*Size: 47MB

Tracklist:
01. Oodi 20:15
******************************
Total playing time: 20:15



[more=Technical info]
Input File: 01 - Oodi.mp3
Channels : 2
Sample Rate : 44100
Precision : 16-bit
Duration : 00:20:14.58 = 53562758 samples = 91093.1 CDDA sectors
File Size : 48.6M
Bit Rate : 320k
Sample Encoding: MPEG audio (layer I, II or III)
Comments :
Title=Oodi
Artist=Azarok
Album=Oodi (Demo)
Tracknumber=01/01
Year=2013
Genre=Black/Folk Metal

[/more]

Register
(9) 1968_janeart, artscald, Cartman223, csgmnk, fabriziomagno, Ratibor366, Rosen, satanist666, varlam4,
Aug 28 2017, 19:02:58 OwlCraft - Hinansho (2016)


*Artist: OwlCraft
*Album: Hinansho
*Year: 2016
*Genre: Black Metal
*Country: Ukraine
*Format: mp3@CBR320kbps
*Size: 89MB

Tracklist:
01. Behold the Black Eye 01:17
02. Wooden Creature 04:01
03. Barn-Owl 04:30
04. The Key 04:24
05. Ketupa and the Storm 05:41
06. Surnia Ulula 07:04
07. The Fligt 04:40
08. My Shelter 07:13
******************************
Total playing time: 38:50



[more=Technical info]
Input File: 05 - Ketupa And The Storm.mp3
Channels : 2
Sample Rate : 44100
Precision : 16-bit
Duration : 00:05:41.82 = 15074306 samples = 25636.6 CDDA sectors
File Size : 13.7M
Bit Rate : 321k
Sample Encoding: MPEG audio (layer I, II or III)
Comments :
Title=Ketupa And The Storm
Artist=OwlCraft
Album=Hinansho
Tracknumber=05/08
Year=2016
Genre=Black Metal

[/more]

Register
(7) 1968_janeart, Moonshtook, Rosen, satanist666, VALERY, varlam4, vasiljev_sergej,
Aug 28 2017, 17:19:04 Spell Of Dark - Черная Скорбь (2014)


*Artist: Spell Of Dark
*Album: Черная Скорбь
*Year: 2014
*Genre: Atmospheric Black Metal/Ambient
*Country: Russian Federation
*Format: mp3@CBR320kbps
*Size: 174MB

Tracklist:
01. Наступление Темноты (Intro) 02:15
02. По Выжженной Кровью Земле 05:00
03. Не В Этой Жизни 05:24
04. Рассвет 04:35
05. Только Дождь Знает Мою Чёрную Скорбь (Part I) 08:28
06. Только Дождь Знает Мою Чёрную Скорбь (Part II) 09:24
07. Омывая Дождём 07:00
08. Дождь В Степи 06:30
09. Искалеченная Озираниями 10:48
10. Прикосновение Холода 01:05
11. Средь Пустоты Снов... 03:30
12. Чище Чем Снег, Белее, Чем Свет 11:12
13. Леденеющие Капли Дождя 00:50
******************************
Total playing time: 1:16:01



[more=Technical info]
Input File: 03 - Не В Этой Жизни.mp3
Channels : 2
Sample Rate : 44100
Precision : 16-bit
Duration : 00:05:24.32 = 14302380 samples = 24323.8 CDDA sectors
File Size : 13.0M
Bit Rate : 320k
Sample Encoding: MPEG audio (layer I, II or III)
Comments :
Title=Не В Этой Жизни
Artist=Spell Of Dark
Album=Чёрная Скорбь
Tracknumber=03/13
Year=2014
Genre=Atmospheric Black Metal/Ambient

[/more]

Register
(17) 1968_janeart, Aresson, blacky66, Dark_Viking, Druidir, infiltrator, kim666, Krosis, Ostinato, Rosen, Sanc, SAPOGi, satanist666, varlam4, vasiljev_sergej, wreak, ZambuL,
Jul 15 2017, 16:22:59 Cradle Of Filth - Cryptoriana: The Seductiveness Of Decay (2017)
ЦИТАТА(6666666 @ 14th July 2017 - 17:16:14) *
Ну вот, пошёл ожидаемый слёт всех болезных форума: Клубень, Сатус, Кот. Перунаха только не хватает для полного больничного комплекта

Ты прям звезда пиZда какая ,нетронь тебя и твое мнение сразу в бан кидают
(4) infiltrator, Kuzya, paganheart, vosmidesijatye,
Jul 14 2017, 14:04:59 Cradle Of Filth - Cryptoriana: The Seductiveness Of Decay (2017)
Чет случайно заглянул сюда,видя как утробно не кто всем доказывает что COF,это супер гoвно, я сним полностью согласен
(4) Andrew, EvilSurround, infiltrator, SSWolf88,
Jul 6 2017, 18:01:43 Limbonic Art - Spectre Abysm (2017)
По ходу у норвегов тока рубять Nordvrede нормально
(1) oyhra_blood,
Jun 28 2017, 11:22:17 Strunkiin - XX121 [ep] (2017)


*Artist: Strunkiin
*Album: XX121 [ep]
*Year: 2017
*Genre: Ambient/Atmospheric Black Metal
*Country: Finland
*Format: mp3@CBR320kbps
*Size: 32MB

Tracklist:
01. Nostromo 04:57
02. LV-426 03:35
03. The Perfect Organism 05:13
******************************
Total playing time: 13:45



[more=Technical info]
Input File: 03 - The Perfect Organism.mp3
Channels : 2
Sample Rate : 44100
Precision : 16-bit
Duration : 00:05:13.35 = 13818515 samples = 23500.9 CDDA sectors
File Size : 12.6M
Bit Rate : 321k
Sample Encoding: MPEG audio (layer I, II or III)
Comments :
Title=The Perfect Organism
Artist=Strunkiin
Album=XX121 (EP)
Tracknumber=03/03
Year=2017
Genre=Ambient/Atmospheric Black Metal

[/more]

Register
(13) artscald, blacky66, Doooomed, infiltrator, kim666, Raw1488, Razorbladeswaltz, satanist666, stone88, stub888, Torop, varlam4, vasiljev_sergej,
Jun 9 2017, 15:08:17 Wonders Of Nature - Echoes Of Transcendence [ep] (2017)


*Artist: Wonders Of Nature
*Album: Echoes Of Transcendence [ep]
*Year: 2017
*Genre: Atmospheric Black Metal
*Country: Russian Federation
*Format: mp3@CBR320kbps
*Size: 60MB

Tracklist:
01. Echoes Of Transcendence (Lustre Cover) (Vocal Version) 06:28
02. Echoes Of Transcendence (Lustre Cover) (Instrumental Version) 06:28
03. Echoes Of Transcendence (Lustre Cover) (Version 2) 06:28
04. Echoes Of Transcendence (Lustre Cover) (Demo Version) 06:33
******************************
Total playing time: 25:57



[more=Technical info]
Input File: 01 - Echoes Of Transcendence (Lustre Cover) (Vocal Version).mp3
Channels : 2
Sample Rate : 44100
Precision : 16-bit
Duration : 00:06:28.45 = 17130821 samples = 29134 CDDA sectors
File Size : 15.6M
Bit Rate : 320k
Sample Encoding: MPEG audio (layer I, II or III)
Comments :
Title=Echoes Of Transcendence (Lustre Cover) (Vocal Version)
Artist=Wonders Of Nature
Album=Echoes Of Transcendence (EP)
Tracknumber=01/04
Year=2017
Genre=Atmospheric Black Metal

[/more]

Register
(6) blacky66, metaljinie, Rosen, Unleashed, vasilisk, vasiljev_sergej,

57 Pages V   1 2 3 > » 
- Lo-Fi Version Support form
Copyrights and abuse reports form
Time is now: 22nd July 2019 - 02:51:18