Welcome Guest ( Log In | Register )

История благодарностей участнику kefka ::: Спасибо сказали: 29739 раз(а)
Дата поста: В теме: За сообщение: Спасибо сказали:
Today, 15:04:40 Tankard - Beerbarians [single] (2022)


*Artist: Tankard
*Album: Beerbarians [single]
*Year: 2022
*Genre: Thrash Metal
*Country: Germany
*Format: mp3@CBR320kbps
*Size: 12MB

Tracklist:
1.Beerbarians 05:22
******************************
Total playing time: 5:22



[more=Technical info]
Input File: 01-Beerbarians.mp3
Channels : 2
Sample Rate : 44100
Precision : 16-bit
Duration : 00:05:21.33 = 14170521 samples = 24099.5 CDDA sectors
File Size : 13.1M
Bit Rate : 326k
Sample Encoding: MPEG audio (layer I, II or III)
Comments :
Title=Beerbarians
Artist=Tankard
Album=Beerbarians
Tracknumber=01
Year=2022
Genre=Thrash Metal

[/more]

Register
(6) Adskij, Elfaffo, Emm Human, GorAtheist, lucifix, smysl,
Today, 14:55:24 Atomic Symphony - Hybris (2022)


*Artist: Atomic Symphony
*Album: Hybris
*Year: 2022
*Genre: Progressive Metal
*Country: Switzerland
*Format: mp3@CBR320kbps
*Size: 97MB

Tracklist:
1.Overture 01:35
2.Nightfall 10:02
3.Oath Taker 12:12
4.Metamorphosis 05:23
5.Hybris 05:45
6.Chimera 07:33
******************************
Total playing time: 42:30



[more=Technical info]
Input File: 04. Metamorphosis.mp3
Channels : 2
Sample Rate : 44100
Precision : 16-bit
Duration : 00:05:23.60 = 14270716 samples = 24269.9 CDDA sectors
File Size : 13.1M
Bit Rate : 324k
Sample Encoding: MPEG audio (layer I, II or III)
Comments :
Title=Metamorphosis
Artist=Atomic Symphony
Album=Hybris
Tracknumber=04
Year=2022
Genre=Progressive Metal

[/more]

Register
(2) Herrant, metala,
Today, 07:02:44 Into Denial - Into Denial (2022)


*Artist: Into Denial
*Album: Into Denial
*Year: 2022
*Genre: Progressive Heavy Metal
*Country: Germany
*Format: mp3@CBR320kbps
*Size: 118MB

Tracklist:
1.Ashes And Regret 03:57
2.March Of The Cultists 04:07
3.Unity 04:59
4.The Astral Key 03:31
5.Illusion Of Truth 05:36
6.Reminiscences 04:40
7.Fragments 10:09
8.Dance Of Zalongo 04:19
9.Approaching Collapse 04:48
10.Into Denial 05:48
******************************
Total playing time: 51:54



[more=Technical info]
Input File: 04 - The Astral Key.mp3
Channels : 2
Sample Rate : 44100
Precision : 16-bit
Duration : 00:03:31.76 = 9338748 samples = 15882.2 CDDA sectors
File Size : 8.47M
Bit Rate : 320k
Sample Encoding: MPEG audio (layer I, II or III)
Comments :
Title=The Astral Key
Artist=Into Denial
Album=Into Denial
Tracknumber=04
Year=2022
Genre=Progressive Heavy Meta

[/more]

Register
(1) metala,
Today, 05:30:09 Rend Them Asunder - Existence To Entrails (2022)


*Artist: Rend Them Asunder
*Album: Existence To Entrails
*Year: 2022
*Genre: Death Metal
*Country: United Kingdom
*Format: mp3@CBR320kbps
*Size: 74MB

Tracklist:
01.Rigour Mortis 02:28
02.The Red Room 02:40
03.Blasphemy 04:08
04.Salvo 00:06
05.Devoid of Decorum 07:25
06.Existence to Entrails 03:04
07.Outnumbered, Encircled, Slaughtered 01:49
08.Vengeance Reaped 02:01
09.Corrupted Innocence 02:31
10.Shrapnel Disembowelment 06:25
******************************
Total playing time: 32:37



[more=Technical info]
Input File: 02 - The Red Room.mp3
Channels : 2
Sample Rate : 44100
Precision : 16-bit
Duration : 00:02:40.38 = 7072626 samples = 12028.3 CDDA sectors
File Size : 6.59M
Bit Rate : 329k
Sample Encoding: MPEG audio (layer I, II or III)
Comments :
Title=The Red Room
Artist=Rend Them Asunder
Album=Existence to Entrails
Tracknumber=02
Year=2022
Genre=Death Metal

[/more]

Register
(6) GorAtheist, judaz, Marek, older68, VALERY, vyacheslav,
Today, 04:59:37 Too Much Said The Nature - Red Part1 [ep] (2022)


*Artist: Too Much Said The Nature
*Album: Red Part1 [ep]
*Year: 2022
*Genre: Death Metal
*Country: Finland
*Format: mp3@CBR320kbps
*Size: 28MB

Tracklist:
1.Cellar 04:22
2.King of Kabystan 04:19
3.First people 03:53
******************************
Total playing time: 12:34



[more=Technical info]
Input File: 03 - First People.mp3
Channels : 2
Sample Rate : 44100
Precision : 16-bit
Duration : 00:03:53.71 = 10306479 samples = 17528 CDDA sectors
File Size : 9.47M
Bit Rate : 324k
Sample Encoding: MPEG audio (layer I, II or III)
Comments :
Title=First People
Artist=Too Much Said the Nature
Album=Red Part 1
Tracknumber=03
Year=2022
Genre=Death Metal

[/more]

Register
(3) Marek, VALERY, vyacheslav,
Today, 04:53:15 Dio - The Hands Of Fate (Live 1987) [bootleg] (2022)


*Artist: Dio
*Album: The Hands Of Fate (Live 1987) [bootleg]
*Year: 2022
*Genre: Heavy Metal
*Country: United States
*Format: mp3@CBR320kbps
*Size: 154MB

Tracklist:
1.Stand Up & Shout 03:44
2.Dream Evil 04:54
3.Neon Knights 04:28
4.Naked In The Rain 07:52
5.Rock 'n Roll Children 02:41
6.Long Live Rock 'n Roll 04:42
7.Last In Line 05:16
8.Holy Diver 01:23
9.Drum Solo 03:54
10.Heaven & Hell 03:49
11.Man On The Silver Mountain 04:11
12.All The Fools Sailed Away 05:23
13.Sunset Superman 05:43
14.Rainbow In The Dark 04:42
15.We Rock 04:44
******************************
Total playing time: 1:07:26

[more=Technical info]
Input File: 05-Rock \'n Roll Children.mp3
Channels : 2
Sample Rate : 44100
Precision : 16-bit
Duration : 00:02:41.74 = 7132558 samples = 12130.2 CDDA sectors
File Size : 6.72M
Bit Rate : 332k
Sample Encoding: MPEG audio (layer I, II or III)
Comments :
Title=Rock 'n Roll Children
Artist=Dio
Album=The Hands of Fate (Live 1987)
Tracknumber=05
Year=2022
Genre=Heavy Metal

[/more]

Register
(4) canadaspaceman, infozahist, Marek, tschunioronbeer,
Today, 04:19:24 Solegnium - Oneiroid Ominous [ep] (2022)


*Artist: Solegnium
*Album: Oneiroid Ominous [ep]
*Year: 2022
*Genre: Technical/Brutal Death Metal
*Country: Colombia
*Format: mp3@CBR320kbps
*Size: 31MB

Tracklist:
1.Intro 00:36
2.Upside Down 04:27
3.Oneiroid Ominous 03:08
4.Degere Vitam 04:27
******************************
Total playing time: 12:38



[more=Technical info]
Input File: 03 - Oneiroid Ominous.mp3
Channels : 2
Sample Rate : 44100
Precision : 16-bit
Duration : 00:03:08.80 = 8326080 samples = 14160 CDDA sectors
File Size : 7.75M
Bit Rate : 328k
Sample Encoding: MPEG audio (layer I, II or III)
Comments :
Title=Oneiroid Ominous
Artist=Solegnium
Album=Oneiroid Ominous
Tracknumber=03
Year=2022
Genre=Technical/Brutal Death Metal

[/more]

Register
(3) Marek, metala, vyacheslav,
Today, 03:54:13 The Departed - Reanimation [ep] (2022)


*Artist: The Departed
*Album: Reanimation [ep]
*Year: 2022
*Genre: Death/Black Metal
*Country: Australia
*Format: mp3@CBR320kbps
*Size: 44MB

Tracklist:
1.Reanimation 03:49
2.Requiem For The Living 03:42
3.Spectre 03:53
4.Vendetta From Beyond The Grave 03:40
5.Revenant 04:20
******************************
Total playing time: 19:24



[more=Technical info]
Input File: 02 Requiem For The Living.mp3
Channels : 2
Sample Rate : 44100
Precision : 16-bit
Duration : 00:03:42.66 = 9819174 samples = 16699.3 CDDA sectors
File Size : 9.01M
Bit Rate : 324k
Sample Encoding: MPEG audio (layer I, II or III)
Comments :
Title=Requiem For The Living
Artist=The Departed
Album=Reanimation
Tracknumber=02
Year=2022
Genre=Death/Black Metal

[/more]

Register
(2) Marek, VALERY,
Today, 03:43:57 Goremassacre Perversity - Raped And Eaten Flesh [demo] (2022)


*Artist: Goremassacre Perversity
*Album: Raped And Eaten Flesh [demo]
*Year: 2022
*Genre: Death Metal
*Country: Russian Federation
*Format: mp3@VBR267kbps
*Size: 31MB

Tracklist:
01.Nekromantik I (Exhumation) 03:24
02.Cannibal Holocaust (Human Carcass Menu) 04:43
03.Nekromantik II (Raped and Eaten Flesh) 03:49
04.Antibiosis (Rotting from the Inside) 04:11
******************************
Total playing time: 16:07

Preview 1

[more=Technical info]
Input File: 01. Nekromantik I (Exhumation).mp3
Channels : 2
Sample Rate : 44100
Precision : 16-bit
Duration : 00:03:24.04 = 8998252 samples = 15303.1 CDDA sectors
File Size : 6.94M
Bit Rate : 272k
Sample Encoding: MPEG audio (layer I, II or III)
Comments :
Title=Nekromantik I (Exhumation)
Artist=Goremassacre Perversity
Album=Raped and Eaten Flesh
Tracknumber=01
Year=2022
Genre=Death Metal

[/more]

Register
(1) VALERY,
Yesterday, 17:28:08 Today Needed (1) Haunting,
Yesterday, 17:27:09 Flesh Consumed - Ecliptic Dimensions Of Suffering (2010)
Re up same properties
Register
(1) Haunting,
Yesterday, 08:08:01 Backfire - The Two Of Us (2022)


*Artist: Backfire
*Album: The Two Of Us
*Year: 2022
*Genre: Progressive Metal
*Country: Italy
*Format: mp3@CBR320kbps
*Size: 185MB

Tracklist:
1.The Two Of Us 01:02
2.Omega 05:59
3.A Mind By Itself 05:49
4.Killed Freedom 07:26
5.A Story To Tell 05:47
6.Lex Naturalis 09:27
7.The Illusion Of Life 09:25
8.Fade Away 06:19
9.Ghoulish Sight 12:51
10.Alpha 16:59
******************************
Total playing time: 1:21:04




[more=Technical info]
Input File: 03 - A Mind By Itself.mp3
Channels : 2
Sample Rate : 44100
Precision : 16-bit
Duration : 00:05:49.33 = 15405497 samples = 26199.8 CDDA sectors
File Size : 14.0M
Bit Rate : 320k
Sample Encoding: MPEG audio (layer I, II or III)
Comments :
Title=A Mind By Itself
Artist=Backfire
Album=The Two of Us
Tracknumber=03
Year=2022
Genre=Progressive Metal

[/more]

Register
(7) artscald, brutl, Herrant, Marek, metala, RotAnus, stumpheavyrock,
Yesterday, 06:20:49 Антитезис - Пламя Последней Эпохи [ep] (2022)


*Artist: Антитезис
*Album: Пламя Последней Эпохи [ep]
*Year: 2022
*Genre: Black/Death Metal
*Country: Russian Federation
*Format: mp3@CBR320kbps
*Size: 51MB

Tracklist:
1.Литания Иезавели 04:21
2.Цефалофорова литургия 05:50
3.Идущие в Бездну 04:01
4.Пламя последней эпохи 07:58
******************************
Total playing time: 22:10



[more=Technical info]
Input File: 03 - Идущие в Бездну.mp3
Channels : 2
Sample Rate : 44100
Precision : 16-bit
Duration : 00:04:01.80 = 10663468 samples = 18135.1 CDDA sectors
File Size : 9.87M
Bit Rate : 327k
Sample Encoding: MPEG audio (layer I, II or III)
Comments :
Title=Идущие в Бездну
Artist=Антитезис
Album=Пламя последней эпохи
Tracknumber=03
Year=2022
Genre=Black/Death
Discnumber=01

[/more]

Register
(6) artscald, Mencae77, SadistikSlayer, VALERY, vasiljev_sergej, Сварог Барг,
Yesterday, 04:56:46 Changer - Pledge Of The Dying [ep] (2022)


*Artist: Changer
*Album: Pledge Of The Dying [ep]
*Year: 2022
*Genre: Thrash Metal
*Country: Iceland
*Format: mp3@CBR320kbps
*Size: 36MB

Tracklist:
01.River of bones 05:05
02.Tears do not burn 02:59
03.Fall onto your sword 03:35
04.Three to One 04:16
******************************
Total playing time: 15:55



[more=Technical info]
Input File: 02 - Tears do not burn.mp3
Channels : 2
Sample Rate : 44100
Precision : 16-bit
Duration : 00:02:58.98 = 7892930 samples = 13423.4 CDDA sectors
File Size : 7.30M
Bit Rate : 326k
Sample Encoding: MPEG audio (layer I, II or III)
Comments :
Title=Tears do not burn
Artist=Changer
Album=Pledge of the Dying
Tracknumber=02
Year=2022
Genre=Metal

[/more]

Register
(7) artscald, boby9052, Marek, metala, metaljosue, sergsazan, stumpheavyrock,
Yesterday, 04:24:36 Accidental Death Benefit - Big Brother Won't Forsake You [ep] (2022)


*Artist: Accidental Death Benefit
*Album: Big Brother Won't Forsake You [ep]
*Year: 2022
*Genre: Technical/Brutal Death Metal
*Country: Russian Federation
*Format: mp3@CBR320kbps
*Size: 45MB

Tracklist:
01.1109 03:58
02.Big Brother Is Watching You 03:15
03.They're Bringing You Freedom 04:05
04.Prohibition Is Where Man Is Free 02:54
05.The Source of All You Knowledge 03:30
06.The Resource (Patriot) 02:38
******************************
Total playing time: 20:20



[more=Technical info]
Input File: 04 - Prohibition Is Where Man Is Free.mp3
Channels : 2
Sample Rate : 44100
Precision : 16-bit
Duration : 00:02:54.30 = 7686674 samples = 13072.6 CDDA sectors
File Size : 7.25M
Bit Rate : 333k
Sample Encoding: MPEG audio (layer I, II or III)
Comments :
Title=Prohibition Is Where Man Is Free
Artist=Accidental Death Benefit
Album=Big Brother Won't Forsake You
Tracknumber=04
Year=2022
Genre=Technical/Brutal Death Metal

[/more]

Register
(4) artscald, Balusina, Marek, metala,
Jul 3 2022, 15:29:43 Vidres A La Sang - Fragments De L'esdevenir (2022)


*Artist: Vidres A La Sang
*Album: Fragments De L'esdevenir
*Year: 2022
*Genre: Progressive Blackened Death Metal
*Country: Spain
*Format: mp3@CBR320kbps
*Size: 78MB

Tracklist:
1.Mort de paraula 07:40
2.Salveu-me els ulls 06:33
3.Ventres de llum 03:48
4.Fins aquí 08:23
5.Ara és demà 08:15
******************************
Total playing time: 34:39



[more=Technical info]
Input File: 02 - Salveu-me els Ulls.mp3
Channels : 2
Sample Rate : 44100
Precision : 16-bit
Duration : 00:06:33.82 = 17367462 samples = 29536.5 CDDA sectors
File Size : 15.9M
Bit Rate : 322k
Sample Encoding: MPEG audio (layer I, II or III)
Comments :
Title=Salveu-me els Ulls
Artist=Vidres a la Sang
Album=Fragments de l'Esdevenir
Tracknumber=02
Year=2022
Genre=Black/Death Metal

[/more]

Register
(16) artscald, chipsgott, dermarsoran, Ignativs, madera, maochen, Mencae77, metala, nemx, SatanicPanzer, supremo, VALERY, Vitald, vyacheslav, wreak, Сварог Барг,
Jul 3 2022, 14:57:04 Cerebral Extinction - Escape From Illusion (2022)


*Artist: Cerebral Extinction
*Album: Escape From Illusion
*Year: 2022
*Genre: Technical/Brutal Death Metal
*Country: Italy
*Format: mp3@CBR320kbps
*Size: 107MB

Tracklist:
1.The Evocation of the Black Servant 02:13
2.Asymmetrical Trap Body 05:02
3.Transmutation 04:00
4.Hemorrhage of a God 04:22
5.The Intruder Part I 07:08
6.The Intruder Part II 05:25
7.Xinaian 01:43
8.The Ruins of R'lyeh 06:31
9.The 4 Eyes of Chaos 05:09
10.Escape from Illusion 04:57
******************************
Total playing time: 46:30



[more=Technical info]
Input File: 03. Transmutation.mp3
Channels : 2
Sample Rate : 44100
Precision : 16-bit
Duration : 00:04:00.94 = 10625586 samples = 18070.7 CDDA sectors
File Size : 9.76M
Bit Rate : 324k
Sample Encoding: MPEG audio (layer I, II or III)
Comments :
Title=Transmutation
Artist=Cerebral Extinction
Album=Escape from Illusion
Tracknumber=03
Year=2022
Genre=Technical Death Metal

[/more]

Register
(18) Adskij, andreikun, artscald, Brutal, Dante_D, hate_eternal, maochen, metala, MikkeFFF, older68, realexxx75, SatanicPanzer, Spork, supremo, terron, Terrorizer, vyacheslav, wreak,
Jul 3 2022, 14:33:55 Morokh - The Triumph Of Death [ep] (2022)


*Artist: Morokh
*Album: The Triumph Of Death [ep]
*Year: 2022
*Genre: Black Metal/Hardcore
*Country: Russian Federation
*Format: mp3@CBR320kbps
*Size: 46MB

Tracklist:
1.I 00:58
2.Decay 04:36
3.II 00:58
4.The Triumph of Death 03:57
5.III 01:09
6.Pale Widow 04:03
7.IV 00:45
8.Dead Waters 03:45
******************************
Total playing time: 20:11


Preview 2

[more=Technical info]
Input File: 08. Dead Waters.mp3
Channels : 2
Sample Rate : 44100
Precision : 16-bit
Duration : 00:03:45.50 = 9944726 samples = 16912.8 CDDA sectors
File Size : 9.02M
Bit Rate : 320k
Sample Encoding: MPEG audio (layer I, II or III)
Comments :
Title=Dead Waters
Artist=Morokh
Album=The Triumph Of Death
Tracknumber=08
Year=2022
Genre=Black Metal/Hardcore

[/more]

Register
(7) artscald, dermarsoran, DMIYUR, Mencae77, VALERY, vasiljev_sergej, wreak,
Jul 3 2022, 06:03:03 Iluna Perpetua - Awake At The Deep End (2022)


*Artist: Iluna Perpetua
*Album: Awake At The Deep End
*Year: 2022
*Genre: Melodic Blackened Death Metal
*Country: Brazil
*Format: mp3@CBR320kbps
*Size: 92MB

Tracklist:
1.Worlds Below 05:42
2.Of Dogma Forever Lost 08:05
3.The Unravelling 06:36
4.AION IV:XX 01:23
5.Awake At The Deep End 05:35
6.Death Reverberates 05:10
7.Dereliction 07:24
******************************
Total playing time: 39:55



[more=Technical info]
Input File: 06 Death Reverberates.mp3
Channels : 2
Sample Rate : 44100
Precision : 16-bit
Duration : 00:05:10.59 = 13697019 samples = 23294.2 CDDA sectors
File Size : 12.5M
Bit Rate : 321k
Sample Encoding: MPEG audio (layer I, II or III)
Comments :
Title=Death Reverberates
Artist=Iluna Perpetua
Album=Awake At The Deep End
Tracknumber=06
Year=2022
Genre=Melodic Blackened Death Metal

[/more]

Register
(12) Altkiller, artscald, dermarsoran, infozahist, jared_wanted, metala, sergsazan, supremo, VALERY, wreak, zhol, Сварог Барг,
Jul 3 2022, 04:20:25 Icxitonttli - Terra Existence (2022)


*Artist: Icxitonttli
*Album: Terra Existence
*Year: 2022
*Genre: Black Metal
*Country: Mexico
*Format: mp3@CBR320kbps
*Size: 106MB

Tracklist:
1.Return of the Golden Age 05:47
2.Satan, Lord and Master 04:21
3.Astral dimensions 05:24
4.Darkness, be my guide 06:10
5.Collective shit 02:03
6.Sirius, Orion, Pleiades 05:49
7.Part II, enter cosmos... Alpha Centauri 04:13
8.Sealing our pact 05:07
9.Unconditional worship to the eternal cult to Satan 04:22
10.Sons of Satan 02:39
******************************
Total playing time: 45:55



[more=Technical info]
Input File: 03 - Astral Dimensions.mp3
Channels : 2
Sample Rate : 44100
Precision : 16-bit
Duration : 00:05:24.54 = 14312214 samples = 24340.5 CDDA sectors
File Size : 13.2M
Bit Rate : 325k
Sample Encoding: MPEG audio (layer I, II or III)
Comments :
Title=Astral Dimensions
Artist=Icxitonttli
Album=Terra Existence
Tracknumber=03
Year=2022
Genre=Black Metal

[/more]

Register
(11) artscald, dan22, dermarsoran, kim666, Mencae77, nemx, stormhatt, supremo, VALERY, vasiljev_sergej, wreak,
Jul 2 2022, 08:34:23 Intruder Incorporated - Shards Of Time (2022)


*Artist: Intruder Incorporated
*Album: Shards Of Time
*Year: 2022
*Genre: Progressive Death Metal
*Country: Russian Federation
*Format: mp3@CBR320kbps
*Size: 100MB

Tracklist:
1.Intro 01:16
2.Endo Hostile 05:47
3.Postulate 04:45
4.False Info-Hunger 04:06
5.Paranoid Control 05:43
6.Distorted Parallel 05:00
7.Imposed Verity 05:35
8.Malstrøm 05:18
9.Casting Shadows 06:08
******************************
Total playing time: 43:38



[more=Technical info]
Input File: 04 - False Info Hunger.mp3
Channels : 2
Sample Rate : 44100
Precision : 16-bit
Duration : 00:04:06.67 = 10877927 samples = 18499.9 CDDA sectors
File Size : 10.0M
Bit Rate : 325k
Sample Encoding: MPEG audio (layer I, II or III)
Comments :
Title=False Info Hunger
Artist=Intruder Incorporated
Album=Shards of Time
Tracknumber=04
Year=2022
Genre=Progressive Death Metal

[/more]

Register
(14) after21allD, alikkon, andreikun, artscald, chipsgott, Geralder, GorAtheist, infozahist, KLOP, Marek, metala, stumpheavyrock, VALERY, wreak,
Jul 2 2022, 06:59:32 Voz De Estruendo - Muros Del Silencio (2022)


*Artist: Voz De Estruendo
*Album: Muros Del Silencio
*Year: 2022
*Genre: Heavy/Power Metal
*Country: Argentina
*Format: mp3@CBR320kbps
*Size: 86MB

Tracklist:
01.Corazones de Guerra 03:26
02.Dos Caminos 04:54
03.Interrupción 03:01
04.El Muro del Silencio 03:58
05.No Temere 04:48
06.Saliendo de la Esclavitud 04:06
07.Solo en la Oscuridad 03:19
08.Transgresores 04:27
09.Una Salida 05:30
******************************
Total playing time: 37:29




[more=Technical info]
Input File: 03 - Interrupción.mp3
Channels : 2
Sample Rate : 44100
Precision : 16-bit
Duration : 00:03:01.02 = 7982762 samples = 13576.1 CDDA sectors
File Size : 7.34M
Bit Rate : 324k
Sample Encoding: MPEG audio (layer I, II or III)
Comments :
Title=Interrupción
Artist=Voz de Estruendo
Album=Muros del Silencio
Tracknumber=03
Year=2022
Genre=Heavy/Power Metal

[/more]

Register
(8) after21allD, artscald, aviacademy, boby9052, Herrant, Rover, wreak, Сварог Барг,
Jul 2 2022, 05:37:28 Nostalghia - Au Milieu De L'hiver (2022)


*Artist: Nostalghia
*Album: Au Milieu De L'hiver
*Year: 2022
*Genre: Atmospheric/Post-Black Metal
*Country: Mexico
*Format: mp3@CBR320kbps
*Size: 113MB

Tracklist:
1.Elegy 11:23
2.Le temps detruit tout 11:10
3.Liminal 12:34
4.Scent of Sleep and Tears 14:15
******************************
Total playing time: 49:22



[more=Technical info]
Input File: 03 Liminal sample.mp3
Channels : 2
Sample Rate : 44100
Precision : 16-bit
Duration : 00:02:59.29 = 7906601 samples = 13446.6 CDDA sectors
File Size : 7.17M
Bit Rate : 320k
Sample Encoding: MPEG audio (layer I, II or III)
Comments :
Title=Liminal
Artist=Nostalghia
Album=Au milieu de l'hiver
Tracknumber=03
Year=2022
Genre=Atmospheric/Post-Black Metal

[/more]

Register
(19) aleon, Altkiller, artscald, ctulhudagon, Dante_D, Dfthjji876rfhjk9o8hbjk, Geralder, kim666, lucifix, Mencae77, nemx, Olrak, sergsazan, SilentNidhogg, stormhatt, supremo, VALERY, vasiljev_sergej, wreak,
Jul 2 2022, 04:51:18 Entongue - Entongue [ep] (2022)


*Artist: Entongue
*Album: Entongue [ep]
*Year: 2022
*Genre: Death/Doom Metal
*Country: United States
*Format: mp3@CBR320kbps
*Size: 19MB

Tracklist:
1.Cinerary Secrets 01:49
2.Don't Flatter Yourself 01:58
3.ESAD 01:06
4.Throat of Erebus 03:32
******************************
Total playing time: 8:25



[more=Technical info]
Input File: 03 - ESAD.mp3
Channels : 2
Sample Rate : 44100
Precision : 16-bit
Duration : 00:01:06.80 = 2945792 samples = 5009.85 CDDA sectors
File Size : 2.85M
Bit Rate : 341k
Sample Encoding: MPEG audio (layer I, II or III)
Comments :
Title=ESAD
Artist=Entongue
Album=Chthonic Sermons
Tracknumber=03
Year=2022
Discnumber=01

[/more]

Register
(12) AndreFrancis, artscald, hell_armageddon, infozahist, Marek, quarantine, Sanctus, sergsazan, stumpheavyrock, VALERY, vyacheslav, wreak,
Jul 2 2022, 04:31:37 Clamoris - Rage, Rain Down On Them [single] (2022)


*Artist: Clamoris
*Album: Rage, Rain Down On Them [single]
*Year: 2022
*Genre: Symphonic/Melodic Death Metal
*Country: Finland
*Format: mp3@CBR320kbps
*Size: 9MB

Tracklist:
1.Rage, Rain Down on Them 03:51
******************************
Total playing time: 3:51



[more=Extended info]First single Rage, Rain Down on Them by Finnish symphonic melodic death metal band Clamoris. The track is taken from the upcoming debut album Opus Limbonica which is set to be released later in 2022 via Inverse Records.[/more]

[more=Technical info]
Input File: 01-Rage, Rain Down on Them.mp3
Channels : 2
Sample Rate : 44100
Precision : 16-bit
Duration : 00:03:51.20 = 10195876 samples = 17339.9 CDDA sectors
File Size : 9.33M
Bit Rate : 323k
Sample Encoding: MPEG audio (layer I, II or III)
Comments :
Title=Rage, Rain Down on Them
Artist=Clamoris
Album=Rage, Rain Down on Them
Tracknumber=01
Year=2022
Genre=Death Metal

[/more]

Register
(7) artscald, chipsgott, Dante_D, infozahist, quarantine, Sanctus, wreak,

100 Pages V   1 2 3 > » 
- Lo-Fi Version Support form
Copyrights and abuse reports form
Time is now: 5th July 2022 - 17:47:34