Welcome Guest ( Log In | Register )

История благодарностей участнику kefka ::: Спасибо сказали: 8547 раз(а)
Дата поста: В теме: За сообщение: Спасибо сказали:
Dec 7 2019, 13:53:50 Mortuary Drape - Buried In Time (2004)
QUOTE(Djarovich @ Dec 7 2019, 13:48:02) *
New link, please)


mp3@CBR320 kbps
Register

(4) Djarovich, kimkayoung, stumpheavyrock, thenecromancer,
Nov 11 2019, 08:00:58 Cer - Dialectic Enigma [ep] (2019)
(2) Old Vyaine, Tarkron,
Nov 2 2019, 13:15:36 Mayhem - Wolf's Lair Abyss [ep] (1997)
Mayhem - 1997 - Wolf's Lair Abyss (2019 Reissued, Expanded Edition) 320 Kbit/s - 69MB

Tracklist:
1.The Vortex Void Of Inhumanity
2.I Am Thy Labyrinth
3.Fall Of Seraphs
4.Ancient Skin
5.Symbols Of Bloodswords
6.Ancient Skin (May 1997 recording)
7.Necrolust (May 1997 recording)

Register
(4) dvlz, hellbibber, vader69, Варяг,
May 30 2019, 14:03:41 Entombed - Clandestine - Live [live] (2019)
Mirror
Register

(5) Alfredoelruso, as71, Reverend, SKuzmin, thenecromancer,
May 30 2019, 04:51:48 Entombed - Clandestine - Live [live] (2019)


*Artist: Entombed
*Album: Clandestine - Live [live]
*Year: 2019
*Genre: Death Metal
*Country: Sweden
*Format: mp3@CBR320kbps
*Size: 130MB

Tracklist:
01. Intro 00:40
02. Living Dead 04:46
03. Sinners Bleed 05:38
04. Evilyn 05:37
05. Blessed Be 05:20
06. Stranger Aeons 03:44
07. Chaos Breed 05:14
08. Crawl 05:43
09. Severe Burns 05:32
10. Through The Colonnades 05:47
11. Left Hand Path 07:37
******************************
Total playing time: 55:38



[more=Technical info]
Input File: 06 Stranger Aeons.mp3
Channels : 2
Sample Rate : 44100
Precision : 16-bit
Duration : 00:03:44.38 = 9895202 samples = 16828.6 CDDA sectors
File Size : 9.21M
Bit Rate : 328k
Sample Encoding: MPEG audio (layer I, II or III)
Comments :
Title=Stranger Aeons
Artist=Entombed
Album=Clandestine - Live
Tracknumber=06/11
Year=2019
Genre=Death Metal
Discnumber=1/1

[/more]

Register
(28) AHBAnep, Aresson, BERZERK, caro, cesar, Dmitry1977, Emhyr var Emreis, ForzaMinardi1977, FUDEDOR, Guns, Hell_Is_Here, igore2911, legion01, marilin, Old Vyaine, Olethros, Ostinato, realexxx75, recber, ripper33, Rosen, SadistikSlayer, TeamatSE, thenecromancer, VALERY, wreak, wtk.412, WX419,
May 10 2019, 16:26:42 Sabbat - Dreamweaver - Reflections Of Our Yesterdays (Expanded Edition) (2007)
QUOTE(PanzerDivisionMarduk @ Mar 30 2018, 18:34:31) *
Re-upload please.


320Kbit/s - 146MB
Register
(2) Golfzilla, Phantom_Voodoo,
May 6 2019, 03:54:54 Usurper - Cryptobeast (2005)
QUOTE(PanzerDivisionMarduk @ May 6 2019, 01:44:37) *
Please reupload.


From the web
Register
(4) Alfredoelruso, Gatherforattack, hellbibber, juand,
May 6 2019, 03:47:26 Usurper - Necronemesis (2000)
QUOTE(PanzerDivisionMarduk @ May 6 2019, 01:44:05) *
Please reupload.


from the web
Register
(2) juand, wendigo,
Apr 7 2019, 06:11:02 Necrodeath - Defragments Of Insanity (2019)
Additional link
Register
(8) DarkHorde, dermarsoran, lucifix, martintrue, Narasimha, oldthrashman, vov7609, wtk.412,
Apr 7 2019, 04:36:56 Necrodeath - Defragments Of Insanity (2019)


*Artist: Necrodeath
*Album: Defragments Of Insanity
*Year: 2019
*Genre: Black/Death/Thrash Metal
*Country: Italy
*Format: mp3@CBR320kbps
*Size: 79MB

Tracklist:
1. Choose Your Death 05:05
2. Thanatoid 04:40
3. State of Progressive Annihilation 04:14
4. Metempsychosis 03:50
5. Fragments of Insanity 04:41
6. Enter My Subconscious 04:33
7. Stillbirth 04:06
8. Eucharistical Sacrifice 03:37
******************************
Total playing time: 34:46

[more=Technical info]
Input File: 4 - Metempsychosis.mp3
Channels : 2
Sample Rate : 44100
Precision : 16-bit
Duration : 00:03:47.77 = 10044833 samples = 17083 CDDA sectors
File Size : 9.18M
Bit Rate : 322k
Sample Encoding: MPEG audio (layer I, II or III)
Comments :
Title=Metempsychosis
Artist=Necrodeath
Album=Defragments Of Insanity
Tracknumber=4
Year=2019
Genre=Alternative/Rock
Discnumber=1

[/more]

Register
(35) Asketto, avkruchinin, Beazth, BERZERK, cancer1974, cesar, cist, DarkHorde, Evilded, fishish, ForzaMinardi1977, fuoco, Hell_Is_Here, insufferable, lestllk, marilin, METALHUNTER, MMMMM, morbidangelo, oldvarg, Olethros, Paradayz, pensiata, Razorbladeswaltz, ripper33, Rosen, SadistikSlayer, Tino, Tular, VALERY, Vladimir, vov7609, wgs73, wn129aa, WX419,
Apr 4 2019, 06:56:53 Ad Inferna - Des Diables Et Des Dieux (2019)


*Artist: Ad Inferna
*Album: Des Diables Et Des Dieux
*Year: 2019
*Genre: Blackened Gothic Metal
*Country: France
*Format: mp3@CBR320kbps
*Size: 85MB

Tracklist:
1. Aurora 03:49
2. Divination 03:08
3. Vers d'autres cieux 03:41
4. L'Oeuvre du diable 03:20
5. Metal noir 03:37
6. In Fine (album version) 05:16
7. Mon epitaphe 04:53
8. Le chant des hérétiques 04:43
9. Maximum Drama 07:39
******************************
Total playing time: 40:06



[more=Extended info]Line-up :
V. Orias A. (VoA VoXyD): guitars, keyboards
Vicomte Vampyr Arkames: vocals
Asmody: bass
N. Aboriim: drums[/more]

[more=Technical info]
Input File: 02 - Divination.mp3
Channels : 2
Sample Rate : 44100
Precision : 16-bit
Duration : 00:03:08.54 = 8314570 samples = 14140.4 CDDA sectors
File Size : 7.64M
Bit Rate : 324k
Sample Encoding: MPEG audio (layer I, II or III)
Comments :
Title=Divination
Artist=Ad Inferna
Album=Des diables et des dieux
Tracknumber=02
Year=2019
Genre=Industrial | Gothic Metal

[/more]

Register
(20) Alpha_Prime, BERZERK, infiltrator, infozahist, judaz, lestllk, metala, Mogozoz, Morthal, Olethros, ripper33, Rosen, sadmannn, Shadechaser, sta1081, TeamatSE, vasiljev_sergej, wn129aa, Woosad, zhol,
Jan 5 2019, 05:21:43 Kalmankantaja - Kuoleman Kehtolaulut 2014-2017 [compilation] (2019)
Compiles all previously released split material.
Released by GS Production as a 3CD limited to 100. Free to download.
(2) chromeskull88, dermarsoran,
Dec 13 2018, 11:55:44 Strigoii - The Oldest Of Blood (2018)
(1) vosmidesijatye,
Dec 6 2018, 05:57:05 Deiquisitor - Promo 2018 [promo] (2018)
Excellent Death Metal with morbid and necro sound!
Order this tape limited to 200 copies here:
Extremely Rotten Production
(2) FUDEDOR, Ostinato,
Oct 7 2018, 08:14:45 Various ‎– Far East Gate In Inferno
Various ‎– Far East Gate In Inferno CD 1994
Anyone has this hard to find compilation?
Discogs
(1) pichileon,
Sep 9 2018, 17:41:14 Rundagor - Beastreal (2018)
QUOTE(Borderline1991 @ Sep 9 2018, 18:29:42) *
Isn't the correct title "The Beastrealm"?

"Beastreal" is not even a real word...

And did you mix up the track titles? Shouldn't order of tracks be like on discogs?


"Beastrealm"is correct, the m was missed in the copy paste process i have updated the file
(1) Borderline1991,
Sep 9 2018, 09:16:39 Rundagor - Beastreal (2018)
Additional link
Register
(10) Amsterdam, Fess, Goatrex, nikolay81, Ostinato, princeshr, sandr666, stub888, thenecromancer, Wail,
Sep 9 2018, 07:27:15 Rundagor - Beastreal (2018)


*Artist: Rundagor
*Album: Beastreal
*Year: 2018
*Genre: Black Metal
*Country: Russian Federation
*Format: mp3@CBR320kbps
*Size: 107MB

Tracklist:
01. Journey in Return 07:49
02. Beastrealm 08:53
03. A Blaze 08:51
04. Only Memory 09:03
05. Embrace a Vast 04:05
06. Outro 08:08
******************************
Total playing time: 46:49

Preview 1

[more=Extended info]This album remained unreleased for 21 years.
Housed in a jewel case with an 8-page lyrics booklet with UV lacquer finish print.
Recorded in 1997 a.y.p.s. at BlazeBirth Hall.[/more]

[more=Technical info]
Input File: 03-A Blaze cut.mp3
Channels : 2
Sample Rate : 44100
Precision : 16-bit
Duration : 00:01:44.05 = 4588473 samples = 7803.53 CDDA sectors
File Size : 4.16M
Bit Rate : 320k
Sample Encoding: MPEG audio (layer I, II or III)

[/more]

Register
(52) 0x13, 1968_janeart, abob, acerbus, ambre, andeimon, Aresson, auneddu, Boozer, Borderline1991, Chasm, Fatalist77791, garmonbozia, Goatrex, Ildjarn, INDARKNESS, judaz, kauyumari, kim666, Korpse, LazarShadow, LEGION69, Lucifer, lucifix, luxxul, metaljinie, nsk2008, Ostinato, princeshr, rabindranad, rammstein888, recber, Rosen, RUSP73, sandr666, sethurius, SilentNidhogg, stub888, thenecromancer, the_cleanser, Thunderbird, tOmV, VALERY, varg-38ru, varlam4, vasiljev_sergej, vdolghi, Wolftribes, xska, ZA670, ZambuL, Авел,
Sep 1 2018, 13:55:35 Cult Of Flesh - Nihil (2018)
Preview
(2) libertine, singrad,
Aug 26 2018, 07:42:36 Psyclon Nine - Icon Of The Adversary (2018)


*Artist: Psyclon Nine
*Album: Icon Of The Adversary
*Year: 2018
*Genre: Blackened Industrial Metal
*Country: United States
*Format: mp3@CBR320kbps
*Size: 107MB

Tracklist:
1.Christsalis 02:21
2.Crown Of The Worm 05:49
3.The Light Of Armageddon 02:56
4.Beware The Wolves 03:52
5.Warm What's Hollow 04:28
6.Behold An Icon 01:53
7.When The Last Stars Die 03:55
8.And With Fire 05:04
9.Give Up The Ghost 02:55
10.The Last 14:24
******************************
Total playing time: 47:37



[more=Extended info]Psyclon Nine presents the long-awaited "Icon of the Adversary". Blending concussive, machine-precise drums, hammering guitars, scathing vocals & evil electronics, the band is the epitome of dark metal industrial.[/more]

[more=Technical info]
Input File: 3 The Light Of Armageddon.mp3
Channels : 2
Sample Rate : 44100
Precision : 16-bit
Duration : 00:00:53.03 = 2338579 samples = 3977.18 CDDA sectors
File Size : 2.12M
Bit Rate : 320k
Sample Encoding: MPEG audio (layer I, II or III)

[/more]

Register
(10) garmonbozia, gwar, Hell_Is_Here, Konst, Mirddin, Ostinato, scrollbar, sethurius, VALERY, wtk.412,
Aug 12 2018, 07:07:31 Dub Buk - Under The Solar Sign [ep] (2002)
QUOTE(Slavas @ Aug 11 2018, 14:59:45) *
Please re-up the correct version (with Graveland cover)!


320 Kbit/s - 25 MB. Originally uploaded by legendary kult blog Wotanmituns
Register
(4) Aresson, Slavas, varg-38ru, vasiljev_sergej,
Aug 11 2018, 14:47:07 Odal - Traitor [ep] (2001)
QUOTE(Slavas @ Aug 11 2018, 14:36:39) *
Please re-up


320Kbit/s - 25 MB
Register
(6) kim666, Ostinato, RUSP73, Slavas, varg-38ru, vasiljev_sergej,
Aug 11 2018, 14:37:24 Odal - Fimbul Winter [ep] (2002)
QUOTE(Slavas @ Aug 11 2018, 14:37:06) *
Please re-up


320Kbit/S - 24MB
Register
(6) kim666, Ostinato, RUSP73, Slavas, varg-38ru, vasiljev_sergej,
Aug 11 2018, 14:07:58 Funeral Fog - Beyond A Bloodstained Moon [demo] (1997)
Kult!! Funeral Fog later evolved in the mighty Maldoror... Thanx for this forgotten jewel.... 9.gif
(2) Dead666, Occultas,
Aug 5 2018, 17:34:53 Peter Andersson - Timewaves (2018)


*Artist: Peter Andersson
*Album: Timewaves
*Year: 2018
*Genre: Dark Ambient, Industrial
*Country: Sweden
*Format: mp3@CBR320kbps
*Size: 141MB

Tracklist:
1.The Obsolete Work of Iron 06:36
2.On the Brink of Death, in Mud under Barbed Wires 11:14
3.Cold Attempts of a Blissful Obliteration 13:59
4.At Night I Wish I Fall Asleep 13:59
5.Any Second Industrial Insurgence 13:00
6.Time to Wonder 04:50
******************************
Total playing time: 1:03:38



[more=Extended info]Peter Andersson (Sweden) is most known for the dark ambient project raison d'être and a bunch of other projects like Stravtm Terror, Atomine Elektrine and Bocksholm (a collaboration project with Deutsch Nepal). Sometimes he releases albums under his personal name, mostly music for museum exhibitions and short movies. The majority of the tracks on Timewaves has been used in various exhibitions in some Swedish museums. This time the music is a bit darker, more industrial and experimental than previous exhibition albums from Peter Andersson, but still enigmatic.[/more]

[more=Technical info]
Input File: 01 - The Obsolete Work of Iron - - Senza Titolo1.mp3
Channels : 2
Sample Rate : 44100
Precision : 16-bit
Duration : 00:01:27.04 = 3838508 samples = 6528.07 CDDA sectors
File Size : 3.48M
Bit Rate : 320k
Sample Encoding: MPEG audio (layer I, II or III)

[/more]

Register
(10) Emhyr var Emreis, gena, Hell_Is_Here, Hipgnosis, michelver, milosdjor, princeshr, Qliphoth, Wolftribes, wtk.412,

29 Pages V   1 2 3 > » 
- Lo-Fi Version Support form
Copyrights and abuse reports form
Time is now: 30th March 2020 - 02:38:20