Welcome Guest ( Log In | Register )

История благодарностей участнику icingsugar ::: Спасибо сказали: 542 раз(а)
Дата поста: В теме: За сообщение: Спасибо сказали:
May 15 2020, 16:27:44 Circle Of Dust - Machines Of Our Disgrace (2016)


*Artist: Circle Of Dust
*Album: Machines Of Our Disgrace
*Year: 2016
*Genre: Electronic Rock/Industrial Metal
*Country: United States
*Format: mp3@CBR320kbps
*Size: 134MB

Tracklist:
1. re_Engage 01:20
2. Machines of Our Disgrace 05:26
3. Contagion 05:25
4. Embracing Entropy (feat. Celldweller) 06:54
5. Humanarchy 05:00
6. Signal 00:31
7. alt_Human 05:01
8. Hive Mind 05:57
9. Outside In 06:16
10. Neurachem 04:45
11. k_OS 03:31
12. Neophyte 06:00
13. Malacandra 06:04
******************************
Total playing time: 1:02:10




[more=Technical info]
Input File: 02. Circle of Dust - Machines of Our Disgrace.mp3
Channels : 2
Sample Rate : 44100
Precision : 16-bit
Duration : 00:05:25.98 = 14375586 samples = 24448.3 CDDA sectors
File Size : 13.3M
Bit Rate : 325k
Sample Encoding: MPEG audio (layer I, II or III)
Comments :
Title=Machines of Our Disgrace
Artist=Circle of Dust
Album=Machines of Our Disgrace
Tracknumber=2
Year=2016

[/more]

Register
(4) gwar, infiltrator, Olethros, popen13,
Feb 15 2020, 09:07:03 Null Positiv - Amok (2018)


*Artist: Null Positiv
*Album: Amok
*Year: 2018
*Genre: Nu Metal
*Country: Germany
*Format: mp3@CBR320kbps
*Size: 140MB

Tracklist:
01. Psychopath 4:08
02. Trauma 4:10
03. Amok 4:41
04. Schizo 3:39
05. Neue Matrix 4:07
06. Als ob wir Götter wären 6:48
07. Hexenjagd 4:58
08. König Ego 4:09
09. Turm der Angst 5:09
10. Unter deiner Haut 3:43
11. Borderliner 3:40
12. Scars 5:26
13. Rabenhaar 5:02
******************************
Total playing time: 59:40

[more=Extended info]Band:
Vocals - Elli Berlin
Guitar - Bene Gugerbauer
Drums - Flo Schnablo
Bass - Manu Aldor

[youtube]r3VVyNp1ANI[/youtube][/more]

[more=Technical info]
Input File: 01 Psychopath.mp3
Channels : 2
Sample Rate : 44100
Precision : 16-bit
Duration : 00:04:08.54 = 10960702 samples = 18640.6 CDDA sectors
File Size : 10.2M
Bit Rate : 330k
Sample Encoding: MPEG audio (layer I, II or III)
Comments :
Title=Psychopath
Artist=Null Positiv
Album=Amok
Tracknumber=01/13
Year=2018
Genre=Metal
Discnumber=1/1

[/more]

Register
(3) gwar, infiltrator, Olethros,
Feb 23 2019, 18:13:11 Mass Hysteria - Maniac (2018)


*Artist: Mass Hysteria
*Album: Maniac
*Year: 2018
*Genre: Nu-Metal/Frenchcore
*Country: France
*Format: mp3@CBR320kbps
*Size: 93MB

Tracklist:
1 Reprendre mes esprits 02:51
2 Ma niaque 02:59
3 Partager nos ombres 04:00
4 L'antre ciel ether 03:47
5 Chaman acide 03:35
6 Se bruler sûrement 03:44
7 Nerf de boeuf 04:32
8 Aromes complexes 03:56
9 Derriere la foudre 05:15
10 We Came to Hold Up Your Mind 04:19
******************************
Total playing time: 38:58

[more=Extended info][youtube]dgbKrfsaSKA[/youtube][/more]

[more=Technical info]
Input File: 01 - Reprendre mes esprits.mp3
Channels : 2
Sample Rate : 44100
Precision : 16-bit
Duration : 00:02:51.58 = 7566722 samples = 12868.6 CDDA sectors
File Size : 7.05M
Bit Rate : 329k
Sample Encoding: MPEG audio (layer I, II or III)
Comments :
Title=Reprendre mes esprits
Artist=Mass Hysteria
Album=Maniac
Tracknumber=01
Year=2018
Genre=Nu-Metal | Frenchcore

[/more]

Register
(3) gwar, Lord_Hip, Victim of fate,
Jan 5 2019, 09:38:52 Jtr Sickert - Etoile (2016)


*Artist: Jtr Sickert
*Album: Etoile
*Year: 2016
*Genre: Industrial/Gothic Metal
*Country: Italy
*Format: mp3@CBR320kbps
*Size: 102MB

Tracklist:
1. Snooty Queen 05:43
2. Beta's 04:27
3. The Quest for God 03:58
4. Oblivion 04:26
5. Enjoy a New Leader 04:26
6. Mood Disorder 03:48
7. Etoile 05:04
8. More 05:12
9. A Great Dope World 04:49
10. More Part II (Life Runs Red remix) 06:15
******************************
Total playing time: 48:08

[more=Extended info][youtube]pulvfaFJ2y4[/youtube][/more]

[more=Technical info]
Input File: 01. Snooty Queen.mp3
Channels : 2
Sample Rate : 44100
Precision : 16-bit
Duration : 00:05:43.74 = 15158978 samples = 25780.6 CDDA sectors
File Size : 13.8M
Bit Rate : 322k
Sample Encoding: MPEG audio (layer I, II or III)
Comments :
Title=Snooty Queen
Artist=JTR Sickert
Album=Etoilй
Tracknumber=1
Year=2016
Genre=Industrial Metal, Gothic Metal
Discnumber=1

[/more]

Register
(11) artscald, Cartman223, csgmnk, gwar, gwynnbleid, metala, Olethros, Rosen, satanist666, VALERY, varlam4,
Oct 3 2017, 11:35:33 Machines On Blast - Tin Man Empire (2016)


*Artist: Machines On Blast
*Album: Tin Man Empire
*Year: 2016
*Genre: Dark Electro/EBM/Industrial Metal
*Country: United States
*Format: mp3@CBR320kbps
*Size: 164MB

Tracklist:
01. Chemical Coma 4:20
02. Bathe In The Blood Of Our Enemies 6:00
03. The One 4:48
04. Breathe 7:38
05. Self-Righteous Affliction 5:39
06. My Friend Misery 4:24
07. Let Go 5:11
08. Salvation 6:28
09. Automation 4:51
10. The Killer 6:04
11. Repeating 5:32
12. Feast 4:12
13. Rise Up 5:20
******************************
Total playing time: 1:10:27

[more=Extended info][youtube]2a6su2usziQ[/youtube][/more]

[more=Technical info]
Input File: 01. Chemical Coma.mp3
Channels : 2
Sample Rate : 44100
Precision : 16-bit
Duration : 00:04:19.63 = 11449771 samples = 19472.4 CDDA sectors
File Size : 10.7M
Bit Rate : 329k
Sample Encoding: MPEG audio (layer I, II or III)
Comments :
Title=Chemical Coma
Artist=Machines On Blast
Album=Tin Man Empire
Tracknumber=01/13
Year=2016
Genre=Electronic

[/more]

Register
(2) gwar, satanist666,
Jun 8 2017, 08:11:37 Alaska - Subsequent (2016)


*Artist: Alaska
*Album: Subsequent
*Year: 2016
*Genre: Progressive Metalcore
*Country: France
*Format: mp3@CBR320kbps
*Size: 74MB

Tracklist:
01. Hegemony 3:10
02. The Mission 4:02
03. Midnight Sun 3:19
04. Blue Castle 3:41
05. Nine Lives 3:48
06. Juvenoia 2:49
07. In Search of Lost Time 3:34
08. Self Defeating 3:56
09. Preface to Disaster 4:02
******************************
Total playing time: 32:21

[more=Extended info][youtube]qq8o-XOn12c[/youtube][/more]

[more=Technical info]
Input File: 06. Juvenoia.mp3
Channels : 2
Sample Rate : 44100
Precision : 16-bit
Duration : 00:02:48.69 = 7439273 samples = 12651.8 CDDA sectors
File Size : 6.78M
Bit Rate : 321k
Sample Encoding: MPEG audio (layer I, II or III)
Comments :
Title=Juvenoia
Artist=Alaska
Album=Subsequent
Tracknumber=06/09
Year=2016
Genre=Progressive Metalcore / Post-Hardcore

[/more]

Register
(5) leonardo, maochen, metala, Rosen, SymbyoticEntity,
Apr 2 2017, 07:39:35 The Charm The Fury - The Sick, Dumb & Happy (2017)


*Artist: The Charm The Fury
*Album: The Sick, Dumb & Happy
*Year: 2017
*Genre: Metalcore
*Country: Netherlands
*Format: mp3@CBR320kbps
*Size: 96MB

Tracklist:
01. Down on the Ropes 3:24
02. Echoes 4:39
03. Weaponized 3:54
04. No End in Sight 3:56
05. Blood and Salt 5:11
06. Corner Office Maniacs 0:55
07. The Future Need Us Not 3:30
08. Silent War 4:11
09. The Hell in Me 4:00
10. Songs of Obscenity 4:12
11. Break and Dominate 4:18
******************************
Total playing time: 42:10

[more=Extended info]Caroline Westendorp – vocals (since 2010)
Lucas Arnoldussen – bass (since 2010)
Mathijs Tieken – drums (since 2010)
Rolf Perdok – lead guitar (since 2011)
Martijn Slegtenhorst – rhythm guitar (since 2016)[/more]

[more=Technical info]
Input File: 01. Down on the Ropes.mp3
Channels : 2
Sample Rate : 44100
Precision : 16-bit
Duration : 00:03:23.73 = 8984273 samples = 15279.4 CDDA sectors
File Size : 8.33M
Bit Rate : 327k
Sample Encoding: MPEG audio (layer I, II or III)
Comments :
Title=Down on the Ropes
Artist=The Charm The Fury
Album=The Sick, Dumb & Happy
Tracknumber=01/11
Year=2017
Genre=Metalcore
Discnumber=1/1

[/more]

Register
(2) djsema4, Rosen,
Jan 31 2017, 10:53:37 Feed The Rhino - Mr. Red Eye (2010)


*Artist: Feed The Rhino
*Album: Mr. Red Eye
*Year: 2010
*Genre: Metalcore
*Country: United Kingdom
*Format: mp3@CBR320kbps
*Size: 82MB

Tracklist:
01. The Butchers 03:21
02. The Caller Of The Town 03:56
03. Transistor Down 02:56
04. Sitting Ducks 03:37
05. Diary Of Cards 03:36
06. One For The Ponces 02:34
07. Empty Mirrors 03:54
08. Mr. Red Eye 02:47
09. Lambs To The Slaughter/Priests At The Alter 03:34
10. No-Where Lane 02:44
11. Rotten Apple 03:08
******************************
Total playing time: 36:07

[more=Technical info]
Input File: 01. The Butchers.mp3
Channels : 2
Sample Rate : 44100
Precision : 16-bit
Duration : 00:03:21.22 = 8873670 samples = 15091.3 CDDA sectors
File Size : 8.11M
Bit Rate : 323k
Sample Encoding: MPEG audio (layer I, II or III)
Comments :
Title=The Butchers
Artist=Feed The Rhino
Album=Mr. Red Eye
Tracknumber=1
Year=2010-10-20
Genre=Yardcore

[/more]

Register
(2) Rosen, varlam4,
Jan 31 2017, 10:49:32 Feed The Rhino - The Burning Sons (2012)


*Artist: Feed The Rhino
*Album: The Burning Sons
*Year: 2012
*Genre: Metalcore
*Country: United Kingdom
*Format: mp3@CBR320kbps
*Size: 93MB

Tracklist:
01. Flood The System 03:16
02. Nothing Lost 02:56
03. The Burning Sons 04:46
04. I Am The Curse, I Am The Cure 02:48
05. Kings Of Grand Delusion 03:49
06. Song Of Failure 03:05
07. Razor 03:19
08. Left For Ruins 03:18
09. Fountains 03:35
10. Death Of The Swine 02:41
11. Tides 04:04
12. The Compass 02:39
******************************
Total playing time: 40:16

[more=Technical info]
Input File: 01. Flood The System.mp3
Channels : 2
Sample Rate : 44100
Precision : 16-bit
Duration : 00:03:16.07 = 8646687 samples = 14705.2 CDDA sectors
File Size : 7.91M
Bit Rate : 323k
Sample Encoding: MPEG audio (layer I, II or III)
Comments :
Title=Flood The System
Artist=Feed The Rhino
Album=The Burning Sons
Tracknumber=1
Year=2012
Genre=Hardcore

[/more]

Register
(2) Rosen, varlam4,
Jan 31 2017, 10:43:49 Feed The Rhino - The Sorrow And The Sound (2014)


*Artist: Feed The Rhino
*Album: The Sorrow And The Sound
*Year: 2014
*Genre: Metalcore
*Country: United Kingdom
*Format: mp3@CBR320kbps
*Size: 89MB

Tracklist:
01. New Wave 02:52
02. Give Up 02:45
03. Behind The Pride 03:16
04. Black Horse 03:56
05. Finish The Game 03:29
06. Revelation Not Revolution 04:41
07. Set Sail For Treason 03:25
08. Deny And Offend 03:01
09. The Sorrow And The Sound 04:48
10. Bright Side Of A Dark Ride 03:06
11. Keep Your Purpose Hitman 02:49
12. Another Requiem 02:59
******************************
Total playing time: 41:07

[more=Technical info]
Input File: 01. New Wave.mp3
Channels : 2
Sample Rate : 44100
Precision : 16-bit
Duration : 00:02:52.95 = 7627051 samples = 12971.2 CDDA sectors
File Size : 6.99M
Bit Rate : 323k
Sample Encoding: MPEG audio (layer I, II or III)
Comments :
Title=New Wave
Artist=Feed The Rhino
Album=The Sorrow And The Sound
Tracknumber=1
Year=2014
Genre=Hardcore

[/more]

Register
(2) Rosen, varlam4,
Oct 10 2016, 18:34:52 Arma Dre - Kingdom Come [ep] (2016)


*Artist: Arma Dre
*Album: Kingdom Come [ep]
*Year: 2016
*Genre: Industrial/EBM/Ethnic/Dubstep
*Country: Poland
*Format: mp3@CBR320kbps
*Size: 61MB

Tracklist:
01. I'm the One 2:14
02. Hunting Season 2:54
03. In Fire 2:58
04. Newfound Forces 4:32
05. Reincarnation 3:04
06. Dark like a Shark 2:56
07. Kingdom Come 3:06
08. Killing Spree 2:30
09. London 1880 (The Cello by Marie Duval Le Camus) 2:20
******************************
Total playing time: 26:34

[more=Extended info]Arma Dre - независимая польская музыкальная студия (с 2016 года). Главным композитором является Вацлав Бижевски, который продолжает радовать своих слушателей необычными композициями и взглядами на все возможные музыкальные жанры.[/more]

[more=Technical info]
Input File: 01. Arma Dre - I\'m the One.mp3
Channels : 2
Sample Rate : 44100
Precision : 16-bit
Duration : 00:02:14.00 = 5909268 samples = 10049.8 CDDA sectors
File Size : 5.36M
Bit Rate : 320k
Sample Encoding: MPEG audio (layer I, II or III)
Comments :
Title=I'm the One
Artist=Arma Dre
Album=Kingdom Come
Tracknumber=1
Year=2016

[/more]

Register
(1) lucifix,
Aug 9 2016, 18:22:29 Super Bob - Super Bob (2011)


*Artist: Super Bob
*Album: Super Bob
*Year: 2011
*Genre: Nu-Metal/Rapcore/Crossover
*Country: United States
*Format: mp3@CBR320kbps
*Size: 84MB

Tracklist:
01. Superfly 3:02
02. Freak 3:42
03. Popstar 3:16
04. Hollywood 3:30
05. Father Father 3:24
06. HAM 3:50
07. Mr. 3:18
08. Dubstrumental 2:43
09. Capital D 3:20
10. Role Model 3:07
11. Chris Brown 3:26
******************************
Total playing time: 36:38

[more=Extended info][youtube]f5ZrIIwSE70[/youtube]

[youtube]O5arRZmsy-Y[/youtube][/more]

[more=Technical info]
Input File: 01 - Superfly.mp3
Channels : 2
Sample Rate : 44100
Precision : 16-bit
Duration : 00:03:02.46 = 8046442 samples = 13684.4 CDDA sectors
File Size : 7.30M
Bit Rate : 320k
Sample Encoding: MPEG audio (layer I, II or III)
Comments :
Title=Superfly
Artist=Super Bob
Album=Super Bob
Tracknumber=1
Year=2011
Genre=139

[/more]

Register
(1) AndreFrancis,
Jun 8 2016, 12:37:46 Tides From Nebula - Safehaven (2016)


*Artist: Tides From Nebula
*Album: Safehaven
*Year: 2016
*Genre: Instrumental Post Rock
*Country: Poland
*Format: mp3@CBR320kbps
*Size: 100MB

Tracklist:
01. Safehaven 5:32
02. Knees to the Earth 5:17
03. All the Steps I've Made 4:48
04. The Lifter 6:05
05. Traversing 6:29
06. Colour of Glow 3:31
07. We Are the Mirror 5:48
08. Home 6:21
******************************
Total playing time: 43:51

[more=Extended info][youtube]6czLEggjJxo[/youtube][/more]

[more=Technical info]
Input File: 04 - The Lifter.mp3
Channels : 2
Sample Rate : 44100
Precision : 16-bit
Duration : 00:06:04.71 = 16083535 samples = 27353 CDDA sectors
File Size : 14.8M
Bit Rate : 324k
Sample Encoding: MPEG audio (layer I, II or III)
Comments :
Title=The Lifter
Artist=Tides From Nebula
Album=Safehaven
Tracknumber=04/08
Year=2016
Genre=Post-Rock

[/more]

Register
(4) 0x13, dermarsoran, sweetredka, Txape,
Jun 1 2016, 22:07:44 The Charm The Fury - A Shade Of My Former Self (2013)


*Artist: The Charm The Fury
*Album: A Shade Of My Former Self
*Year: 2013
*Genre: Metalcore
*Country: Netherlands
*Format: mp3@CBR320kbps
*Size: 98MB

Tracklist:
01. The Unveiling 1:56
02. A Testament 3:18
03. Carte Blanche 3:46
04. A Shade Of My Former Self 4:23
05. The Enemy (Feat. Jamie Graham) 4:12
06. Colorblind (Feat. Danil De Jongh) 3:12
07. In The Wake Of Pride 1:43
08. Living Saints 3:23
09. Heartless, Breathless 3:40
10. Virtue Of Leadership 3:42
11. A New State Of Mind 4:03
12. Deliverance 4:16
******************************
Total playing time: 41:34

[more=Extended info]Caroline Westendorp – vocals
Mathijs Tieken – drums
Mathijs Parent – guitar
Rolf Perdok – guitar
Lucas Arnoldussen – bass


[youtube]Ri5qMMonxrE[/youtube]

[youtube]kefcxPHJYi0[/youtube][/more]

[more=Technical info]
Input File: 02. A Testament.mp3
Channels : 2
Sample Rate : 44100
Precision : 16-bit
Duration : 00:03:17.69 = 8718129 samples = 14826.8 CDDA sectors
File Size : 7.99M
Bit Rate : 323k
Sample Encoding: MPEG audio (layer I, II or III)
Comments :
Title=A Testament
Artist=The Charm The Fury
Album=A Shade Of My Former Self
Tracknumber=2/12
Year=2013
Genre=Metalcore / Post-Hardcore

[/more]

Register
(3) Ostinato, Rosen, varlam4,
Mar 8 2016, 11:09:30 Last Red Ransom - Sleep Well Sweet Vanity (2010)


*Artist: Last Red Ransom
*Album: Sleep Well Sweet Vanity
*Year: 2010
*Genre: Nu-Metal
*Country: United States
*Format: mp3@CBR320kbps
*Size: 107MB

Tracklist:
01. Make Up 5:04
02. Seamstress 4:18
03. Black Gospel 5:43
04. One Word 4:29
05. Passport 2:00
06. Always Been 3:53
07. Synthetic Sleep 4:31
08. October 3:30
09. Lay Down 4:35
10. Stay 4:19
11. Empire 3:26
******************************
Total playing time: 45:48

[more=Extended info][youtube]dnNz9lEeYBE[/youtube]
[youtube]S3xT6H0-OdQ[/youtube][/more]

[more=Technical info]
Input File: 01 - Make Up.mp3
Channels : 2
Sample Rate : 44100
Precision : 16-bit
Duration : 00:05:04.59 = 13432551 samples = 22844.5 CDDA sectors
File Size : 12.3M
Bit Rate : 324k
Sample Encoding: MPEG audio (layer I, II or III)
Comments :
Title=Make Up
Artist=Last Red Ransom
Album=Sleep Well Sweet Vanity
Tracknumber=01/11
Year=2010
Genre=Alternative Metal / Nu Metal / Electronic
Discnumber=1

[/more]

Register
(3) Buregon, gwynnbleid, snot,
Mar 8 2016, 09:50:07 Last Red Ransom - Snubnose (2015)


*Artist: Last Red Ransom
*Album: Snubnose
*Year: 2015
*Genre: Industrial/Alternative Metal/Electronic
*Country: United States
*Format: mp3@CBR320kbps
*Size: 82MB

Tracklist:
01. The Electric Sky (Digital Sunshine) 03:40
02. Burning Buildings 04:32
03. Been Dead Before 03:55
04. Lanterns (Snubnose Mix) 04:45
05. Giants 03:48
06. The Living Trust 02:45
07. Etch 01:52
08. Welcome To America 02:52
09. The House 03:23
10. One Word (Sparrow Remix) 04:25
******************************
Total playing time: 35:57

[more=Extended info]Andrew Saint Woods - Vocals, Guitars, Keyboards, Programming
C.K. Woods - Vocals, Keyboards, Guitars, Programming
Zakk Morrow - Bass
Lance Adair - Drums


[youtube]qycimWySfKM[/youtube][/more]

[more=Technical info]
Input File: 01 The Electric Sky (Digital Sunshine).mp3
Channels : 2
Sample Rate : 44100
Precision : 16-bit
Duration : 00:03:40.84 = 9738868 samples = 16562.7 CDDA sectors
File Size : 8.90M
Bit Rate : 322k
Sample Encoding: MPEG audio (layer I, II or III)
Comments :
Title=The Electric Sky (Digital Sunshine)
Artist=Last Red Ransom
Album=Snubnose
Tracknumber=01/10
Year=2015
Genre=Alternative
Discnumber=1/1

[/more]

Register
(3) Buregon, gwynnbleid, snot,
Jan 29 2016, 12:51:11 Arma Dre - Oxygen (2014)


*Artist: Arma Dre
*Album: Oxygen
*Year: 2014
*Genre: Industrial/EBM/Dubstep
*Country: Poland
*Format: mp3@CBR320kbps
*Size: 182MB

Tracklist:
01. Night Raid 4:23
02. Journey to the West (Total Eclipse) 3:28
03. Girl with Tattoo 2:40
04. Broken Memoriez 5:09
05. Angel whom I will love! 4:37
06. Rush 4:10
07. Deathmatch (Idea by Sergey Kotov) 4:36
08. Combat Evolved (feat. Dr. StuRm) 3:45
09. Cyber City 4:13
10. Join Me (Yuki Kobayashi) 3:33
11. Reborn in the age of Blood 3:32
12. Stage of Oblivion 3:56
13. Special Mission 2:24
14. Unbidden Souls 3:09
15. Unusual Journey 3:07
16. Way in the sky 2:51
17. Unit of my War! 2:38
18. Girl with Tattoo (Instrumental) 2:40
19. Northern Kingdom (Freja Johansen) 4:10
20. BioExtatic - Child of Eden 3:08
******************************
Total playing time: 1:12:09

[more=Extended info]Франко немецкая группа, которая пишет композиции в разных направлениях, начиная от индастриала и заканчивая дабстепом. Главой проекта как и четырех своих остальных (BioExtatic, Scream Bird, Dr. Sturm, Quallen) считается польский музыкант Вацлав Бижевски, который собрал в своей студии разных сторонников многих музыкальных течений и записал альбомы самого разнопланового характера. Также Вацлав сообщил, что музыку его студии, люди могут использовать в коммерческих целях, (реклама, компьютерные игры, видеоклипы) но без изменения названия и исполнителя треков.[/more]

[more=Technical info]
Input File: 01. Arma Dre - Night Raid.mp3
Channels : 2
Sample Rate : 48000
Precision : 16-bit
Duration : 00:04:23.31 = 12638736 samples ~ 19748 CDDA sectors
File Size : 11.5M
Bit Rate : 351k
Sample Encoding: MPEG audio (layer I, II or III)
Comments :
Title=Night Raid
Artist=Arma Dre
Album=Oxygen
Tracknumber=1
Year=2014

[/more]

Register
(1) gwynnbleid,
Jan 14 2016, 11:07:52 Blue Stahli - The Devil (2015)


*Artist: Blue Stahli
*Album: The Devil
*Year: 2015
*Genre: Electro Industrial Metal
*Country: United States
*Format: mp3@CBR320kbps
*Size: 199MB

Tracklist:
01. The Beginning [01:46]
02. Not Over Til We Say So (feat. Emma Anzai of Sick Puppies) 03:41
03. Armageddon 03:30
04. Down In Flames 04:07
05. Enemy 03:49
06. Ready Aim Fire 03:04
07. Rockstar 03:45
08. The Fall 03:47
09. Shoot Em Up 04:12
10. You'll Get What's Coming (feat. Mark Salomon) 03:43
11. The Devil 03:59
12. Demon 04:55
13. Not Over Til We Say So (feat. Emma Anzai of Sick Puppies) (Instrumental) 03:41
14. Armageddon (Instrumental) 03:30
15. Down In Flames (Instrumental) 04:07
16. Enemy (Instrumental) 03:49
17. Ready Aim Fire (Instrumental) 03:04
18. Rockstar (Instrumental) 03:45
19. The Fall (Instrumental) 03:47
20. Shoot Em Up (Instrumental) 04:12
21. You'll Get What's Coming (Instrumental) 03:43
22. The Devil (Instrumental) 03:59
23. Demon (Instrumental) 04:55
******************************
Total playing time: 1:26:50

[more=Extended info][youtube]zORs1YGiysY[/youtube][/more]

[more=Technical info]
Input File: 01. The Beginning.mp3
Channels : 2
Sample Rate : 44100
Precision : 16-bit
Duration : 00:01:46.75 = 4707631 samples = 8006.18 CDDA sectors
File Size : 4.28M
Bit Rate : 321k
Sample Encoding: MPEG audio (layer I, II or III)
Comments :
Title=The Beginning
Artist=Blue Stahli
Album=The Devil (Deluxe Edition)
Tracknumber=01
Year=2015
Discnumber=1/2

[/more]

Register
(2) gwynnbleid, valafar,
Nov 21 2015, 18:28:58 Mass Hysteria - Matière Noire (2015)


*Artist: Mass Hysteria
*Album: Matière Noire
*Year: 2015
*Genre: Industrial Metal/Fusion
*Country: France
*Format: mp3@CBR320kbps
*Size: 113MB

Tracklist:
01. Chien De La Casse 4:01
02. Vae Soli ! 5:10
03. Vector Equilibrium 4:34
04. Notre Complot 4:43
05. L'Espérance Et Le Refus 4:54
06. Tout Est Poison 4:54
07. L'Enfer Des Dieux 4:10
08. À Bout De Souffle 3:24
09. Matière Noire 4:43
10. Plus Que Du Metal 3:40
11. Mère d'Iroise 5:10
******************************
Total playing time: 49:23

[more=Extended info][youtube]Nb9R11IBX7E[/youtube][/more]

[more=Technical info]
Input File: 10. Plus que du metal.mp3
Channels : 2
Sample Rate : 44100
Precision : 16-bit
Duration : 00:03:39.84 = 9695120 samples = 16488.3 CDDA sectors
File Size : 8.85M
Bit Rate : 322k
Sample Encoding: MPEG audio (layer I, II or III)
Comments :
Title=Plus que du metal
Artist=Mass Hysteria
Album=Matiere Noire
Tracknumber=10
Year=2015
Genre=Alternative

[/more]

Register
(3) DMIYUR, gwynnbleid, xAtiLLAx,
Oct 30 2015, 19:06:00 Skindred - Volume (2015)


*Artist: Skindred
*Album: Volume
*Year: 2015
*Genre: Alternative
*Country: United Kingdom
*Format: mp3@CBR320kbps
*Size: 91MB

Tracklist:
01. Under Attack 04:05
02. Volume 03:37
03. Hit The Ground 03:43
04. Shut Ya Mouth 03:44
05. I 00:47
06. The Healing 04:02
07. Sound The Siren 03:21
08. Saying It Now 04:02
09. II 00:48
10. Straight Jacket 03:43
11. III 00:53
12. No Justice 02:45
13. Stand Up 03:26
14. Three Words 04:14
******************************
Total playing time: 43:10

[more=Extended info]Benji Webbe – lead vocals (1998–present)
Michael Fry (a.k.a. Mikey Demus)guitar, backing vocals (2002-present)
Dan Pugsley – bass, programming, backing vocals (1998–present)
Arya Goggin – drums (2002–present)
Dan Sturgess (a.k.a. Brixton / Sanchez) – DJ, programming, backing vocals (2011–present)

[youtube]dkJuB656AVc[/youtube][/more]

[more=Technical info]
Input File: 03-skindred-hit_the_ground-83d19051.mp3
Channels : 2
Sample Rate : 44100
Precision : 16-bit
Duration : 00:03:43.58 = 9859878 samples = 16768.5 CDDA sectors
File Size : 8.94M
Bit Rate : 320k
Sample Encoding: MPEG audio (layer I, II or III)
Comments :
Title=Hit The Ground
Artist=Skindred
Album=Volume
Tracknumber=3/14
Year=2015
Genre=17

[/more]

Register
(2) An226, AndreFrancis,
Oct 19 2015, 17:06:07 Audiotopsy - Natural Causes (2015)


*Artist: Audiotopsy
*Album: Natural Causes
*Year: 2015
*Genre: Alternative/Progressive Metal
*Country: United States
*Format: mp3@CBR320kbps
*Size: 114MB

Tracklist:
01. Headshot 03:49
02. All We Know 03:44
03. LYLAB 04:18
04. The Calling 04:33
05. H2O (Interlude) 01:26
06. Swim 05:19
07. Disguise Your Devils 05:04
08. Burn The Sky 03:58
09. Distorted 03:44
10. Darken The Rainbow 03:06
11. Frozen Scars 06:08
12. Natural Causes (Outro) 03:47
******************************
Total playing time: 48:56

[more=Extended info]Greg Tribbett - Guitar ( Mudvayne, Hell Yeah)
Matt McDonough - Drums (Mudvayne)
Billy Keeton - Vocals (Skrape)
Perry Stern - Bass

[youtube]WFBqpPKrE9s[/youtube][/more]

[more=Technical info]
Input File: 01. Headshot.mp3
Channels : 2
Sample Rate : 44100
Precision : 16-bit
Duration : 00:03:49.61 = 10125977 samples = 17221 CDDA sectors
File Size : 9.24M
Bit Rate : 322k
Sample Encoding: MPEG audio (layer I, II or III)
Comments :
Title=Headshot
Artist=Audiotopsy
Album=Natural Causes
Tracknumber=1
Year=2015
Genre=Alternative Metal / Nu-Metal

[/more]

Register
(6) DenisKov, metala, Rosen, Shadowman, varlam4, wreak,
Sep 30 2015, 07:07:39 Nothing More - Nothing More (2014)


*Artist: Nothing More
*Album: Nothing More
*Year: 2014
*Genre: Alternative/Progressive Metal
*Country: United States
*Format: mp3@CBR320kbps
*Size: 157MB

Tracklist:
1. Ocean Floor 0:58
2. This is the Time (Ballast) 3:40
3. Christ Copyright 3:17
4. Mr. MTV 3:59
5. First Punch 3:22
6. Gyre 2:57
7. The Matthew Effect 3:16
8. I'll Be OK4:46
9. Here's to the Heartache 4:17
10. If I Were 3:32
11. Friendly Fire 3:43
12. Sex & Lies 4:13
13. Jenny 3:56
14. God Went North 6:09
15. Pyre 9:54
******************************
Total playing time: 1:01:59

[more=Extended info][youtube]_TWr2pj6kqM[/youtube]
[youtube]Yo5fE-Zl-V4[/youtube][/more]

[more=Technical info]
Input File: 01. Ocean Floor.mp3
Channels : 2
Sample Rate : 44100
Precision : 16-bit
Duration : 00:00:59.57 = 2626905 samples = 4467.53 CDDA sectors
File Size : 2.45M
Bit Rate : 328k
Sample Encoding: MPEG audio (layer I, II or III)
Comments :
Title=Ocean Floor
Artist=Nothing More
Album=Nothing More
Tracknumber=1
Year=2014
Discnumber=1

[/more]

Register
(1) zolotoiskatel,
Sep 13 2015, 17:15:45 Skylė - Broliai (2010)


*Artist: Skylė
*Album: Broliai
*Year: 2010
*Genre: Neofolk/Folk Rock
*Country: Lithuania
*Format: mp3@CBR320kbps
*Size: 200MB

Tracklist:
1. Per Brolių galvas 3:22
2. Žalia daina 4:21
3. Karingei augo 3:43
4. Pinavija 5:08
5. Kas gi paukštį nupraus? 3:22
6. Stelmužė 4:53
7. Aštuoni karžygiai 4:58
8. Klajūnė 5:07
9. Dubysa 5:07
10. Nebelauki manęs 4:21
11. Neužmerk akių 3:12
12. Minutė prieš 5:41
13. Paskutinė kulka 4:50
14. Akmenų kareiviai 1:21
15. Tėveli 5:59
16. Rauda 4:04
17. Broliai aitvarai 4:22
18. Priesaika 4:27
******************************
Total playing time: 1:18:18

[more=Extended info]Новая версия песен сопротивления.. Для тех, кто до сих пор не понимают, зачем эта небольшая страна боролась за свободу в 1944-1953.
[youtube]HQ11sIoQMuE[/youtube]
[youtube]jZ8g8PvsPbY[/youtube][/more]

[more=Technical info]
Input File: 02 - Zalia daina.mp3
Channels : 2
Sample Rate : 44100
Precision : 16-bit
Duration : 00:04:21.54 = 11533870 samples = 19615.4 CDDA sectors
File Size : 10.5M
Bit Rate : 320k
Sample Encoding: MPEG audio (layer I, II or III)
Comments :
Title=Zalia daina
Artist=Aiste Smilgeviciute ir SKYLE
Album=Broliai
Tracknumber=02
Year=2010
Genre=Rock

[/more]

Register
(1) whitebros,
Sep 13 2015, 16:25:14 UpCDownC - Firevolf (2009)


*Artist: UpCDownC
*Album: Firevolf
*Year: 2009
*Genre: Post Metal/Sludge Metal/Metalcore
*Country: United Kingdom
*Format: mp3@CBR320kbps
*Size: 61MB

Tracklist:
1. The Tavern 0:52
2. Black Lodge 5:24
3. Smiling Bag 3:42
4. Agent Cooper 1:40
5. Def Zeppelin 2:47
6. Dad Rock 5:36
7. Firewolf 5:26
8. Grandead 2:10
******************************
Total playing time: 27:37

[more=Extended info][youtube]JrD3SHhtYZY[/youtube][/more]

[more=Technical info]
Input File: 07 - Firewolf.mp3
Channels : 2
Sample Rate : 44100
Precision : 16-bit
Duration : 00:05:25.86 = 14370382 samples = 24439.4 CDDA sectors
File Size : 13.0M
Bit Rate : 320k
Sample Encoding: MPEG audio (layer I, II or III)
Comments :
Title=Firewolf
Artist=UpCDownCLeftCRightCABC+Start
Album=Firewolf
Tracknumber=07
Year=2010
Genre=Alternative

[/more]

Register
(2) Ostinato, Rosen,
Aug 16 2015, 08:06:55 Voicians - A Matter Of Time (2014)


*Artist: Voicians
*Album: A Matter Of Time
*Year: 2014
*Genre: Electro/Industrial Rock
*Country: Germany
*Format: mp3@CBR320kbps
*Size: 167MB

Tracklist:
01. Uncharted 04:31
02. Telepathetic 05:28
03. This Pain Feels Real 04:26
04. Stay 03:19
05. Follow The Stream 05:11
06. Brainstorm 03:50
07. The World Today 01:33
08. Endure 03:27
09. A.Part 03:19
10. Prayer 05:08
11. A Journey Without Return 03:41
12. The Construct 03:38
13. Transfer 03:15
14. What Goes Around Comes Around 05:16
15. Stomping Grounds 04:31
16. Fighters 03:22
17. Ultimate Riot 06:26
18. A Matter Of Time 01:53
******************************
Total playing time: 1:12:14

[more=Extended info]The term "hybrid" best categorizes the music of Dan Voicians, a young producer from Stuttgart in the South of Germany. Listeners can expect a full-on sonic assault through an eclectic mix of musical styles. From rock to drum-and-bass to piano/orchestral and electronic elements - this cross-genre bullet ride IS the sound and identity of Voicians.

Voicians

[youtube]W4e9Op7cs4o[/youtube][/more]

[more=Technical info]
Input File: 01. Uncharted.mp3
Channels : 2
Sample Rate : 44100
Precision : 16-bit
Duration : 00:04:32.02 = 11995862 samples = 20401.1 CDDA sectors
File Size : 11.0M
Bit Rate : 323k
Sample Encoding: MPEG audio (layer I, II or III)
Comments :
Title=Uncharted
Artist=Voicians
Album=A Matter of Time
Tracknumber=1/18
Year=2014
Genre=Rock
Discnumber=1/1

[/more]

Register
(2) gwar, gwynnbleid,

6 Pages V   1 2 3 > » 
- Lo-Fi Version Support form
Copyrights and abuse reports form
Time is now: 29th May 2020 - 13:48:57