Welcome Guest ( Log In | Register )

История благодарностей участнику Zaephar ::: Спасибо сказали: 3090 раз(а)
Дата поста: В теме: За сообщение: Спасибо сказали:
May 23 2018, 15:08:51 Electric Wizard - Live Maryland Deathfest 2012 [live] (2018)
Thank you for sharing this. Yesterday I wasn't meant to be rude, just noticed that the tracklist was completely different than the tape I got (that I am unable to rip at this moment).
(2) Borderline1991, infiltrator,
May 10 2018, 16:43:51 Cemetery Lights - Lemuralia [ep] (2018)


*Artist: Cemetery Lights
*Album: Lemuralia [ep]
*Year: 2018
*Genre: Black Metal
*Country: United States
*Format: mp3@CBR320kbps
*Size: 52MB

Tracklist:
1. Charite's Revenge 05:04
2. Lemuralia 06:16
3. Necrophilosoph 06:01
4. Accursed Funeral 05:07
******************************
Total playing time: 22:28



[more=Extended info]At last the daylight does succumb!

With riffs and song structures invoking the manes and lemures alike, Cemetery Lights hearkens back to the foggy tradition of blackness and death with its debut EP titled Lemuralia. A snarling rasp narrates four ghastly tales of ancient Roman horror and ritual lifted from the cold ink of history. The past materializes as solid marble before your eyes in all of its terrible beauty. An age long since forgotten is conjured once more!

Released on 9 May to commemorate the beginning of the Lemuralia festival, an ancient Roman celebration featuring exorcism rites to banish malicious spirits from the home.[/more]

[more=Technical info]
Input File: Cemetery Lights - 01 - Charite\'s Revenge.mp3
Channels : 2
Sample Rate : 44100
Precision : 16-bit
Duration : 00:05:05.04 = 13452132 samples = 22877.8 CDDA sectors
File Size : 12.3M
Bit Rate : 322k
Sample Encoding: MPEG audio (layer I, II or III)
Comments :
Title=Charite's Revenge
Artist=Cemetery Lights
Album=Lemuralia
Tracknumber=01
Year=2018
Genre=Occult Black Metal

[/more]

Register
(15) 1968_janeart, artscald, ASkyThatBurns, jahbless, kim666, marilin, Razorbladeswaltz, Rosen, satanist666, SilentNidhogg, smysl, stub888, VALERY, varg-38ru, vasiljev_sergej,
Apr 25 2018, 16:20:24 Cult Of Fire - Kali Fire Puja [live] (2018)
QUOTE(deathic @ Apr 25 2018, 05:59:16) *
new mirror, please.


You can download it from the bands page: http://www.cultoffire.cz/download/895/Kali%20Fire%20Puja.zip
(4) Hell_Is_Here, Ludwig Hagen, Velkaarn, Zenial,
Apr 17 2018, 19:52:03 Cult Of Fire - Kali Fire Puja [live] (2018)


*Artist: Cult Of Fire
*Album: Kali Fire Puja [live]
*Year: 2018
*Genre: Black Metal
*Country: Czech Republic
*Format: mp3@CBR320kbps
*Size: 114MB

Tracklist:
1. Vltava 06:09
2. Death 06:20
3. मृत्यु ही सत्य है 04:27
4. काली मां 05:27
5. अस्तित्व की चिता पर 06:18
6. खण्ड मण्ड योग 08:02
7. Závěť Světu 06:22
8. Satan Mentor 06:34
******************************
Total playing time: 49:39

[more=Technical info]
Input File: 03 मृत्यु ही सत्य है (When Death I.mp3
Channels : 2
Sample Rate : 44100
Precision : 16-bit
Duration : 00:04:27.55 = 11798867 samples = 20066.1 CDDA sectors
File Size : 10.8M
Bit Rate : 323k
Sample Encoding: MPEG audio (layer I, II or III)
Comments :
Title=मृत्यु ही सत्य है (When Death Is All)
Artist=Cult of Fire
Album=Kali Fire Puja
Tracknumber=3
Year=2018
Genre=Black Metal
Discnumber=1

[/more]

Register
(29) 1968_janeart, acerbus, Ainar, BERZERK, bubba, Forest Silence, hpc, Ildjarn, jpvalentim, Kehl05, marilin, milosdjor, Mirddin, Moonshtook, Oath19, Ostinato, Rosen, SilentNidhogg, soulskinner681, the_metalist, undeadlich, VALERY, varg-38ru, vasiljev_sergej, Vidder242, vovenom, wreak, wtk.412, xelasan,
Jan 24 2018, 19:42:13 Gnipahålan - Vånnalösa Urskepnader [demo] (2016)
QUOTE(AlexCrazy @ Jan 24 2018, 19:22:01) *
с продолжительностью треков какая-то хрень полная...... и архивы и дискогс выдают совсем другое:
A1 Vinterkylans Magi 7:00
A2 Jдrnkitteln Kokar 6:55
A3 Viddernas Kall 2:26
A4 Vemodens Visdomskдlla 5:48
A5 Mцrkerkonst 6:09
A6 Vid Sorgens Horisont 4:49
B7 Minnen Frеn Fцrr 2:56
B8 Nordens Vilja Lцs 6:01
B9 Lanskap I Flammor 5:30
B10 Kдllan Vid Inom 2:50
B11 I Skogens Ande 6:55
B12 Evighetens Cirkel 5:58
B13 Minnen Frеn Fцrr (Del.II) 1:41


I was also surprised when the track lengths didn't match with the ones I saw on discogs and metal-archives. But that's a full rip of the tape I got, the tracks were perfectly splitted because there are few silence seconds between them, so there is no doubt about their duration. Take ir or leave it, I encourage you to rip the tape yourself and see.
(3) Necrollama, smysl, Velmi,
Jan 24 2018, 12:11:25 Gnipahålan - Vånnalösa Urskepnader [demo] (2016)


*Artist: Gnipahålan
*Album: Vånnalösa Urskepnader [demo]
*Year: 2016
*Genre: Black Metal
*Country: Sweden
*Format: mp3@CBR320kbps
*Size: 141MB

Tracklist:
1. Vinterkylans Magi 06:37
2. Järnkitteln Kokar 06:29
3. Viddernas Kall 02:12
4. Vemodens Visdomskälla 05:27
5. Mörkerkonst 05:43
6. Vid Sorgens Horisont 04:26
7. Minnen Från Förr (del.I) 02:38
8. Nordens Vilja Lös 06:28
9. Lanskap I Flammor 05:33
10. Källan Vid Inom 01:32
11. I Skogens Ande 02:43
12. Evighetens Cirkel 05:36
13. Minnen Från Förr (del.II) 05:07
******************************
Total playing time: 1:00:31

[more=Technical info]
Input File: B4.mp3
Channels : 2
Sample Rate : 44100
Precision : 16-bit
Duration : 00:01:32.15 = 4063595 samples = 6910.88 CDDA sectors
File Size : 4.55M
Bit Rate : 395k
Sample Encoding: MPEG audio (layer I, II or III)
Comments :
Title=Källan Vid Inom
Artist=GnipahГҐlan
Album=Vånnalösa Urskepnader
Tracknumber=10
Year=2017
Genre=Black Metal

[/more]

Register
(39) 1968_janeart, ambre, artscald, Borderline1991, Fatalist77791, Ildjarn, Immortality, kim666, lestllk, LordHaart, marilin, MetalInquisitor, milosdjor, Moonshtook, murian, NachtWulf, Necrollama, Ostinato, plugawy, Premature_Devotion, rammmirez, Razorbladeswaltz, Rex, Rosen, satanist666, SilentNidhogg, Sjelekval, Skrilava, smysl, stub888, SyncestrA, Taragorm, thenecromancer, VALERY, varlam4, vasiljev_sergej, Velmi, yuratroll, некрософ,
Jan 24 2018, 11:58:52 Gnipahålan - I Stridens Era... [demo] (2017)


*Artist: Gnipahålan
*Album: I Stridens Era... [demo]
*Year: 2017
*Genre: Black Metal
*Country: Sweden
*Format: mp3@CBR320kbps
*Size: 53MB

Tracklist:
1. Intro 2:59
2. En isande kyla... 6:57
3 Interlude 2:15
4. Genom stål, ock död 6:58
5. Outro 2:59
******************************
Total playing time: 22:08

[more=Technical info]
Input File: A3.mp3
Channels : 2
Sample Rate : 44100
Precision : 16-bit
Duration : 00:02:15.51 = 5976123 samples = 10163.5 CDDA sectors
File Size : 6.24M
Bit Rate : 368k
Sample Encoding: MPEG audio (layer I, II or III)
Comments :
Title=Interlude
Artist=GnipahГҐlan
Album=I stridens era...
Tracknumber=3
Year=2017
Genre=Black Metal

[/more]

Register
(37) 1968_janeart, ambre, artscald, Boozer, Borderline1991, Fatalist77791, Ildjarn, Immortality, Kazoth, kim666, lestllk, LordHaart, marilin, milosdjor, Moonshtook, NachtWulf, Necrollama, nsk2008, Ostinato, Premature_Devotion, rammmirez, Rosen, satanist666, Shagarth21, SilentNidhogg, Sjelekval, Skrilava, stub888, SyncestrA, Taragorm, user1801, VALERY, varlam4, vasiljev_sergej, Velmi, yuratroll, некрософ,
Dec 17 2017, 14:57:41 Man Daitõrgul - Gulkenha (2017)


*Artist: Man Daitõrgul
*Album: Gulkenha
*Year: 2017
*Genre: Black Metal
*Country: Spain
*Format: mp3@CBR320kbps
*Size: 111MB

Tracklist:
1. Ħaram am Drokelйa 03:10 instrumental
2. Kħazesis Gleivarka 04:50
3. Man Daitõrgul / Slăm Iƥe Kaldrath 07:37
4. Bo Sevakaëra na Drokeŋ 04:44
5. Togul Daitõren 03:15
6. Evaƥ og Ovre Voħrænŋ 04:40
7. Gulke Nagh 08:37
8. Neħvreskйgaidaŋ 05:11
******************************
Total playing time: 42:04



[more=Extended info]Translation of the titles:
01. Army at the Black Mountains
02. Knights of Khazesis
03. Fortress of the Thousand Towers / Legio VI Kaldrath
04. Where the Dark Ones Keep Watching
05. Palace of the Tortoise
06. A Sea of Black Cenotaphs
07. Blue Night
08. From Hateful Visions (Judas Iscariot cover)[/more]

[more=Technical info]
Input File: Man Daitõrgul - Gulkenha - 01 Ħaram am Drokelйa.mp3
Channels : 2
Sample Rate : 44100
Precision : 16-bit
Duration : 00:03:10.76 = 8412648 samples = 14307.2 CDDA sectors
File Size : 7.80M
Bit Rate : 327k
Sample Encoding: MPEG audio (layer I, II or III)
Comments :
Title=Д¦aram am DrokelР№a
Artist=Man DaitГµrgul
Album=Gulkenha
Tracknumber=1
Year=2017

[/more]

Register
(11) 1968_janeart, artscald, kim666, pfk505, Razorbladeswaltz, Rosen, SilentNidhogg, stub888, VALERY, varlam4, vasiljev_sergej,
Apr 25 2017, 09:48:04 Syphilitic Vaginas - Complete Studio Collection II [best of/compilation] (2017)


*Artist: Syphilitic Vaginas
*Album: Complete Studio Collection II [best of/compilation]
*Year: 2017
*Genre: Black/Speed Metal
*Country: Japan
*Format: mp3@CBR128kbps
*Size: 99MB

Tracklist:
1. Sex, Drugs & Violence 01:24
2. High on Necromancy 02:28
3. Anoda Night Rider 02:52
4. Baphomet In Vitro 02:52
5. White Line Black Fever 01:48
6. Supersonic Motor Satanic 04:50
7. Black Chrome Supremacy 02:45
8. Witching Power 01:02
9. Spark of the Devil 03:19
10. Night Perdition 02:13
11. Full Speed to Hell 03:08
12. Vengeance 02:53
13. Death Freak 01:31
14. Hot Night for Fucker 02:37
15. Crematorium Junkies 02:11
16. Mot En Stralande Framtid (Bombanfall) 01:37
17. Commando Cunt 02:58
18. Lawless Infernal Forever 01:38
19. Sex Up Your Demon, Baby! 03:38
20. Crematorium Junkies II 01:50
21. STD Viper 03:05
22. Deathmeg Driver 03:40
23. 君が代 00:40
24. Born In Leather 02:57
25. SV Stormtrooper 04:10
26. Ghost Galleon 04:21
27. 楠木正成 02:10
28. Tiger City Shockwave 04:05
29. Fuck & Fury 01:44
30. Fuck You Likes a Dynamites 02:27
******************************
Total playing time: 1:18:53



Register
(5) abob, Boozer, Rosen, uk82, varlam4,
Feb 16 2017, 14:49:20 Goatmoon - Stella Polaris (2017)
Register
(29) acerbus, Aphrax, Aresson, Asle, berserkr, Bitchkiller, Borderline1991, current, Evilded, Femto, Fryz, Goatrex, Hell_Is_Here, infiltrator, lestllk, lordbathor, mardak666, Moonshtook, neoatheist, nsk2008, Razorbladeswaltz, satanist666, stub888, system36, varg-38ru, varlam4, WillyWonka, Witchlord, Абигор,
Feb 14 2017, 09:00:05 Goatmoon - Stella Polaris (2017)


*Artist: Goatmoon
*Album: Stella Polaris
*Year: 2017
*Genre: Black Metal
*Country: Finland
*Format: mp3@CBR256kbps
*Size: 65MB

Tracklist:
1. Intro 00:51
2. Stella Polaris 04:25
3. Kansojen hävittäjä 06:03
4. Wolf Night 01:34
5. Sonderkommando Nord 04:56
6. Warrior 04:21
7. Conqueror 04:19
8. Overlord 04:35
9. P.A.I.L. 04:00
******************************
Total playing time: 35:04

youtube

Register
(84) -=Hass=-, 1968_janeart, A.L.Rapsod, An225, Anhra Mainyu, Aresson, artscald, atavist, Ballisargon, BATOS, berserkr, blackwerwolf, Blut aus Nord, Boozer, Borderline1991, BRUTAL06, Buregon, Daale, dalex, DarkHorde, Disgorge666, emp8080, Eugenio, Evilded, Femto, finntroll3, fuoco, gena, Goatrex, Ildjarn, Immortality, Indamage, infiltrator, judaz, Kehl05, kim666, kimkayoung, korroz, Lamby90, metal73, MMMMM, morbidangelo, NachtWulf, neoatheist, nikolay81, oldvarg, Orkkh, Premature_Devotion, Razorbladeswaltz, Rizzelet, rom666, Rosen, RUDACHUR, RUSP73, sandr666, satanist666, Sathana, Scuns, SilentNidhogg, Skrilava, Spunkynut, Storky, Strygaldwir, stub888, Stutthof, Surt, suseka, svartrest, system36, Taragorm, the_cleanser, Tino, toly1917, Torlof, Tular, VALERY, varg-38ru, vasiljev_sergej, Victim of fate, Wolfera, ZambuL, Zenial, Антихрист, Например,
Feb 10 2017, 13:34:37 Vomit Kult - Demonic Art [ep] (2017)


*Artist: Vomit Kult
*Album: Demonic Art [ep]
*Year: 2017
*Genre: Black Metal
*Country: Unknown
*Format: mp3@CBR320kbps
*Size: 36MB

Tracklist:
1. Pure Darkness 02:34
2. Demonic Art 01:37
3. Plaguepreacher 02:54
4. Embracing the Abyss 02:55
5. Anti Human Assault 02:00
6. Like Lurking Beasts 03:09
******************************
Total playing time: 15:09



[more=Technical info]
Input File: Vomit Kult - Demonic Art - 02 Demonic Art.mp3
Channels : 2
Sample Rate : 44100
Precision : 16-bit
Duration : 00:01:37.42 = 4296178 samples = 7306.43 CDDA sectors
File Size : 3.97M
Bit Rate : 326k
Sample Encoding: MPEG audio (layer I, II or III)
Comments :
Title=Demonic Art
Artist=Vomit Kult
Album=Demonic Art
Tracknumber=2
Year=2017

[/more]

Register
(14) 1968_janeart, Anhra Mainyu, ddarkthrone, Hell_Is_Here, kim666, Narasimha, rom666, Rosen, RUSP73, stub888, VALERY, varg-38ru, varlam4, vasiljev_sergej,
Feb 2 2017, 18:04:44 Bathory - Under The Sign Of The Black Mark (1987)
Original non-remastered audio taken from the first press vinyl.

Register

QUOTE
All pre-1990 releases (unfortunately on vinyl only) were made from perfect masters, so the records sound outstanding. In 1990, Quorthon and Black Mark Productions decided to remaster the complete back catalogue. Nobody knows what went wrong here, but besides the sonic desasters they did with the first two albums (additional reverb, strange EQ choices), the tapes for "Under The Sign Of The Black Mark" must have been either in very bad condition or unavailable at the time of the remastering process. The CD version sounds like taken from a damaged cassette tape with lots of dropouts and a treble spectrum like you would put a blanket to your speakers. Until today, every reissue on CD or LP was sourced from that horrible master, so if you want to hear the real one, you have to spend some bucks for one of the 1987 pressings (Under One Flag, New Renaissance or N.E.W. Musidisc)...but first listen here
(13) Aresson, dad, deceased32, Exxie, hammer, LazarShadow, Luminous, milosdjor, Mist13Signifier, Rotten Goat, SatanMyMaster666, Stutthof, thenecromancer,
Feb 2 2017, 18:03:08 Bathory - The Return... (1985)
Original non-remastered audio taken from the first press vinyl.

Register

QUOTE
In 1990, this album sadly became a victim of an unnecessary remastering work of Quorthon and Black Mark Productions. Some reverb was added to the entire sound, the frequency range was totally changed and some cheap noise reduction tools were used to hide the origin of analogue tapes. Besides various original 1985 pressings on vinyl, there is no other version available, containing the original and unbutchered sound - not even any reissue until today. Enjoy a high quality transfer from the Black Mark first pressing.
(6) Aresson, garmonbozia, LazarShadow, Luminous, Mist13Signifier, Stutthof,
Feb 2 2017, 18:01:39 Bathory - Bathory (1984)
Original non-remastered audio taken from the first press vinyl.

Register

QUOTE
The original 1984 Black Mark pressing (yellow or white goat, both were made from the same stampers and have identical matrix information) is the only release with the real sound. All other early versions have strange EQ settings (an unnecessary high-mid and treble boost) or lack some minutes of the original intro (Under One Flag LP). In 1990, the album was remastered beyond recognition, adding some reverb and horrible noise reduction for example and since they made these version, it was used on all available CD, LP and cassette releases until today. Here you have the chance to listen to an excellent vinyl transfer from a mint condition copy of this classic masterpiece in its original fantastic sound.
(19) alexvs11, Aresson, Beazth, Exxie, FunZombie, gotherion, infiltrator, kim666, LazarShadow, Luminous, Magged, metal73, Mist13Signifier, Nobodyspecial, rimfrost, Saalingurth, SatanMyMaster666, Stutthof, thenecromancer,
Jan 25 2017, 16:27:19 White Death - White Death (2017)


*Artist: White Death
*Album: White Death
*Year: 2017
*Genre: Black Metal
*Country: Finland
*Format: mp3@CBR256kbps
*Size: 65MB

Tracklist:
1. Born from the Unholy Fire 04:23
2. Immortal Hunter of the Moon 04:11
3. Kaste 04:52
4. Goat Emperor 04:18
5. Warpath 05:16
6. Cunt 02:52
7. Commandant 04:27
8. White Death's Power 04:05
******************************
Total playing time: 34:24



Register
(64) 0x13, 1968_janeart, Ainar, andivi, Anhra Mainyu, Asle, Blut aus Nord, Boozer, Buregon, Corpse_Of_The_Christ, craP_cillA, dalex, Fess, gena, Ildjarn, Indamage, infiltrator, judaz, Kalnasra, Kehl05, kim666, LEGION69, lestllk, Ludwig Hagen, Moonshtook, morbidangelo, murian, NachtWulf, oldvarg, Ostinato, princeshr, raaf, Razorbladeswaltz, rickzammuto, rimfrost, rom666, Rosen, Ruben, RUDACHUR, RUSP73, russ777, serg1349, SilentNidhogg, Skog1349, snake, spiritualdecay666, Storky, stub888, suseka, svartrest, Taragorm, targonium, Tino, toly1917, tont, VALERY, varg-38ru, varlam4, vasiljev_sergej, Victim of fate, vovenom, xska, zlvd, Абигор,
Dec 28 2016, 10:09:22 Death Worship - Extermination Mass [ep] (2016)


*Artist: Death Worship
*Album: Extermination Mass [ep]
*Year: 2016
*Genre: Black/Death Metal
*Country: Canada
*Format: mp3@CBR128kbps
*Size: 18MB

Tracklist:
1. Abomination Storm 03:17
2. Evocation Chamber 02:32
3. Holocaust Altar 03:07
4. Superion Rising 03:09
5. Desolation Summoning 03:27
6. The Chaos Trance 04:13
******************************
Total playing time: 19:45



Register
(11) Ainar, Anhra Mainyu, DarkHorde, desekrator, Immortality, kim666, Rosen, RUSP73, soulskinner681, vasiljev_sergej, wgs73,
Dec 26 2016, 10:05:48 Satanic Warmaster - Opferblut (Instrumental) [demo] (2016)


*Artist: Satanic Warmaster
*Album: Opferblut (Instrumental) [demo]
*Year: 2016
*Genre: Black Metal
*Country: Finland
*Format: mp3@CBR128kbps
*Size: 35MB

Tracklist:
1. Pentagram & Wood 06:15
2. Black Destiny 05:32
3. A Wolf Cries in Anger 06:49
4. Bound in Lust and Hate 05:02
5. A Raven's Song 04:55
6. Farewell to the Fallen 05:16
******************************
Total playing time: 33:49



[more=Extended info]Original instrumental version raw mix of the "Opferblut" album, recorded in the winter of 2002. 100% unmastered and unedited taken from the only existing raw mix cd-r disk.

The instrumental song, "Rain Falls" that was presented on the actual album was recorded after this session[/more]

Register
(15) artscald, Bathory88, cancer1974, desekrator, heinz88, Immortality, rom666, Rosen, RUSP73, satanist666, soulskinner681, thenecromancer, tont, varlam4, vasiljev_sergej,
Dec 19 2016, 16:49:09 Satanic Warmaster - Carelian Satanist Madness (Instrumental) [demo] (2016)


*Artist: Satanic Warmaster
*Album: Carelian Satanist Madness (Instrumental) [demo]
*Year: 2016
*Genre: Black Metal
*Country: Finland
*Format: mp3@CBR128kbps
*Size: 43MB

Tracklist:
1. The Vampiric Tyrant 04:55
2. True Blackness 04:03
3. 666 04:57
4. Carelian Satanist Madness 08:09
5. My Dreams of 8 04:48
6. Eaten by Rats 03:38
7. My Kingdom of Darkness 04:22
8. Blessed be, the Grim Arts! 06:37
******************************
Total playing time: 41:29



Register
(19) Alexis The Best, desekrator, Evrom, gratsim, heinz88, Immortality, lordbathor, phillipjorge, Pinhead666, rom666, Rosen, RUSP73, SadistikSlayer, soulskinner681, thenecromancer, the_cleanser, tont, vasiljev_sergej, Vidder242,
Dec 16 2016, 15:36:11 Satanic Warmaster - Strength & Honour (Instrumental) [demo] (2016)


*Artist: Satanic Warmaster
*Album: Strength & Honour (Instrumental) [demo]
*Year: 2016
*Genre: Black Metal
*Country: Finland
*Format: mp3@CBR128kbps
*Size: 36MB

Tracklist:
1. A New Black Order 06:53
2. Wolves of Blood and Iron 05:41
3. The Burning Eyes of the Werewolf 04:52
4. Raging Winter 03:57
5. Legion Werwolf 03:17
6. Strength and Honour 05:05
7. Der Schwarze Orden 04:22
8. Night of Retribution 03:41
******************************
Total playing time: 37:48



[more=Extended info]Instrumental version of the "Strength & Honour" album from 2001, taken from the original mixdown tape that was made before recording vocals and keyboards. Unmastered, unedited and presented in the order the songs were recorded and mixed.[/more]

Register
(18) Alexis The Best, ddarkthrone, desekrator, Immortality, Juronimus, lordbathor, nitrodog, princeshr, Rosen, RUSP73, SadistikSlayer, satanist666, thenecromancer, the_cleanser, tont, varlam4, vasiljev_sergej, Vidder242,
Oct 24 2016, 18:12:51 Caveman Cult - Barbaric Bloodlust [demo] (2016)


*Artist: Caveman Cult
*Album: Barbaric Bloodlust [demo]
*Year: 2016
*Genre: Black/Death Metal
*Country: United States
*Format: mp3@CBR320kbps
*Size: 27MB

Tracklist:
1. The Bludgeoning 01:45
2. Iron Scourge 03:19
3. Supremacy of the Savage Hordes 02:05
4. Caverns of Atrocity 03:04
******************************
Total playing time: 10:13

[more=Technical info]
Input File: CAVEMAN CULT - BARBARIC BLOODLUST - 02 THE BLUDGEONING.mp3
Channels : 2
Sample Rate : 44100
Precision : 16-bit
Duration : 00:01:46.02 = 4675394 samples = 7951.35 CDDA sectors
File Size : 4.50M
Bit Rate : 340k
Sample Encoding: MPEG audio (layer I, II or III)
Comments :
Title=The Bludgeoning
Artist=Caveman Cult
Album=Barbaric Bloodlust
Tracknumber=1
Year=2016
Genre=War Metal

[/more]

Register
(17) Blackvomito, boba, desekrator, Goatrex, Hell_Is_Here, kim666, marilin, mety666, Pinhead666, rom666, Rosen, RUSP73, satanist666, SilentNidhogg, spiritualdecay666, VALERY, varlam4,
Sep 24 2016, 17:12:43 Malleus - Storm Of Witchcraft (2016)
QUOTE(neoatheist @ Sep 24 2016, 16:19:43) *
17.gif 16.gif


Black/Thrash/Speed/Death... Hellhammer/CF Metal
(1) Genuine Thrashiac,
Sep 24 2016, 10:09:08 Malleus - Storm Of Witchcraft (2016)


*Artist: Malleus
*Album: Storm Of Witchcraft
*Year: 2016
*Genre: Black/Speed Metal
*Country: United States
*Format: mp3@CBR128kbps
*Size: 44MB

Tracklist:
1. Winds of Wrath / Ire 07:35
2. Blackened Skies 07:06
3. Demonology I 05:56
4. Demonology II 02:45
5. The Wolf 03:23
6. Act of Faith 04:19
7. Storm of Witchcraft 04:55
******************************
Total playing time: 35:59



[more=Extended info]Total Hellhammer / Celtic Frost worship!!![/more]

Register
(7) boby9052, ddarkthrone, Leolomb, marilin, neoatheist, Rosen, RUSP73,
Sep 23 2016, 22:31:43 Vilifier & Lustration - Oldenfiend/Serpent [split] (2013)


*Artist: Vilifier & Lustration
*Album: Oldenfiend/Serpent [split]
*Year: 2013
*Genre: Death Metal | Black/Thrash Metal
*Country: Australia | Australia
*Format: mp3@CBR320kbps
*Size: 42MB

Tracklist:
Vilifier
1. Place of Skulls 04:54
2. Oldenfiend 07:13
Lustration
3. Reaper of the Abyss 02:12
4. Bundle of Energy 01:18
5. Serpent 02:29
******************************
Total playing time: 18:06

[more=Technical info]
Input File: Lustration - 02 - Bundle Of Energy.mp3
Channels : 2
Sample Rate : 44100
Precision : 16-bit
Duration : 00:01:18.46 = 3459910 samples = 5884.2 CDDA sectors
File Size : 3.18M
Bit Rate : 324k
Sample Encoding: MPEG audio (layer I, II or III)
Comments :
Title=Bundle Of Energy
Artist=Lustration
Album=Serpent
Tracknumber=02
Year=2013
Genre=War Metal

[/more]

Register
(9) Darkthronefoad, Evilded, morbidangelo, rom666, Rosen, RUSP73, satanist666, varlam4, Velmi,
Sep 23 2016, 22:15:03 Et Verbi Sathanus - Promo Tape MMXII [demo] (2012)


*Artist: Et Verbi Sathanus
*Album: Promo Tape MMXII [demo]
*Year: 2012
*Genre: Black/Death Metal
*Country: Chile
*Format: mp3@CBR320kbps
*Size: 45MB

Tracklist:
1. No man's Land 03:09
2. Suplícame el Pecado 04:03
3. The last Will (Flesh for Sacrifice) 03:52
4. Goddess of Perversity (Blasphemy cover) (Live) 03:32
5. Satan's Warlike (Live) 03:09
******************************
Total playing time: 17:45

[more=Technical info]
Input File: 5.mp3
Channels : 2
Sample Rate : 44100
Precision : 16-bit
Duration : 00:03:09.70 = 8365946 samples = 14227.8 CDDA sectors
File Size : 8.70M
Bit Rate : 367k
Sample Encoding: MPEG audio (layer I, II or III)
Comments :
Title=Satan's Warlike (Live)
Artist=Et Verbi Sathanus
Album=Promo Tape MMXII
Tracknumber=5
Year=2012
Genre=War Metal

[/more]

Register
(13) artscald, Darkthronefoad, Evilded, HecTheWreck, Hell_Is_Here, INDARKNESS, morbidangelo, Ostinato, rom666, Rosen, RUSP73, varlam4, Velmi,

9 Pages V   1 2 3 > » 
- Lo-Fi Version Support form
Copyrights and abuse reports form
Time is now: 6th June 2020 - 12:29:40