Welcome Guest ( Log In | Register )

История благодарностей участнику Taragorm ::: Спасибо сказали: 2660 раз(а)
Дата поста: В теме: За сообщение: Спасибо сказали:
Jan 27 2018, 21:56:02 Gnipahålan - I Stridens Era... [demo] (2017)
Поправил громкость в каналах
Register
(4) Hell_Is_Here, INDARKNESS, Razorbladeswaltz, satanist666,
Jan 26 2018, 18:29:23 Gnipahålan - Vånnalösa Urskepnader [demo] (2016)
Поправил громкость в каналах. Не возможно было слушать.
Register
(11) Boozer, Hell_Is_Here, Kazoth, milosdjor, Razorbladeswaltz, Rex, satanist666, Storky, SyncestrA, thenecromancer, varlam4,
Dec 1 2017, 22:02:49 Kraake - Fram (2016)


*Artist: Kraake
*Album: Fram
*Year: 2016
*Genre: Black Metal
*Country: Czech Republic
*Format: mp3@CBR320kbps
*Size: 109MB

Tracklist:
01. Fram 06:30
02. Hymna ledových plání 04:54
03. Daleko od Nákazy 07:00
04. Fram II Mrtvé pobřeží 05:28
05. Bílá tma 08:13
06. Samota Severu 07:59
07. 1912 - Poslední na Fram 07:46
******************************
Total playing time: 47:50



[more=Technical info]
Input File: 02. Hymna Ledových Plání.mp3
Channels : 2
Sample Rate : 44100
Precision : 16-bit
Duration : 00:04:54.04 = 12967076 samples = 22052.9 CDDA sectors
File Size : 11.8M
Bit Rate : 320k
Sample Encoding: MPEG audio (layer I, II or III)
Comments :
Title=Hymna ledovych plani
Artist=Kraake
Album=Fram
Tracknumber=02
Year=2016
Genre=Black Metal

[/more]

Register
(22) 1968_janeart, An225, blacky66, Constantinus I, Ildjarn, kim666, marilin, Maximvs, Moonshtook, murian, nsk2008, Orkkh, Razorbladeswaltz, rom666, Rosen, SilentNidhogg, SSBandera, VALERY, varg-38ru, varlam4, vasiljev_sergej, Victim of fate,
Jan 6 2017, 16:11:17 Dumal - The Lesser God (2017)
Музыка слишком мягковата, а местами даже романтична. Полностью не соответствует обложке.
(1) SSBandera,
Jul 4 2016, 09:17:47 Silva Nigra - Světlonoš (2016)
Ох и х...ня...
(1) suseka,
Feb 23 2016, 15:33:09 Ghost Bath - Funeral (2014)
Ссылка не моя
Register

Вроде выяснилось что они американцы.
(6) BeerBear, kim666, satanist666, trabantfan, varg-38ru, Yanek,
Sep 22 2015, 18:57:37 Totale Vernichtung - Ritualmordlegenden (2014)
Как по мне вокал портит все впечатление от альбома. И так на двух крайних альбомах, где такой вокал.
(1) Bulldozzzzzzer,
Sep 21 2015, 17:59:07 Forteresse & Chasse-Galerie & Monarque & Csejthe - Légendes [split] (2014)
Только добрался до этого сплита. Годнота! Трек от Сsejthe вштырил серьезно.
Apr 22 2015, 22:44:31 Lustre - Blossom (2015)


*Artist: Lustre
*Album: Blossom
*Year: 2015
*Genre: Atmospheric Black Metal/Ambient
*Country: Sweden
*Format: mp3@CBR128kbps
*Size: 31MB

Tracklist:
1. Part 1 08:54
2. Part 2 08:38
3. Part 3 09:42
4. Part 4 05:47
******************************
Total playing time: 33:01



Register
(13) 0x13, avather, KVRT, lucifix, Moonshtook, RUSP73, shadow666, Sjelekval, tont, vasilisk, vasiljev_sergej, Zahrim, Госпромнадзор,
Oct 22 2013, 16:14:27 Wulfheim - De Profundis (2009)


*Artist: Wulfheim
*Album: De Profundis
*Year: 2009
*Genre: Raw Black Metal
*Country: Spain
*Format: mp3@CBR320kbps
*Size: 62MB

Tracklist:
01. Prologue - The Voice Of Thousand Shadows
02. De Profundis
03. The Whispering Sadness
04. Into Oblivion
05. The Tears Of Solitude
06. The Gravedancer
07. Epilogue - Requiem
******************************
Total playing time: 27:12



[more=Extended info]Satanath Records. New, second edition, 2013.
222 limited handnumbered copies. Re-release includes new art-work & 2 bonus tracks (1st edition in 2009 - self release without intro & outro and with other art-work).[/more]

[more=Technical info]
Input File: 02. De Profundis.mp3
Channels : 2
Sample Rate : 44100
Precision : 16-bit
Duration : 00:06:34.07 = 17378531 samples = 29555.3 CDDA sectors
File Size : 15.8M
Bit Rate : 320k
Sample Encoding: MPEG audio (layer I, II or III)
Comments :
Title=De Profundis
Artist=Wulfheim
Album=De Profundis
Tracknumber=2
Year=2013
Genre=Black Metal

[/more]

Register
(27) 1968_janeart, blacky66, burzum1983, caro, Constantinus I, Darkthronefoad, kefka, mart2203, Necroalex, Necromag, neoatheist, Razorbladeswaltz, rom666, RUSP73, satanist666, SIAVASH, SilentNidhogg, Skog1349, SSBandera, stub888, toly1917, tont, VALERY, varlam4, vasiljev_sergej, wreak, Абигор,
Sep 18 2013, 20:07:01 NecroWerewolf - Rise Of Helheim (2013)
По ходу ребята просто спи..дили фото.
(1) neoatheist,
Jul 30 2013, 07:58:59 Naer Mataron - Kai O Logos Sarx Egeneto (2013)
[youtube]QiSTLE9jvW4[/youtube]
(2) Chasm, vosmidesijatye,
Jul 28 2013, 21:01:34 Fhoi Myore & Pestiferum - La Forme Créatrice Du Chaos/Le Chaos Religieux [split] (2013)


*Artist: Fhoi Myore & Pestiferum
*Album: La Forme Créatrice Du Chaos/Le Chaos Religieux [split]
*Year: 2013
*Genre: Black Metal | Black Metal
*Country: France | France
*Format: mp3@CBR320kbps
*Size: 113MB

Tracklist:
Fhoi Myore:
01. Blood Flesh And Bones
02. Beyond The Multiverse
03. La Destruction
04. L’enfer Blanc
Pestiferum:
05. Nazareth En Flammes
06. Pures Ardentes Et Immortelles
07. Nous Otera La Lumi re
08. Dans Le Fruit Est Le Ver
******************************
Total playing time: 50:50




[more=Technical info]
Input File: 01. Fhoi Myore - Blood, Flesh and Bones.mp3
Channels : 2
Sample Rate : 44100
Precision : 16-bit
Duration : 00:06:05.93 = 16137557 samples = 27444.8 CDDA sectors
File Size : 14.6M
Bit Rate : 320k
Sample Encoding: MPEG audio (layer I, II or III)
Comments :
Title=Blood, Flesh and Bones
Artist=Fhoi Myore
Album=La forme crГ©atrice du chaos / Le chaos religieux
Tracknumber=1
Year=2013
Genre=Black Metal

[/more]

Register
(41) 1968_janeart, 2563842756, artscald, beltane, blacky66, caro, Constantinus I, DarkHorde, Darkthronefoad, Forrrrest, Hell_Is_Here, Ildjarn, kefka, kim666, Koscheyushka, Lanceatum, lestllk, Lord_Eurynome, marilin, NachtWulf, neoatheist, Orkkh, princeshr, Razorbladeswaltz, rickzammuto, rom666, RUSP73, sacrut, satanist666, SIAVASH, SilentNidhogg, sperminator, SSBandera, the_cleanser, Thunderbird, tont, VALERY, varlam4, vasiljev_sergej, waldemardr, Абигор,
May 24 2013, 09:55:58 Trinity - Trinity (2013)
Облога - ад!
(2) Kwaad, ShmiT,
Mar 12 2013, 17:13:27 Kaevum - Natur (2012)
ЦИТАТА(dm_372761 @ Sep 13 2012, 22:13:39) *
Блестящий кругляш уже появился, где можно купить?

http://www.black-metal-mailorder.com/


ЦИТАТА(elsunga @ Mar 12 2013, 20:02:55) *
cd version?

LP version
(1) добрыйКот,
Feb 28 2013, 19:42:19 Новости Black-направления
ЦИТАТА(Dmitry1977 @ Feb 27 2013, 10:02:52) *
Продолжение вестей про Сатирикон:
Norwegian black metallers SATYRICON have completed recording the drums for their new album for a tentative September release.
http://www.blabbermouth.net/soulflypremier...iconstudio1.jpg


Фрост с бородой вроде как мальчик. А без бороды как девочка crazy.gif
(2) infiltrator, Paatddal,
Feb 27 2013, 21:46:00 Новости Black-направления
В продолжение темы о Nordvrede. Трек с грядущего альбома:

[youtube]oo-G5L7-Ky0#![/youtube]
(3) Goatrex, infiltrator, Vrolok,
Feb 19 2013, 22:08:50 Blaze Of Perdition - Necrosophist [ep] (2013)
Flac Rip mp3@CBR320kbps (31MB)

Register
(13) artscald, cist, Damien666, dead4, frostdomain, lestllk, milosdjor, morbidangelo, NachtWulf, RUSP73, satanist666, vov7609, xxbershamaxx,
Feb 17 2013, 16:16:04 Totale Vernichtung - Feuerbestattung (2012)
Прописал теги

Register
(17) artscald, Borderline1991, dalex, DarkHorde, dermarsoran, General, Hell_Is_Here, kim666, lestllk, NachtWulf, neoatheist, raaf, RajvsarN, ShmiT, SortVokter, Spunkynut, Thunderbird,
Feb 6 2013, 21:58:48 Eldrig - Urlagarne (2012)
Запилил 320 из флака (98MB)

Register
(11) Buregon, Constantinus I, princeshr, QoroXx, Raw1488, satanist666, Shadowcry, Stutthof, Typhon88, xska, yuratroll,
Feb 3 2013, 19:23:47 Dhampyr - All The Dead Dears (2013)
Не надоело тебе этим мусором портал захламлять? 21.gif
Jan 28 2013, 14:48:47 Wschód - Oddalenie (2011)
Обновил ссылку в шапке. Вложил в архив сканы.
(2) 1984, Constantinus I,
Jan 26 2013, 15:17:51 Mgła
О*уенная группа, каждый альбом у неё силён. Раньше слушал, как-то не так цепляло, а сейчас проникся адски.
Барабанщик вообще красава - цокотули в последнем альбоме слушаются очень круто.
(1) General,
Jan 19 2013, 17:13:29 Idisenfluch - Vergänglichkeit (2012)


*Artist: Idisenfluch
*Album: Vergänglichkeit
*Year: 2012
*Genre: Depressive Black Metal
*Country: Germany
*Format: mp3@CBR320kbps
*Size: 101MB

Tracklist:
01. In weiter Fern 02:09
02. Entlegen 08:14
03. Nichts waehrt ewig 06:50
04. Zeichen der Zeit 03:49
05. Begraebnis 08:13
06. Abschied 08:52
07. ... bis d‘Moargnstund d‘Nocht vadreibt 07:25
******************************
Total playing time: 45:32



[more=Extended info]CD-Rip - Exact Audio Copylame-3.93.1





Input File: 02 - Entlegen.mp3
Channels : 2
Sample Rate : 44100
Precision : 16-bit
Duration : 00:08:14.13 = 21791089 samples = 37059.7 CDDA sectors
File Size : 19.8M
Bit Rate : 320k
Sample Encoding: MPEG audio (layer I, II or III)
Comments :
Title=Entlegen
Artist=Idisenfluch
Album=Verganglichkeit
Tracknumber=02/07
Year=2012
Genre=Black Metal

[/more]

Register
(45) 0x13, 1984, andivi, artscald, aserius, Blut aus Nord, Constantinus I, craP_cillA, Darth Alvasarra, ddarkthrone, Ejdon, Endymion, Fess, kefka, kim666, lestllk, MaXL, metala, Misanthrope@, NachtWulf, popen13, QoroXx, raw, RUSP73, satanath, satanist666, senecazm, serach, Shuranator, SIAVASH, simvolist777, smysl, stub888, tont, User123, VALERY, varg-38ru, varlam4, vasiljev_sergej, Velemysl, Victim of fate, vosmidesijatye, Госпромнадзор, добрыйКот, Шанкара,
Dec 23 2012, 16:22:38 Новости Black-направления
Трек из нового альбома Blóðtrú - "Sunwolf". Который вроде как должен выйти в этом году (!)

http://www.youtube.com/watch?v=bH5VxWgQsPk...4920D4076E0EC69
(1) Hswhhh,

11 Pages V   1 2 3 > » 
- Lo-Fi Version Support form
Copyrights and abuse reports form
Time is now: 20th November 2019 - 02:03:30