Welcome Guest ( Log In | Register )

История благодарностей участнику Герб ::: Спасибо сказали: 6150 раз(а)
Дата поста: В теме: За сообщение: Спасибо сказали:
Jun 15 2019, 06:08:18 Final Exit - Demo #1 [demo] (1994)
Register
(2) stumpheavyrock, thenecromancer,
Jun 9 2019, 11:08:25 Engorged - Death Metal Attack 2 (1999)
Register
(1) spazm,
Jun 7 2019, 11:53:07 Orphalis - The Approaching Darkness (2019)
ЦИТАТА(Foneg @ 6th June 2019 - 17:16:24) *
мощь
в каком месте?
ЦИТАТА(Foneg @ 6th June 2019 - 17:16:24) *
диссонансики, бластбиты
а этой сцанины действительно полно.Педометал,это если одним словам,еще чуть-чуть и быдлокор бы вышел.
(1) Ghostb,
May 23 2019, 21:29:42 Poppy Seed Grinder - Humanophobia (2008)
Register
(1) olegator,
May 18 2019, 06:40:50 Butcher Abc - Butchery Workshop 2002-2009 [compilation] (2018)
Крутые перцы.
(2) RotAnus, spazm,
May 11 2019, 22:56:57 Orbstruct - Phobos Rising (2019)
Register
(1) recber,
Apr 26 2019, 03:48:20 Various Artists - Seelenmorast [compilation] (2019)
Какой хитрый релизер и глазасто-ответственный пользователь.
(1) Evilded,
Apr 17 2019, 00:58:00 Dead Meat - Promo Tape '97 [demo] (1997)
Register
(3) Pinhead666, stumpheavyrock, Svafrlami,
Apr 13 2019, 23:13:16 Lymphogranulomatosis - Lymphogranulomatosis [ep] (2014)
Register
(1) RotAnus,
Apr 13 2019, 03:29:33 Poppy Seed Grinder - Promo 2008 [demo] (2008)
Register
(1) olegator,
Mar 28 2019, 08:47:33 Traumatomy & Embryectomy & Cerebral Paralysis - Realms Of Endless Massacre [split] (2015)
Register
(1) Lanceatum,
Mar 21 2019, 12:05:09 Fimbulwinter - Rehearsal Demo [demo] (1992)
Register
(2) FUDEDOR, thenecromancer,
Mar 17 2019, 21:31:17 Animals Killing People & Gorepot - Maleficis De Saltu [split] (2019)
А чего в этом направлении музыки нового искать?По мне,хех,лучше так,нежели увидеть modern progressive brutal\grind,например.На безрыбье...,как говорится.Нет качественного продукта,одни помои,тонны помоев приходится прослушать,дабы что-то слушабельное найти в данном стиле.
(1) RotAnus,
Mar 15 2019, 07:06:58 Fuck On The Beach - Fastcore On The Beach [ep] (1998)
Register
(1) Lanceatum,
Mar 3 2019, 12:08:49 Ruumisto - Sotakesä (2017)
Register
(2) dromord, Druidir,
Mar 3 2019, 12:07:08 Ruumisto - Sysimaat (2018)
Register
(3) dromord, Druidir, infiltrator,
Mar 3 2019, 10:16:24 Ruumisto - Sysimaat (2018)


*Artist: Ruumisto
*Album: Sysimaat
*Year: 2018
*Genre: Nordic Folk/Ambient/Dark Folk
*Country: Finland
*Format: mp3@CBR320kbps
*Size: 73MB

Tracklist:
1. Kun Ennen Läksin Metsähän 06:01
2. Tie On Tehty Tullaksesi 05:48
3. Havuiselta Vuotehelta 03:11
4. Mesikynsi 03:11
5. Sysipuu 01:41
6. Yksi Puinen, Toinen Luinen 06:30
7. Tätä Tyhjänä Eloa 04:15
******************************
Total playing time: 30:37



[more=Technical info]
Input File: Ruumisto - Sysimaat - 01 Kun ennen läksin metsähän.mp3
Channels : 2
Sample Rate : 44100
Precision : 16-bit
Duration : 00:06:01.58 = 15945678 samples = 27118.5 CDDA sectors
File Size : 14.6M
Bit Rate : 322k
Sample Encoding: MPEG audio (layer I, II or III)
Comments :
Title=Kun ennen läksin metsähän
Artist=Ruumisto
Album=Sysimaat
Tracknumber=1
Year=2018

[/more]

Register
(3) Cartman223, infiltrator, Абигор,
Mar 3 2019, 10:02:05 Ruumisto - Sotakesä (2017)


*Artist: Ruumisto
*Album: Sotakesä
*Year: 2017
*Genre: Nordic Folk/Ambient/Dark Folk
*Country: Finland
*Format: mp3@CBR320kbps
*Size: 72MB

Tracklist:
1. Kantoi Tulta Tuohisella 04:27
2. Jäällä Tuon Jäljet Näkyvi 03:44
3. Läpi Lehväin Henki Soipi 04:56
4. Suurena Sotakesänä 06:24
5. Käy Nyt Tuskat Tuntemahan 04:41
6. Viikon Joustani Varustin 04:54
******************************
Total playing time: 29:06



[more=Extended info]https://www.youtube.com/watch?v=9q9FtLwgNc4[/more]

[more=Technical info]
Input File: Ruumisto - Sotakesä - 01 Kantoi tulta tuohisella.mp3
Channels : 2
Sample Rate : 44100
Precision : 16-bit
Duration : 00:04:27.09 = 11778669 samples = 20031.7 CDDA sectors
File Size : 10.9M
Bit Rate : 327k
Sample Encoding: MPEG audio (layer I, II or III)
Comments :
Title=Kantoi tulta tuohisella
Artist=Ruumisto
Album=Sotakesä
Tracknumber=1
Year=2017

[/more]

Register
(3) Cartman223, Moonshtook, Абигор,
Feb 24 2019, 00:13:46 Scapegoat - Path Of The Search (1993)
Register
(1) jorgeguldur,
Feb 23 2019, 00:33:47 Ignivomous - Contragenesis (2012)
Register
(1) babanguida,
Feb 18 2019, 18:04:11 4 Chambers Of Ivory - ...A Bitter Taste Of Sin [ep] (2001)
Register
(1) Sphinx7,
Feb 17 2019, 23:42:42 Cocobat - Grasshopper [ep] (1996)
Register
(1) pichileon,
Feb 17 2019, 02:41:52 Goat Perversion & Good Food - Goat Perversion/Good Food [split] (2005)
Register
(1) dermarsoran,
Feb 15 2019, 19:09:27 Funeral - Black Flame Of Unholy Hate [demo] (1995)
Register
(2) aimtoknow, heinz88,
Feb 15 2019, 19:03:27 Osculum Infame & Funeral - Osculum Infame/Funeral [split] (1996)
Register
(3) heinz88, kim666, wendigo,

84 Pages V   1 2 3 > » 
- Lo-Fi Version Support form
Copyrights and abuse reports form
Time is now: 17th June 2019 - 14:02:46