Welcome Guest ( Log In | Register )

История благодарностей участнику Guerin ::: Спасибо сказали: 40 раз(а)
Дата поста: В теме: За сообщение: Спасибо сказали:
Sep 26 2014, 07:36:17 Evergrey - Hymns For The Broken (2014)
Progressive/gothic, я бы сказал. Но точно не progressive/power.
Хороший альбом, удачный. Такое сочетание The Inner Circle, Recreation Day и Glorious Collision. Звучит по-новому, при этом узнаваемо.
(1) Mplast,
Aug 14 2014, 16:57:26 Accept - Blind Rage (2014)
2010 был хорош, 2012 откровенно скучный, а этот мне нравится. Удачный альбом
(2) infiltrator, paganheart,
Sep 28 2013, 13:04:36 Fates Warning - Darkness In A Different Light (2013)
ЦИТАТА(Deze @ 28th September 2013 - 12:27:39) *
то В ЭТОМ КАЧЕСТВЕ фэйтсы действительно превосходят театралов.

именно. Я фанат ДТ, ездил в Киев на их концерт и никоим образом не желаю их "полоскать". Но ФВ и ДТ действительно очень разные группы, хоть и играют в одном жанре. Так что сравнивать их не нужно.
Sep 27 2013, 18:19:52 Fates Warning - Darkness In A Different Light (2013)
Voqx,
Театралы в принципе менее глубокая музыка, чем ФВ... Имхо. ДТ берут мастерством и цепляющими мелодиями и только на некоторых дисках всерьез делают упор на атмосферу. ФВ же с Адлером нужно слушать только альбомами, потому что это в первую очередь - настроение, что-то личное, которое они передают слушателю... И далеко не каждый это воспринимает.
(6) Bender, Deze, Dismayer, SIMPLE MAN, Voqx, Yarri,
Sep 27 2013, 17:45:01 Fates Warning - Darkness In A Different Light (2013)
Послушал... Очень сильное влияние Redemption. Вообще, альбом стилистически - нечто среднее между FWX и Redemption с Адлером, хорошо это или плохо решайте сами. Хорошие моменты есть, но что неприятно поразило, так это что у них начало появляться стандартное [мат->бан]ево в духе позднего ДТ. А вот что плохо, так это что пропал этот синтезаторный звук, что был на 2000 и на ФВХ, он мне очень нравился. Но в целом - альбом буду еще слушать. Пока что сложно судить.
(1) Dismayer,
Sep 22 2013, 18:31:02 Fates Warning
veselchak_u,
1994, 1997... Можно попробовать первые три альбома. Там другой вокалист и жанр совсем другой, може больше понравится.
А вообще ФВ объективно такая группа... что нравится далеко не всем. Но уж если въехал, то надолго.
(1) veselchak_u,
Sep 12 2013, 17:41:44 Fates Warning
Странно, что никто еще не создал эту тему... Ну, в общем, так.

Новый альбом FATES WARNING выйдет в сентябре
http://www.darkside.ru/news/56209/
Там же слушайте 3(пока что) новые песни. Мне в принципе нравится. Жду альбом даже больше, чем новый Моторхед (там все равно ничего нового не будет) и уж точно больше чем новый ДТ. metaler.gif
(1) veselchak_u,
Jun 23 2013, 20:28:10 Black Sabbath
А мне нас*ать на всех критиков в мире.
Меня просто прет BLACK SABBATH, особенно РАННИЙ BLACK SABBATH, потому что это О*ЕННАЯ музыка, и плевал я на мнение тов. hounced, и на критиков из конца 60-х-начала 70-х тоже плевал. В конце концов, если ориентироваться на мнение других то лучше вообще тяжеляк не слушать, сатанизм же и не по-пацански. Только зачем вообще жить, если кто-то, не важно, 99% населения или давно забытые критики из 60-70-х, будет указывать мне, что слушать, читать и смотреть?
(1) vosmidesijatye,
Jun 6 2013, 12:08:25 Black Sabbath - 13 (2013)
ЦИТАТА(Deze @ 6th June 2013 - 10:46:42) *
"Loner" ... основательно подпорчен дурацким полурокнролльным риффингом 22.gif

Я единственный, кому очень нравится этот дурацкий рокнролльный риффинг?
(1) DrStein,
Feb 11 2013, 12:58:40 Hourglass - This Lonely Time and Place (2000)
Никак не могу найти этот релиз, остальные три альбома есть и нравятся. Может, у кого-то есть?
http://www.metal-archives.com/albums/Hourg...Time_and_Place/
(1) Yarri,
Feb 7 2013, 18:57:27 Blaze Bayley & Thomas Zwijsen - Russian Holiday [ep] (2013)


*Artist: Blaze Bayley & Thomas Zwijsen
*Album: Russian Holiday [ep]
*Year: 2013
*Genre: Acoustic
*Country: United Kingdom
*Format: mp3@CBR320kbps
*Size: 62MB

Tracklist:
01. Stealing Time 04:57
02. Russian Holiday 04:19
03. Soundtrack Of My Life 05:17
04. One More Step 03:30
05. Sign Of The Cross 10:01
******************************
Total playing time: 28:04

Preview 1

[more=Extended info]This is an acoustic EP.

Track 1 is a Blaze cover from "Tenth Dimension" (2002).
Track 2 is a brand new Blaze Bayley song.
Track 3 is a Blaze cover from "Blood & Belief" (2004).
Track 4 is a Blaze Bayley cover from "The King of Metal" (2012).
Track 5 is an Iron Maiden cover from "The X-Factor" (1995).


Input File: 04. One More Step.mp3
Channels : 2
Sample Rate : 44100
Precision : 16-bit
Duration : 00:03:30.23 = 9271143 samples = 15767.2 CDDA sectors
File Size : 8.41M
Bit Rate : 320k
Sample Encoding: MPEG audio (layer I, II or III)
Comments :
Title=One More Step
Artist=Blaze Bayley & Thomas Zwijsen
Album=Russian Holiday
Tracknumber=4/5
Year=2013
Discnumber=1/1

[/more]
Register
(9) Alexis The Best, AndreFrancis, Bender, igorzz, matias, Mplast, SAPOGi, Shure, VALERY,
Jan 20 2013, 10:22:24 Riverside - Shrine Of The New Generation Slaves (2013)
ЦИТАТА(Nattfodd @ 20th January 2013 - 00:51:12) *
Посоветуйте плз пару наиболее выдающихся альбомов на зацен smile1.gif

первый и второй, наверное
(1) Nattfodd,
Dec 1 2012, 14:42:18 Sons Of Thunder - That's My Cry (2012)


*Artist: Sons Of Thunder
*Album: That's My Cry
*Year: 2012
*Genre: Hard´n´Heavy/Progressive/Christian Metal
*Country: United States
*Format: mp3@CBR320kbps
*Size: 124MB

Tracklist:
01. Don’t Give Up
02. Set Me Free
03. That’s My Cry
04. Loveless Generation
05. Slippin’ Away
06. Lift Him Up
07. Keep On Keepin’ On
08. Out of the Dark
09. Precious Lord
10. Waiting for You
11. Calling Armageddon
12. Remnant
13. Kick Out the Stained Glass Windows
******************************
Total playing time: 56:24

Preview 1

[more=Extended info]


Input File: 10 Waiting for You.mp3
Channels : 2
Sample Rate : 44100
Precision : 16-bit
Duration : 00:02:14.73 = 5941549 samples = 10104.7 CDDA sectors
File Size : 5.39M
Bit Rate : 320k
Sample Encoding: MPEG audio (layer I, II or III)
Comments :
Title=Waiting for You
Artist=Sons of Thunder
Album=That's My Cry
Tracknumber=10
Year=2012
Genre=metal
Discnumber=1/1

[/more]

Register
(8) garretje, Mogozoz, Mplast, MеtalHead, Reverend, varlam4, watasan, wreak,

- Lo-Fi Version Support form
Copyrights and abuse reports form
Time is now: 15th November 2019 - 10:38:11