Welcome Guest ( Log In | Register )

История благодарностей участнику Daale ::: Спасибо сказали: 5784 раз(а)
Дата поста: В теме: За сообщение: Спасибо сказали:
Nov 10 2018, 08:07:01 Abstract Void - Back To Reality (2018)
ЦИТАТА(Void_Dragon @ 10th November 2018 - 11:18:22) *
Что за постановка вопроса вообще? По отношению ко всему. По сравнению с сабжем и прочим совковым бандкампБМ.


Очень аргументировано. Прям аргумент на аргументе. Уважаемый, если ты выдвигаешь тезис — будь добр сдобрить его аргументами, а не какой-то отсебятиной эфемерной.

ЦИТАТА(Void_Dragon @ 10th November 2018 - 11:18:22) *
Хвалить такую сцань как сабж можно только будучи оголтелым хипстером и поцреотом вдобавок.


О, я не думал, что все так плохо у тебя в голове. Хипстеры, поцреоты, враги митола поди ещё там...

ЦИТАТА(Void_Dragon @ 10th November 2018 - 11:18:22) *
Музыкальной ценности тут ноль, свежих идей ноль, какого-то чувства соразмерности и вкуса - ноль.


Расскажи-ка мне, пожалуйста, где есть СВЕЖИЕ и РАДИКАЛЬНО НОВЫЕ идеи в современной популярной музыке. Ну вот возьмем лет десять последних.

ЦИТАТА(Void_Dragon @ 10th November 2018 - 11:18:22) *
Слушайте Striborg и не выйопывайтесь.


Спасибо, но слушать полоумного торчка, который променял вменяемость и какой-никакой, но уровень, на КОНВЕЕР — нет. Есть люди, кому конвеерный выпуск релизов не вредит. Striborg не из этой категории. Я не говорю, что его творчество плохое. Оно не нравится именно мне, на данную точку пространства и времени.
(2) 6666666, Kwaad,
Nov 9 2018, 15:57:10 Evoken - Hypnagogia (2018)
Вообще не согласен с мнением, что здесь слабый материал. Я с творчеством Evoken знаком давненько и данный релиз я вполен могу в один ряд с остальными поставить.

Я от композиций вообще уставать не успевал, звучание замечательное и помогало растворяться в музыке. Может мне везет, что я слушаю кучу самого разнопланового материала, в том числе за пределами rock- и metal-related музыки. Может это и минус. Черт его знает.

Одно могу сказать точно, релиз мне не показался слабым, проходным и т.д. Я конечно мог перегнуть слегонца про альбом года, бывает, но это все от приятных эмоций, которые дарят вот такие работы.

ЦИТАТА(BullBulator @ 9th November 2018 - 19:33:12) *
Но в целом - как-то всё дико вторично звучит


Прокомментирую эту мысль отдельно. А скажи пожалуйста, что в нашем сегменте, на данный момент, звучит хотя бы чуть-чуть не вторично? Жанровая музыка находится в максимальном кризисе засчет консервативности идей большинства сонграйтеров. Я не понимаю людей, кто высказывает подобные претензии в принципе.

Вот назови мне десятка два проектов, которые хотя бы можно было охарактеризовать как исключение из правил, где саунд-дизайн и сонграйтинг стали хотя бы в этом году прорывными для жанров и которые смогут проложить дорогу и вектор развития для проектов на ближайшие 5-10 лет.
(4) Baudolino, Evjenne, Faust_Vulkan_16, vosmidesijatye,
Nov 9 2018, 08:10:54 Clandestine Blaze - Tranquility Of Death (2018)
ЦИТАТА(Krosis @ 9th November 2018 - 12:09:12) *
тот случай, когда с первой же минуты получаешь именно то, чего ожидаешь


Подписываюсь. Релиз в копилку хороших релизов от Аспы. Очень достойно.
(1) Alexis The Best,
Nov 9 2018, 07:39:43 Новости Black-направления
Dmitry1977,
ЦИТАТА(Dmitry1977 @ 5th November 2018 - 09:46:03) *
Новая Stilla была, не?


Надо будет проверить, транскод мне прислали или нет. И если нет, то я залью
(1) Dmitry1977,
Nov 8 2018, 18:17:39 Evoken - Hypnagogia (2018)
[фанбой_evoken]Лично для меня — один из лучших metal-релизов года.[/фанбой_evoken]

(2) Black Cat, gena,
Nov 8 2018, 16:19:08 VTTA - Там? Где! (2018)
Johnix, Потому, что их покупают. Потому, что кому-то нравится формат
(3) 6666666, Anhra Mainyu, karaczun,
Nov 8 2018, 13:33:37 VTTA - Там? Где! (2018)
Ghostb, Ну ты немного неправильно данный материал воспринимаешь, ставя в пример HSN.

Меж делом, подъехало оформление физ.копий

(12) 6666666, acerbus, Black Cat, Ghostb, judaz, mondblut, Nemez, nsk2008, randyhermit, scorn33, Tular, vosmidesijatye,
Nov 7 2018, 14:48:22 VTTA - Там? Где! (2018)
ЦИТАТА(vosmidesijatye @ 7th November 2018 - 18:43:48) *
Собственное мыслетворчество или ПиаР служба постаралась?


Bandcamp лейбла. Я не столь красноречив, чтобы подобное полотно текстовое состряпать
(1) vosmidesijatye,
Nov 7 2018, 14:23:58 VTTA - Там? Где! (2018)


*Artist: VTTA
*Album: Там? Где!
*Year: 2018
*Genre: Psychedelic/Experimental Black Metal
*Country: Russian Federation
*Format: mp3@CBR320kbps
*Size: 85MB

Tracklist:
01. Там, где зубы измякли 03:09
02. Там, где труден путь 01:26
03. Там, где небо глубже 06:30
04. Там, где завеса краше, а слюна – горче 08:09
05. Там, где мозга последний совет 06:05
06. Там, где истаяла память 08:02
07. Там? Где! 03:07
******************************
Total playing time: 36:28



[more=Extended info]NEN Records представляет альбом сергиево-посадской группы VTTA «Там? Где!», после которого коллектив в нынешнем виде прекращает существование. Проект уходит в небытие на пике формы: даже если закрыть глаза на концептуальную составляющую и ориентироваться только на звук, VTTA записали едва ли не лучший – и уж точно самый неординарный – альбом в отечественном блэк-метале за последние годы. При всей технической изощренности, эти треки ничуть не ставят своей целью поразить слушателя ловкостью, с которой музыканты варьируют темпы, размеры и композиционные ходы. Речь не о технике ради техники: естественным продолжение этой изощренности оказываются драйв и цепкость, с которой пресловутого слушателя умыкают в злой водоворот, давая продохнуть лишь на недолгие интермедии.

Если же принимать в расчет концепцию, то «Там? Где!» гарантированно вызовет, по меньшей мере, раздражение у сторонников классических решений. Альбом структурирован как пьеса – или, если угодно, радиопостановка; монологи героев заполняют пространство между «песнями» или же вклиниваются прямо в их мясо. В персонажах легко узнаются персонажи в духе «Хроник российской саньясы» - незадачливые духовидцы, исследователи «изнанки бытия», а сама пьеса оказывается высказыванием, саркастически заостренным против культа «смертельной серьезности», печально распространенного не только в бм-кругах. Указанная саркастичность не сводит альбом к комикованию, а носит, скорее, рефлексивный характер: VTTA прекрасно осознают то, в каком субкультурном поле работают, проверяют на прочность его границы и предлагают достоверный (в силу той самой рефлексивности) отчет о проделанной работе – в виде макабрической истории о путешествии в мир «метафизического психоза».

Кассета, что не удивительно, издается в форме «лекарственного препарата» с подробной инструкцией по применению. Как замечают сами музыканты, «в мире, где множество людей совершенно непринужденно чувствуют себя здоровой личностью, есть вероятность, что их здоровье заключается лишь в том, что они пока не выходили за рамки собственного восприятия; препарат «Там? Где!» позволяет взглянуть за завесу и крепко задуматься». На результат того, что можно обнаружить по итогам крепких размышлений, намекает пунктуация в названии альбома: не исключено, что там, где мир обнаруживает свою изнанку, остается только кричать.

Занимательный факт: 37-минутный рассказ об «отрыве от привычных представлений» записывался расширенным составом – всемером. Помимо саксофона (часто вы слышите в блэк-метале саксофон?), на альбоме – регулярно звучит голос Полковника Парабеллума из культовой группы Blackdeath. Alle tanzen![/more]

[more=Technical info]
Input File: VTTA - Там! Где- - 04 Там, где завеса краше, а слюна – горче.mp3
Channels : 2
Sample Rate : 44100
Precision : 16-bit
Duration : 00:08:09.09 = 21568913 samples = 36681.8 CDDA sectors
File Size : 19.7M
Bit Rate : 322k
Sample Encoding: MPEG audio (layer I, II or III)
Comments :
Title=Там, где завеса краше, а слюна – горче
Artist=VTTA
Album=Там! Где?
Tracknumber=4
Year=2018

[/more]

Register
(25) 1968_janeart, acerbus, Aresson, artscald, DMIYUR, judaz, marilin, mizantrophist, Moonshtook, nsk2008, Ostinato, Premature_Devotion, ripper33, Rosen, SatanicPanzer, StabWound, stone88, Torlof, umnaxtet, VALERY, vasiljev_sergej, Velmi, vosmidesijatye, yuratroll, Нигилист,
Nov 6 2018, 18:20:10 Flummox - Intellectual Hooliganism (2018)
vosmidesijatye, Я готов ещё согласиться с Art Metal, ибо это квази-жанр (впрочем, как и авангардный метал). Но Art Punk — весьма старый и долгоиграющий жанр, хоть и весьма размытый по факту.


(2) Ghostb, vosmidesijatye,
Nov 6 2018, 18:13:24 Flummox - Intellectual Hooliganism (2018)
KoreanGringo, Math-related материал там то остался, но в целом, конечно, это совершенно иное, нежели то, что раньше играли Daughters.
(2) Ghostb, metala,
Nov 4 2018, 15:39:38 Uratsakidogi - Black Hop (2018)
ЦИТАТА(garmonbozia @ 4th November 2018 - 18:30:40) *
это просто хеpoвый реп.

Это просто реп. А рэп и хип-хоп бывают нормальные, это да crazy.gif
(1) vosmidesijatye,
Nov 1 2018, 08:41:27 The Prodigy - No Tourists (2018)
From WEB:

Register


Обменники нормальные (вроде бы), периодически с них качаю, проблем не было в их использовании и вообще, тот портал, где такие линки размещают, один из самых быстрых по сливу подобного рода музыки.
(20) andivi, Aresson, babanguida, Bruce, FUDEDOR, gena, Infidel, lafuma, Lanceatum, marilin, metala, nikolay81, Orkkh, princeshr, recber, SameMan, xska, yuratroll, zerger, скептик,
Oct 19 2018, 10:53:25 Tezcatlipoca - Tlayohualtlapelani (2018)


*Artist: Tezcatlipoca
*Album: Tlayohualtlapelani
*Year: 2018
*Genre: Black Metal/Folk
*Country: Mexico
*Format: mp3@CBR320kbps
*Size: 116MB

Tracklist:
1. Notlacahcahualiz Ica Yetztli, Cip 05:47
2. Huey Tlatoani 05:46
3. In Tlilihtec Tzompantli 05:43
4. Macuil Xochitl Icic 03:12
5. Chichimeca, Yaotecatl Ayamictlan 06:55
6. In Tzinacan Itlayohualpatlaniliz 05:57
7. Tlacatl Tlein In Mimiqueh Icah Tl 05:49
8. Mictlan Itemouh 03:57
******************************
Total playing time: 43:06



[more=Extended info]Promo stuff

IRON BONEHEAD PRODUCTIONS is proud to present TEZCATLIPOCA's highly anticipated second album, Tlayohualtlapelani, on CD and vinyl LP formats.

Hailing from the fertile Mexican black metal scene, TEZCATLIPOCA create some of the most mystical and mesmerizing sounds emanating from the continent. But, let it be known that TEZCATLIPOCA are staunchly inspired by - and create pagan/folk black metal for - the cult of the ancient Mexicans. War, death, the occult, mythology, and sorcery: all this went into the band's debut album, Ipehualtiyayohually, in 2015. Something of a cult classic for those who had the privilege to hear it, that bold 'n' brazen debut has now been eclipsed by Tlayohualtlapelani.

Once again inspired by the cult of their Mesoamerican ancestors, TEZCATLIPOCA render forth a work that's as dizzying as it is daring, suffused with majesty, supremacy, and cosmic mysticism. Hailing by the title Tlayohualtlapelani, the band's second album billows forth in a haze of '90s-entrenched classicism, but with a distinctly southern flair. Not for them the freezing climes of Mother North, nor even the ancient duskiness of Southern Europe; no, TEZCATLIPOCA exactingly execute a sort of black metal that's muscular and atmospheric in equal measure, igniting a flame that it is a small but significant tribute to the glory of all those who offered their blood to keep the cosmic machinery in motion. Indeed, the fastuosity and mysticism of the old Mexican world infuses TEZCATLIPOCA's music with a characteristic sound both somber and strident, triumphant yet austere: aggressiveness and obscurity collide head on here on Tlayohualtlapelani, with the band's incorporation of native Mexican musical instruments taking center stage as well as the Nahuatl language reinforcing their ideology.

Both aesthetically and sartorially, TEZCATLIPOCA are quite beyond compare in the nowadays black metal scene, especially during the band's live presentations. With iron-fist intent, Tlayohualtlapelani transmits a pride descended from aborigines, especially from Mexican aborigines!

For those who fought in the war!
For those who suffered cold and hunger!
For those who shed their blood!

By the Ancient Mexicans![/more]

[more=Technical info]
Input File: 05 Chichimeca, Yaotecatl Ayamictlan.mp3
Channels : 2
Sample Rate : 44100
Precision : 16-bit
Duration : 00:06:55.16 = 18308556 samples = 31137 CDDA sectors
File Size : 18.9M
Bit Rate : 364k
Sample Encoding: MPEG audio (layer I, II or III)
Comments :
Title=Chichimeca, Yaotecatl Ayamictlan
Artist=Tezcatlipoca (Mexico)
Album=Tlayohualtlapelani
Tracknumber=5

[/more]

Register
(22) 1968_janeart, aesteticvice, Black Cat, Cartman223, Druidir, fabriziomagno, Fryz, igorzz, kauyumari, Mogozoz, Moonshtook, nemx, Ostinato, Phlebotomized, Radek, Rosen, satanath, SilentNidhogg, VALERY, varg-38ru, vasiljev_sergej, xska,
Oct 18 2018, 18:20:11 Shining - Animal (2018)
ЦИТАТА(wolverine @ 18th October 2018 - 21:46:41) *
another poser band


Delicious. Love this stuff. And who cares what is norwegian Shining is. You do not care that as performers they are head and shoulders above their colleagues from Sweden. Keep it up
(1) Ghostb,
Oct 18 2018, 13:15:13 Shining - Animal (2018)
Считаю, что теме место в формате (что и оформил, в общем то).

Звучит странно. Мне кажется, что на этот релизе Shining решили заигрывать с синтвэйвом в духе последнего Carpenter Brut, только упор сделать именно на ту музыку, что вдохновляла частично CB.

Релиз, без сомнений, нужно переслушать будет со временем ещё пару раз.

UPD: Назвать этот релиз "модерн металом" у меня бы язык не повернулся. Он как раз таки противопоставляет себя во всем данному ярлыку и пропитан ностальгией на 101%
(4) aesteticvice, Foneg, Ghostb, Tular,
Oct 18 2018, 11:14:41 Gorod - Æthra (2018)
ЦИТАТА(Hallelucination @ 18th October 2018 - 14:33:52) *
Модераторам понадобилось всего лишь 16 часов


Простои бывают и больше, ибо у всех есть RL-дела. Это не оправдание, а как факт.

Да и тут вообще стоило бы подождать HQ-релиз, конечно. Делать стрим/ютуб-рипы — вообще какая-то порочная практика абсолютно.
(3) elsunga, Hallelucination, older68,
Oct 17 2018, 10:03:54 Eosphoros - Eosphoros (2018)


*Artist: Eosphoros
*Album: Eosphoros
*Year: 2018
*Genre: Black Metal
*Country: United States
*Format: mp3@CBR320kbps
*Size: 121MB

Tracklist:
01. Promethean Fire 06:11
02. Dross 07:28
03. Trance of Annihilation 07:10
04. Feral Heart 06:58
05. Solitude 06:24
06. Sylvan Apotheosis 10:56
******************************
Total playing time: 45:07



[more=Extended info]Promo stuff

IRON BONEHEAD PRODUCTIONS is proud to present EOSPHOROS' striking debut album, Eosphoros, on CD and vinyl LP formats.

EOSPHOROS hail from Portland, Oregon and formed in 2016. Although an otherwise-new entity, the band houses a wealth of experience in the thriving Pacific Northwest underground, including as they do ex-members of SHROUD OF THE HERETIC, Triumvir Foul, and Shrine of the Serpent. Whilst retaining suitably comparable levels of griminess of the aforementioned, as EOSPHOROS, the power-trio exude a surging 'n' spectral sort of mysticism, grounded in the ancient black metal of the 1990s (particularly in southern Europe) but wholly brimming with the esotericism that's brought the Pacific Northwest BM scene to international attention.

Comprising six epic-length songs in a sinuous 46 minutes, Eosphoros is the epitome of album-length journey. With wanderlust as their only guide, EOSPHOROS dig deep and dredge forth a feral intensity that forever coils, like the mighty Ouroboros, whipping forth delirium and diabolism in equal measure. But, for however hysteric their attack may be, the band never sacrifice dynamics, offering just as much light as shade; not for nothing are they guided by the illuminating light of Lucifer. Those component tracks - "Promethean Fire," "Dross," "Trance of Annihilation," "Feral Heart," "Solitude," and "Sylvan Apotheosis" - are all as aptly titled as the next, evoking the same illumination, the same wanderlust unto delirium, that has guided EOSPHOROS from the beginning...only now, those fires burn brighter than ever.

EOSPHOROS light a unique torch with their self-titled album: will you take that torch, or get burned?[/more]

[more=Technical info]
Input File: 02 Dross.mp3
Channels : 2
Sample Rate : 44100
Precision : 16-bit
Duration : 00:07:28.29 = 19769413 samples = 33621.5 CDDA sectors
File Size : 21.0M
Bit Rate : 375k
Sample Encoding: MPEG audio (layer I, II or III)
Comments :
Title=Dross
Artist=Eosphoros
Album=Eosphoros
Tracknumber=2

[/more]

Register
(32) 1968_janeart, acerbus, aesteticvice, Boozer, Doooomed, Evilded, gena, Indamage, judaz, kim666, Korpse, LEGION69, murian, nemx, Ostinato, peppuzzo, ripper33, Rosen, sandr666, serach, sethurius, SilentNidhogg, stub888, suseka, thenecromancer, toly1917, troll_swamp, VALERY, varg-38ru, vasiljev_sergej, vovenom, Wolftribes,
Oct 15 2018, 16:07:49 Rodent Epoch - Rodentlord (2018)
Очень добротный релиз
(1) nsk2008,
Oct 11 2018, 13:59:04 Pa Vesh En - Church Of Bones (2018)


*Artist: Pa Vesh En
*Album: Church Of Bones
*Year: 2018
*Genre: Raw Black Metal
*Country: Belarus
*Format: mp3@CBR320kbps
*Size: 90MB

Tracklist:
1. The Wilderness of Cursed Souls 07:06
2. A Funeral Procession 05:03
3. La Valse Macabra 04:16
4. Pale Body Desecration 05:33
5. The Venom Seed 04:01
6. My Obscure Obsession 08:08
7. With Pain He Waits in Vain 02:52
******************************
Total playing time: 36:59



[more=Extended info]Promo stuff

IRON BONEHEAD PRODUCTIONS is proud to present PA VESH EN's highly anticipated debut album, Church of Bones, on CD and vinyl LP formats.

2018 has already been an extremely busy year for PA VESH EN. In the span of six months, this singular 'n' shadowy entity from Belarus released through IRON BONEHEAD the Dead Womb demo, the two-song A Ghost 7", and a split album with TEMPLE MOON. Each step of the way, PA VESH EN has exhibited a stark 'n' unsettling style of black metal. From stifled-violence miserablism to seemingly formless drift, from bent-askew melodicism to echo-chamber murk, always with a tortured soul guiding everything, he's almost effortlessly created a soundworld beyond compare - and has done so with the restlessness of a lost specter.

Now arrives Church of Bones, proving with no small amount of finality that PA VESH EN is creating some of the most mysterious and vital black metal of modern times. At seven songs spanning 37 minutes, Church of Bones feels far more vast than its otherwise-compact runtime suggests. If the preceding split with TEMPLE MOON marked a momentous shift toward total and utter desolation, then PA VESH EN dives deepest - and equally, both in manner and quality - into both the fog and the murk here, further developing that malodorous melodicism that likewise crept forth on the split. Returning to misery and comfort (and the comfort of misery), the long 'n' languorous landscapes laid out across Church of Bones beckon the listener in a most seductive manner, all before those cursed tendrils ensnare the subconscious and suck it dry, any last semblance of hope extinguished. This celestial drift-unto-descent feels somewhat familiar in the grand scheme of black metal which uses rawness as a weapon, and yet there's that elusive X-factor (or, literally, just literal elusiveness) that makes PA VESH EN sound completely and utterly ALIEN.

Either way, PA VESH EN has triumphed with the masterful Church of Bones, truly finding his voice and singing the most damned songs. Will you enter that church and join in the choir?[/more]

[more=Technical info]
Input File: 04 Pale Body Desecration.mp3
Channels : 2
Sample Rate : 44100
Precision : 16-bit
Duration : 00:05:32.66 = 14670350 samples = 24949.6 CDDA sectors
File Size : 14.2M
Bit Rate : 341k
Sample Encoding: MPEG audio (layer I, II or III)
Comments :
Title=Pale Body Desecration
Artist=Pa Vesh En
Album=Church of Bones
Tracknumber=4

[/more]

Register
(31) 1968_janeart, Amsterdam, Aresson, Boozer, draht, dsword, FUDEDOR, garmonbozia, gena, heinz88, Hell_Is_Here, Incantatore, iteration666, judaz, kim666, Lamby90, Moonshtook, nemx, nsk2008, Panacea, raaf, Rosen, satanath, satanist666, SilentNidhogg, Storky, Tyrone, VALERY, varg-38ru, vasiljev_sergej, vovenom,
Oct 8 2018, 07:10:55 Uratsakidogi - Black Hop (2018)
ЦИТАТА(hammer @ 7th October 2018 - 21:05:05) *
дико оригинально

15.gif

По сабжу, с точки зрения иронии над жанром — ну, такое себе. Как отдельное музыкальное произведения — лично мне совершенно не понравилось, ибо мне как хип-хоп это очень скучно, даже в столь экспериментальной форме.
(1) Alexis The Best,
Sep 26 2018, 09:52:12 Dakhma - Hamkar Atonement (2018)
Крутейший релиз, вообще без вопросов
(1) Leshiy666,
Sep 25 2018, 18:16:58 Новости Black-направления
С разочарованием сообщаю, что больше промки не получаю. Из-за постоянных сливов в VK (при этом не с нашей стороны) менеджером лейбловым было принято решение не выделять нам промок более. Ибо они не видят в этом пользы.

Там вообще, весьма ситуация печальная, где в очередной раз подтвердилось все, что я слышу периодически от представителей лейблов. Такие дела.

Музыки, конечно, меньше крутой и в нормальном качестве особо не станет, но релизы IB видимо теперь долго ждать будем всегда, ибо как я заметил, не особо то их цифру покупают здесь.
(1) Occultas,
Sep 22 2018, 21:41:39 Cultes Des Ghoules - Sinister, Or Treading The Darker Paths (2018)
Вот сижу и читаю: переоцененные.

Переоцененные по отношению к чему? Кем? По какой причине? Какими критериями эта переоцененность измеряется и в чем выражается?
(2) Chasm, gena,
Sep 22 2018, 16:16:14 Cultes Des Ghoules - Sinister, Or Treading The Darker Paths (2018)
biroutios, For seven years here I was able to understand one thing: do not try to explain to someone that there are different tastes.

P.S. Sorry for bad english
(3) biroutios, mardak666, sethurius,

30 Pages V   1 2 3 > » 
- Lo-Fi Version Support form
Copyrights and abuse reports form
Time is now: 14th November 2018 - 07:28:33