Welcome Guest ( Log In | Register )

История благодарностей участнику Daale ::: Спасибо сказали: 10474 раз(а)
Дата поста: В теме: За сообщение: Спасибо сказали:
Feb 15 2020, 19:50:00 Лучший советчик МА - Часть 5 (Прог) - Тур 2, Рейтингование
ЦИТАТА(Фо @ 15th February 2020 - 23:46:55) *
А искусство, не как мастерство, а как субъект для восприятия и релаксации, по началу создаёт природа


Ох, пожалуйста, давай не будем ещё начинать, что искусство — высшая сфера, снизошедшая извне. Природа не создает искусство. Если природа что-то и создает, то только субъективное восприятие человека формирует данный объект как искусство. Ибо самая концепция искусства, повторюсь, это сугубо человеческая вещь.
(2) Emm Human, infiltrator,
Feb 15 2020, 19:22:06 Wulkanaz - HaglaNaudizEisaz (2012)
FLAC

Register
(2) acerbus, elsunga,
Feb 15 2020, 19:20:36 Sg.7 - .​.​.​jotta Minä Ymmärtäisin [demo] (2020)


*Artist: Sg.7
*Album: .​.​.​jotta Minä Ymmärtäisin [demo]
*Year: 2020
*Genre: Black Metal
*Country: Finland
*Format: mp3@CBR320kbps
*Size: 69MB

Tracklist:
01. I 06:12
02. II 06:44
03. III 06:28
04. IV 07:55
******************************
Total playing time: 27:19



[more=Extended info]Personal purchase[/more]

[more=Technical info]
Input File: sg.7 - ...jotta minä ymmärtäisin - 03 III.mp3
Channels : 2
Sample Rate : 44100
Precision : 16-bit
Duration : 00:06:28.10 = 17115034 samples = 29107.2 CDDA sectors
File Size : 15.7M
Bit Rate : 323k
Sample Encoding: MPEG audio (layer I, II or III)
Comments :
Title=III
Artist=sg.7
Album=...jotta minä ymmärtäisin
Tracknumber=3
Year=2020

[/more]

Register
(38) 1968_janeart, acerbus, Alexis The Best, alikkon, Asketto, ASkyThatBurns, craP_cillA, elsunga, exorcist1969, Frozenkult, Fryz, garmonbozia, infiltrator, kim666, LEGION69, LVXXVL, Moonshtook, Mortuusinfernus, morve, nemx, Olethros, Raw1488, rimfrost, Rosen, Rudolfo_Metal, RUSP73, SaintVitus, satanist666, squall8fr, stub888, thenecromancer, VALERY, vasiljev_sergej, vovenom, Wolftribes, wolverine, ZA670, Авел,
Feb 15 2020, 17:24:25 Новости Black-направления
Чуть позже запилю новые Wulkanaz и sg.7 (проект Spellgoth'а из Horna)
(6) babanguida, infiltrator, Occultas, rimfrost, vovenom, wolverine,
Feb 15 2020, 17:18:40 Ulver - Russian Doll [single] (2020)
gnosiis, Тут без неожиданностей, как по мне — Coil оказали на Ulver огромнейшее влияние. Это вполне заметно по альбому 2000 года, например. Он правда более такой урбанистичный, в отличии от фантасмагоричного саунда Coil. Но так или иначе.
(1) Ghostb,
Feb 15 2020, 14:53:49 Ulver - Russian Doll [single] (2020)
ЦИТАТА(atom72 @ 15th February 2020 - 16:25:50) *
Daale, может и так, но сотрудничество Гарма с Франком Уэзо говорит о том что волки сильно увлеклись ностальгической поп музыкой. Не удивлюсь если следующий альбом будет воздавать дань берлинской электронике или Вангелису.


Пропустил. Судя по фото, у них там что-то пока непонятное намечается. Опять гитарки вроде будут. Посмотрим, я любой материал от них так или иначе жду
(1) Ghostb,
Feb 15 2020, 14:49:39 Ulver - Russian Doll [single] (2020)
В очередной раз проигрываю с комментариев.
(1) Ghostb,
Feb 15 2020, 10:11:49 Lugubrum - Plage Chômage (2020)
babanguida, I see in this stuff some black-related. Small amount but it's black metal-related to me.
(2) babanguida, infiltrator,
Feb 15 2020, 07:41:32 Lugubrum - Plage Chômage (2020)
babanguida, Genre crossovers at this angle — max experimental stuff.
(2) babanguida, infiltrator,
Feb 13 2020, 16:19:50 Lugubrum - Plage Chômage (2020)


*Artist: Lugubrum
*Album: Plage Chômage
*Year: 2020
*Genre: Experimental Black Metal
*Country: Belgium
*Format: mp3@CBR320kbps
*Size: 83MB

Tracklist:
01. Plage chômage 07:22
02. Seelenglut 05:08
03. Foefganger 05:03
04. Muzzammil 05:37
05. Goldhut 05:42
06. Fatty Streak 06:33
******************************
Total playing time: 35:25



[more=Extended info]Personal purchase[/more]

[more=Technical info]
Input File: Lugubrum - Plage Chômage (2020) - 04 Muzzammil.mp3
Channels : 2
Sample Rate : 44100
Precision : 16-bit
Duration : 00:05:37.96 = 14904212 samples = 25347.3 CDDA sectors
File Size : 13.6M
Bit Rate : 321k
Sample Encoding: MPEG audio (layer I, II or III)
Comments :
Title=Muzzammil
Artist=Lugubrum
Album=Plage Chômage (2020)
Tracknumber=4
Year=2020

[/more]

Register
(43) 1968_janeart, acerbus, Ainar, alikkon, Angry_Chair, Aresson, as71, ASkyThatBurns, atavist, cancer1974, Evilded, garmonbozia, Geisteswaffe, gena, igorzz, Infidel, infiltrator, Irimias, judaz, Kazoth, Kehl05, lucifix, mad, marilin, metala, Moonshtook, Olethros, Ostinato, Rosen, Samaritianin, satanist666, Shadechaser, smes, stub888, suseka, the_cleanser, Torlof, VALERY, vasiljev_sergej, Velmi, xska, yuratroll, Нигилист,
Feb 13 2020, 16:14:15 Kneel - Infinite Worship, Slaves Eternal [ep] (2020)


*Artist: Kneel
*Album: Infinite Worship, Slaves Eternal [ep]
*Year: 2020
*Genre: Black Metal
*Country: United States
*Format: mp3@CBR320kbps
*Size: 48MB

Tracklist:
01. Infinite Worship, Slaves Eternal 07:50
02. Breaking Knees Devotion 05:28
03. Clasped Hands a Molten Spire 05:11
******************************
Total playing time: 18:29



[more=Extended info]Personal purchase[/more]

[more=Technical info]
Input File: KNEEL - Infinite Worship, Slaves Eternal - 02 Breaking Knees Devotion.mp3
Channels : 2
Sample Rate : 44100
Precision : 16-bit
Duration : 00:05:28.64 = 14492936 samples = 24647.9 CDDA sectors
File Size : 13.3M
Bit Rate : 323k
Sample Encoding: MPEG audio (layer I, II or III)
Comments :
Title=Breaking Knees Devotion
Artist=KNEEL
Album=Infinite Worship, Slaves Eternal
Tracknumber=2
Year=2020

[/more]

Register
(19) 1968_janeart, ASkyThatBurns, caro, Frozenkult, infiltrator, kim666, Olethros, Ostinato, rickzammuto, Rita, Rosen, satanist666, Spork, stub888, Surt, VALERY, vasiljev_sergej, Velmi, Wail,
Feb 13 2020, 16:05:26 Cénotaphe - Monte Verità (2020)


*Artist: Cénotaphe
*Album: Monte Verità
*Year: 2020
*Genre: Black Metal
*Country: France
*Format: mp3@CBR320kbps
*Size: 106MB

Tracklist:
01. Myosis 06:57
02. Aux cieux antérieurs 04:27
03. L'oeuf de mammon 03:42
04. De mon promontoire astral 06:53
05. Intolérante thébaide 04:41
06. Ne m'oubliez 06:51
07. Emersion 05:44
08. Monte Verità 06:52
******************************
Total playing time: 46:07



[more=Extended info]Personal purchase[/more]

[more=Technical info]
Input File: Cénotaphe - Monte Verità - 04 Cénotaphe - 04- De mon promontoire astral.mp3
Channels : 2
Sample Rate : 44100
Precision : 16-bit
Duration : 00:06:53.31 = 18226795 samples = 30998 CDDA sectors
File Size : 16.6M
Bit Rate : 322k
Sample Encoding: MPEG audio (layer I, II or III)
Comments :
Title=De mon promontoire astral
Artist=Cénotaphe
Album=Monte Verità
Tracknumber=4
Year=2020

[/more]

Register
(50) 1968_janeart, 6666666, acerbus, alikkon, atavist, autumnwood, babanguida, Barbiturat, biroutios, cryptal, exorcist1969, Femto, Frozenkult, Fryz, garmonbozia, Grogro, infiltrator, judaz, Kehl05, kim666, Lamby90, lestllk, lucifix, mad, Moonshtook, morve, multizwilling, nadin85, nemx, nsmetalhead, Olethros, Olguard, Ostinato, Premature_Devotion, rammmirez, rimfrost, Rita, Rosen, satanist666, stub888, Surt, suseka, VALERY, vasiljev_sergej, vovenom, Vraithee, waltergehtwahlen, wolverine, xska, Авел,
Feb 3 2020, 16:15:23 Лучший советчик МА - Часть 5 (Прог) - Тур 2, Рейтингование
Читаешь некоторые комментарии, не буду показывать пальцем и становится как-то стремно даже в одном топике находиться.
(2) Black Cat, infiltrator,
Feb 2 2020, 16:59:23 Лучший советчик МА - Часть 5 (Прог) - Тур 2, Рейтингование
ЦИТАТА(mirotvorets @ 2nd February 2020 - 20:42:59) *
Я бы так не смог.


Не представляю, как можно оценить релиз, в особенности концептуальный, например, таким подходом. Да даже простой набор песен весьма вариативен.
(3) Deze, infiltrator, mirotvorets,
Jan 31 2020, 22:28:59 Pantheon Of Blood - Voices Rooted In Blood [compilation] (2020)


*Artist: Pantheon Of Blood
*Album: Voices Rooted In Blood [compilation]
*Year: 2020
*Genre: Black Metal
*Country: Finland
*Format: mp3@CBR320kbps
*Size: 99MB

Tracklist:
01. Kolmas silmä maan tuhcasta 04:44
02. Vanha liitto 04:35
03. Overflowing Manifestation 03:27
04. The Crimson Empress of Night 04:21
05. Deux Ex Naturae 04:39
06. The Pagan Light 03:56
07. The Dead End 04:31
08. Ma-Kâram 03:07
09. Incantation in Blood 03:46
10. Awakening 03:02
******************************
Total playing time: 40:08



[more=Extended info]Personal purchase[/more]

[more=Technical info]
Input File: PANTHEON OF BLOOD - Voices Rooted in Blood - 05 Deux Ex Naturae.mp3
Channels : 2
Sample Rate : 44100
Precision : 16-bit
Duration : 00:04:39.06 = 12306326 samples = 20929.1 CDDA sectors
File Size : 11.4M
Bit Rate : 326k
Sample Encoding: MPEG audio (layer I, II or III)
Comments :
Title=Deux Ex Naturae
Artist=Pantheon of Blood
Album=Voices Rooted in Blood
Tracknumber=5
Year=2020

[/more]

Register
(35) 1968_janeart, acerbus, alikkon, ASkyThatBurns, Boozer, cist, craP_cillA, Dmitry1977, elsunga, garmonbozia, gena, Hell_Is_Here, infiltrator, kim666, lestllk, Maximvs, Moonshtook, morbidangelo, multizwilling, nemx, Olethros, Ostinato, rimfrost, ripper33, Rosen, SaintVitus, satanist666, SilentNidhogg, smysl, stub888, thenecromancer, VALERY, vasiljev_sergej, Velmi, Wail,
Jan 30 2020, 22:15:54 White Medal - Division : Yorkshire [ep] (2020)


*Artist: White Medal
*Album: Division : Yorkshire [ep]
*Year: 2020
*Genre: Raw/Atmospheric Black Metal/Punk Rock
*Country: United Kingdom
*Format: mp3@CBR320kbps
*Size: 37MB

Tracklist:
01. Tightest Grip 04:12
02. Division Yorkshire 04:02
03. Devoid Of Darkness 06:05
******************************
Total playing time: 14:19



[more=Extended info]Personal purchase[/more]

[more=Technical info]
Input File: White Medal - Division - Yorkshire - 02 Division Yorkshire.mp3
Channels : 2
Sample Rate : 44100
Precision : 16-bit
Duration : 00:04:02.53 = 10695749 samples = 18190 CDDA sectors
File Size : 9.84M
Bit Rate : 325k
Sample Encoding: MPEG audio (layer I, II or III)
Comments :
Title=Division Yorkshire
Artist=White Medal
Album=Division : Yorkshire
Tracknumber=2
Year=2020

[/more]

Register
(29) 1968_janeart, acerbus, ASkyThatBurns, Boozer, Borderline1991, canadaspaceman, caro, Forrrrest, Fryz, FUDEDOR, garmonbozia, gena, infiltrator, kim666, lestllk, LVXXVL, mondblut, nemx, Ostinato, Rosen, SaintVitus, SameMan, stub888, suseka, the_cleanser, Tular, varlam4, vasiljev_sergej, Wolfera,
Jan 29 2020, 16:17:32 Новости Black-направления
А по-моему весьма аутентичный роу бм
(5) energo68, infiltrator, mondblut, Occultas, vosmidesijatye,
Jan 20 2020, 20:09:30 Лучший советчик МА - Часть 5 (Прог) - Тур 2, Рейтингование
Пока получаю строго единицы. Ну, уже лучше, нежели 0 20.gif
(1) Emm Human,
Jan 18 2020, 21:15:38 Лучший советчик МА - Часть 5 (Прог) - Тур 2, Рейтингование
Я много из списка слышал, но мои компетенции здесь, в сравнении с бм, весьма низки. Посему, буду очень плотно засыпать, наверное, двойками. Постараюсь все послушать как всегда вовремя
(3) Deze, infiltrator, Penetralia,
Jan 18 2020, 12:00:17 Новости Black-направления
Если что, я дичайше угарел

[youtube]bEoeridrJd4[/youtube]
(4) Cosmic_Sorcerer, infiltrator, Moonshtook, Фо,
Jan 18 2020, 09:11:53 Porta Nigra - Schöpfungswut (2020)
Полностью согласен с тезисом выше, что альбом отклонился от той линии, что придерживался на первом альбоме и ушел в более традиционное русло.
(1) Ghostb,
Jan 16 2020, 20:28:49 Лучший советчик МА - Часть 5 (Прог) - Тур 1, Общий сбор
В бм все тоже было неплохо, просто без Selbst не так плотно 1488.gif
(1) Deze,
Jan 16 2020, 18:05:45 Thy Rites - Necrospells Fom Hell [compilation] (2020)


*Artist: Thy Rites
*Album: Necrospells Fom Hell [compilation]
*Year: 2020
*Genre: Black/Death Metal
*Country: Brazil
*Format: mp3@CBR320kbps
*Size: 88MB

Tracklist:
01. Horns Up (Intro) 01:39
02. Necrosancti Fasciitis Spiritus 05:23
03. Altar of Satanic Sacrifice 07:42
04. Rise the Chalice of Doom 05:50
05. Bloodshed Visions 03:23
06. Summoning the Abominations Curse 03:15
07. Obliteration of the Holy Scum 03:20
08. Thy Infernal Coronation 03:25
09. Beasts by Bloodlust 03:23
******************************
Total playing time: 37:20



[more=Extended info]Personal purchase[/more]

[more=Technical info]
Input File: Deathcamp Records - THY RITES - -Necrospells fom Hell- - 04 Rise the Chalice of Doom.mp3
Channels : 2
Sample Rate : 44100
Precision : 16-bit
Duration : 00:05:50.92 = 15475660 samples = 26319.1 CDDA sectors
File Size : 14.2M
Bit Rate : 324k
Sample Encoding: MPEG audio (layer I, II or III)
Comments :
Title=Rise the Chalice of Doom
Artist=Thy Rites
Album=Necrospells fom Hell
Tracknumber=4
Year=2020

[/more]

Register
(20) ASkyThatBurns, canadaspaceman, craP_cillA, DOOMORDER, Hell_Is_Here, infiltrator, kim666, Ludwig Hagen, multizwilling, Olethros, Rosen, satanist666, scorpionmk, SilentNidhogg, supremo, THROWER666, VALERY, vasiljev_sergej, Wail, wanderer73,
Jan 15 2020, 18:32:31 Лучший советчик МА - Часть 5 (Прог) - Тур 1, Общий сбор
vosmidesijatye, Предлагаю привести полноценные паттерны жанровые, чтобы охарактеризовать авангард метал, как явление. Попробовать сформировать кагорту исполнителей, которые схожих принципов придерживались бы без отклонений. Вывести так сказать жанровую норму и сформировать его.

ЦИТАТА(mirotvorets @ 15th January 2020 - 22:28:53) *
Не задавай этого вопроса Daale.


Когда-нибудь выпущу книгу: 100 вопросов, которые не следует мне задавать. Этот будет на 13 позиции 1488.gif
(2) Deze, infiltrator,
Jan 15 2020, 18:20:40 Лучший советчик МА - Часть 5 (Прог) - Тур 1, Общий сбор
ЦИТАТА(mirotvorets @ 15th January 2020 - 21:56:30) *
Avant-Garde Metal


Такого жанра не существует, это просто прог-метал 1488.gif К слову, западные слушатели все чаще используют experimental metal, ибо он хоть туда-сюда, но имеет место быть. Eng-wiki тоже потихоньку редачится в этом направлении
(2) Deze, infiltrator,

44 Pages V   1 2 3 > » 
- Lo-Fi Version Support form
Copyrights and abuse reports form
Time is now: 18th February 2020 - 19:33:16