Welcome Guest ( Log In | Register )

История благодарностей участнику Daale ::: Спасибо сказали: 5512 раз(а)
Дата поста: В теме: За сообщение: Спасибо сказали:
Yesterday, 21:41:39 Cultes Des Ghoules - Sinister, Or Treading The Darker Paths (2018)
Вот сижу и читаю: переоцененные.

Переоцененные по отношению к чему? Кем? По какой причине? Какими критериями эта переоцененность измеряется и в чем выражается?
(2) Chasm, gena,
Yesterday, 16:16:14 Cultes Des Ghoules - Sinister, Or Treading The Darker Paths (2018)
biroutios, For seven years here I was able to understand one thing: do not try to explain to someone that there are different tastes.

P.S. Sorry for bad english
(3) biroutios, mardak666, sethurius,
Yesterday, 10:00:19 Cultes Des Ghoules - Sinister, Or Treading The Darker Paths (2018)
sethurius,
ЦИТАТА(sethurius @ 22nd September 2018 - 12:57:44) *
уровень композиторского мастерства предельно низок


Вот с этим тезисом абсолютно не согласен как раз.
(1) babanguida,
Sep 21 2018, 19:18:40 Cultes Des Ghoules - Sinister, Or Treading The Darker Paths (2018)
Эх, а я думал до 23 подождать.
(1) babanguida,
Sep 18 2018, 21:38:22 Cosmic Void Ritual - Grotesque Infections Of Planetary Divide [ep] (2018)


*Artist: Cosmic Void Ritual
*Album: Grotesque Infections Of Planetary Divide [ep]
*Year: 2018
*Genre: Death Metal
*Country: United States
*Format: mp3@CBR320kbps
*Size: 52MB

Tracklist:
1. Intestinal Rituals 04:12
2. Interplanetary Seeds 05:29
3. Cataclysmic Brutality 04:37
4. Charred Asteroid Fields 04:23
******************************
Total playing time: 18:41



[more=Extended info]Promo stuff

IRON BONEHEAD PRODUCTIONS is proud to present COSMIC VOID RITUAL's highly anticipated debut mini-album, Grotesque Infections of Planetary Divide, on CD and 12" vinyl formats.

The sole work of one Unknown Entity, in its short lifespan, COSMIC VOID RITUAL has already released three demos, each one as provocatively titled as the next - Gateways Through Septic Flesh, Transcendence Through Galactic Death, and the IRON BONEHEAD-released Vitriol Tablet Instructions: Rehearsing Speeches For When You Die - as well as a split with Mark Riddick's Fetid Zombie, most recently. Across all those works was a decidedly bizarre yet resolutely raw form of death metal, harkening to short-lived cults of the '90s yet exhibiting a totally terrifying identity all its own. Alas, all coalesces into COSMIC VOID RITUAL's Grotesque Infections of Planetary Divide.

Once again, Unknown Entity has exercised keen judgment in titling this work Grotesque Infections of Interplanetary Divide: its four songs are indeed grotesque, and most certainly do they impart a cosmic aspect that's as primordial as it is post-futuristic. Utterly raw and rotten, here COSMIC VOID RITUAL shapeshift all sorts of vulgar shapes, its death metal filth turned inside out as tendrils of lurking dread encase the listener in a cocoon of nameless horror. Just like its evocative cover art, Grotesque Infections of Interplanetary Divide resides within a monochromaticism that's paradoxically visual; the ceaselessly slipstreaming sturm und klang of it all imparts a madness that's seemingly random, but comes into clearer focus the deeper one drowns within the cavern of said cocoon. The question, then, is not simply whether you will eventually emerge but, rather, how.

"Intestinal Rituals," "Interplanetary Seeds," "Cataclysmic Brutality," and especially "Charred Asteroid Fields": these are the four Grotesque Infections of Interplanetary Divide that COSMIC VOID RITUAL conjures. How will YOU emerge?[/more]

[more=Technical info]
Input File: 02 Interplanetary Seeds.mp3
Channels : 2
Sample Rate : 44100
Precision : 16-bit
Duration : 00:05:29.14 = 14514986 samples = 24685.4 CDDA sectors
File Size : 15.6M
Bit Rate : 378k
Sample Encoding: MPEG audio (layer I, II or III)
Comments :
Title=02 Interplanetary Seeds
Artist=Cosmic Void Ritual
Album=Grotesque Infections Of Interplanetary Divide 12" MLP/MCD
Tracknumber=2

[/more]

Register
(16) Amsterdam, Beazth, Doooomed, Evilded, gena, helvetestoner, ingram, marilin, metala, Occultas, older68, Ostinato, Rosen, RUSP73, Samaritianin, VALERY,
Sep 17 2018, 09:38:51 Carved Cross - The Yawning Abyss Of Perdition (2018)
ЦИТАТА(ripper33 @ 17th September 2018 - 13:34:06) *
Музыка говно

Дальше можно не читать, а в особенности объяснять что-то про ценность чего-либо с суждениями уровня "говно/не говно".
(1) sethurius,
Sep 15 2018, 09:06:17 Selbst - Secular Compendium [compilation] (2018)


*Artist: Selbst
*Album: Secular Compendium [compilation]
*Year: 2018
*Genre: Black Metal
*Country: Chile
*Format: mp3@CBR320kbps
*Size: 124MB

Tracklist:
1. Veritas Filia Temporis I 09:45
2. Veritas Filia Temporis II 13:35
3. Slave Cults of Idolatry 10:32
4. Ninguna Devocion 09:27
5. Bringers of Misery 10:30
******************************
Total playing time: 53:49

[more=Extended info]Promo stuff

SUN & MOON RECORDS is proud to present SELBST's Secular Compendium on high-quality digipack CD. This is an essential collection of SELBST's rare and hard-to-find songs, totally remastered in 2018 by Empty Hall Studio.

Amazing black metal from this Venezuealan/Chilean band: a must-have release for all SELBST fanatics, and those who regard black metal art on a high level![/more]

[more=Technical info]
Input File: 03 Slave Cults of Idolatry.mp3
Channels : 2
Sample Rate : 44100
Precision : 16-bit
Duration : 00:10:32.75 = 27904275 samples = 47456.2 CDDA sectors
File Size : 25.4M
Bit Rate : 321k
Sample Encoding: MPEG audio (layer I, II or III)
Comments :
Title=Slave Cults of Idolatry
Artist=Selbst
Album=Secular Compendium
Tracknumber=3
Year=2018

[/more]

Register
(26) 1968_janeart, A.L.Rapsod, abob, acerbus, andeimon, Black Cat, Boozer, Doooomed, Eugenio, garmonbozia, kim666, marilin, Maximvs, nadin85, nsk2008, Ostinato, RADeus, ripper33, Rosen, SilentNidhogg, VALERY, varg-38ru, vasiljev_sergej, volostakoeto, ZambuL, Келебрин,
Sep 14 2018, 07:51:20 Burial Hordes - Θανατος Αιωνιος (The Termination Thesis) (2018)
Folter Records вчера дропнули просто две бомбы (как минимум то, что я успел послушать). Первая — итальянцы Kult, а вот вторая — данный релиз. Очень редко (читай, что почти никогда) не был разочарован в продукции лейбла и эти музыканты закрепили вчера это чувство.
(2) Dmitry1977, judaz,
Sep 13 2018, 12:18:44 Bosse-De-Nage - Further Still (2018)


*Artist: Bosse-De-Nage
*Album: Further Still
*Year: 2018
*Genre: Experimental Black Metal
*Country: United States
*Format: mp3@CBR320kbps
*Size: 104MB

Tracklist:
1. The Trench 05:10
2. Down Here 03:48
3. Crux 03:57
4. Listless 04:17
5. Dolorous Interlude 03:52
6. My Shroud 06:23
7. Sword Swallower 04:20
8. Vestiges 05:03
9. A Faraway Place 06:53
******************************
Total playing time: 43:43



[more=Technical info]
Input File: 03 Crux.mp3
Channels : 2
Sample Rate : 44100
Precision : 16-bit
Duration : 00:03:58.04 = 10497564 samples = 17853 CDDA sectors
File Size : 9.86M
Bit Rate : 331k
Sample Encoding: MPEG audio (layer I, II or III)
Comments :
Title=Crux
Artist=Bosse-de-Nage
Album=Further Still
Tracknumber=3/9
Year=2018
Genre=Metal
Discnumber=1/1

[/more]

Register
(23) 1968_janeart, acerbus, Amsterdam, Black Cat, Femto, homelike, KoreanGringo, kyrkovisan, marilin, metala, murian, nemx, nsk2008, Ostinato, Rosen, SilentNidhogg, sksxxx, stub888, Tyrone, VALERY, vasiljev_sergej, xska, yuratroll,
Sep 13 2018, 10:05:46 Abhorrence - Megalohydrothalassophobic [ep] (2018)
Golodomor, Вроде как обещали, а EP — проба пера.

ЦИТАТА
Ветераны особо не распылялись творчеством 1488.gif , видимо поэтому удалось сохранить былой подход к сочинению.


Тут помимо прочего ещё в их пользу сыграл тот факт, что они смогли сохранить почти весь состав оригинальный. Из новых людей — ударник Paradise Lost и Vallenfyre.
(1) Alexis The Best,
Sep 13 2018, 08:20:29 Abhorrence - Megalohydrothalassophobic [ep] (2018)
Dmitry1977, Я на большое знание внутри жанра не претендую (хотя тайтлов и т.д. отслушал очень много),но мне релиз также понравился. Периодически в дороге его с собой возил, с момента как получил промо.

Жду альбом теперь, однозначно. Старички не подвели.
(1) defamer666,
Sep 12 2018, 21:49:21 Witch King - Voice Of The Ossuary (2018)


*Artist: Witch King
*Album: Voice Of The Ossuary
*Year: 2018
*Genre: Blackened Death Metal
*Country: United States
*Format: mp3@CBR320kbps
*Size: 86MB

Tracklist:
1. Rejection of the Light 03:20
2. Void Emissary 03:20
3. Apocalypse Tribe 03:32
4. Voice of the Ossuary 03:25
5. Savage Conquest Upon Holy Lands 03:31
6. Jehovah Grinder 01:52
7. Howling Beyond the Veil 03:14
8. Mocking the Seraphim 03:27
9. Final Annihilation 04:03
10. Astral Desecration 06:27
******************************
Total playing time: 36:11



[more=Extended info]Promo stuff

BLOOD HARVEST RECORDS and HELTER SKELTER PRODUCTIONS are proud to present a WITCH KING's highly anticipated debut album, Voice of the Ossuary, on CD and vinyl LP formats.

Hailing from Rhode Island, WITCH KING have been a prolific force in the American black/death underground. Since 2008, this power-trio have been patiently perfect their craft over a slew of demos, an EP, and a split album with the considerable likes of Bestial Mockery, Obeisance, and Manticore. The WITCH KING aesthetic has been firm from the beginning, but with Voice of the Ossuary, they take it to the darkest and most disgusting depths.

Wasting no time whatsoever - no ceremony, no hope, no fun - WITCH KING blast into Voice of the Ossuary with primeval abandon. Theirs is an ancient sound, bucking nowadays trends, and returning to the foul recesses of classic blackgrind, informed by early Blood, Archgoat, Naked Whipper, and of course, the almighty Blasphemy. But whereas so much parallel "bestial metal" crams in non-sequitur riffs and transitions - or simply forgets them altogether, just plowing through one riff monochromatically - WITCH KING actually possess songwriting, and unfurl one flowing fountain of filth after another. These songs gnaw at your very being, but they remain in the subconscious long after play has commenced. And that's not to mention the pure physicality of Voice of the Ossuary: all muscle, no fat, total 3D crush.

Hark! Hear the Voice of the Ossuary, for it is WITCH KING's, and there's nothing but absolute dread and doom on the horizon...[/more]

[more=Technical info]
Input File: 05 Savage Conquest Upon Holy Lands.mp3
Channels : 2
Sample Rate : 44100
Precision : 16-bit
Duration : 00:03:31.26 = 9316698 samples = 15844.7 CDDA sectors
File Size : 8.74M
Bit Rate : 331k
Sample Encoding: MPEG audio (layer I, II or III)
Comments :
Title=Savage Conquest Upon Holy Lands
Artist=Witch King
Album=Voice Of The Ossuary
Tracknumber=5
Year=2018

[/more]

Register
(22) aesteticvice, Amsterdam, andreikun, DarkHorde, Grindbox, Guns, infiltrator, Kehl05, marilin, Mist13Signifier, necromasochist, Necronephilim, Occultas, older68, Ostinato, Rosen, scorn33, Shadechaser, SyncestrA, Tino, VALERY, wgs73,
Sep 12 2018, 21:01:50 Abhorrence - Megalohydrothalassophobic [ep] (2018)


*Artist: Abhorrence
*Album: Megalohydrothalassophobic [ep]
*Year: 2018
*Genre: Death Metal
*Country: Finland
*Format: mp3@CBR320kbps
*Size: 55MB

Tracklist:
1. Intro: The Mesh 01:27
2. Anthem for the Anthropocene 04:17
3. The Four Billion Year Dream 05:31
4. Hyperobject Beneath the Waves 05:08
5. The End Has Already Happened 07:19
******************************
Total playing time: 23:42

[more=Extended info]Promo stuff

"Our macabre prayers have been answered: Finnish death metal eidolons Abhorrence took over Amorphis drummer Jan Rechberger’s Moon Unit studio to record a new EP." -Decibel magazine, May 2018

The rumours are true: underground death metal legends Abhorrence are back.

Svart Records is proud to present to you Megalohydrothalassophobic, an all-new Abhorrence EP full of old-school Finnish death metal. The EP will be released by Svart Records on September 15th,.

They promised you they were still vulgar and still brutal. And 28 years later, they are. The lineup is the same as back in 1990, with the addition of drummer Waltteri Väyrynen, of Paradise Lost and Vallenfyre fame.

The old Abhorrence sound, reaching from death to doom to black and psychedelia, is all there on the EP. This time, the pioneers of death metal horror have dug their claws into the deep abyss of the ocean. True to their roots of nightmare and terror, Abhorrence brings you a vision of Lovecraftian horror in the age of the ecological catastrophe. The lyrics fuse together the deeply unsettling tales of H.P. Lovecraft with the thought-provoking philosophy of Timothy Morton, arguably the most important thinker of the anthropoce, the current catastrophical age of human existence.[/more]

[more=Technical info]
Input File: 02 - Anthem for the Anthropocene.mp3
Channels : 2
Sample Rate : 44100
Precision : 16-bit
Duration : 00:04:17.09 = 11337581 samples = 19281.6 CDDA sectors
File Size : 10.3M
Bit Rate : 321k
Sample Encoding: MPEG audio (layer I, II or III)
Comments :
Title=02 - Anthem for the Anthropocene
Artist=Abhorrence
Album=Megalohydrothalassophobic
Tracknumber=2

[/more]

Register
(47) aesteticvice, Alexis The Best, Ambercandle, Amsterdam, andreikun, as71, BandR75, BERZERK, Boozer, cancer1974, Dmitry1977, Evilded, Fess, Golodomor, hammer, hpc, igore2911, infiltrator, insufferable, judaz, kyrkovisan, lucifix, METALHUNTER, Mist13Signifier, nunim, Old Vyaine, Ostinato, Paradayz, Pinhead666, ripper33, Rosen, Ruben, Samaritianin, slack, StrixPT, SyncestrA, TeamatSE, terron, Tino, troll_swamp, VALERY, wanderer73, Wolfera, wrath082, wtk.412, Zhelezjaka, Герб,
Sep 12 2018, 16:20:36 Новости Black-направления (1) Black Cat,
Sep 12 2018, 10:30:17 Donarhall - Arousal (2018)
Кстати, если кому интересно: музыкант — наш соотечественник, только ныне действительно в Германии проживет.
(1) PerYngveOhlin,
Sep 12 2018, 09:52:34 Новости Black-направления
Today, Hells Headbangers sets September 23rd as the international release date for Cultes Des Ghoules' highly anticipated fourth album, Sinister, on CD format. The double-LP vinyl version shall fittingly follow on October 31st.

Похоже, что скоро будет промо. Ура.
(1) gena,
Sep 12 2018, 08:43:01 Jaertecken - Jaertecken [ep] (2018)


*Artist: Jaertecken
*Album: Jaertecken [ep]
*Year: 2018
*Genre: Black Metal
*Country: Sweden
*Format: mp3@CBR320kbps
*Size: 32MB

Tracklist:
1. Elementen Rasar Samman 05:11
2. Ett Satans År 04:36
******************************
Total playing time: 9:47



[more=Extended info]Thanks to elsunga

Jaerteckens self-titled debut. Swedish black metal feat prominent members of the Swedish underground scene, among others featuring Kumulonimbus (aka Wagner Ödegård from Wulkanaz & Tomhet).[/more]

[more=Technical info]
Input File: Jaertecken - Jaertecken - 02 Ett Satans År.mp3
Channels : 2
Sample Rate : 48000
Precision : 16-bit
Duration : 00:04:36.26 = 13260672 samples ~ 20719.8 CDDA sectors
File Size : 16.0M
Bit Rate : 464k
Sample Encoding: MPEG audio (layer I, II or III)
Comments :
Title=Ett Satans År
Artist=Jaertecken
Album=Jaertecken
Tracknumber=2
Year=2018

[/more]

Register
(14) 1968_janeart, acerbus, artscald, Boozer, garmonbozia, kim666, murian, Ostinato, Rosen, SilentNidhogg, Sjelekval, stub888, vasiljev_sergej, Velmi,
Sep 11 2018, 21:43:32 Manii - Sinnets Irrganger (2018)


*Artist: Manii
*Album: Sinnets Irrganger
*Year: 2018
*Genre: Black Metal
*Country: Norway
*Format: mp3@CBR320kbps
*Size: 72MB

Tracklist:
1. Da har de sænket mig ned i jord 06:08
2. Dødmands ben 05:44
3. Gravsang 04:52
4. Hundre gonger hengd 05:45
5. Sinnets irrganger 05:56
******************************
Total playing time: 28:25



[more=Extended info]Thanks to elsunga

Cernunnus — Drums programming (2011-2013), Guitars, Bass, Keyboards (2011-present) [Manes, ex-The Eye, ex-Perifa, ex-Suffocation, holissstik, kkoagulaa, Lethe, ex-Atrox, ex-Obscuro]

Sargatanas — Vocals (2011-present) [ex-Perifa, ex-Manes]

Bornyhake — Drums, Guitars (additional) (2015-present) [Borgne, Cakewet, Cryfemal, Enoid, Oculus, Pure, Serpens Luminis, Darvaza (live), Schammasch (live), ex-Gerbophilia, ex-Haine, ex-Krigar, ex-Organ Trails, Snorre, The Two Boys Sandwich Club, ex-ChokingOnBile, ex-Kawir, ex-Ravnkald, ex-Deathrow (live), ex-Ass of Spades, ex-Jante Alu][/more]

[more=Technical info]
Input File: MANII - Sinnets Irrganger - 03 Dødmands Ben.mp3
Channels : 2
Sample Rate : 44100
Precision : 16-bit
Duration : 00:04:56.82 = 13089718 samples = 22261.4 CDDA sectors
File Size : 13.5M
Bit Rate : 363k
Sample Encoding: MPEG audio (layer I, II or III)
Comments :
Title=Dødmands Ben
Artist=Manii
Album=Sinnets irrganger
Tracknumber=3
Year=2018

[/more]

Register
(50) 1968_janeart, A.L.Rapsod, acerbus, andivi, as71, Beazth, BERZERK, cancer1974, CRUNCH, Evilded, garmonbozia, infiltrator, jorgeguldur, judaz, Kazoth, Kehl05, kim666, LEGION69, marilin, michelver, milosdjor, murian, nadin85, nemx, Occultas, Ostinato, Panacea, peppuzzo, popen13, Radek, RADeus, rammmirez, Rosen, RUSP73, sandr666, SilentNidhogg, Sjelekval, sksxxx, soulskinner681, stub888, SyncestrA, thenecromancer, tOmV, VALERY, varg-38ru, vasiljev_sergej, wtk.412, xska, yuratroll, ZA670,
Sep 11 2018, 17:07:11 Rundagor - Beastreal (2018)
Обожаю комментарии про качество записи.
(1) Borderline1991,
Sep 11 2018, 11:34:25 Black Funeral - The Dust And Darkness [ep] (2018)
Chasm, Мне кажется, что данный EP — это превью к чему-то более значимому, что у группы припасено на следующий год. Надеюсь, что мое "кажется" в итоге подтвердится.
(1) Alexis The Best,
Sep 11 2018, 09:43:45 Black Funeral - The Dust And Darkness [ep] (2018)
Alexis The Best, You're welcome, как говорится. У меня ещё много стаффа сентябрьского, октябрьского, плюс кое-что есть за ноябрь.

Очень надеюсь, что Hells Headbangers Records пришлют новый Cultes des Ghoules, ибо они вроде как в издании релиза участие принимают.
(7) Alexis The Best, Evilded, gena, infiltrator, nadin85, ripper33, sethurius,
Sep 11 2018, 08:00:49 Malthusian - Across Deaths (2018)
Удивлен, что никто не оставил даже самого краткого отзыва.

Отличный релиз
(1) DarkHorde,
Sep 11 2018, 07:53:49 Black Funeral - The Dust And Darkness [ep] (2018)


*Artist: Black Funeral
*Album: The Dust And Darkness [ep]
*Year: 2018
*Genre: Black Metal/Ambient
*Country: United States
*Format: mp3@CBR320kbps
*Size: 39MB

Tracklist:
1. Dankuis Daganzipas (Dark Earth) 05:02
2. Alanni Goddess of the Underworld 03:24
3. Chemosh of the Dust and Darkness 03:43
4. Mistress of the Pit 04:02
******************************
Total playing time: 16:11

[more=Extended info]Promo stuff

IRON BONEHEAD PRODUCTIONS is proud to present a new mini-album from the legendary BLACK FUNERAL, The Dust and Darkness, on CD and 12" vinyl formats.

Formed in 1993, BLACK FUNERAL are one of the founders of American black metal. The band's first two albums, 1995's Vampyr - Throne of the Beast and 1997's Empire of Blood, are widely considered black metal classics, and are among the earliest releases on the cult Full Moon Productions label. Since the beginning, the band has been guided by the boundless vision of one Michael Ford (AKA Akhtya Nachttoter), who has concurrently garnered international respect as a leading author on Luciferianism and occultism. And although many lineups have come and gone since those pioneering first two lineups, BLACK FUNERAL found its strongest formation yet with 2016's Ankou and the Death Fire. Released to widespread acclaim by IRON BONEHEAD, the album saw the inclusion of Drowning the Light mastermind Azgorh Drakenhof handling guitar, bass, and keyboards. As such, musically, Akkou and the Death Fire was a purely black metal record brimming with medieval majesty and malnourished misery, a blackflame both bright and bleary, all laced with Ford's characteristically chilling ambient soundscapes. In many ways, it was a reinvigoration of the classic BLACK FUNERAL sound, and that forward momentum continues unabated with The Dust and Darkness.

Recorded 2017 in Australia and the United States, The Dust and Darkness is a recalling and vampyric sonic ritual of Hittite, Hurrian, Canaanite, and ancient Syrian Underworld offerings and necromancy. The title "Dankuis Daganzipas" is the Hittite Underworld, "The Dark Earth," and is the dwelling place of spirits and chthonic deities who desired blood as their primary offering besides incense and libations. The Lady of the Underworld, Allani, is the ancient Hurrian goddess who is a type of psychopomp as a solar deity who guides the dead into the Underworld. Allani is identical to the Mesopotamian Ereskigal. The god "Chemosh of the Dust and Darkness" is an epithet for an Ugaritic deity of the Underworld who is similar to both Baal of Peor (Belphegor) and Nergal. His name was associated with elements of the underworld and "Bird of Prey." As such, the four songs comprising The Dust and Darkness sonically surge with grim abandon and majestic melancholy, unflinching in their familiarity but only because this is the BLACK FUNERAL whose name is legendry within the darkest depths of the black metal underground. It is altogether 17 minutes of invocation and seduction, exacted by deft hands well versed in the blackest of magick. Here, there is only The Dust and Darkness...

BLACK FUNERAL on The Dust and Darkness
Akhtya Nachttoter (Michale Ford) - incantations, chants, lyrical invocations & black ambient soundscapes
Azgorh Drakenhof - guitars, bass, keyboards, and compositions[/more]

[more=Technical info]
Input File: 03 Chemosh of the Dust and Darkness.mp3
Channels : 2
Sample Rate : 44100
Precision : 16-bit
Duration : 00:03:42.55 = 9814411 samples = 16691.2 CDDA sectors
File Size : 9.42M
Bit Rate : 339k
Sample Encoding: MPEG audio (layer I, II or III)
Comments :
Title=Chemosh of the Dust and Darkness
Artist=Black Funeral
Album=The Dust and Darkness
Tracknumber=3

[/more]

Register
(44) 1968_janeart, acerbus, Alexis The Best, andivi, Aresson, Borderline1991, caro, Chasm, Doll, dromord, Evilded, garmonbozia, gena, igore2911, infiltrator, ji_indur, kim666, Lord Noctua, Lucifere, lucifix, marilin, nadin85, Occultas, Ostinato, peppuzzo, pgarlinski, princeshr, rammstein888, ripper33, Rosen, RUSP73, Semargl2010, sethurius, SilentNidhogg, stub888, thenecromancer, VALERY, varg-38ru, vasiljev_sergej, Vidder242, Wolftribes, wolverine, wtk.412, yuratroll,
Sep 11 2018, 06:49:45 Ride For Revenge - Sinking The Song (2018)
Faust_Vulkan_16, 1488.gif Ну, это да.
(2) Faust_Vulkan_16, infiltrator,
Sep 10 2018, 19:30:40 Ride For Revenge - Sinking The Song (2018)
ЦИТАТА(aesteticvice @ 10th September 2018 - 23:16:45) *
чет я не понял эту музыку, по материалу и записи похоже на начинающую группу и репетицию в подвале, мы примерно так году в 89 "репетировали" с гитарой урал и с дико перегруженной примочкой в подвале вот бы сейчас эти записи, были бы культом сто пудово... надеюсь никого не обидел, вдруг это круто но такой тру экспериментал не по мне


Я будто комментарий в паблике с названием РОК ЭТО ЖИЗНЬ прочитал. Там такой же контингент, со схожими рассуждениями.

Впрочем, каждому свое.
(3) gena, infiltrator, Mirddin,

29 Pages V   1 2 3 > » 
- Lo-Fi Version Support form
Copyrights and abuse reports form
Time is now: 23rd September 2018 - 10:58:30