Welcome Guest ( Log In | Register )

История благодарностей участнику Daale ::: Спасибо сказали: 4793 раз(а)
Дата поста: В теме: За сообщение: Спасибо сказали:
Yesterday, 10:35:59 Sahon - Chanting For The Fallen (2018)


*Artist: Sahon
*Album: Chanting For The Fallen
*Year: 2018
*Genre: Thrash Metal
*Country: South Korea
*Format: mp3@CBR320kbps
*Size: 69MB

Tracklist:
1. Faith of Savagery
2. At the Edge of Cliff
3. Survive
4. Condemnation
5. Charge Till the End
6. Born to Lose Live to Win
7. Joy of Hatred
8. You Shall Pay
******************************
Total playing time: 30:05



[more=Extended info]Promo stuff

South Korean thrash metal band Sahon have been waging a war against stereotypes since the late '90s and forging a sound that distills the best elements of extreme metal into a form of thrash metal that holds its own when pitted against the rest. Their latest release encapsulates the struggle over the years and showcases their affinity for their culture and music. From the quaint painting to the very structuring of these aggressive songs, Sahon are proud of their Korean heritage and that is what makes them unique today.

For fans of - Rudra, Arallu, Power Trip, (early) Destroyer 666, Exodus, Destruction, Kreator, Sabbat, Manzer[/more]

[more=Technical info]
Input File: 03 Survive.mp3
Channels : 2
Sample Rate : 44100
Precision : 16-bit
Duration : 00:03:51.67 = 10216603 samples = 17375.2 CDDA sectors
File Size : 9.31M
Bit Rate : 322k
Sample Encoding: MPEG audio (layer I, II or III)
Comments :
Artist=SAHON (South Korea)
Album=Chanting For The Fallen (Thrash Metal)
Tracknumber=3

[/more]

Register
(2) DarkHorde, metala,
Jul 14 2018, 14:22:35 Pa Vesh En - Knife Ritual [demo] (2017)
Panacea, By the way, I also have a new split. Upload it in the coming days.
(1) Panacea,
Jul 14 2018, 10:07:09 Pa Vesh En - A Ghost [ep] (2018)


*Artist: Pa Vesh En
*Album: A Ghost [ep]
*Year: 2018
*Genre: Raw Black Metal
*Country: Belarus
*Format: mp3@CBR320kbps
*Size: 37MB

Tracklist:
1. Haunting and Mourning 06:58
2. Gruesome Exhumation 07:17
******************************
Total playing time: 14:15



[more=Extended info]IRON BONEHEAD PRODUCTIONS presents a special 7" EP from PA VESH EN entitled A Ghost.

Hailing from Belarus, PA VESH EN is a shadowy singular entity committed to the most desolate ends of the black metal spectrum. So far, he's shown massive promise with two demo tapes for IRON BONEHEAD, last year's Knife Ritual and Dead Womb earlier this year, but A Ghost suitably comprises two miserable 'n' ethereal tracks which forecast PA VESH EN's forthcoming debut album for the label later this year. Nearly ambient in their seemingly formless drift, the two songs comprising A Ghost indeed cast a ghostly aspect that's startling and almost unsettling to behold. But within these malodorous echo chambers lie a tortured soul who's just now starting to find his true voice. Will you open your ears to the haunting whispers of A Ghost?[/more]

[more=Technical info]
Input File: B1 Gruesome Exhumation.mp3
Channels : 2
Sample Rate : 44100
Precision : 16-bit
Duration : 00:07:17.16 = 19278756 samples = 32787 CDDA sectors
File Size : 18.9M
Bit Rate : 347k
Sample Encoding: MPEG audio (layer I, II or III)
Comments :
Artist=Pa Vesh En
Album=A Ghost 7" EP
Tracknumber=2

[/more]

Register
(11) 1968_janeart, kim666, legion01, nemx, Ostinato, Panacea, SilentNidhogg, Tyrone, varg-38ru, vasiljev_sergej, vovenom,
Jul 11 2018, 18:23:22 Malsanctum - Malsanctum (2018)


*Artist: Malsanctum
*Album: Malsanctum
*Year: 2018
*Genre: Funeral Doom Metal/Ambient
*Country: Canada
*Format: mp3@CBR320kbps
*Size: 109MB

Tracklist:
1. The Father 10:17
2. The Son 09:47
3. The Shattered Spirit 23:49
******************************
Total playing time: 43:53



[more=Extended info]Promo stuff

IRON BONEHEAD PRODUCTIONS is proud to present MALSANCTUM's highly anticipated debut album, simply titled Malsanctum, on CD and vinyl LP formats.

MALSANCTUM hail from Canada and made its first public recording with the aptly titled demo Metamorbid Fetishization. Inconspicuously released in 2015 by IRON BONEHEAD, Metamorbid Fetishization presented MALSANCTUM in a cruelly stark and most frightening manner: a single 24-minute track of noisy ritualism, alternately spacious and suffocating, but most certainly uncomfortable. However, all that is trumped by the full-length Malsanctum.

Here split into three tracks - two at 10 minutes, and the closer at a staggering 24 minutes - MALSANCTUM's debut album is 45 minutes of obscene body worship. Defiantly challenging and sickeningly fascinating in equal measures, Malsanctum once again mangles trace elements of funeral doom and black metal into a malodorous miasma that defies both genres. It is as hypnotizing as it is hellish, fully utilizing those epic lengths with time-evaporating/halting inertia cum overload. The listener becomes lost because there was no path to begin with; obfuscation is thus replaced by pure punishment. But to simply listen to MALSANCTUM in general and Malsanctum in particular is not to just "listen," but to endure...and the light at the end of the tunnel was already snuffed out long ago.

The end will come...but not when you want it. Time, then, to enter MALSANCTUM's Malsanctum.[/more]

[more=Technical info]
Input File: 02 The Son.mp3
Channels : 2
Sample Rate : 44100
Precision : 16-bit
Duration : 00:09:46.69 = 25873161 samples = 44002 CDDA sectors
File Size : 26.6M
Bit Rate : 363k
Sample Encoding: MPEG audio (layer I, II or III)
Comments :
Title=The Son
Artist=Malsanctum
Album=Malsanctum LP/CD
Tracknumber=2

[/more]

Register
(18) Beazth, elsunga, FuneralWolf, gena, infiltrator, Kehl05, marilin, Mist13Signifier, Ostinato, Rosen, SatanicPanzer, sergsazan, Shadechaser, Spork, stub888, Tino, tOmV, VALERY,
Jul 11 2018, 14:53:12 Deafheaven - Ordinary Corrupt Human Love (2018)
Bathory88, Yes, it's all clear that on this album they have decided creatively to focus on alternative rock bands, some oldschool post rock and etc.

But! I can identify without problems black metal-related stuff. As I said, with each release they are farther and farther from their original music. I suspect that the next release really can not be identified as black metal-related (already now they are published on the label, which focuses on the publication of a completely different music.)
(1) babanguida,
Jul 11 2018, 08:40:13 Deafheaven - Ordinary Corrupt Human Love (2018)
babanguida, Here we go again. Yes it's Post bm. Yes, it's not Ved Buens Ende and others related project from this wing of Post bm acts. This kind of genre is peculiar to change and acquire characteristics that were not previously used.

Black Metal tag here in principle, it is fair. For here the form is fully embodied. The content is ideological, etc. - these are completely different things.

P.S. Мой английский очень плох, на русском данную мысль было бы куда проще донести.
(2) babanguida, Ostinato,
Jul 10 2018, 20:32:52 Temple Desecration - Whirlwinds Of Fathomless Chaos (2018)


*Artist: Temple Desecration
*Album: Whirlwinds Of Fathomless Chaos
*Year: 2018
*Genre: Black/Death Metal
*Country: Poland
*Format: mp3@CBR320kbps
*Size: 89MB

Tracklist:
1. Nameless Hordes 05:49
2. Entering the Void 05:34
3. Dominion of Darkness 06:21
4. Covenant 12:38
5. Blood Offering 07:01
******************************
Total playing time: 37:23



[more=Extended info]Promo stuff

IRON BONEHEAD PRODUCTIONS is proud to present TEMPLE DESECRATION's highly anticipated debut album, Whirlwinds of Fathomless Chaos, on CD and vinyl LP formats.

Since TEMPLE DESECRATION's beginnings in 2011, this mysterious Polish cult have been a study in refined ugliness. Prizing quality over quantity, each release has been exacting, yet executed with animalistic abandon. It began in 2012 with the very-aptly-titled Abhorrent Rites demo - which IRON BONEHEAD later released on 12" vinyl, in 2015 - and carried forward to the dread expanses of the Communion Perished EP in 2014. There, at just two songs in a swift 13 minutes, TEMPLE DESECRATION indeed desecrated by-now-passe "bestial metal" conventions into something angular and truly overwhelming, incensed by the form's latent power but focusing it into an ever-roiling maelstrom that was worlds away - and suggested, even, other worlds.

With the stage thus set, a whole four years later, TEMPLE DESECRATION return to maximize that enviable potential with their first full-length, Whirlwinds of Fathomless Chaos. Massive in every measure, Whirlwinds of Fathomless Chaos is indeed a whirlwind, but any chaos extant in the band's sound has been excised for locked-in, monged-out hypnosis. It's a tradeoff that works in spades, as TEMPLE DESECRATION's vile, virulent pulse becomes more patient and yet more mesmerizing, eventually devouring the listener whole - or at least sucking said listener into a black hole, many worlds away. The more expanded song structures first explored on Communion Perished are here finessed even further, building new pillars of pustulent terror and crushingly physical tension: at five songs in 38 minutes, the sheer density and solar weight of Whirlwinds of Fathomless Chaos feels far more expansive than its compact runtime suggests.

These advancements aside, TEMPLE DESECRATION have also managed to make their mangling of the bestial idiom more ritualistic, more ceremonial. That pulse may still be tethered to black/death traditionalism - it is METAL, after all - but the way this cult warps their riffs into slithering sensations of sound elevates Whirlwinds of Fathomless Chaos above the mongrel hordes listlessly flying that "bestial metal" banner. In short, there is transcendentalism coursing through every minute of the album, and TEMPLE DESECRATION have hereby unlocked its boundless enormity.

Gaze into its cover art - faintly, deeply, whichever - and begin to contemplate the enormity of TEMPLE DESECRATION. For these Whirlwinds of Fathomless Chaos stretch beyond The Beyond...[/more]

[more=Technical info]
Input File: 04 Covenant.mp3
Channels : 2
Sample Rate : 44100
Precision : 16-bit
Duration : 00:12:37.62 = 33411130 samples = 56821.6 CDDA sectors
File Size : 30.9M
Bit Rate : 326k
Sample Encoding: MPEG audio (layer I, II or III)
Comments :
Title=04 Covenant
Artist=Temple Desecration
Album=Whirlwinds of Fathomless Chaos LP/CD
Tracknumber=4

[/more]

Register
(32) aesteticvice, Amsterdam, elsunga, Evilded, gena, infiltrator, Kehl05, kim666, marilin, metala, murian, nemx, older68, Ostinato, Pinhead666, raattent, Rosen, RUSP73, Shadechaser, SilentNidhogg, stillbornsavior, SymbyoticEntity, SyncestrA, Tino, Torlof, VALERY, varg-38ru, vasiljev_sergej, VECTOR, Wolftribes, wtk.412, Zaephar,
Jul 10 2018, 13:59:48 Dead Moon Temple - Ænigmasólvoid (2018)
Очень зашел релиз. Уже года полтора пытаюсь связаться с их издателем, попытаться договориться о промо, но там "гудки"
(1) SSBandera,
Jul 9 2018, 15:14:10 Tholomat - The Age Of Dajjal (2018)
aesteticvice, Дядь, ну совсем чет не смешно. 23.gif

Впрочем, как тебе удобно.
(1) Dantalian,
Jul 9 2018, 14:17:49 Potion - Women Of The Wand [single] (2018)
Крутейший сингл. Очень хорошо продолжают линию дебютного демо. Надеюсь, альбом будет очень мощным
(1) aesteticvice,
Jul 8 2018, 16:18:30 Cemetery Lust - Rotting In Piss (2018)


*Artist: Cemetery Lust
*Album: Rotting In Piss
*Year: 2018
*Genre: Black/Thrash Metal
*Country: United States
*Format: mp3@CBR320kbps
*Size: 78MB

Tracklist:
1. Midnight Invasion 03:20
2. Piss on Your Grave 03:33
3. Fatal Infestation 04:08
4. Funeral Home Massacre 03:53
5. Bowels of Blasphemy 03:14
6. I Am Trash 03:03
7. Hideous Nature 03:57
8. Witches Seduction 03:15
9. Awaiting Execution 04:39
******************************
Total playing time: 33:02



[more=Extended info]Promo stuff

HELLS HEADBANGERS is proud to present CEMETERY LUST's highly anticipated third album, Rotting in Piss, on CD and vinyl LP formats.

For nearly a decade now, CEMETERY LUST have been perfecting their crazed craft, first with a handful of demos, and then two full-lengths for HELLS HEADBANGERS, 2012's Screams of the Violated (which the label widely released in 2015) and 2014's Orgies of Abomination. Across those two albums, these Portland sleaze-bangers put forth a form of thrash yet was fun yet filthy, and feral at every turn, spitting forth lyrical depravity amidst a sonic backdrop of '80s German proto-black, San Francisco speed metal, and even South American proto-death. No big changes on LP#3, Rotting in Piss, nor should there be: this is vile and violent METAL, above all, which pisses on all party-thrash pretenders. If anything, CEMETERY LUST sound even more manic here, with witching solos divebombing right and left across the album's fierce 'n' full 33 minutes. Plus, they've found a production style that possesses a disarming amount of clarity while simultaneously making every dirty nook and cranny sound that much more depraved. If you didn't know any better, you'd mistake Rotting in Piss for some lost deathrash classic from 1989!

With a slew of touring lined up for the summer and no limit to the depraved depths to which they'd sink, CEMETERY LUST devilishly invite you to keep Rotting in Piss![/more]

[more=Technical info]
Input File: 03 Fatal Infestation.mp3
Channels : 2
Sample Rate : 44100
Precision : 16-bit
Duration : 00:04:08.13 = 10942401 samples = 18609.5 CDDA sectors
File Size : 10.1M
Bit Rate : 327k
Sample Encoding: MPEG audio (layer I, II or III)
Comments :
Title=Fatal Infestation
Artist=CEMETERY LUST
Album=Rotting in Piss (CD, LP)
Tracknumber=3

[/more]

Register
(18) acerbus, aesteticvice, Asketto, boby9052, DarkHorde, Diflock, Evilded, infiltrator, marilin, metala, oldvarg, Ostinato, Rosen, sergsazan, vasiljev_sergej, wgs73, WX419, zotyo1975,
Jul 5 2018, 14:50:18 Lucifer - Lucifer II (2018)
Облога — огонь. Batyarock revival во все поля.

Очень ждал свежачка их после первого альбома.
(3) Black Cat, infiltrator, vosmidesijatye,
Jul 4 2018, 15:45:48 Thy Feeble Saviour - And Darkness Fell (2018)
vosmidesijatye, Мне на лайки, на самом деле, все равно. Я делаю это лишь для того, чтобы люди не тыкались в LQ-рипы, а слушали любимую ими музыку как можно раньше и в относительно нормальном качестве.
(1) vosmidesijatye,
Jul 4 2018, 09:56:49 Musmahhu - Formulas Of Rotten Death [ep] (2018)


*Artist: Musmahhu
*Album: Formulas Of Rotten Death [ep]
*Year: 2018
*Genre: Death Metal
*Country: Sweden
*Format: mp3@CBR320kbps
*Size: 28MB

Tracklist:
1. Formulas of Rotten Death 05:38
2. Apocalyptic Brigade of Forbidden Realms 05:38
******************************
Total playing time: 11:16



[more=Extended info]Promo stuff

As part of a new arsenal of short-length attacks set for June 22nd, IRON BONEHEAD is proud to present MUSMAHHU's Formulas of Rotten Death EP on 7" vinyl format. The band's debut recording, MUSMAHHU revolves around super-prolific black metal scene veteran Swartadauþuz, founder of Ancient Records and the mastermind behind Bekëth Nexëhmü, Azelisassath, Urkaos, Trolldom, Mystik, and many others. And while he's primarily known for bewitching black metal, Swartadauþuz similarly knows how to create swarming, swirling, utterly hideous death metal. Thus, Formulas of Rotten Death is aptly titled: a two-song tornado of sweltering disease and primordial horror, all captured in richly cavernous tones. The same sense of delirium and dementia that marks Swartadauþuz's other projects manifests itself in MASMAHHU, just transposed onto eternal Metal of Death![/more]

[more=Technical info]
Input File: 02 Apocalyptic Brigade of Forbidden.mp3
Channels : 2
Sample Rate : 44100
Precision : 16-bit
Duration : 00:05:39.04 = 14951620 samples = 25427.9 CDDA sectors
File Size : 14.7M
Bit Rate : 348k
Sample Encoding: MPEG audio (layer I, II or III)
Comments :
Title=Apocalyptic Brigade of Forbidden Realms
Artist=Musmahhu
Album=Formulas of Rotten Death 7" EP
Tracknumber=2

[/more]

Register
(17) Amsterdam, Beazth, BERZERK, Dmitry1977, gardenofdemise, gena, gerb, infiltrator, Mist13Signifier, Ostinato, Rosen, SymbyoticEntity, terron, VALERY, vyacheslav, wanderer73, Лицемер,
Jul 4 2018, 09:53:59 Atomicide - Furious And Untamed [ep] (2018)


*Artist: Atomicide
*Album: Furious And Untamed [ep]
*Year: 2018
*Genre: Death/Black Metal
*Country: Chile
*Format: mp3@CBR320kbps
*Size: 35MB

Tracklist:
1. Intro / Furious and Untamed 06:02
2. Flagellant Rust / Outro 05:09
******************************
Total playing time: 11:11



[more=Extended info]Promo stuff

As part of a new arsenal of short-length attacks set for June 22nd, IRON BONEHEAD is proud to present ATOMICIDE's Furious and Untamed EP on 7" vinyl format. No strangers to the underground, ATOMICIDE are prolific veterans of the cult Chilean scene. Aptly fucking titled, Furious and Untamed is exactly that: a two-song torrent of filthy, unhinged black/death in the richest, most classic South American style. Here, the power-trio locate a production style that's uniquely clear yet deadly churning, further highlighting the nuclear power at the heart of their unyielding, ever-enduring aesthetic. Detonate and desecrate![/more]

[more=Technical info]
Input File: 01 Side A. Intro _ Furious and Untam.mp3
Channels : 2
Sample Rate : 44100
Precision : 16-bit
Duration : 00:06:01.79 = 15955071 samples = 27134.5 CDDA sectors
File Size : 19.3M
Bit Rate : 428k
Sample Encoding: MPEG audio (layer I, II or III)
Comments :
Title=Side A. Intro / Furious and Untamed
Artist=Atomicide
Album=Furious and Untamed 7" EP
Tracknumber=1

[/more]

Register
(17) axdambient, Beazth, Doooomed, gardenofdemise, infiltrator, killingod, lunaraurora, marilin, Ostinato, Pinhead666, Rosen, RUSP73, SilentNidhogg, SymbyoticEntity, VALERY, vyacheslav, Wolftribes,
Jul 4 2018, 09:48:12 Finis - Visions Of Doom [ep] (2018)


*Artist: Finis
*Album: Visions Of Doom [ep]
*Year: 2018
*Genre: Black/Death Metal
*Country: Germany
*Format: mp3@CBR320kbps
*Size: 50MB

Tracklist:
1. 11 Temple Stones 06:20
2. Visions of Doom 07:20
3. Fosforos 06:30
******************************
Total playing time: 20:10



[more=Extended info]Promo stuff

IRON BONEHEAD PRODUCTIONS is proud to present FINIS' striking debut EP, Visions of Doom, on CD and 12" vinyl format. The CD version shall include the band's sold-out debut demo, At One With Nothing, as bonus tracks.

An otherwise-mysterious trio from Germany, FINIS are aptly monikered: their ghostly and gangrenous creations lead to the very literal END. As such, Visions of Doom is also aptly titled. FINIS' ably flex no small amount of death metalled muscle, and yet it's somehow stretched apart in a most desiccated manner, hauntingly revealing black metalled tissue within. Their compositions patiently build, swirling about the listener in an entrancing haze, and then layers fall off while others are built back upon, creating further trance - and even more tension. It's subtly bewitching, and more so uniquely done when placed within the wider context of the modern black/death underground. Atmosphere undoubtedly is a primary tool, but it's not the ultimate end, nor is it a mere smokescreen for lack of actual songwriting. No, FINIS indeed are skilled craftsmen, the three weighty songs comprising Visions of Doom all exuding a wealth of texture, dynamics, and nuance in addition to paramount evil and grim aggression.

As a first, longer-length statement, Visions of Doom announces FINIS' arrival with absolute authority and almost-certain DOOM. Do you hear the bells tolling the end?[/more]

[more=Technical info]
Input File: 11 Temple Stones.mp3
Channels : 2
Sample Rate : 44100
Precision : 16-bit
Duration : 00:06:19.71 = 16745387 samples = 28478.5 CDDA sectors
File Size : 16.4M
Bit Rate : 346k
Sample Encoding: MPEG audio (layer I, II or III)
Comments :
Artist=Finis
Album=Visions of Doom 12" MLP/MCD
Tracknumber=1

[/more]

Register
(11) Beazth, Doooomed, gena, infiltrator, marilin, Ostinato, Rosen, SilentNidhogg, SymbyoticEntity, VALERY, vasiljev_sergej,
Jul 2 2018, 20:11:20 Runespell - Order Of Vengeance (2018)


*Artist: Runespell
*Album: Order Of Vengeance
*Year: 2018
*Genre: Black Metal
*Country: Australia
*Format: mp3@CBR320kbps
*Size: 131MB

Tracklist:
1. Retribution in Iron 09:57
2. Destiny Over Discord 07:48
3. Claws of Fate 06:31
4. Night's Gate 04:26
5. Wolf.Axis 07:29
6. Blood Martyr 05:40
7. Pray for Redemption - Redemption for Prey 05:01
******************************
Total playing time: 46:52



[more=Extended info]Promo stuff

IRON BONEHEAD PRODUCTIONS is proud to present RUNESPELL's highly anticipated second album, Order of Vengeance, on CD and vinyl LP formats.

Striking while the iron's hot, Order of Vengeance follows less than a year after RUNESPELL's critically acclaimed debut album, Unhallowed Blood Oath, also released by IRON BONEHEAD. Let it be known, however, that there's not one sacrifice in quality to be found here. If anything, the RUNESPELL aesthetic has become even more iron-girded and iron-willed. There's a greater sense of urgency on Order of Vengeance - an unquenchable desperation, even - that drives these no-less-grand epics. Whereas Unhallowed Blood Oath situated itself on an axis of melancholy vs. bloodlust, suitably, Order of Vengeance ups the bloodlust considerably...although, of course, the melancholy is no short supply here, particularly on the sparse 'n' haunting instrumental "Night's Gate." The album length, too, has been padded out to a spacious and all-enveloping 47 minutes, allowing the full mesmerizing grandeur of the RUNEPSPELL aesthetic to take root and consume. More massive, yet more urgent: Order of Vengeance is indeed a new order.

Elsewhere, underpinning everything is an authentic and austere steeping in early '90s black metal classicism. Be it from Scandinavia or France or particularly Poland, such source material has been so widely replicated year after year, and yet RUNESPELL is yet again able to both handily challenge those classics AND resound like an era-relevant relic. It's not surprising, considering mainman Nightwolf is one of the busiest men in the shit-hot Australian black metal scene, maintaining as he does the equally prolific Eternum and Blood Stronghold. While still bearing aesthetic similarities to those two bands - this is the purest, most mystical black metal after all - with Order of Vengeance, RUNESPELL continues its majestic rumination on the mysteries of war and bloodshed, vengeance and valor, memory and destiny. Dedication and sacrifice - spiritually, above all, as well as physically - are once again the watchwords, and they've resulted in black metal wielded as weapon, totem, and portal simultaneously.


To coincide with RUNESPELL's upward-and-onward trajectory with Order of Vengeance, the band's sold-out debut demo, Aeons of Ancient Blood, will see a vinyl LP release via IRON BONEHEAD. Partake in these profound truths...[/more]

[more=Technical info]
Input File: 04 Night\'s Gate.mp3
Channels : 2
Sample Rate : 44100
Precision : 16-bit
Duration : 00:04:25.68 = 11716620 samples = 19926.2 CDDA sectors
File Size : 13.8M
Bit Rate : 416k
Sample Encoding: MPEG audio (layer I, II or III)
Comments :
Title=04 Night's Gate
Artist=Runespell
Album=Order of Vengeance LP/CD
Tracknumber=4

[/more]

Register
(25) 0x13, 1968_janeart, artscald, Beazth, Boozer, cesar, DowntownGsus, gena, helvetestoner, igore2911, infiltrator, kim666, lestllk, Moonshtook, Mortuusinfernus, murian, nsk2008, Ostinato, pfk505, Rosen, SilentNidhogg, skeletron215, stub888, VALERY, vasiljev_sergej,
Jul 2 2018, 18:17:29 Acârash - In Chaos Becrowned (2018)
Samaritianin, Недавно в теме одной писали, что поиск плоховато работает с такими вот названиями. Может в этом причина повторного поста.
(3) infiltrator, Kwaad, vosmidesijatye,
Jul 2 2018, 14:30:20 Acârash - In Chaos Becrowned (2018)
Это очень достойный релиз. Для меня странно, что он появился здесь только сейчас. Мне кажется, будто бы я его отсюда и качал.
(2) infiltrator, Samaritianin,
Jul 1 2018, 12:32:28 Mutilate - Tormentium (2018)


*Artist: Mutilate
*Album: Tormentium
*Year: 2018
*Genre: Death Metal
*Country: United States
*Format: mp3@CBR320kbps
*Size: 120MB

Tracklist:
1. Tormentium 04:15
2. Hail to the Dead 04:01
3. Engulfed in Sludge 03:34
4. Calculated Extermination 03:09
5. Splattered Remains 04:01
6. Human Experimantation 03:36
7. Severed Limbs 03:46
8. Life in Pain 03:07
9. Sadistic Butchery 04:30
10. Execution 03:41
******************************
Total playing time: 37:40



[more=Extended info]Promo stuff

Hailing from New York, MUTILATE are literally a blast from the past. Sounding as if time stopped some 30 years ago, this quartet create crude 'n' rude black-cum-death metal that was only brewed in the darkest dungeons of the underground circa 1987. As such, they aesthetically nod to the likes of Death Strike, Helllhammer, Nunslaughter, and Goatlord (U.S.) as well as the torchbearers that came after those pioneers during the '90s like Acheron, Usurper, Gravewürm, and Sathanas. It's stripped-down and simple, and unapologetically so, and done with absolute belief and total authenticity. Trend-mongers likely can't tolerate Tormentium, but MUTILATE never made this kind of record - or any record, really - for them. Theirs is a cult, and unselfconsciously so since their Fortress of Suffering debut demo last year. Tormentium is simply a longer/stronger consolidation of their sound, as it should be.

If you are a false, do not entry MUTILATE's Tormentium![/more]

[more=Technical info]
Input File: 04 Calculated Extermination.mp3
Channels : 2
Sample Rate : 44100
Precision : 16-bit
Duration : 00:03:09.04 = 8336444 samples = 14177.6 CDDA sectors
File Size : 9.76M
Bit Rate : 413k
Sample Encoding: MPEG audio (layer I, II or III)
Comments :
Title=04 Calculated Extermination
Artist=Mutilate
Album=Tormentium LP/CD
Tracknumber=4

[/more]

Register
(21) 0x13, andreikun, Beazth, cryptal, desekrator, Hell_Is_Here, infiltrator, infozahist, jollo, judaz, METALHUNTER, Mist13Signifier, morbidangelo, Ostinato, Rosen, Samaritianin, SymbyoticEntity, VALERY, vyacheslav, wreak, WX419,
Jul 1 2018, 10:37:51 Converge - Beautiful Ruin [ep] (2018)
ЦИТАТА(aesteticvice @ 1st July 2018 - 14:27:13) *
быдло-корах

What a dumbass yuh.gif
(1) 6666666,
Jul 1 2018, 10:22:26 Converge - Beautiful Ruin [ep] (2018)
aesteticvice, Его тут нет. Вообще. Как и во всем их остальном творчестве. Ни в формате трад.грайнда, ни в формате современного грайнкдора, который чаще представляет из себя жанровый кроссовер с кучей других жанров, ни как бы то не было иначе.
(2) 6666666, Ghostb,
Jul 1 2018, 10:11:53 Converge - Beautiful Ruin [ep] (2018)
aesteticvice, Играют они хардкор/олдскульный металкор.

Ты наверное и Rorschach бы назвал грайндкором

[youtube]7e3gB39Y7Xo[/youtube]
(1) Ghostb,
Jun 29 2018, 17:06:49 Новости Black-направления
vosmidesijatye, Его ещё с прошлым EP анонсировали.
(2) infiltrator, vosmidesijatye,
Jun 29 2018, 11:59:36 Facada - Quebrante (2018)
Приятный сюрприз. Обязательно послушаю, ибо старые работы, лично для меня, один из лучших примеров грайндкора из Бразилии (что удавалось послушать мне).
(3) BERZERK, infiltrator, Orphan,

27 Pages V   1 2 3 > » 
- Lo-Fi Version Support form
Copyrights and abuse reports form
Time is now: 17th July 2018 - 04:50:02