Welcome Guest ( Log In | Register )

История благодарностей участнику Daale ::: Спасибо сказали: 12306 раз(а)
Дата поста: В теме: За сообщение: Спасибо сказали:
Yesterday, 13:39:11 Лучший советчик МА - Часть 10 (Умнодэт) - Тур 1, Общий сбор
vosmidesijatye, У меня по-моему не осталось файлов, я снес. Не храню музыку на пк почти
(1) vosmidesijatye,
Yesterday, 13:33:54 Лучший советчик МА - Часть 10 (Умнодэт) - Тур 1, Общий сбор (2) FunZombie, Язва,
Aug 1 2020, 14:08:48 Yxxan - Satanic Fortification Overbalance [demo] (2020)
sethurius, Ахаха dooo.gif

В общем то, я повторюсь: я за свободу мыслей и самовыражения, будь то левое, правое или ещё какое политическое воззрение. Ну и я не соглашусь, пожалуй, с babanguida о том, что музыка плохая. Без всякой предвзятости обе демки считаю как минимум неплохими. Вторая нарулила ещё и отличный саунд теперь.

Для меня религиозно-политически некорректных позиций в принципе не существует. У себя в коммьюнити я ровно также даю возможность озвучивать свои позиции всем, кроме совсем уж странных людей, которые лишь оскорблениями сыпят. Тоже самое и с релизами. Надеюсь, когда-нибудь утопия станет реальностью и все будут мыслить в ключе близком.
(1) sethurius,
Aug 1 2020, 09:26:04 Новости Black-направления
ЦИТАТА(Starseeker @ 1st August 2020 - 02:49:14) *
Reverorum ib Malacht


Надо будет купить его в понедельник, а то до второго пришествия ждать в чужих руках.

ЦИТАТА(wolverine @ 1st August 2020 - 02:25:45) *
"Hadal"


Уже получил промо от Nordvis. В этот раз они супер-быстро, конечно
(1) Occultas,
Jul 28 2020, 13:48:30 Yxxan - Satanic Fortification Overbalance [demo] (2020)
Panacea, 9.gif
(2) infiltrator, Panacea,
Jul 26 2020, 14:13:13 Ulver - Nostalgia [single] (2020)
Ну, выскажусь сугубо в разрезе своих ощущений и не оспорить кого либо. Просто поделиться. Так вот, лично мне ранний Ulver нравится очень сильно. Достаточно легко проследить, на сколько в итоге на атмо бм, например, оказал влияние «Bergtatt». «Nattens Madrigal» — это такой большой привет от Гарма и его уважение к творчеству Darkthrone, о котором он упоминал в своих ранних интервью периодически. При всем этом, релиз у них получился куда более сырым подчас. И это круто. Даже внутри бм они смогли отобразить разные жанровые грани. Фолковый их «Kveldssanger», который стал эдаким мостиком, тоже очень люблю. Он очень атмосферный и неплохо смог зарекомендовать себя в моем плейлисте. Да и хорошо, что он вышел между первым и третьим релизом. Плюс в будущем Гарм часть композиций весьма круто адаптировал под поздний вариант своего творчества.

Ну, а экспериментально-мультижанровый период это просто круто. Расписывать про все релизы тут смысла нет, они просто каждый по своему хорошо. До околоакадема и психодел-рока до весьма интересного прога и арт-попа. Рад, что живу в одно время с Кристофером, Торе и остальными участниками проекта.
(8) acerbus, Baudolino, BleedingSun, Faust_Vulkan_16, Ghostb, infiltrator, Kazoth, Stutthof,
Jul 25 2020, 03:14:05 Ulver - Nostalgia [single] (2020)
1488.gif Традиции топиков с поздним Ulver непоколебимы
(4) BleedingSun, Ghostb, infiltrator, Vardlokkur,
Jul 24 2020, 14:29:22 Лучший советчик МА - Часть 9 (Пауэр) - Тур 2, Рейтингование
Alexis The Best, Рекомендую плыть по течению и не пытаться думать в подобном ключе. Deze норм, сколько бы противоречий, споров и недосказанности не было у нас с ним, например, я всегда ценю его как организатора, критика и т.д.
(4) 6666666, infiltrator, mirotvorets, Un4given,
Jul 24 2020, 11:26:53 Keys Of Orthanc - Unfinished Conquests (2020)
No black metal here
(3) infiltrator, Krosis, thenecromancer,
Jul 24 2020, 06:20:23 Spirit Possession - Spirit Possession (2020)
Демка была крутая, действительно. Альбом — это такой шизофреничный взгляд на традиционный блэк-метал от двух музыкантов, котоорые вложили просто ВСЕ, что умеют только
(4) garmonbozia, kozura, Occultas, Sangreal,
Jul 23 2020, 11:53:31 Ulver - Nostalgia [single] (2020)


*Artist: Ulver
*Album: Nostalgia [single]
*Year: 2020
*Genre: Synthpop/Art Pop
*Country: Norway
*Format: mp3@CBR320kbps
*Size: 12MB

Tracklist:
01. Nostalgia 05:20
******************************
Total playing time: 5:20



[more=Extended info]Personal purchase[/more]

[more=Technical info]
Input File: Ulver - Nostalgia.mp3
Channels : 2
Sample Rate : 44100
Precision : 16-bit
Duration : 00:05:20.59 = 14138107 samples = 24044.4 CDDA sectors
File Size : 12.9M
Bit Rate : 322k
Sample Encoding: MPEG audio (layer I, II or III)
Comments :
Title=Nostalgia
Artist=Ulver
Year=2020

[/more]

Register
(14) Aresson, BleedingSun, DeamonRed, gwar, Haunting, Hell_Is_Here, infiltrator, infozahist, judaz, nadin85, Olethros, Stutthof, thenecromancer, yuratroll,
Jul 23 2020, 08:01:19 Лучший советчик МА - Часть 10 (Умнодэт) - Тур 1, Общий сбор
ЦИТАТА(Deze @ 23rd July 2020 - 11:37:50) *
Ок Disentomb принимается. Морда Даале тоже может открывать шампанское. Морда Дезе выражает буддийский пофигизм


Спасибо, уважаемый сеньор крупье. Подниму за вас бокал напитка, когда представится возможность.
(2) Deze, infiltrator,
Jul 22 2020, 22:53:56 Fides Inversa - Historia Nocturna (2020)
vosmidesijatye, Давай просто пересчитаем кол-во тем с блэк-металом, где я пишу какой-то отзыв и общее кол-во их на MA.

Ну в месяц я собираю от 40 до 60 релизов, на которые стоит обратить внимание. Не такие, что прям OH MY G-D, а которые хороши, от крепкого середняка до действительно знаковых жанровых релизов. Даже с точки зрения кол-ва выходящего материала за месяц, это не так много.

С учетом, сколько я пишу на MA, тут вообще ОЧЕНЬ мало. Да и пишу я отзывы в основном на то, что сам покупаю, либо то, что очень ждал. Как я и говорил, свое мнение и восприятие я не навязываю. Пусть каждый считает как хочет. Откровенно поносить проекты за то, что они не оправдали мои ожидания какие-то, например — такое себе.
(2) infiltrator, vosmidesijatye,
Jul 22 2020, 18:36:54 Новости Black-направления
babanguida, I check album one time. It's good, and I buy it.

Also, I really like previous releases
(3) babanguida, infiltrator, wolverine,
Jul 22 2020, 09:04:25 Obskuritatem - Hronika Iz Mraka (2020)
Отличный альбом
(2) Alexis The Best, infiltrator,
Jul 21 2020, 10:43:29 Новости Black-направления
Просто напомню, что новый релиз Armagedda хорош 1488.gif
(2) infiltrator, wolverine,
Jul 20 2020, 20:51:52 Новости Black-направления
babanguida, Good stuff. Really cool.

LADLO with Crépuscule d'Hiver in roster
(1) babanguida,
Jul 20 2020, 19:35:57 Новости Black-направления
Фо, Помню такую же историю у Базоввен, которые под диваном отрыли ящик кассет, хех
(1) Occultas,
Jul 20 2020, 10:45:42 Новости Black-направления
[youtube]3VMOp_YhlVA[/youtube]

Крысюк шалит
(2) Nattfodd, yuratroll,
Jul 19 2020, 18:50:29 Новости Black-направления


Продано.
(1) Occultas,
Jul 19 2020, 10:41:36 Havukruunu - Uinuos Syömein Sota (2020)
Чудесный альбом. Я даже рад, что не пришлось ждать августа, а можно послушать уже сейчас.
(2) infiltrator, Samaritianin,
Jul 19 2020, 05:41:39 LIK - Avgrundpoetens Flamma (2020)
Альбом отличный, не пожалел ни на минуту, что купил. Ровно как и новый альбом Armagedda, он тоже мне по душе.
(1) dsp,
Jul 18 2020, 08:15:21 Mystras - Castles Conquered And Reclaimed (2020)
Maximvs, Ну раз ты сказал, то конечно, здесь этого нет. А главное, две аксиомы, что ты вывел. Теперь только так и буду ориентироваться.

Лишь отмечту свою, ложную теорию: здесь саунд как раз сделан через raw-эстетику, просто все это не запущено во все тяжкие, как у Ildjarn какого-нибудь. Или вот недавнего Vothana. В остальном, harsh-стена гитарного саунда, задвинутые инструменты в миксе и куча вещей, которые без проблем определяют данную музыку, как raw bm. Хоть и с влиянием других жанров, но это за счет автора музыки, который весьма талантливый музыкант сам по себе.
(1) kranger,
Jul 17 2020, 21:58:29 Mystras - Castles Conquered And Reclaimed (2020)


*Artist: Mystras
*Album: Castles Conquered And Reclaimed
*Year: 2020
*Genre: Raw/Atmospheric Black Metal/Folk
*Country: Greece
*Format: mp3@CBR320kbps
*Size: 116MB

Tracklist:
1. Castles Conquered and Reclaimed 06:37
2. The Cutty Wren 02:12
3. The Murder of Wat Tyler 12:39
4. Contre Dolour 01:31
5. Storm the Walls of Mystras 08:40
6. O Tsakitzis 01:39
7. The Zealots of Thessaloniki 09:58
8. Ai vist lo lop 02:00
9. Wrath and Glory 05:09
******************************
Total playing time: 50:25



[more=Technical info]
Input File: 03. The Murder of Wat Tyler.mp3
Channels : 2
Sample Rate : 44100
Precision : 16-bit
Duration : 00:12:39.26 = 33483542 samples = 56944.8 CDDA sectors
File Size : 30.4M
Bit Rate : 320k
Sample Encoding: MPEG audio (layer I, II or III)
Comments :
Title=The Murder of Wat Tyler
Artist=Mystras
Album=Castles Conquered and Reclaimed
Tracknumber=3/9
Year=2020-07-17
Discnumber=1/1

[/more]

Register
(30) 1968_janeart, aleon, AlexSmith, Bulldozzzzzzer, Druidir, El_Chibo, garmonbozia, gena, grimoir, infiltrator, kim666, kranger, Leolomb, Lukittaz, Maximvs, multizwilling, murian, Olethros, pahail, Panacea, rammmirez, randumbum, robertho777, Rosen, sethurius, SilentNidhogg, suseka, VALERY, vasiljev_sergej, Yorker,
Jul 17 2020, 18:57:05 LIK - Avgrundpoetens Flamma (2020)


*Artist: LIK
*Album: Avgrundpoetens Flamma
*Year: 2020
*Genre: Occult Black Metal/Rock
*Country: Sweden
*Format: mp3@CBR320kbps
*Size: 116MB

Tracklist:
1. Svartkonst 05:37
2. Avgrundspoetens Flamma 05:34
3. Helgedomens Dödsportar 05:55
4. Avliv 05:13
5. Kvävan 09:09
6. Dödsliv 05:56
7. Avtryck 11:45
******************************
Total playing time: 49:09



[more=Extended info]Personal purchase

Raw Mix[/more]

[more=Technical info]
Input File: LIK - Avgrundpoetens flamma (Raw mix) - 03 Helgedomens Dödsportar.mp3
Channels : 2
Sample Rate : 44100
Precision : 16-bit
Duration : 00:05:56.04 = 15701452 samples = 26703.1 CDDA sectors
File Size : 14.3M
Bit Rate : 321k
Sample Encoding: MPEG audio (layer I, II or III)
Comments :
Title=Helgedomens Dödsportar
Artist=LIK
Album=Avgrundpoetens flamma (Raw mix)
Tracknumber=3
Year=2020

[/more]

Register
(67) 1968_janeart, 666days, acerbus, Ainar, aleon, ambre, atavist, BandR75, BERZERK, Black Cat, BlackTroll, Borderline1991, Brann, cancer1974, caro, comradEnemy, craP_cillA, CryptOn, El_Chibo, Evilded, fuoco, garml2, garmonbozia, gena, grimoir, Hell_Is_Here, HMHamster, Infidel, infiltrator, judaz, Konst, Lord Noctua, Lukittaz, mardak666, Maximvs, metala, milosdjor, Mist13Signifier, Mortuusinfernus, multizwilling, nadin85, nemx, nsmetalhead, Olethros, pahail, Qliphoth, randumbum, Reverend, ripper33, robertho777, Rosen, RUDACHUR, SatanicPanzer, Shagarth21, smes, stub888, thenecromancer, tim47, Tular, VALERY, vasiljev_sergej, wolverine, yuratroll, ZA670, Абигор, Варяг, Нигилист,

52 Pages V   1 2 3 > » 
- Lo-Fi Version Support form
Copyrights and abuse reports form
Time is now: 4th August 2020 - 17:37:25