Welcome Guest ( Log In | Register )

История благодарностей участнику Daale ::: Спасибо сказали: 7454 раз(а)
Дата поста: В теме: За сообщение: Спасибо сказали:
Feb 15 2019, 21:11:41 Cân Bardd - The Last Rain (2019)
aesteticvice, Я надеюсь, что ты не против, что сюда. Завтра проверю спектры промки и в случае чего сразу же (или послезавтра) выложу.
(2) aesteticvice, Ostinato,
Feb 15 2019, 21:09:28 Vukari - Demo MMXVIII II [demo] (2019)


*Artist: Vukari
*Album: Demo MMXVIII II [demo]
*Year: 2019
*Genre: Black Metal
*Country: United States
*Format: mp3@CBR320kbps
*Size: 18MB

Tracklist:
01. Disparity (The Great Works) 07:29
******************************
Total playing time: 7:29



[more=Extended info]Personal purchase

2nd Demo from upcoming album.
credits
released February 15, 2019

Guitar/Vocals - Marek Cimochowicz
Bass - Spenser Morris
Drums/Keyboards - Mike DeStefano
Guitar - Jace Kiburz


Recorded, Mixed, and Mastered by Spenser Morris[/more]

[more=Technical info]
Input File: Vukari - Demo MMXVIII II - 01 Disparity (The Great Works).mp3
Channels : 2
Sample Rate : 44100
Precision : 16-bit
Duration : 00:07:29.51 = 19823523 samples = 33713.5 CDDA sectors
File Size : 18.1M
Bit Rate : 322k
Sample Encoding: MPEG audio (layer I, II or III)
Comments :
Title=Disparity (The Great Works)
Artist=Vukari
Album=Demo MMXVIII II
Tracknumber=1
Year=2019

[/more]

Register
(11) 1968_janeart, artscald, Doooomed, marilin, Olethros, Ostinato, Rosen, satanist666, SilentNidhogg, vasiljev_sergej, vovenom,
Feb 14 2019, 12:26:55 Véhémence - Par Le Sang Versé (2019)
Один из лучших релизов февраля, авансом.
(1) Samaritianin,
Feb 12 2019, 21:09:32 The Elysian Fields - New World Misanthropia (2019)
Если вдруг у кого, кстати, есть аккаунт на Bandcamp — буду рад.

(1) Old Vyaine,
Feb 12 2019, 21:05:44 The Elysian Fields - New World Misanthropia (2019)


*Artist: The Elysian Fields
*Album: New World Misanthropia
*Year: 2019
*Genre: Melodic Death/Black Metal
*Country: Greece
*Format: mp3@CBR320kbps
*Size: 107MB

Tracklist:
01. Chaoskrator 06:01
02. The Clavis Magna Doctrine 04:20
03. World Misanthropia 05:56
04. Throne Urania 04:57
05. Wolves Among Innocence 05:44
06. Phyres I Breathe 05:20
07. Deceiving the Children of Men 04:58
08. Slain Upon the Earth 04:30
09. Grandiosity 04:43
******************************
Total playing time: 46:29




[more=Extended info]Personal purchase

The Elysian Fields — New World Misanthropia

One of the oldest helenic Black Metal bands returns from deep silence 14 years after their latest album "Suffering G.O.D. Almighty".
Alongside Rotting Christ, Thou Art Lord, Necromantia, Nightfall, Septic Flesh amongst many others, The Elysian Fields was one of the most representative bands from Greece, with masterpieces like "Adelain" and "We... the Enlightened" and now the one, "New World Misanthropia".

For all die hard fans of Helenic Black Metal scene from the 90´s will surely not be dissapointed with New World Misanthropia. This is a masterpiece of Avantgarde/Symphonic/Black/Death Metal at its best form of expression! This is the soundtrack for the end of world![/more]

[more=Technical info]
Input File: THE ELYSIAN FIELDS - New World Misanthropia - 05 Wolves Among Innocence.mp3
Channels : 2
Sample Rate : 44100
Precision : 16-bit
Duration : 00:05:44.78 = 15204930 samples = 25858.7 CDDA sectors
File Size : 13.9M
Bit Rate : 323k
Sample Encoding: MPEG audio (layer I, II or III)
Comments :
Title=Wolves Among Innocence
Artist=The Elysian Fields
Album=New World Misanthropia
Tracknumber=5
Year=2019

[/more]

Register
(51) 6666666, aesteticvice, AHBAnep, AlivePhantom, artscald, BERZERK, Coroner, craP_cillA, Dark Sage, delgard, dermarsoran, Dmitry1977, Femto, Indamage, ironyserg, judaz, Kasper969, kostja, Lamby90, LEGION69, Mist13Signifier, Necromayhem, Olethros, Ostinato, rabindranad, Reverend, ripper33, Rosen, RUDACHUR, russ777, sacrut, sadmannn, samari, Samaritianin, satanist666, StabWound, talismanFS, TeamatSE, toly1917, tOmV, VALERY, varlam4, vasilisk, vasiljev_sergej, ViPeR_2540, volostakoeto, vosmidesijatye, vov7609, WND, zhol, Герб,
Feb 12 2019, 20:21:33 The Elysian Fields - New World Misanthropia (2019)
aesteticvice, 1488.gif Да х с ним, с первенством.
(1) aesteticvice,
Feb 12 2019, 20:10:53 The Elysian Fields - New World Misanthropia (2019)
vosmidesijatye, Через часок, если так и не сольют.
(1) vosmidesijatye,
Feb 9 2019, 06:09:21 Sarastus - Enter The Necropolis (2019)
vovenom, А купил в итоге другой товарищ (немного с другого портала), который пачками релизы покупает. За что ему мое уважение.
(3) Hey_You, Samaritianin, vovenom,
Feb 8 2019, 17:51:19 Новости Black-направления
vovenom, Блин, чутка не хватает. Я бы так купил. Ну посмотрим, если завтра не сольют, я выкуплю, вложу личных средств немного.
(1) vovenom,
Feb 7 2019, 16:48:11 Yerûśelem - The Sublime (2019)
vosmidesijatye, Да вообще тут митола мало. Там на Bandcamp вполне правдоподобно расписаны влияния/схожесть проекта по звучанию и композиционному построению с проектами вроде Godflesh, Coil и Autechre.

Я вообще думал, что пост в оффтоп отправится.
(1) Ghostb,
Feb 3 2019, 20:09:29 Wintaar - Till Eternity (2019)
aesteticvice, Тут дописаны инструментальные куски, а не просто пересведен альбом. Так что, это перезапись. Поверь человеку, кто общается с Евгением (который W.) напрямую.

Он и сам, если надо, выскажется.
(1) vosmidesijatye,
Feb 3 2019, 07:08:07 Blackdeath - Phantasmhassgorie (2019)
Альбом достойный. С удовольствием послушал.
(1) SSWolf88,
Feb 3 2019, 07:04:41 Pensées Nocturnes - Grand Guignol Orchestra (2019)
FullofHate, Не знаю. Я без проблем подобного рода музыку слушаю. Это не авангардная музыка в широком понимании. Это обычный эксперимент по сращиванию нескольких жанров и не более того.

Для меня различные африканские суб-жанры этнической и популярной музыки звучат, с их то полиритмией, куда более радикально, нежели здесь. Я уж не говорю про труды некоторых композиторов, которые используют во всю алеаторику.
(2) deep-pression, FullofHate,
Feb 2 2019, 18:56:36 Новости Black-направления
Lucifer, Чуть попозже — обязательно сделаю. Там ещё качество надо проверить. Пока только точно могу сказать, что Suldusk в 320
(1) Lucifer,
Feb 1 2019, 20:34:34 Blackdeath - Phantasmhassgorie (2019)
Очень ждал.
(1) SSWolf88,
Feb 1 2019, 06:55:55 Hermóðr - Arv [ep] (2019)
ЦИТАТА(Victim of fate @ 1st February 2019 - 10:43:11) *
не про ЕР- а про полноформат что вверху было сказано ....


Я и полноформат, который вышел 1 января, купил/выложил здесь

Hermóðr - Forest Sky (2019)
(1) Victim of fate,
Jan 31 2019, 20:27:32 Pensées Nocturnes - Grand Guignol Orchestra (2019)
babanguida, Yeah, this too. In this album very well heard influence of neoclassic elements.
(1) babanguida,
Jan 31 2019, 20:01:58 Pensées Nocturnes - Grand Guignol Orchestra (2019)


*Artist: Pensées Nocturnes
*Album: Grand Guignol Orchestra
*Year: 2019
*Genre: Neoclassical/Experimental Black Metal
*Country: France
*Format: mp3@CBR320kbps
*Size: 109MB

Tracklist:
1. Un trop plein d'rouge 01:23
2. Deux bals dans la tête 05:11
3. Poil de lune 06:20
4. L'Alpha mal 05:43
5. L'Etrangorium 01:44
6. Les valseuses 06:09
7. Gauloises ou Gitanes? 04:28
8. Comptine à boire 04:22
9. Anis maudit 05:22
10. Triste sade 06:59
******************************
Total playing time: 47:41



[more=Extended info]Promo stuff

You thought you would be safe ? There is no escape … Pensées Nocturnes is back at Les Acteurs De L’Ombre for a bloody slaughter in 10 acts. “Grand Guignol Orchestra” is now available in preorder, the release is planned for February 1st, 2019 (CD Digipack with booklet and Double gatefold LP black or red).

After 10 years of existence, the one-man band led by Vaerohn evolved from the studio to the scene. Get ready to have something crazier than it can possibly be. A Black Metal basis, enhanced by brass instruments, piano, accordion, Theremin, etc. surrounded by a nightmarish atmosphere : all creating a depraved and grotesque circus. L’Ame Noire (The Dark Soul) of Pensées Nocturnes is taking shape and will follow you.[/more]

[more=Technical info]
Input File: Pensées Nocturnes - Grand Guignol Orchestra - 05 - L\'Etrangorium.mp3
Channels : 2
Sample Rate : 44100
Precision : 16-bit
Duration : 00:01:42.30 = 4511474 samples = 7672.57 CDDA sectors
File Size : 4.09M
Bit Rate : 320k
Sample Encoding: MPEG audio (layer I, II or III)

[/more]

Register
(52) 1968_janeart, A.L.Rapsod, acerbus, aesteticvice, Arseniy, artscald, Black Cat, Boozer, ErikGoth, Evilded, Femto, garmonbozia, gena, HMHamster, igorzz, judaz, kumodraskivo, Kwaad, lucifix, Lux, metala, murian, NachtWulf, Old Vyaine, Olethros, Orgasmik, Ostinato, peppuzzo, pfk505, Radek, Reverend, Rosen, satanist666, spiritualdecay666, squall8fr, stone88, stub888, the_cleanser, Thunderbird, tOmV, VALERY, varlam4, vasiljev_sergej, vov7609, Wolftribes, wtk.412, Xor, yuratroll, zerger, Абигор, Например, Нигилист,
Jan 31 2019, 19:45:28 Hermóðr - Arv [ep] (2019)


*Artist: Hermóðr
*Album: Arv [ep]
*Year: 2019
*Genre: Atmospheric Black Metal
*Country: Sweden
*Format: mp3@CBR320kbps
*Size: 57MB

Tracklist:
01. Arv 22:58
******************************
Total playing time: 22:58



[more=Extended info]Personal purchase

Recorded and mixed at Studio Grottan in January 2019.
All music and lyrics by Rafn.[/more]

[more=Technical info]
Input File: Hermóðr - Arv (EP) - 01 Arv.mp3
Channels : 2
Sample Rate : 44100
Precision : 16-bit
Duration : 00:22:58.27 = 60781707 samples = 103370 CDDA sectors
File Size : 55.2M
Bit Rate : 321k
Sample Encoding: MPEG audio (layer I, II or III)
Comments :
Title=Arv
Artist=Hermóðr
Album=Arv (EP)
Tracknumber=1
Year=2019

[/more]

Register
(38) 1968_janeart, aesteticvice, artscald, Druidir, dulak, fabriziomagno, Femto, Geo_log, Hell_Is_Here, igorzz, kim666, Lanceatum, lucifix, Ludwig Hagen, nikolay81, Olethros, Orkkh, Ostinato, peppuzzo, pfk505, Rosen, satanist666, Shadechaser, Sjelekval, spiritualdecay666, stone88, thenecromancer, Tino, tOmV, Tyrone, VALERY, varg-38ru, varlam4, vasiljev_sergej, Victim of fate, volostakoeto, ZA670, zotyo1975,
Jan 31 2019, 19:00:57 Goatflesh - Pilgrimage To Icon Of Sin [compilation] (2019)
Winter Funeral, My bad. У издателя не поинтересовался сначала. Сейчас поправлю.

Тоже вопросы возникли по материалу, ибо слышал его. BTW, альбом походу в этом году тоже будет
(1) Winter Funeral,
Jan 31 2019, 17:28:21 Goatflesh - Pilgrimage To Icon Of Sin [compilation] (2019)


*Artist: Goatflesh
*Album: Pilgrimage To Icon Of Sin [compilation]
*Year: 2019
*Genre: Black/Death Metal
*Country: Ukraine
*Format: mp3@CBR320kbps
*Size: 79MB

Tracklist:
01. Blasphemous Violence 03:15
02. Hecatomb 02:31
03. Lead. Trotyl. Steel. Napalm 02:32
04. De Laude Flagellorum 03:26
05. Leeches of Jehovah 03:21
06. Sodomizing Rites 01:35
07. Pilgrimage to Icon of Sin 04:03
08. Monastery Catacomb 01:15
09. Collapsed Catholic Obtrusion 02:54
10. Nuclear Aftermath Morbid Chant 02:56
11. Atomic Infested Carnage (Blasphemophagher cover) 02:13
12. ...Of Pure Rape and Blasphemy 02:51
13. Ropes 01:43
******************************
Total playing time: 34:35



[more=Extended info]Promo stuff[/more]

[more=Technical info]
Input File: 03 - Lead. Trotyl. Steel. Napalm.mp3
Channels : 2
Sample Rate : 44100
Precision : 16-bit
Duration : 00:02:32.20 = 6711888 samples = 11414.8 CDDA sectors
File Size : 6.09M
Bit Rate : 320k
Sample Encoding: MPEG audio (layer I, II or III)
Comments :
Title=Lead. Trotyl. Steel. Napalm
Artist=Goatflesh
Album=Pilgrimage to Icon of Sin
Tracknumber=666
Year=2019

[/more]

Register
(18) artscald, Boozer, Hell_Is_Here, lestllk, Occultas, Olethros, Ostinato, Pinhead666, Rosen, satanist666, terron, THROWER666, VALERY, vasiljev_sergej, Winter Funeral, wrath082, www, Абигор,
Jan 30 2019, 16:27:28 Panopticon - The Crescendo Of Dusk [ep] (2019)
Сижу, читаю топик

normal_Homerdisgust3.png
(5) 6666666, Black Cat, ingram, Razorbladeswaltz, vosmidesijatye,
Jan 30 2019, 07:02:50 Panopticon - The Crescendo Of Dusk [ep] (2019)


*Artist: Panopticon
*Album: The Crescendo Of Dusk [ep]
*Year: 2019
*Genre: Atmospheric Black Metal
*Country: United States
*Format: mp3@CBR320kbps
*Size: 56MB

Tracklist:
01. The Crescendo Of Dusk 13:53
02. The Labyrinth 07:50
******************************
Total playing time: 21:43



[more=Extended info]All music written, performed and recorded by A.Lunn.
Mixed and mastered by Colin Marston.
“The Crescendo of Dusk” was written and recorded during the
“Scars of Man...” sessions.
“The Labyrinth” was written and recorded during the
“Autumn Eternal” sessions.
Cover drawing by A. Lunn. Back photo by Bekah Lunn.

A limited Edition one sided LP will be available exclusively through Bindrune Recordings in early 2019. Pre orders will be announced soon.

This record is in honor of the northern lights, which very few things in the world are more beautiful and awe inspiring than.[/more]

[more=Technical info]
Input File: Panopticon - The Crescendo of Dusk - 02 The Labyrinth.mp3
Channels : 2
Sample Rate : 44100
Precision : 16-bit
Duration : 00:07:50.18 = 20734806 samples = 35263.3 CDDA sectors
File Size : 18.8M
Bit Rate : 320k
Sample Encoding: MPEG audio (layer I, II or III)
Comments :
Title=The Labyrinth
Artist=Panopticon
Album=The Crescendo of Dusk
Tracknumber=2
Year=2019

[/more]

Register
(38) 1968_janeart, acerbus, andeimon, Angeldemon617, Aresson, artscald, Black Cat, craP_cillA, Druidir, Evgundel, garml2, garmonbozia, gena, Hellstriker, jpvalentim, kim666, Krosis, Lamby90, lordbathor, marilin, Mist13Signifier, nikolay81, Olethros, Orkkh, Ostinato, peppuzzo, princeshr, ripper33, Rosen, satanist666, sethurius, SilentNidhogg, stub888, Torop, VALERY, varlam4, vasiljev_sergej, ZA670,
Jan 30 2019, 06:39:10 Новости Black-направления
ЦИТАТА(vosmidesijatye @ 28th January 2019 - 03:34:58) *
New Panopticon is out


Сейчас залью.
(2) Black Cat, Dmitry1977,
Jan 25 2019, 18:09:28 Drenglyndr - Blade And Honour [demo] (2019)


*Artist: Drenglyndr
*Album: Blade And Honour [demo]
*Year: 2019
*Genre: Raw Black/Viking Metal
*Country: Canada
*Format: mp3@CBR320kbps
*Size: 46MB

Tracklist:
01. In The Fields (Intro) 02:32
02. Atlakvitha 03:23
03. Blade And Honour 02:58
04. Waves Of Thunder 04:26
05. From The North 06:05
******************************
Total playing time: 19:24



[more=Extended info]Personal purchase

All sounds by:
Xulthys
Gjormlok[/more]

[more=Technical info]
Input File: Drenglyndr - Blade And Honour - 03 Blade And Honour.mp3
Channels : 2
Sample Rate : 44100
Precision : 16-bit
Duration : 00:02:58.30 = 7862810 samples = 13372.1 CDDA sectors
File Size : 7.34M
Bit Rate : 330k
Sample Encoding: MPEG audio (layer I, II or III)
Comments :
Title=Blade And Honour
Artist=Drenglyndr
Album=Blade And Honour
Tracknumber=3
Year=2019

[/more]

Register
(17) 1968_janeart, Alexis The Best, artscald, Cartman223, fabriziomagno, lestllk, Olethros, Ostinato, satanist666, SilentNidhogg, stub888, sunstone, thenecromancer, VALERY, vasiljev_sergej, Velmi, zhol,

35 Pages V   1 2 3 > » 
- Lo-Fi Version Support form
Copyrights and abuse reports form
Time is now: 19th February 2019 - 15:33:08