Welcome Guest ( Log In | Register )

История благодарностей участнику Borderline1991 ::: Спасибо сказали: 35342 раз(а)
Дата поста: В теме: За сообщение: Спасибо сказали:
Yesterday, 18:51:15 Bustum - Funeral Christ [demo] (1994)
Register
(5) kim666, maringlen, thenecromancer, varg-38ru, wgs73,
Yesterday, 17:56:03 Holosade - Hell House (1988)
Register
(1) wgs73,
Yesterday, 17:39:20 Heathen Deity - For The Glory Of Satan [ep] (2002)
Register
(5) kim666, maringlen, Skog1349, varg-38ru, vasiljev_sergej,
Yesterday, 17:31:05 Уфир - Экскориации Террора [ep] (2002)
Register
(2) Slavas, varg-38ru,
Yesterday, 17:23:23 Уфир - Ведовство Лесное [demo] (2000)
Register
(2) Slavas, varg-38ru,
Yesterday, 17:15:40 Uphir - Wake Up To Kill! [ep] (2008)
Register
(1) Slavas,
Yesterday, 14:14:45 Ancestors - In Death [ep] (2014)
Register
(3) Alexis The Best, varg-38ru, varlam4,
Yesterday, 13:00:56 Hermh - Echo [compilation] (1995)
QUOTE(Lost Patrol @ Oct 19 2018, 07:37:34) *
Hey - does anybody have the re issue remastered version to upload? Cannot find link anywhere....
Yes, I have it.
Register

(1) thenecromancer,
Yesterday, 10:47:58 Sanity - Schattensymphonie (2001)


*Artist: Sanity
*Album: Schattensymphonie
*Year: 2001
*Genre: Melodic Black Metal
*Country: Germany
*Format: mp3@CBR320kbps
*Size: 117MB

Tracklist:
1. The Emperor 04:28
2. Das Beil 04:44
3. Highland Epos 06:53
4. In Nomine 03:24
5. December 06:23
6. Insomnia 06:33
7. The Linear Scaffold 04:57
8. Toccata 03:14
9. Blutrausch 04:47
10. A Last Request 05:34
******************************
Total playing time: 50:57

[more=Technical info]
Input File: 02 Das Beil.mp3
Channels : 2
Sample Rate : 44100
Precision : 16-bit
Duration : 00:04:44.65 = 12552845 samples = 21348.4 CDDA sectors
File Size : 11.4M
Bit Rate : 320k
Sample Encoding: MPEG audio (layer I, II or III)
Comments :
Title=Das Beil
Artist=Sanity
Album=Schattensymphonie
Tracknumber=02
Year=2001

[/more]

Register
(10) 1968_janeart, kim666, krotovich, metala, Ostinato, Rosen, Shadechaser, Svafrlami, VALERY, vasiljev_sergej,
Yesterday, 10:00:22 Forest Mysticism

Genre(s):
Black Metal
Lyrical Theme(s):
Nature, Woodlands
Origin:
Australia (New South Wales)
Formed In:
2006
Status:
Active
Current line-up:
D. - All instruments, Vocals (Remete, Unfelled, Woods of Desolation, Grey Waters)
Discography:
Forest Mysticism & Larmes D'hivers - Blood Of The Woodland/The Fall Of Autumn's Leaves [split] - 2007
Forest Mysticism - Demo II [demo] - 2008
Forest Mysticism - Blood Of The Woodland [compilation] - 2011
Forest Mysticism - Demo Collection (2006 - 2011) [compilation] - 2013
Forest Mysticism - A Strength Of Spirit [demo] - 2017
Forest Mysticism - Hearken [ep] - 2018

*****
Official site:
Metal Archives
(2) DarkHorde, thenecromancer,
Yesterday, 06:56:16 Baise Ma Hache - Bréviaire Du Chaos (2016)
Register
(1) varg-38ru,
Oct 18 2018, 20:26:41 Triskele - A Nation's Sorrow [demo] (2011)
Register
(4) kim666, oden44, Raw1488, varg-38ru,
Oct 18 2018, 20:26:22 Arceye - The Divide Between Chaos And Order (2009)
Register
(2) pichileon, varlam4,
Oct 18 2018, 20:23:35 Arceye - As The Ground Consumes You [ep] (2007)
Register
(2) varlam4, wgs73,
Oct 18 2018, 20:21:43 Arceye - At First Light (2013)
Register
(1) varlam4,
Oct 18 2018, 12:06:55 Foscor - Les Irreals Versions (2018)
Register
(3) Daale, thenecromancer, wintersun,
Oct 17 2018, 08:11:07 Malepeste - Dereliction (2013)
Register
(3) kim666, thenecromancer, varg-38ru,
Oct 16 2018, 19:43:16 Deakon - Corrupt My Soul By The Means Of The Sences [demo] (2008)
Register

I can't find @320 smile2.gif
(2) sethurius, varg-38ru,
Oct 16 2018, 19:33:13 Воды Стикс - Deathridicon (2000)
Register
(3) aimtoknow, Aresson, DMIYUR,
Oct 16 2018, 19:08:44 Despise The Light - Mitt Förfall [ep] (2015)
Register
(6) carla667, kim666, meggido1, Pinhead666, satanist666, varg-38ru,
Oct 16 2018, 18:42:05 Demon - The Unexpected Guest (1982)
Register
(1) Aresson,
Oct 16 2018, 16:36:53 Clandestine - Clandestine [demo] (1994)
Register
(2) RunningWild_AT, thenecromancer,
Oct 16 2018, 16:31:44 Candlegoat - 16 Candles [demo] (2010)
Register
(2) thenecromancer, varg-38ru,
Oct 16 2018, 16:27:47 Helheim - To Our Gods [demo] (1995)
Register
(1) Wail,
Oct 16 2018, 16:22:57 Varganatt - Ragnarök [demo] (2004)
Register
(4) carla667, nsk2008, Skog1349, varg-38ru,

238 Pages V   1 2 3 > » 
- Lo-Fi Version Support form
Copyrights and abuse reports form
Time is now: 20th October 2018 - 19:11:57