Welcome Guest ( Log In | Register )

История благодарностей участнику Borderline1991 ::: Спасибо сказали: 31191 раз(а)
Дата поста: В теме: За сообщение: Спасибо сказали:
May 21 2018, 19:43:44 Cavus - The New Era (2018)
QUOTE(Oath19 @ May 21 2018, 20:22:19) *
Borderline1991, есть FLAC?
Register
(2) frostdomain, Oath19,
May 21 2018, 15:07:24 Crucifixion Wounds - Desecrating The Realm Of God... [single] (2009)
Register
(2) BemoaningSign, thenecromancer,
May 21 2018, 14:19:51 Ezurate - Eve Of Desecration (2010)
Register
(2) Ostinato, thenecromancer,
May 21 2018, 14:09:15 Ezurate - An Ending To Revelations [best of/compilation] (2004)
Register
(1) thenecromancer,
May 21 2018, 14:06:08 Ezurate - Infernal Dominatio (2000)
Register
(2) Ostinato, thenecromancer,
May 21 2018, 14:04:02 Ezurate - Possessed By The Demon [demo] (1997)
Register
(2) sethurius, thenecromancer,
May 21 2018, 14:02:15 Ezurate - Demo 1995 [demo] (1995)
Register
(1) thenecromancer,
May 21 2018, 11:53:05 Inverted Pentagram - The Sphere Of ANU [demo] (1997)


*Artist: Inverted Pentagram
*Album: The Sphere Of ANU [demo]
*Year: 1997
*Genre: Black Metal
*Country: Netherlands
*Format: mp3@CBR320kbps
*Size: 71MB

Tracklist:
1. Sphere of ANU (Intro) 01:00
2. Winter (Seasons of the Daemons in Earthly Lifes) 05:24
3. (I Walk My Darkest Paths) Beyond Eternity 12:49
4. Journey Through the Necropolis 05:28
5. Inverted Pentagram (The Five Elements) 04:46
6. I Depart (Outro) 01:31
******************************
Total playing time: 30:58



[more=Technical info]
Input File: 02 Winter (Seasons of the Daemons in Earthly Lifes).mp3
Channels : 2
Sample Rate : 44100
Precision : 16-bit
Duration : 00:05:24.05 = 14290737 samples = 24304 CDDA sectors
File Size : 13.0M
Bit Rate : 320k
Sample Encoding: MPEG audio (layer I, II or III)
Comments :
Title=Winter (Seasons of the Daemons in Earthly Lifes)
Artist=Inverted Pentagram
Album=The Sphere of ANU
Tracknumber=2
Year=1997
Genre=Black Metal

[/more]

Register
(11) 1968_janeart, Evilded, infiltrator, Ostinato, Razorbladeswaltz, satanist666, stub888, thenecromancer, tireheb, VALERY, vasiljev_sergej,
May 21 2018, 11:34:12 Anti Cimex - Scandinavian Jawbreaker (1993)
Register
(2) Goatrex, muskatnuss,
May 21 2018, 11:21:00 Mind Revolt - Pale Horizons [demo] (1997)


*Artist: Mind Revolt
*Album: Pale Horizons [demo]
*Year: 1997
*Genre: Doom/Death Metal
*Country: Greece
*Format: mp3@CBR320kbps
*Size: 69MB

Tracklist:
1. My Last Dream Fades Away 01:33
2. Into the Narrow Pass to My Nightmare 05:07
3. Pale Horizons 07:15
4. The Saddest Rhyme 08:21
5. The Cold Eternity of Silence 06:00
6. And the Lost Beauty 01:38
******************************
Total playing time: 29:54

[more=Technical info]
Input File: 02 Into the Narrow Pass to My Nightmare.mp3
Channels : 2
Sample Rate : 48000
Precision : 16-bit
Duration : 00:05:07.69 = 14769168 samples ~ 23076.8 CDDA sectors
File Size : 12.3M
Bit Rate : 320k
Sample Encoding: MPEG audio (layer I, II or III)
Comments :
Title=Into the Narrow Pass to My Nightmare
Artist=Mind Revolt
Album=Pale Horizons
Tracknumber=2
Year=2015-05-15T11:23:01+03:0Гµ
Genre=9

[/more]

Register
(10) Evilded, infiltrator, marilin, metala, Ostinato, Panacea, satanist666, thenecromancer, VALERY, vyacheslav,
May 21 2018, 10:53:00 Fiendish Nymph - Aenaon (1999)


*Artist: Fiendish Nymph
*Album: Aenaon
*Year: 1999
*Genre: Atmospheric Black Metal
*Country: Greece
*Format: mp3@CBR320kbps
*Size: 85MB

Tracklist:
1. Into the Abyss of Eternity 01:14
2. The Blazing Shades of the Distant Moonlight 04:48
3. Katara 01:22
4. The Ethereal Nereids 05:24
5. The Drowning of Syring 05:40
6. The Sibyl of Elikona 07:56
7. The Drowning of Syring (Ancient Mix) 05:54
8. Hekate, Empress of Ades 04:24
******************************
Total playing time: 36:42

[more=Extended info]Tape rip + scans.[/more]

[more=Technical info]
Input File: 02 The Blazing Shades of the Distant Moonlight.mp3
Channels : 2
Sample Rate : 48000
Precision : 16-bit
Duration : 00:04:48.94 = 13868928 samples ~ 21670.2 CDDA sectors
File Size : 11.6M
Bit Rate : 320k
Sample Encoding: MPEG audio (layer I, II or III)
Comments :
Title=The Blazing Shades of the Distant Moonlight
Artist=Fiendish Nymph
Album=Aenaon
Tracknumber=2
Year=2015-05-13T12:38:10+03:00
Genre=Black Metal

[/more]

Register
(21) 1968_janeart, dromord, Evilded, infiltrator, kalmametallinen, kimkayoung, lordbathor, maringlen, metala, Moonshtook, Ostinato, Razorbladeswaltz, sacrut, satanist666, sksxxx, thenecromancer, Trelledorn, vasiljev_sergej, Vlosinssrigg, Wolfera, Wolftribes,
May 21 2018, 10:44:03 Fiend - The Majestic Path Of A Hermits Forest (2000)


*Artist: Fiend
*Album: The Majestic Path Of A Hermits Forest
*Year: 2000
*Genre: Black/Death Metal
*Country: United States
*Format: mp3@CBR320kbps
*Size: 69MB

Tracklist:
1. Vision Quest
2. Forest Frost
3. Celebration of the Arcane
4. Darkness
5. First Was Darkness
6. Deadabyss, Where Pan Awaits
7. Journey of the Profound
8. Flying with the Clouds
9. Godless, Godlike, Genius, Insane
10. To the Freezing Black
11. The Majestic Path of a Hermits Forest
******************************
Total playing time: 30:05

[more=Technical info]
Input File: 02 Forest Frost.mp3
Channels : 2
Sample Rate : 44100
Precision : 16-bit
Duration : 00:02:38.40 = 6985220 samples = 11879.6 CDDA sectors
File Size : 6.34M
Bit Rate : 320k
Sample Encoding: MPEG audio (layer I, II or III)
Comments :
Title=Forest Frost
Artist=Fiend
Album=The Majestic Path of a Hermits Forest
Tracknumber=2
Year=2000
Genre=Black Metal

[/more]

Register
(9) Evilded, infiltrator, marilin, maringlen, Ostinato, satanist666, SymbyoticEntity, vasiljev_sergej, vyacheslav,
May 21 2018, 10:39:42 Fiend - Millenium (1998)


*Artist: Fiend
*Album: Millenium
*Year: 1998
*Genre: Black/Death Metal
*Country: United States
*Format: mp3@CBR320kbps
*Size: 47MB

Tracklist:
1. Father Fiend
2. I Am the Lightning
3. They Will Die
4. Hazar Kingdom
5. Nightshade
6. Element Kin
7. Final Solution
8. Ancient Silence
******************************
Total playing time: 20:34

[more=Technical info]
Input File: 06 Element Kin.mp3
Channels : 2
Sample Rate : 44100
Precision : 16-bit
Duration : 00:02:15.98 = 5996718 samples = 10198.5 CDDA sectors
File Size : 5.44M
Bit Rate : 320k
Sample Encoding: MPEG audio (layer I, II or III)
Comments :
Title=Element Kin
Artist=Fiend
Album=Millenium
Tracknumber=6
Year=1998
Genre=Black Metal

[/more]

Register
(8) Evilded, Kalnasra, marilin, Ostinato, satanist666, SymbyoticEntity, vasiljev_sergej, vyacheslav,
May 21 2018, 07:10:58 Cavus - The New Era (2018)
QUOTE(Oath19 @ May 21 2018, 07:01:31) *
Опять жесткий транскод загрузили 22.gif
No, band made it this way 23.gif I asked satanath (his label released it) and he confirmed it.
(2) Ostinato, Samaritianin,
May 19 2018, 06:40:09 Okkultum Magnificentia - Aeon [demo] (2000)
Register
(2) James817, thenecromancer,
May 19 2018, 05:38:09 Mûspellzheimr (1) DarkHorde,
May 17 2018, 07:56:21 Slaughtered Priest - Iron Chains And Metal Blades (2016)


*Artist: Slaughtered Priest
*Album: Iron Chains And Metal Blades
*Year: 2016
*Genre: Black/Thrash/Speed Metal
*Country: Greece
*Format: mp3@CBR320kbps
*Size: 78MB

Tracklist:
1. Tyrant's Legions 01:16
2. Metallic Hellpatrol 04:22
3. Hyperspeed Headbanging 06:05
4. Heavy Metal Chains 05:03
5. Menace 04:07
6. Leather and Blood 04:54
7. Old school Metal Forces 06:27
8. Powermaniac 06:05
******************************
Total playing time: 38:19

[more=Technical info]
Input File: 02 - Metallic Hellpatrol.mp3
Channels : 2
Sample Rate : 44100
Precision : 16-bit
Duration : 00:04:23.09 = 11602401 samples = 19732 CDDA sectors
File Size : 10.5M
Bit Rate : 320k
Sample Encoding: MPEG audio (layer I, II or III)
Comments :
Title=Metallic Hellpatrol
Artist=Slaughtered Priest
Album=Iron Chains And Metal Blades
Tracknumber=2
Year=2016

[/more]

Register
(25) AHBAnep, Asketto, Asle, Darkness, infiltrator, lestllk, marilin, METALHUNTER, Orkkh, Ostinato, princeshr, Rosen, RUSP73, satanist666, sergsazan, SymbyoticEntity, syntexid, Tino, VALERY, vasiljev_sergej, Visitor, wgs73, Wolftribes, wtk.412, ZA670,
May 17 2018, 07:49:12 Pissboiler - In The Lair Of Lucid Nightmares (2017)


*Artist: Pissboiler
*Album: In The Lair Of Lucid Nightmares
*Year: 2017
*Genre: Drone/Doom Metal
*Country: Sweden
*Format: mp3@CBR320kbps
*Size: 107MB

Tracklist:
1. Ruins of the Past 17:45
2. Stealth 02:59
3. Pretend It Will End 10:02
4. Cutters 15:21
******************************
Total playing time: 46:07



[more=Technical info]
Input File: 01 - Ruins Of The Past.mp3
Channels : 2
Sample Rate : 44100
Precision : 16-bit
Duration : 00:17:45.29 = 46979465 samples = 79897 CDDA sectors
File Size : 42.8M
Bit Rate : 321k
Sample Encoding: MPEG audio (layer I, II or III)
Comments :
Title=Ruins Of The Past
Artist=Pissboiler
Album=In The Lair Of Lucid Nightmares
Tracknumber=01
Year=2017
Genre=Doom

[/more]

Register
(7) gena, infiltrator, marilin, Ostinato, Rosen, stub888, VALERY,
May 17 2018, 07:42:38 Macabre Omen - Olympus [demo] (1996)


*Artist: Macabre Omen
*Album: Olympus [demo]
*Year: 1996
*Genre: Epic/Pagan Black Metal
*Country: Greece
*Format: mp3@CBR320kbps
*Size: 15MB

Tracklist:
1. Olympus, Mountain of the Ancient Gods 03:28
2. Cursed Aria 03:14
******************************
Total playing time: 6:42

[more=Technical info]
Input File: 01 Olympus, Mountain of the Ancient Gods.mp3
Channels : 2
Sample Rate : 48000
Precision : 16-bit
Duration : 00:03:28.45 = 10005648 samples ~ 15633.8 CDDA sectors
File Size : 8.34M
Bit Rate : 320k
Sample Encoding: MPEG audio (layer I, II or III)
Comments :
Title=Olympus, Mountain of the Ancient Gods
Artist=Macabre Omen
Album=Olympus
Tracknumber=1
Year=2015-03-12T19:19:07+02:0ГЄ
Genre=Black Metal

[/more]

Register
(16) 1968_janeart, acerbus, BERZERK, darksmith, dromord, Evilded, infiltrator, Moonshtook, Ostinato, pfk505, Rosen, satanist666, thenecromancer, Trelledorn, vasiljev_sergej, zargonath,
May 17 2018, 07:39:36 Exterminance - Promo 1993 [demo] (1993)


*Artist: Exterminance
*Album: Promo 1993 [demo]
*Year: 1993
*Genre: Death Metal
*Country: United States
*Format: mp3@CBR320kbps
*Size: 30MB

Tracklist:
1. Thorns of Insurrection 04:28
2. Bodily Renunciation 04:59
3. Damnation Mortified 03:29
******************************
Total playing time: 12:56

[more=Technical info]
Input File: 02 Bodily Renunciation.mp3
Channels : 2
Sample Rate : 44100
Precision : 16-bit
Duration : 00:04:59.60 = 13212316 samples = 22469.9 CDDA sectors
File Size : 12.0M
Bit Rate : 320k
Sample Encoding: MPEG audio (layer I, II or III)
Comments :
Title=Bodily Renunciation
Artist=Exterminance
Album=Promo 1993
Tracknumber=2
Year=2013-10-27T15:53:36+02:0Г 
Genre=22

[/more]

Register
(6) enslaver, Evilded, MeathookSeed, Ostinato, Rosen, vyacheslav,
May 17 2018, 07:27:42 Dismaed - In Memorium [demo] (1993)


*Artist: Dismaed
*Album: In Memorium [demo]
*Year: 1993
*Genre: Death Metal
*Country: Greece
*Format: mp3@CBR320kbps
*Size: 53MB

Tracklist:
1. Walls Built by Fear 08:54
2. From a World Beyond 08:00
3. Dreams of Pain 06:13
******************************
Total playing time: 23:07

[more=Extended info]Self released tape, no cover artwork.[/more]

[more=Technical info]
Input File: 01 Walls Built by Fear.mp3
Channels : 2
Sample Rate : 44100
Precision : 16-bit
Duration : 00:08:54.72 = 23581328 samples = 40104.3 CDDA sectors
File Size : 21.4M
Bit Rate : 320k
Sample Encoding: MPEG audio (layer I, II or III)
Comments :
Title=Walls Built by Fear
Artist=Dismaed
Album=In Memorium
Tracknumber=1
Year=1993
Genre=22

[/more]

Register
(8) andreikun, enslaver, Evilded, metala, Ostinato, Rosen, thenecromancer, vyacheslav,
May 16 2018, 14:17:36 Crystaline Darkness - Mi Agama Khaz Mifisto [demo] (1993)
Register
(2) James817, thenecromancer,
May 16 2018, 14:14:57 Orkus - Live In Neuss [bootleg] (2004)
Register
(1) thenecromancer,
May 16 2018, 14:11:18 Orkus - Studio Demo 2002 [demo] (2002)
Register
(1) rickzammuto,
May 16 2018, 14:09:27 Orkus - Studio Demo 2001 [demo] (2001)
Register
(1) rickzammuto,

202 Pages V   1 2 3 > » 
- Lo-Fi Version Support form
Copyrights and abuse reports form
Time is now: 23rd May 2018 - 02:32:30