Welcome Guest ( Log In | Register )

История благодарностей участнику Borderline1991 ::: Спасибо сказали: 54839 раз(а)
Дата поста: В теме: За сообщение: Спасибо сказали:
Yesterday, 12:47:38 Morbid Angel - Illud Divinum Insanus (2011)
Register
(2) DiKobRaZzz, Olethros,
Yesterday, 12:37:37 Sweet Smoke - Just A Poke (1970)


*Artist: Sweet Smoke
*Album: Just A Poke
*Year: 1970
*Genre: Psychedelic Rock/Fusion
*Country: United States
*Format: flac
*Size: 219MB

Tracklist:
01 Baby Night 16:24
02 Silly Sally 16:22
******************************
Total playing time: 32:46

youtube

[more=Extended info]Sweet Smoke were a psychedelic jazz-rock band formed in Brooklyn, New York in 1967. The group moved to Europe in 1969, living in Germany, and performing in Germany, Holland and France until 1974 when the band split up. Initially, some members stayed in Europe, some went to India, but most of the band returned to the United States. Although originating in the U.S., Sweet Smoke is often referred to as a Krautrock band.
Noted for their buoyant rhythms, inventive improvisations and complex musical structures, in interviews, the group says their music was influenced by Eric Clapton, Jimi Hendrix, Frank Zappa, John Coltrane and The Beatles.[/more]

Register
(5) avkruchinin, marilin, Olethros, stub888, vosmidesijatye,
Yesterday, 12:15:28 Bamwise - Soundproof (2017)


*Artist: Bamwise
*Album: Soundproof
*Year: 2017
*Genre: Dub/Electronic/Reggae
*Country: Croatia
*Format: mp3@VBR270kbps
*Size: 73MB

Tracklist:
1. Tarantino 05:04
2. Fury 04:17
3. Down Under 05:00
4. Strange Fis 04:25
5. Stinger 04:02
6. Sound Engineer 06:05
7. Meditation 05:33
8. Run From Sound 04:26
******************************
Total playing time: 38:52




[more=Extended info]Bamwise is a six-piece band from Zagreb, Croatia. It’s a collaboration of five musicians and a VJ gathered with an intention to play electronic dub music. The band is a combination of synths, drums, bass, guitar, vocal, effects and video art empowered by the idea of inspiring people to listen, think and act for themselves.[/more]

[more=Technical info]
Input File: 02-bamwise-fury.mp3
Channels : 2
Sample Rate : 44100
Precision : 16-bit
Duration : 00:04:19.27 = 11433587 samples = 19444.9 CDDA sectors
File Size : 8.53M
Bit Rate : 263k
Sample Encoding: MPEG audio (layer I, II or III)
Comments :
Title=Fury
Artist=Bamwise
Album=Soundproof
Tracknumber=2/8
Year=2017
Genre=Reggae

[/more]

Register
(3) gwar, Olethros, vosmidesijatye,
Yesterday, 10:57:51 Crucifier - Thy Sulfur Throne On High (2018)
Register
(1) Olethros,
Yesterday, 10:45:18 Aggressive Tyrants - Aggressive Tyrants [demo] (2008)
Register
(1) spazm,
Yesterday, 10:44:58 Aggressive Tyrants - ...A Miminko Je Na Svìtì! [demo] (1998)
Register
(3) spazm, stumpheavyrock, wendigo,
Yesterday, 10:44:44 Aggressive Tyrants - Narcosurrealismus (2013)
Register
(2) spazm, wendigo,
Yesterday, 10:28:52 Stoneman - How To Spell Heroin (2007)
Register
(2) Dargaud, thenecromancer,
Yesterday, 10:28:30 Nuctemeron - A Time The World Forgot (1994)
Register
(2) Dargaud, Olethros,
Yesterday, 10:22:51 Constantinopolis - For The Empire (2003)
Register
(2) Dargaud, sarcophagus,
Nov 19 2019, 21:52:51 Undead - Unholy Premonition (2016)
Register
(3) thenecromancer, Wail, wgs73,
Nov 19 2019, 21:22:31 Mythos - Revenge [demo] (1998)
Register
(3) canadaspaceman, kenough, thenecromancer,
Nov 19 2019, 21:21:55 Deviser - Unspeakable Cults (1996)
Register
(3) thenecromancer, Tino, wgs73,
Nov 19 2019, 21:19:25 Deviser - Transmission To Chaos (1998)
Register
(2) Djarovich, wgs73,
Nov 19 2019, 21:16:19 Mythos - Pain Amplifier (1995)
Register
(6) Djarovich, Olethros, rickzammuto, thenecromancer, Tino, wgs73,
Nov 19 2019, 21:11:01 Blood Tsunami - Thrash Metal (2007)
Register

(2) canadaspaceman, thenecromancer,
Nov 19 2019, 20:52:49 Ogre - Secondhand Demons [best of/compilation] (2012)
Register
(1) Wail,
Nov 19 2019, 20:46:19 Gorbalrog - Das Zepter [demo] (1996)
Register
(4) JavaCroc, nord6666, thenecromancer, Wail,
Nov 19 2019, 20:40:42 Suffering Hour - In Passing Ascension (2017)
Register
(2) Djarovich, Olethros,
Nov 19 2019, 20:23:27 The Number Twelve Looks Like You - Wild Gods (2019)
Register
(1) Hell_Is_Here,
Nov 19 2019, 20:23:11 Tsar Bomb - Exterminans IX:XI (2015)
Register
(3) atavist, Djarovich, satanist666,
Nov 19 2019, 16:06:39 Today Needed
QUOTE(raattent @ Nov 19 2019, 15:28:26) *
Deathwards - Towards Death (demo)

thanks
Register
(3) JavaCroc, raattent, thenecromancer,
Nov 19 2019, 14:55:56 Crator - The Ones Who Create : The Ones Who Destroy (2016)
Register
(4) Dmitry1977, kimkayoung, Olethros, thenecromancer,
Nov 19 2019, 14:50:07 Soulgrind - La Matanza, El Himno Pagano (1993)
Register
(4) as71, kimkayoung, Occultas, Olethros,
Nov 19 2019, 14:48:14 Troll - Drep de kristne (1996)
Register
(2) Occultas, Olethros,

440 Pages V   1 2 3 > » 
- Lo-Fi Version Support form
Copyrights and abuse reports form
Time is now: 22nd November 2019 - 17:25:42