Welcome Guest ( Log In | Register )

История благодарностей участнику tobacco ::: Спасибо сказали: 3115 раз(а)
Дата поста: В теме: За сообщение: Спасибо сказали:
Nov 19 2020, 15:25:45 Mundus Senescit - A Face Without A Name Iii [ep] (2020)


*Artist: Mundus Senescit
*Album: A Face Without A Name Iii [ep]
*Year: 2020
*Genre: Dark Ambient/Noise/Industrial
*Country: Greece
*Format: mp3@CBR320kbps
*Size: 46MB

Tracklist:
1. Pasreality 05:42
2. Futurresent 05:47
3. Mental Chimera 06:38
******************************
Total playing time: 18:07



[more=Technical info]
Input File: Mundus Senescit - Futurresent.mp3
Channels : 2
Sample Rate : 44100
Precision : 16-bit
Duration : 00:05:47.12 = 15308036 samples = 26034.1 CDDA sectors
File Size : 13.9M
Bit Rate : 320k
Sample Encoding: MPEG audio (layer I, II or III)
Comments :
Title=Futurresent
Artist=Mundus Senescit
Year=2020

[/more]

Register
(3) infiltrator, Olethros, Rosen,
Nov 18 2020, 13:27:52 Pharmakeia - Ternary Curse (2020)


*Artist: Pharmakeia
*Album: Ternary Curse
*Year: 2020
*Genre: Black Metal
*Country: Unknown
*Format: mp3@CBR320kbps
*Size: 86MB

Tracklist:
1. AEEIOUO 06:29
2. EEIOU 04:39
3. EIO 05:46
4. IO 06:15
5. IIO 06:00
6. IIIO 06:19
******************************
Total playing time: 35:28



[more=Technical info]
Input File: Pharmakeia - Ternary Curse - 02 EEIOU.mp3
Channels : 2
Sample Rate : 44100
Precision : 16-bit
Duration : 00:04:39.34 = 12318982 samples = 20950.6 CDDA sectors
File Size : 11.3M
Bit Rate : 325k
Sample Encoding: MPEG audio (layer I, II or III)
Comments :
Title=EEIOU
Artist=Pharmakeia
Album=Ternary Curse
Tracknumber=2
Year=2020

[/more]

Register
(22) 1968_janeart, El_Chibo, garmonbozia, grimoir, Hell_Is_Here, infiltrator, kim666, Lamby90, Morgoth, multizwilling, nemx, Occultas, Olethros, robertho777, Rosen, SilentNidhogg, smes, VALERY, varlam4, vasiljev_sergej, Wail, yuratroll,
Nov 18 2020, 13:21:13 Arkhtinn & Starless Domain - Astrophobia [split] (2020)


*Artist: Arkhtinn & Starless Domain
*Album: Astrophobia [split]
*Year: 2020
*Genre: Atmospheric Black Metal/Ambient | Atmospheric/Ambient Black Metal
*Country: Unknown | United States
*Format: mp3@CBR320kbps
*Size: 104MB

Tracklist:
1. Arkhtinn - Astrofobi 20:29
2. Starless Domain - MUSE 24:34
******************************
Total playing time: 45:03



[more=Technical info]
Input File: Arkhtinn - Astrophobia - 01 Arkhtinn - Astrofobi.mp3
Channels : 2
Sample Rate : 44100
Precision : 16-bit
Duration : 00:20:29.94 = 54240310 samples = 92245.4 CDDA sectors
File Size : 49.3M
Bit Rate : 320k
Sample Encoding: MPEG audio (layer I, II or III)
Comments :
Title=Arkhtinn - Astrofobi
Artist=Arkhtinn
Album=Astrophobia
Tracknumber=1
Year=2020

[/more]

Register
(22) 1968_janeart, berserkr, flep, Hell_Is_Here, infiltrator, kim666, kipelov999, metaljosue, murian, Occultas, Ostinato, robertho777, Rosen, sacrut, SilentNidhogg, smes, Tyrone, VALERY, varlam4, vasiljev_sergej, Wail, zuiozuio,
Nov 18 2020, 13:08:14 Mahr - Maelstrom (2020)


*Artist: Mahr
*Album: Maelstrom
*Year: 2020
*Genre: Atmospheric Black Metal
*Country: Unknown
*Format: mp3@CBR320kbps
*Size: 101MB

Tracklist:
1. Pandemonium 02:37
2. Furor Internus 09:33
3. Swirling Vortex 09:17
4. Tumult 02:02
5. Furor Externus 09:18
6. In Nomine Odii 10:21
******************************
Total playing time: 43:08



[more=Technical info]
Input File: Mahr - Maelstrom - 04 Tumult.mp3
Channels : 2
Sample Rate : 44100
Precision : 16-bit
Duration : 00:02:02.73 = 5412393 samples = 9204.75 CDDA sectors
File Size : 5.06M
Bit Rate : 330k
Sample Encoding: MPEG audio (layer I, II or III)
Comments :
Title=Tumult
Artist=Mahr
Album=Maelstrom
Tracknumber=4
Year=2020

[/more]

Register
(27) 1968_janeart, doomTemplar, Forest Silence, grimoir, Hell_Is_Here, infiltrator, kim666, Lamby90, metala, Morgoth, multizwilling, Olethros, Ostinato, robertho777, Rosen, sergsazan, Shadechaser, SilentNidhogg, smes, Tyrone, VALERY, varlam4, vasiljev_sergej, Vidder242, Wail, yuratroll, zuiozuio,
Nov 18 2020, 13:05:28 Voidsphere - To Sense | To Perceive (2020)


*Artist: Voidsphere
*Album: To Sense | To Perceive
*Year: 2020
*Genre: Atmospheric Black Metal
*Country: International
*Format: mp3@CBR320kbps
*Size: 101MB

Tracklist:
1. The Void Senses 21:02
2. The Void Perceives 21:51
******************************
Total playing time: 42:53



[more=Technical info]
Input File: Voidsphere - To Sense - To Perceive - 01 The Void Senses.mp3
Channels : 2
Sample Rate : 44100
Precision : 16-bit
Duration : 00:21:02.23 = 55664255 samples = 94667.1 CDDA sectors
File Size : 50.7M
Bit Rate : 321k
Sample Encoding: MPEG audio (layer I, II or III)
Comments :
Title=The Void Senses
Artist=Voidsphere
Album=To Sense | To Perceive
Tracknumber=1
Year=2020

[/more]

Register
(27) 1968_janeart, demonosz, doomTemplar, Forest Silence, Hell_Is_Here, infiltrator, kim666, Lamby90, multizwilling, murian, Occultas, Olethros, Ostinato, robertho777, Rosen, sacrut, sergsazan, Shadechaser, SilentNidhogg, smes, Tino, VALERY, varlam4, vasiljev_sergej, Vidder242, Wail, zuiozuio,
Nov 18 2020, 12:57:06 Hwwauoch - Protest Against Sanity (2020)


*Artist: Hwwauoch
*Album: Protest Against Sanity
*Year: 2020
*Genre: Black Metal
*Country: Unknown
*Format: mp3@CBR320kbps
*Size: 90MB

Tracklist:
1. Cryptosphere 06:12
2. Distorted Perception 04:51
3. Protest Against Sanity 06:18
4. Chemical Illusion 06:28
5. Destroyer 06:06
6. Eternalism 08:29
******************************
Total playing time: 38:24



[more=Technical info]
Input File: HWWAUOCH - Protest Against Sanity - 02 Distorted Perception.mp3
Channels : 2
Sample Rate : 44100
Precision : 16-bit
Duration : 00:04:51.07 = 12836275 samples = 21830.4 CDDA sectors
File Size : 11.7M
Bit Rate : 322k
Sample Encoding: MPEG audio (layer I, II or III)
Comments :
Title=Distorted Perception
Artist=HWWAUOCH
Album=Protest Against Sanity
Tracknumber=2
Year=2020

[/more]

Register
(19) 1968_janeart, doomTemplar, grimoir, Hell_Is_Here, infiltrator, kim666, Lamby90, multizwilling, Olethros, Ostinato, robertho777, Rosen, smes, Tyrone, VALERY, varlam4, vasiljev_sergej, Wail, yuratroll,
Nov 14 2020, 15:22:16 Uthullun - Dirges For The Void (2020)


*Artist: Uthullun
*Album: Dirges For The Void
*Year: 2020
*Genre: Black Metal
*Country: United States
*Format: mp3@CBR320kbps
*Size: 94MB

Tracklist:
1.Sunless 04:18
2.Silence 06:33
3.Pentinence 05:15
4.Ecstasies 05:51
5.Pyre 06:16
6.Returning Home 04:35
7.Down Rivers of Spilled Blood 07:46
******************************
Total playing time: 40:34



[more=Technical info]
Input File: 1 Sunless.mp3
Channels : 2
Sample Rate : 44100
Precision : 16-bit
Duration : 00:04:18.97 = 11420533 samples = 19422.7 CDDA sectors
File Size : 10.5M
Bit Rate : 326k
Sample Encoding: MPEG audio (layer I, II or III)
Comments :
Title=Sunless
Artist=Uthullun
Album=Dirges for the Void
Tracknumber=1
Year=2020
Genre=Black Metal

[/more]

Register
(21) 1968_janeart, AlexSmith, daemonarch, frituz3, grimoir, Hell_Is_Here, infiltrator, kim666, Morgoth, multizwilling, nikolay81, Olethros, Ostinato, robertho777, Rosen, sabr, SilentNidhogg, VALERY, varlam4, vasiljev_sergej, yuratroll,
Nov 9 2020, 13:12:40 Akhlys - Melinoë (2020)


*Artist: Akhlys
*Album: Melinoë
*Year: 2020
*Genre: Black Metal
*Country: United States
*Format: mp3@CBR128kbps
*Size: 41MB

Tracklist:
1.Somniloquy 08:52
2.Pnigalion 12:43
3.Succubare 06:25
4.Ephialtes 08:28
5.Incubatio 09:55
******************************
Total playing time: 46:23



[more=Technical info]
Input File: 3. succubare.mp3
Channels : 2
Sample Rate : 44100
Precision : 16-bit
Duration : 00:06:25.08 = 16981984 samples = 28880.9 CDDA sectors
File Size : 6.15M
Bit Rate : 128k
Sample Encoding: MPEG audio (layer I, II or III)
Comments :
Title=Succubare
Artist=Akhlys
Album=Melinoë
Tracknumber=3
Year=2020

[/more]

Register
(23) 1968_janeart, BandR75, Chasm, EvilPiet, Fallen Soul, garmonbozia, Infidel, infiltrator, judaz, korovakaska, laTERNentrager, Lunaris, Mortuusinfernus, Necromag, Occultas, Olethros, raattent, Tyrone, VALERY, vasiljev_sergej, Vidder242, vov7609, yuratroll,
Oct 25 2020, 00:15:09 Mundus Senescit - A Face Without A Name Ii [ep] (2020)


*Artist: Mundus Senescit
*Album: A Face Without A Name Ii [ep]
*Year: 2020
*Genre: Dark Ambient/Noise/Industrial
*Country: Greece
*Format: mp3@CBR320kbps
*Size: 24MB

Tracklist:
1.Untitled III 03:48
2.Untitled IV 04:21
******************************
Total playing time: 8:09



[more=Technical info]
Input File: Mundus Senescit - Untitled III.mp3
Channels : 2
Sample Rate : 44100
Precision : 16-bit
Duration : 00:03:48.97 = 10097445 samples = 17172.5 CDDA sectors
File Size : 9.16M
Bit Rate : 320k
Sample Encoding: MPEG audio (layer I, II or III)
Comments :
Title=Untitled III
Artist=Mundus Senescit
Album=Untitled
Tracknumber=3
Year=2020

[/more]

Register
(2) infiltrator, Olethros,
Oct 25 2020, 00:13:03 Mundus Senescit - A Face Without A Name I [ep] (2020)


*Artist: Mundus Senescit
*Album: A Face Without A Name I [ep]
*Year: 2020
*Genre: Dark Ambient/Noise/Industrial
*Country: Greece
*Format: mp3@CBR320kbps
*Size: 26MB

Tracklist:
1.Untitled I 04:44
2.Untitled II 03:21
******************************
Total playing time: 8:05



[more=Technical info]
Input File: Mundus Senescit - Untitled II.mp3
Channels : 2
Sample Rate : 44100
Precision : 16-bit
Duration : 00:03:21.28 = 8876272 samples = 15095.7 CDDA sectors
File Size : 8.06M
Bit Rate : 320k
Sample Encoding: MPEG audio (layer I, II or III)
Comments :
Title=Untitled II
Artist=Mundus Senescit
Album=Untitled
Tracknumber=2
Year=2020

[/more]

Register
(6) Hell_Is_Here, infiltrator, Kaotik, Olethros, Rosen, wreak,
Oct 15 2020, 14:33:01 Throane - Une Balle Dans Le Pied [ep] (2020)


*Artist: Throane
*Album: Une Balle Dans Le Pied [ep]
*Year: 2020
*Genre: Black Metal
*Country: France
*Format: mp3@CBR320kbps
*Size: 30MB

Tracklist:
1. Une balle dans le pied 13:20
******************************
Total playing time: 13:20



[more=Technical info]
Input File: Throane - Une balle dans le pied.mp3
Channels : 2
Sample Rate : 44100
Precision : 16-bit
Duration : 00:13:20.00 = 35280000 samples = 60000 CDDA sectors
File Size : 32.3M
Bit Rate : 323k
Sample Encoding: MPEG audio (layer I, II or III)
Comments :
Title=Une balle dans le pied
Artist=Throane
Album=Une balle dans le pied
Tracknumber=1
Year=2020-16-10
Genre=Rock
Discnumber=1

[/more]

Register
(26) 1968_janeart, Boozer, Constantinus I, Cyrci, grimoir, Gylve, Hell_Is_Here, infiltrator, Irimias, kim666, Mortuusinfernus, nemx, Olethros, Ostinato, randumbum, robertho777, Rosen, smes, smysl, Styx, trabantfan, VALERY, vasiljev_sergej, wreak, yuratroll, дивин,
Oct 4 2020, 21:57:11 Prosternatur - Mortuus Et Sepultus (2020)


*Artist: Prosternatur
*Album: Mortuus Et Sepultus
*Year: 2020
*Genre: Black Metal
*Country: International
*Format: mp3@CBR320kbps
*Size: 94MB

Tracklist:
1. E-Kishirgal 06:47
2. Salamanu Telocahe! 06:19
3. Descendit ad Infernos 06:36
4. Et Incarnátus 06:56
5. Mph Arsl Gaiol 08:29
6. Plagued 06:10
******************************
Total playing time: 41:17


Preview 2

[more=Technical info]
Input File: 06 - Plagued.mp3
Channels : 2
Sample Rate : 44100
Precision : 16-bit
Duration : 00:06:10.47 = 16337551 samples = 27785 CDDA sectors
File Size : 14.9M
Bit Rate : 322k
Sample Encoding: MPEG audio (layer I, II or III)
Comments :
Title=Plagued
Artist=Prosternatur
Album=Mortuus et Sepultus
Tracknumber=6
Year=2020
Genre=GetMetal.CLUB

[/more]

Register
(43) 1968_janeart, Boozer, Bzth, caro, Chasm, cist, dan22, deadterror, El_Chibo, frituz3, garmonbozia, grimoir, Hell_Is_Here, infiltrator, kim666, korovakaska, Lamby90, LVXXVL, Metalass, Mortuusinfernus, multizwilling, nemx, Occultas, Olethros, Ostinato, pahail, Purestenchkvlt, rammstein888, randumbum, robertho777, Rosen, sabr, SilentNidhogg, smes, soulskinner681, StabWound, VALERY, varlam4, vasiljev_sergej, Vidder242, Wail, wreak, yuratroll,
Sep 26 2020, 11:29:52 Vous Autres - Sel De Pierre (2020)
checked again and it gives no error at all
file is up and running
perhaps it's an issue on your end but I will upload it also on mega, for you

MEGA
(2) Lamby90, ondrazevsi,
Sep 23 2020, 21:17:26 Vous Autres - Sel De Pierre (2020)


*Artist: Vous Autres
*Album: Sel De Pierre
*Year: 2020
*Genre: Sludge/Post-Black Metal
*Country: France
*Format: mp3@CBR320kbps
*Size: 90MB

Tracklist:
1.Onde 09:14
2.Vesuve 07:20
3.Ecueil 05:16
4.Sans Sèves 04:13
5.In Humus 08:24
6.Nitre 03:53
******************************
Total playing time: 38:20



[more=Technical info]
Input File: 06 - Nitre.mp3
Channels : 2
Sample Rate : 44100
Precision : 16-bit
Duration : 00:03:53.81 = 10311109 samples = 17535.9 CDDA sectors
File Size : 10.1M
Bit Rate : 344k
Sample Encoding: MPEG audio (layer I, II or III)
Comments :
Title=Nitre
Artist=Vous Autres
Album=Sel de Pierre
Tracknumber=6
Year=2020
Genre=GetMetal.CLUB

[/more]

Register
(20) AlexSmith, BandR75, Black Cat, bubba, gena, grimoir, infiltrator, Morgoth, nemx, Olethros, Ostinato, randumbum, Rivalen, Rosen, smes, tschunioronbeer, VALERY, varlam4, vasiljev_sergej, wreak,
Sep 22 2020, 10:39:45 The Crypt Of Memories - Demo I [demo] (2020)


*Artist: The Crypt Of Memories
*Album: Demo I [demo]
*Year: 2020
*Genre: Dungeon Synth
*Country: Greece
*Format: mp3@CBR320kbps
*Size: 64MB

Tracklist:
1.The path to the crypt 05:23
2.Pagan ritual 03:07
3.Accused of necromancy 02:43
4.Imprisoned 04:10
5.March of the skeletons 02:31
6.Where memories go 03:40
7.Afterlife 05:24
******************************
Total playing time: 26:58



[more=Technical info]
Input File: The Crypt of Memories - Demo I - 05 March of the skeletons.mp3
Channels : 2
Sample Rate : 44100
Precision : 16-bit
Duration : 00:02:31.23 = 6669287 samples = 11342.3 CDDA sectors
File Size : 6.23M
Bit Rate : 330k
Sample Encoding: MPEG audio (layer I, II or III)
Comments :
Title=March of the skeletons
Artist=The Crypt of Memories
Album=Demo I
Tracknumber=5
Year=2020

[/more]

Register
(3) infiltrator, Olethros, thenecromancer,
Aug 26 2020, 15:27:32 This Is Past - Παρείσακτος (Μέρος Πρώτο) [ep] (2020)


*Artist: This Is Past
*Album: Παρείσακτος (Μέρος Πρώτο) [ep]
*Year: 2020
*Genre: Psychedelic Black Metal
*Country: Greece
*Format: mp3@CBR320kbps
*Size: 52MB

Tracklist:
1.Μόνο στο δικό μου ψέμα πιστεύω 07:43
2.Όταν εκείνοι έρχονται οι δαιμονισμένοι φεύγουμε 04:48
3.Οι άγγελοι του ζουν μέσα μου 04:37
4.Είναι όμορφα εδώ 04:32
******************************
Total playing time: 21:40



[more=Technical info]
Input File: THIS IS PAST - Παρείσακτος (Μέρος πρώτο) - 04 Είναι όμορφα εδώ.mp3
Channels : 2
Sample Rate : 44100
Precision : 16-bit
Duration : 00:04:32.81 = 12030965 samples = 20460.8 CDDA sectors
File Size : 11.1M
Bit Rate : 324k
Sample Encoding: MPEG audio (layer I, II or III)
Comments :
Title=Είναι όμορφα εδώ
Artist=THIS IS PAST
Album=Παρείσακτος (Μέρος πρώτο)
Tracknumber=4
Year=2020

[/more]

Register
(21) 1968_janeart, aleon, gena, infiltrator, Lunaris, metala, nadin85, Olethros, ondrazevsi, Ostinato, rammmirez, randumbum, robertho777, Rosen, Sanctus, singrad, Stutthof, VALERY, varlam4, vasiljev_sergej, wreak,
Jun 14 2020, 10:00:53 Decoherence - Dichotomic Observables [single] (2020)


*Artist: Decoherence
*Album: Dichotomic Observables [single]
*Year: 2020
*Genre: Black Metal
*Country: United Kingdom
*Format: mp3@CBR320kbps
*Size: 21MB

Tracklist:
1.Dichotomic Observables 09:29
******************************
Total playing time: 9:29



[more=Technical info]
Input File: Decoherence - Dichotomic Observables - 01 Dichotomic Observables.mp3
Channels : 2
Sample Rate : 44100
Precision : 16-bit
Duration : 00:09:29.61 = 25119581 samples = 42720.4 CDDA sectors
File Size : 22.8M
Bit Rate : 320k
Sample Encoding: MPEG audio (layer I, II or III)
Comments :
Title=Dichotomic Observables
Artist=Decoherence
Album=Dichotomic Observables
Tracknumber=1
Year=2020

[/more]

Register
(10) 1968_janeart, atavist, infiltrator, kim666, Mortuusinfernus, Olethros, robertho777, Rosen, varlam4, vasiljev_sergej,
Jun 14 2020, 09:55:24 Decoherence - Nucleosynthesis [ep] (2020)


*Artist: Decoherence
*Album: Nucleosynthesis [ep]
*Year: 2020
*Genre: Black Metal
*Country: United Kingdom
*Format: mp3@CBR320kbps
*Size: 41MB

Tracklist:
1.Line of Force 06:19
2.Ray Spallation 07:38
******************************
Total playing time: 13:57



[more=Technical info]
Input File: Decoherence - Nucleosynthesis - 01 Line of Force.mp3
Channels : 2
Sample Rate : 44100
Precision : 16-bit
Duration : 00:06:19.08 = 16717560 samples = 28431.2 CDDA sectors
File Size : 15.2M
Bit Rate : 321k
Sample Encoding: MPEG audio (layer I, II or III)
Comments :
Title=Line of Force
Artist=Decoherence
Album=Nucleosynthesis
Tracknumber=1
Year=2020

[/more]

Register
(18) 1968_janeart, atavist, El_Chibo, infiltrator, kim666, lestllk, Mortuusinfernus, Olethros, Ostinato, robertho777, Rosen, SilentNidhogg, stub888, Tyrone, varlam4, vasiljev_sergej, yuratroll, некрософ,
Jun 14 2020, 09:51:43 Decoherence - Formulation And Solution [ep] (2020)


*Artist: Decoherence
*Album: Formulation And Solution [ep]
*Year: 2020
*Genre: Black Metal
*Country: United Kingdom
*Format: mp3@CBR320kbps
*Size: 48MB

Tracklist:
1.Gate Error 03:57
2.Dimension Witness 03:48
3.Non-Holistic Constraints 04:31
4.In Perpendicular Planes 05:54
******************************
Total playing time: 18:10



[more=Technical info]
Input File: Decoherence - Formulation and Solution - 02 Dimension Witness.mp3
Channels : 2
Sample Rate : 44100
Precision : 16-bit
Duration : 00:03:48.71 = 10086287 samples = 17153.5 CDDA sectors
File Size : 9.20M
Bit Rate : 322k
Sample Encoding: MPEG audio (layer I, II or III)
Comments :
Title=Dimension Witness
Artist=Decoherence
Album=Formulation and Solution
Tracknumber=2
Year=2020

[/more]

Register
(18) 1968_janeart, atavist, El_Chibo, infiltrator, kim666, lestllk, Mortuusinfernus, Olethros, robertho777, Rosen, SilentNidhogg, stub888, Tyrone, VALERY, varlam4, vasiljev_sergej, yuratroll, некрософ,
Jun 11 2020, 18:57:13 Aversio Humanitatis - Behold The Silent Dwellers (2020)


*Artist: Aversio Humanitatis
*Album: Behold The Silent Dwellers
*Year: 2020
*Genre: Black Metal
*Country: Spain
*Format: mp3@CBR320kbps
*Size: 88MB

Tracklist:
1.The Weaver Of Tendons 06:43
2.The Presence In The Mist 05:38
3.The Sculptor Of Thoughts 05:18
4.The Wanderer Of Abstract Paths 05:40
5.The Watcher In The Walls 06:42
6.The Scribe Of Dust 05:58
******************************
Total playing time: 35:59



[more=Technical info]
Input File: 03 The Sculptor of Thoughts.mp3
Channels : 2
Sample Rate : 44100
Precision : 16-bit
Duration : 00:05:18.69 = 14054141 samples = 23901.6 CDDA sectors
File Size : 12.8M
Bit Rate : 321k
Sample Encoding: MPEG audio (layer I, II or III)
Comments :
Title=The Sculptor of Thoughts
Artist=AVERSIO HUMANITATIS
Album=Behold The Silent Dwellers
Tracknumber=3
Year=2020
Genre=138

[/more]

Register
(64) alikkon, atavist, Boozer, Corpse_Of_The_Christ, craP_cillA, daemonarch, DarkHorde, deadterror, El_Chibo, garml2, gena, grimoir, Hell_Is_Here, helvetestoner, infiltrator, ingram, Irimias, kauyumari, Kazoth, kim666, kipelov999, Korpse, lestllk, little_raven, LordHaart, lucifix, Lukittaz, Mares, metala, Metalass, MMMMM, Morgoth, multizwilling, nadin85, NappyRob, Necromag, Nerevar, NOMIDIMON, nsk2008, Olethros, Ostinato, peppuzzo, Pinhead666, Radek, rammstein888, randumbum, ripper33, Rosen, sacrut, SaintVitus, satanist666, SilentNidhogg, skeletron215, smes, TheLuringDepths, tormoz, VALERY, varlam4, vasiljev_sergej, Velmi, werido, wtk.412, yuratroll, Герб,
May 31 2020, 16:52:34 (0) - (0) [ep] (2017)


*Artist: (0)
*Album: (0) [ep]
*Year: 2017
*Genre: Experimental Metal
*Country: Denmark
*Format: mp3@CBR320kbps
*Size: 79MB

Tracklist:
1.(1136) 11:36
2.(338) 03:37
3.(441) 04:40
4.(1212) 12:12
******************************
Total playing time: 32:05



[more=Technical info]
Input File: 2 - (338).mp3
Channels : 2
Sample Rate : 44100
Precision : 16-bit
Duration : 00:00:00.22 = 9570 samples = 16.2755 CDDA sectors
File Size : 9.71M
Bit Rate : 358M
Sample Encoding: MPEG audio (layer I, II or III)
Comments :
Title=(338)
Artist=(0)
Album=(0)
Tracknumber=2
Year=2019-29-11
Genre=Metal
Discnumber=1

[/more]

Register
(14) chipsgott, fuoco, Hell_Is_Here, infiltrator, legion01, Olethros, Ostinato, Rosen, Sanctus, satanist666, VALERY, varlam4, wreak, yuratroll,
May 7 2020, 18:53:57 Kły - Wyrzyny (2020)


*Artist: Kły
*Album: Wyrzyny
*Year: 2020
*Genre: Atmospheric Black Metal
*Country: Poland
*Format: mp3@CBR320kbps
*Size: 103MB

Tracklist:
1. Burza (My Rozgwiazdy) 11:58
2. Nadwołkowyjskiej Nocy Liczba Pojedyńcza 07:19
3. Krajobraz Jako Oko 05:34
4. Trójząb 04:58
5. Gwiezdny Wiatr 09:13
6. Zakorzenienie 09:37
******************************
Total playing time: 48:39

[more=Technical info]
Input File: 04. Trójząb.mp3
Channels : 2
Sample Rate : 44100
Precision : 16-bit
Duration : 00:04:58.16 = 13148636 samples = 22361.6 CDDA sectors
File Size : 12.0M
Bit Rate : 321k
Sample Encoding: MPEG audio (layer I, II or III)
Comments :
Title=Trójząb
Artist=Kły
Album=Wyrzyny
Tracknumber=4/6
Year=2020
Genre=Alternative/Indie
Discnumber=1/1

[/more]

Register
(44) atavist, Black Cat, Borya_Tvorogov, craP_cillA, egortitov, fallen, gena, infiltrator, Irimias, kim666, Lamby90, LEGION69, lestllk, Lukittaz, MercurioRojo, Morgoth, multizwilling, Namnlos, nsk2008, Occultas, Olethros, Ostinato, RADeus, randumbum, Razorbladeswaltz, robertho777, Rosen, sad_eyes, sarcophagus, satanist666, senecazm, SilentNidhogg, smysl, stone88, Tino, VALERY, varg-38ru, varlam4, vasiljev_sergej, Velmi, Vintersorg, yavamir, yuratroll, zbysio,
May 5 2020, 16:06:21 Dynfari - Myrkurs Er Þörf (2020)


*Artist: Dynfari
*Album: Myrkurs Er Þörf
*Year: 2020
*Genre: Atmospheric Black Metal
*Country: Iceland
*Format: mp3@CBR320kbps
*Size: 111MB

Tracklist:
1.Dauðans dimmu dagar 05:23
2.Langar nætur (í botnlausum spíralstiga) 06:37
3.Myrkurs er þörf 04:52
4.Ég fálma gegnum tómið 04:39
5.Svefnlag 02:57
6.Ég tortímdi sjálfum mér 05:10
7.Peripheral Dreams 10:35
8.Of Suicide & Redemption 06:37
******************************
Total playing time: 46:50



[more=Technical info]
Input File: 05 - Svefnlag.mp3
Channels : 2
Sample Rate : 44100
Precision : 16-bit
Duration : 00:02:57.07 = 7808787 samples = 13280.2 CDDA sectors
File Size : 8.04M
Bit Rate : 363k
Sample Encoding: MPEG audio (layer I, II or III)
Comments :
Title=Svefnlag
Artist=Dynfari
Album=Myrkurs er þörf
Tracknumber=5
Year=2020
Genre=Metal

[/more]

Register
(39) 1968_janeart, ahp, AlexSmith, craP_cillA, dan22, doomTemplar, El_Chibo, Farung, infiltrator, karpenka, kim666, Korpse, Lamby90, lestllk, Lunaris, nadin85, nemx, nsk2008, Olethros, Ostinato, QuadenThyrane, randumbum, rimfrost, robertho777, Rosen, sacrvm_bellvm, satanist666, sergsazan, SilentNidhogg, smes, stub888, VALERY, varlam4, vasiljev_sergej, Wolftribes, wreak, xska, Yorker, yuratroll,
May 5 2020, 10:07:54 Vuur & Zijde & Impavida - Vuur & Zijde/Impavida [split] (2020)


*Artist: Vuur & Zijde & Impavida
*Album: Vuur & Zijde/Impavida [split]
*Year: 2020
*Genre: Atmospheric Black Metal | Atmospheric/Depressive Black Metal/Ambient
*Country: Netherlands | Germany
*Format: mp3@CBR320kbps
*Size: 104MB

Tracklist:
Vuur & Zijde:
1. Zonnestorm 06:37
2. Zilt 04:24
3. Noordzee 05:34
Impavida:
4. Gram 05:01
5. Wahn & Stille 14:10
******************************
Total playing time: 35:46



[more=Technical info]
Input File: 2. Vuur & Zijde - Zilt.mp3
Channels : 2
Sample Rate : 44100
Precision : 16-bit
Duration : 00:04:24.21 = 11651661 samples = 19815.8 CDDA sectors
File Size : 14.6M
Bit Rate : 442k
Sample Encoding: MPEG audio (layer I, II or III)
Comments :
Title=Zilt
Artist=Vuur & Zijde
Album=Vuur & Zijde / Impavida
Tracknumber=2/5
Year=2019
Genre=Atmospheric Black Metal
Discnumber=1/1

[/more]

Register
(27) 1968_janeart, artscald, El_Chibo, garml2, Hell_Is_Here, infiltrator, kim666, lestllk, Lukittaz, multizwilling, murian, plagueofflies, randumbum, robertho777, Rosen, satanist666, senecazm, Sigue, SilentNidhogg, smes, stub888, The_Hound, Tyrone, varlam4, vasiljev_sergej, Yorker, yuratroll,
May 1 2020, 14:32:54 Abyssal Vacuum - Mmxix [ep] (2019)


*Artist: Abyssal Vacuum
*Album: Mmxix [ep]
*Year: 2019
*Genre: Black Metal
*Country: France
*Format: mp3@CBR320kbps
*Size: 54MB

Tracklist:
1.VII 07:00
2.VIII 07:12
3.IX 08:58
******************************
Total playing time: 23:10



[more=Technical info]
Input File: 01 VII.mp3
Channels : 2
Sample Rate : 44100
Precision : 16-bit
Duration : 00:07:09.09 = 18922781 samples = 32181.6 CDDA sectors
File Size : 17.2M
Bit Rate : 321k
Sample Encoding: MPEG audio (layer I, II or III)
Comments :
Title=VII
Artist=Abyssal Vacuum
Album=MMXIX
Tracknumber=1
Year=2019

[/more]

Register
(16) Hell_Is_Here, infiltrator, kim666, lestllk, Olethros, Ostinato, robertho777, Rosen, satanist666, scorpionmk, SilentNidhogg, stub888, VALERY, varlam4, vasiljev_sergej, yuratroll,

5 Pages V   1 2 3 > » 
- Lo-Fi Version Support form
Copyrights and abuse reports form
Time is now: 27th November 2020 - 18:18:27