Welcome Guest ( Log In | Register )

История благодарностей участнику lafuma ::: Спасибо сказали: 1433 раз(а)
Дата поста: В теме: За сообщение: Спасибо сказали:
Jul 3 2020, 17:16:45 Mora Prokaza - By Chance (2020)
Они "вокалиста" видать в местной психушке нашли, музыкальная часть понравилась куда больше.
(1) Samogon,
Jun 30 2020, 08:45:25 Abhorrence - Megalohydrothalassophobic [ep] (2018)
Убойный материал, жаль материала мало совсем.
(1) Alexis The Best,
Jun 26 2020, 17:57:20 Mgła - With Hearts Towards None (2012)
Безупречная группа, а этот альбом шедевр искусства. На одном уровне с Clandestine Blaze для меня.
(1) Strid,
Jun 18 2020, 10:21:13 Ощущается ли вам фолковость Аморфиса?
ЦИТАТА(garmonbozia @ 18th June 2020 - 13:11:13) *
и там и там живут обычные и несчастные в своем бесправии люди, произвол высших правит все.
в этой ситуации злорадствовать или обвинять кого то может только тупорылый мчудак.
неужели это так сложно понять?
высшие сволочи родины не имеют, они только пользуются национальностью народа.

Тем не менее отождествлять "наши страны" тоже не стоит. Меня лично это оскорбляет.
(1) BrutalHero,
Jun 15 2020, 21:35:41 Лучшая песня в истории HELLOWEEN!
Если сабж исполнял бы на немецком над ними смеялся весь цивилизованный мир.
(1) vosmidesijatye,
Jun 14 2020, 21:49:12 Darkthrone - Old Star (2019)
6666666,
Таких перлов
ЦИТАТА(6666666 @ 14th June 2020 - 02:14:59) *
У Дарктрона все альбомы неудачные, кроме дебюта, напоминаю.

с моей стороны не было. Просто ты не разбираешься в музыке, вот и вся твоя проблема.
(3) garmonbozia, Winterdark, wolverine,
Jun 13 2020, 22:58:34 Darkthrone - Old Star (2019)
ЦИТАТА(HviteGuden @ 13th June 2020 - 17:42:21) *
Arctic Thunder

К слову сказать самый неудачный альбом за последние 10 лет.
(1) Фо,
Jun 13 2020, 14:27:36 Darkthrone - Old Star (2019)
Пожалуй самый удачный их альбом за последнее десятилетие, потом The Underground... 2013
(1) Фо,
Jun 12 2020, 22:15:59 Лучшая песня в истории HELLOWEEN!
ЦИТАТА(Deze @ 11th June 2020 - 11:37:02) *
Маршал должен остаться только один

Ваше время придет, шевалье.
(1) Old Vyaine,
Jun 7 2020, 13:47:19 Лучшая песня в истории HELLOWEEN!
Gambling with the Devil
Keeper Of The Seven Keys I
Keeper Of The Seven Keys II
Rabbit Don't Come Easy
Walls of Jericho
(1) BrutalHero,
May 28 2020, 17:24:25 Behemoth - A Forest [ep] (2020)
ЦИТАТА(vosmidesijatye @ 28th May 2020 - 20:22:35) *
Как минимум Телема является опровержением сего высказывания.

Где они Морбидов передирали? Показатель слабости как "композитора" сабжа.
(2) Ghostb, Metalass,
May 28 2020, 17:21:18 Behemoth - A Forest [ep] (2020)
ЦИТАТА(Faust_Vulkan_16 @ 28th May 2020 - 19:15:40) *
Нергал отличный композитор все равно, как ни крути.

Скорей наоборот очень посредственный.
(1) Nattfodd,
May 27 2020, 02:39:53 Satyricon
ЦИТАТА(Фо @ 27th May 2020 - 00:38:31) *
Тут есть большая разница. Вот русские ассимилировали чудь, а чудь теперь ими правит.

Хоть не ашкеназы, как у некоторых соседей 1488.gif

תהילה לאוקראינה
(2) Golodomor, Infidel,
May 21 2020, 20:17:31 Armagedda - Svindeldjup Ättestup (2020)
Не понравился альбом, не должно быть в BM таких растянутых и замороченных тем как тут, больше напоминает пост-блэковую муть. Тут ни мрака, ни атмосферы никакой. Второй раз не тянет слушать.
(5) ent404, gena, infiltrator, Thiarnan, Фо,
May 2 2020, 21:58:07 Soyuz - Red Blood, White Frost (2020)
ЦИТАТА(M8R8K @ 2nd May 2020 - 12:00:20) *
А что это вообще такое? Голландские воспеватели красной заразы?

Нидерланды были в составе анти-гитлеровской коалиции. Как и большинство западно европейских народов, в отличии от укро-румынской черно[мат->бан]ой швали для твоего сведения.
(5) ingram, Old Vyaine, ripper33, Shadowman, Сварог Барг,
Apr 4 2020, 14:27:21 Ulver - Little Boy [single] (2020)


*Artist: Ulver
*Album: Little Boy [single]
*Year: 2020
*Genre: Ambient/Avant-Garde/Electronica
*Country: Norway
*Format: mp3@CBR192kbps
*Size: 7MB

Tracklist:
1.Little Boy
******************************
Total playing time: 5:22



[more=Technical info]
Input File: 1. Little Boy.mp3
Channels : 2
Sample Rate : 44100
Precision : 16-bit
Duration : 00:05:23.03 = 14245623 samples = 24227.2 CDDA sectors
File Size : 7.78M
Bit Rate : 193k
Sample Encoding: MPEG audio (layer I, II or III)
Comments :
Title=Little Boy
Artist=Ulver
Album=Little Boy
Tracknumber=1/1
Year=2020
Genre=Pop
Discnumber=1/1

[/more]

Register
(9) atom72, cancer1974, Daale, Hell_Is_Here, infiltrator, Olethros, QuadenThyrane, Stutthof, the_cleanser,
Apr 3 2020, 18:49:16 Мастер - Мастер Времени (2020)
Такое ощущение что альбом просто на от***бись сыгран. Лекс как вокалист никогда восторгов не вызывал, тут у него будто сел голос.
Без Серышева, Большакова, Попова группа то вообще перестала существовать. Просто тупо по инерции ждешь от них что то интересного, а в результате очередной кидок. redp.gif
(1) Emm Human,
Mar 29 2020, 16:48:19 Мастер - Мастер Времени (2020)
По инерции ждешь что нибудь в духе первых двух альбомов, понимая наверняка будет шлак) ...надежда умирает последней XDXD
(2) Anhra Mainyu, infiltrator,
Mar 24 2020, 18:14:16 Sodom - Agent Orange (1989)
Кидать в бан имея не один акк на форуме, то-то ж еврей нашелся 15.gif
(4) Exorcist, Ghostb, Old Vyaine, plfan93,
Mar 20 2020, 19:45:15 Rawrorr - Cynism (2020)
ЦИТАТА(DMIYUR @ 20th March 2020 - 22:36:08) *
Лично мне музыка напомнила ранних " Autopsy "

+1 мне тоже. У них на ранних альбомах часто встречается такие замедления и резкие ускорения в песнях.
(2) DMIYUR, infiltrator,
Mar 20 2020, 12:30:03 Rawrorr - Cynism (2020)
Понравился альбом, более смачный предыдущего. Звукан мрачный, давящий и гнетущий. Как сгусток темной энергии внеземного происхождения, вокал гармонично сливается с музыкой. Облога, кстати, прямо отражает муз. содержание.
(4) DMIYUR, infiltrator, KorbenDallas, Фо,
Mar 12 2020, 21:44:45 Celestia - A Cave Full Of Bats [best of/compilation] (2002)
До чего охренющая группа, странно что я их пропустил. Материал отпад, по классике. pray.gif
(1) INDARKNESS,
Mar 5 2020, 19:59:32 Behemoth - Satanica (1999)
ЦИТАТА(Battaleon @ 5th March 2020 - 22:51:46) *
lafuma,
Тогда в 99 когда вышел альбом все ходили ох..евшие с выпученными глазами (что-то похожее было после выхода enthrone darkness triumphant) . Это был прорыв для жанра.

Не выдумывай, твой колхоз не показатель.
(1) wolverine,
Mar 5 2020, 18:38:33 Behemoth - Satanica (1999)
Нравится у них только блэковый Sventevith. Остальное просто органически не переношу, днище во всех смыслах.

Слушабельна только Телема где они пытались Морбидов передирать, но это скорее лучшее из худшего.
(2) Borderline1991, Skog1349,
Feb 9 2020, 19:43:40 Seth - Les Blessures De L'Вme (1998)
Восхитительное творение, как я раньше эту группу пропустил.
(1) Kazoth,

21 Pages V   1 2 3 > » 
- Lo-Fi Version Support form
Copyrights and abuse reports form
Time is now: 4th August 2020 - 18:49:41