Welcome Guest ( Log In | Register )

История благодарностей участнику shadow666 ::: Спасибо сказали: 2255 раз(а)
Дата поста: В теме: За сообщение: Спасибо сказали:
Jan 16 2019, 18:08:30 Highborne - Inheritor (2019)
люстроэльдамар,колокольчики и вокалойд
все как надо
(сарказм ес шо)
(1) krotovich,
Jul 26 2018, 15:33:19 Lonely Star - Ashen (2016)
ЦИТАТА(ultimate_satanic_ass @ 29th June 2018 - 22:35:37) *
re-upp!

Register
(1) Ostinato,
Jul 25 2018, 18:31:56 Bonjour Tristesse - Your Ultimate Urban Nightmare (2018)


*Artist: Bonjour Tristesse
*Album: Your Ultimate Urban Nightmare
*Year: 2018
*Genre: Depressive Black Metal
*Country: Germany
*Format: mp3@CBR320kbps
*Size: 106MB

Tracklist:
1. Your Ultimate Urban Nightmare 07:05
2. Like the Scythe in the Ripened Field 04:14
3. Alienation 05:32
4. Another Bullshit Night in Suck City 03:13
5. One of the Ghostfolk 06:31
6. The Act of Laughing in a World Once Beautiful Now Dying 04:43
7. Blacktop Prison 01:38
8. Wavebreaker 05:04
9. The End of the World 06:08
******************************
Total playing time: 44:08



[more=Technical info]
Input File: Bonjour Tristesse - Your Ultimate Urban Nightmare - 02 Like the Scythe in the Ripened Field.mp3
Channels : 2
Sample Rate : 44100
Precision : 16-bit
Duration : 00:04:14.45 = 11221201 samples = 19083.7 CDDA sectors
File Size : 10.2M
Bit Rate : 320k
Sample Encoding: MPEG audio (layer I, II or III)
Comments :
Title=Like the Scythe in the Ripened Field
Artist=Bonjour Tristesse
Album=Your Ultimate Urban Nightmare
Tracknumber=2
Year=2018

[/more]

Register
(30) 1968_janeart, acerbus, aleon, andivi, craP_cillA, d0zer, Femto, Forest Silence, igorzz, kim666, libertine, MaXL, Moonshtook, morbidangelo, murian, Noxius, OldY, Ostinato, randumbum, Razorbladeswaltz, Rosen, SilentNidhogg, stub888, terron, TREVAS, User123, VALERY, varg-38ru, vasiljev_sergej, xarmendarizx,
May 21 2018, 15:49:20 Lonely Star - Love & Loss (2018)


*Artist: Lonely Star
*Album: Love & Loss
*Year: 2018
*Genre: Atmospheric Post-Black Metal
*Country: United States
*Format: mp3@CBR320kbps
*Size: 88MB

Tracklist:
1. Meaningless 05:57
2. Love & Loss 05:18
3. Undo 04:21
4. Departure 05:02
5. Absence of Light 05:16
6. Hanging Garden 06:23
7. The Blood Moon 05:04
8. Empty 01:25
******************************
Total playing time: 38:46



[more=Technical info]
Input File: 01 Meaningless.mp3
Channels : 2
Sample Rate : 44100
Precision : 16-bit
Duration : 00:05:57.76 = 15777084 samples = 26831.8 CDDA sectors
File Size : 14.3M
Bit Rate : 320k
Sample Encoding: MPEG audio (layer I, II or III)
Comments :
Title=Meaningless
Artist=Lonely Star
Album=Love & Loss
Tracknumber=01
Year=2018

[/more]

Register
(25) 1968_janeart, An225, BrutalAsFuck, ErikGoth, fallen, Groundzerocorpse1990, kim666, kimkayoung, Konst, Korpse, krotovich, MeatWolf, oldvarg, Razorbladeswaltz, Rosen, SAPOGi, satanist666, Sathana, Shadechaser, stone88, stratoartica, TAKATAEL, tOmV, VALERY, vasiljev_sergej,
Aug 22 2017, 16:43:21 The Escapists - There's Always One Who Wants To Die [ep] (2015)
ЦИТАТА(Baalslayer @ May 24 2015, 00:44:05) *
Hmm, has the same tracks as:

A Perfect Day - Waitin (2015)


same guy

Register
(1) satanist666,
Aug 22 2017, 16:37:32 Новости Black-направления
[youtube]iHg-cSlOFhk[/youtube]
(1) Anataas,
Mar 11 2017, 10:35:48 Lonely Star - My Personal Heaven (2017)


*Artist: Lonely Star
*Album: My Personal Heaven
*Year: 2017
*Genre: Atmospheric Post-Black Metal/Ambient
*Country: United States
*Format: mp3@CBR320kbps
*Size: 70MB

Tracklist:
1. Forever Asleep (Intro) 04:05
2. A Vision 04:49
3. Breath of a Sleeping City 05:15
4. Towards Autumn 06:01
5. My Personal Heaven 05:32
6. Illusive Remains (Outro) 04:49
******************************
Total playing time: 30:31



[more=Technical info]
Input File: 05 My Personal Heaven.mp3
Channels : 2
Sample Rate : 44100
Precision : 16-bit
Duration : 00:05:32.86 = 14679126 samples = 24964.5 CDDA sectors
File Size : 13.3M
Bit Rate : 320k
Sample Encoding: MPEG audio (layer I, II or III)
Comments :
Title=My Personal Heaven
Artist=Lonely Star
Album=My Personal Heaven
Tracknumber=05
Year=2017

[/more]

Register
(16) ALSEM, artscald, blackenedsun, Buregon, IzverGOD, Jurmagund, kim666, Ostinato, Rosen, satanist666, ShmiT, stub888, varg-38ru, varlam4, vasiljev_sergej, Victim of fate,
Mar 11 2017, 10:25:12 Hiki - Saturday Calm (2015)
ЦИТАТА(ShmiT @ Feb 15 2017, 16:04:21) *
обновите кто нить

вот ссыль http://mystore.to/dl/2PE8rN9j5x
(1) ShmiT,
Oct 12 2016, 18:02:25 Lonely Star - Ashen (2016)


*Artist: Lonely Star
*Album: Ashen
*Year: 2016
*Genre: Atmospheric Black Metal/Ambient
*Country: United States
*Format: mp3@CBR320kbps
*Size: 72MB

Tracklist:
1. Ashen 04:22
2. Black River 05:16
3. Fade 04:35
4. Lonely Star 02:34
5. Embrace Of The Universe 07:24
6. Sparks 07:19
******************************
Total playing time: 31:30




[more=Extended info]Alicia M. - all instruments, vocals, production.[/more]

[more=Technical info]
Input File: 01 Ashen.mp3
Channels : 2
Sample Rate : 44100
Precision : 16-bit
Duration : 00:04:22.32 = 11568444 samples = 19674.2 CDDA sectors
File Size : 10.5M
Bit Rate : 320k
Sample Encoding: MPEG audio (layer I, II or III)
Comments :
Title=Ashen
Artist=Lonely Star
Album=Ashen
Tracknumber=1

[/more]

Register
(17) artscald, blackenedsun, Darkthronefoad, Immortality, Jurmagund, Kehl05, kim666, murian, Razorbladeswaltz, Rosen, satanist666, ShmiT, stub888, tont, varg-38ru, varlam4, vasiljev_sergej,
Sep 30 2016, 07:53:43 Eufori - Humörsvängningar (2016)


*Artist: Eufori
*Album: Humörsvängningar
*Year: 2016
*Genre: Depressive Rock
*Country: Sweden
*Format: mp3@CBR320kbps
*Size: 84MB

Tracklist:
1. Avgrund 05:21
2. Det Är Fan Inte Värt 05:10
3. Humörsvängningar 04:16
4. Inget Mer 05:48
5. Höstdepressioner 04:18
6. Insikt 01:46
7. Låt Snön Falla (Vanhelga Cover) 04:48
8. Eufori 05:22
******************************
Total playing time: 36:49



[more=Technical info]
Input File: Eufori - Hum?rsv?ngningar - 07 L?t Sn?n Falla (Vanhelga cover).mp3
Channels : 2
Sample Rate : 44100
Precision : 16-bit
Duration : 00:04:48.11 = 12705563 samples = 21608.1 CDDA sectors
File Size : 11.5M
Bit Rate : 320k
Sample Encoding: MPEG audio (layer I, II or III)
Comments :
Title=Låt Snön Falla (Vanhelga cover)
Artist=Eufori
Album=Humörsvängningar
Tracknumber=7
Year=2016

[/more]

Register
(8) artscald, Brann, Buregon, DenisKov, fenriz666, Frust, igorzz, RUSP73,
Sep 30 2016, 07:28:34 A Light In The Dark - Vanished [ep] (2016)


*Artist: A Light In The Dark
*Album: Vanished [ep]
*Year: 2016
*Genre: Post-Black Metal/Shoegaze
*Country: Russian Federation
*Format: mp3@CBR320kbps
*Size: 66MB

Tracklist:
1. I Tried to Forget 06:40
2. Vanished 07:01
3. Overpass 02:10
4. Tired of Waiting 06:09
5. Self-Dissonance 05:39
******************************
Total playing time: 27:39



[more=Technical info]
Input File: 04 Tired of Waiting.mp3
Channels : 2
Sample Rate : 44100
Precision : 16-bit
Duration : 00:06:09.75 = 16305887 samples = 27731.1 CDDA sectors
File Size : 14.8M
Bit Rate : 320k
Sample Encoding: MPEG audio (layer I, II or III)
Comments :
Title=Tired of Waiting
Artist=A Light in the Dark
Album=Vanished
Tracknumber=4
Year=2016

[/more]

Register
(13) 0x13, artscald, Aynekko, DowntownGsus, Femto, kim666, murian, Ostinato, Rosen, satanist666, User123, varlam4, Спектр,
Sep 21 2016, 08:45:56 Throne Of Winter - .1614 (2016)


*Artist: Throne Of Winter
*Album: .1614
*Year: 2016
*Genre: Black Metal/Ambient
*Country: Australia
*Format: mp3@CBR320kbps
*Size: 130MB

Tracklist:
1. Dormant Violins in Silence 01:05
2. Hell Reigns Over the Empyryam 02:05
3. Damnation Apocalypse Sent Through Hell's Gate of Oblivion 03:21
4. Vultures and Ravens 06:56
5. Ivory Grown 04:59
6. The Northern Shores 05:05
7. Blood Eden 05:53
8. My Tears of Anima 05:28
9. Eve Nigh Inspire 01:38
******************************
Total playing time: 36:30



[more=Technical info]
Input File: 06 The Northern Shores.mp3
Channels : 2
Sample Rate : 44100
Precision : 16-bit
Duration : 00:05:06.10 = 13499098 samples = 22957.6 CDDA sectors
File Size : 19.1M
Bit Rate : 499k
Sample Encoding: MPEG audio (layer I, II or III)
Comments :
Title=The Northern Shores
Artist=Throne Of Winter
Album=.1614
Tracknumber=6
Year=2015

[/more]

Register
(11) Buregon, Darkthronefoad, infiltrator, morbidangelo, Necromag, Razorbladeswaltz, Rosen, stub888, tont, varlam4, vasiljev_sergej,
Sep 20 2016, 10:07:03 Sadness - Somewhere Along Our Memory... (2016)


*Artist: Sadness
*Album: Somewhere Along Our Memory...
*Year: 2016
*Genre: Melancholic Black Metal
*Country: United States
*Format: mp3@CBR320kbps
*Size: 146MB

Tracklist:
1. ...Era La Tuya 06:12
2. D'un Ciel De Nuit 11:35
3. Kiss In October 13:31
4. Her 12:51
5. When the First Snow Fell... 19:44
******************************
Total playing time: 1:03:53

[more=Technical info]
Input File: 05 When the first snow fell....mp3
Channels : 2
Sample Rate : 44100
Precision : 16-bit
Duration : 00:19:44.32 = 52228644 samples = 88824.2 CDDA sectors
File Size : 47.4M
Bit Rate : 320k
Sample Encoding: MPEG audio (layer I, II or III)
Comments :
Title=When the first snow fell...
Artist=Sadness
Album=Somewhere Along Our Memory...
Tracknumber=5
Year=2016

[/more]

Register
(19) 1968_janeart, artscald, blacky66, goxther, Immortality, Indamage, kim666, Korpse, Ostinato, princeshr, Razorbladeswaltz, rom666, Rosen, Sanc, stub888, tont, VALERY, varlam4, vasiljev_sergej,
Sep 20 2016, 09:48:25 Suicide Chronicles - Suicide Chronicles [ep] (2016)


*Artist: Suicide Chronicles
*Album: Suicide Chronicles [ep]
*Year: 2016
*Genre: Post-Black Metal/Shoegaze
*Country: Ukraine
*Format: mp3@CBR320kbps
*Size: 91MB

Tracklist:
1. Last Moments... 09:20
2. Sentimental Dissonance 06:11
3. Farewell 08:46
4. Fields 08:46
5. Endless Sadness 07:05
******************************
Total playing time: 40:08

[more=Technical info]
Input File: 3 - Farewell.mp3
Channels : 2
Sample Rate : 44100
Precision : 16-bit
Duration : 00:08:46.91 = 23236907 samples = 39518.5 CDDA sectors
File Size : 21.1M
Bit Rate : 320k
Sample Encoding: MPEG audio (layer I, II or III)
Comments :
Title=Farewell
Artist=Suicide Chronicles
Album=Suicide Chronicles
Tracknumber=3
Year=2016
Genre=Athmospheric Post Rock

[/more]

Register
(6) Immortality, Mahan, Ostinato, satanist666, varlam4, vasiljev_sergej,
Sep 19 2016, 10:18:47 Darkthrone - Arctic Thunder (2016)
чет мне кажется что если бы не имя,альбом бы вообще никому сдался
(5) infiltrator, Rattenkonig, sethurius, Svetozar, Typhoid,
Aug 18 2016, 08:40:22 Beautiful Nature & Lonely Star - Breathtaking Landscapes [split] (2016)


*Artist: Beautiful Nature & Lonely Star
*Album: Breathtaking Landscapes [split]
*Year: 2016
*Genre: Atmospheric/Ambient Black Metal | Atmospheric/Ambient Black Metal
*Country: Canada | United States
*Format: mp3@CBR320kbps
*Size: 60MB

Tracklist:
Beautiful Nature:
1. Of Flowers And Trees 02:43
2. Distant Flashes In The Northern Sky 07:35
Lonely Star:
3. Embrace Of The Universe 07:24
4. Sparks 07:19
******************************
Total playing time: 25:01





[more=Extended info]Beautiful Nature is a solo lustre/ambient black metal project of Martha from Perth, Ontario focusing on the beauty of nature.

Lonely Star is a magic ambient/black metal metal project from Watertown, NY. All instruments, vocals and production by Alicia.[/more]

[more=Technical info]
Input File: 04 Sparks.mp3
Channels : 2
Sample Rate : 44100
Precision : 16-bit
Duration : 00:07:19.95 = 19401619 samples = 32996 CDDA sectors
File Size : 17.6M
Bit Rate : 320k
Sample Encoding: MPEG audio (layer I, II or III)
Comments :
Title=Sparks
Artist=Lonely Star
Album=Breathtaking Landscapes
Tracknumber=4
Year=2016

[/more]

Register
(13) artscald, Darkthronefoad, Druidir, Immortality, kim666, Razorbladeswaltz, Rosen, satanist666, ShmiT, simonalacacarisa, tont, varlam4, vasiljev_sergej,
Apr 22 2016, 15:57:19 Phantom Mistress - Paradise Of The Damned III (2016)


*Artist: Phantom Mistress
*Album: Paradise Of The Damned III
*Year: 2016
*Genre: Atmospheric Black Metal/Ambient
*Country: Poland
*Format: mp3@CBR320kbps
*Size: 97MB

Tracklist:
1. Reenactment of the Reign of Chaos 03:33
2. The Rain of Black Monoliths 03:33
3. Weak Glow From the Falling Sky 03:33
4. The Cold Inhuman Monument 03:33
5. Atrophic Voices of the Void 03:33
6. The Dematerialization of All Tissue 03:33
7. The Arcane Reconstruction 03:33
8. Droning Symphonies of Deforming Shards 03:33
9. Warping Towards an Infinite Plane 03:33
10. The Collapse of the Third Dimension 03:33
11. The Dissociation of the End Wall 03:33
******************************
Total playing time: 39:03

[more=Extended info]Eija Risen - all instruments (Eintritt, Mealann, Lucifer Effect etc.)[/more]

[more=Technical info]
Input File: 02 The Rain of Black Monoliths.mp3
Channels : 2
Sample Rate : 44100
Precision : 16-bit
Duration : 00:03:32.95 = 9390963 samples = 15971 CDDA sectors
File Size : 8.52M
Bit Rate : 320k
Sample Encoding: MPEG audio (layer I, II or III)
Comments :
Title=The Rain of Black Monoliths
Artist=Phantom Mistress
Album=Paradise of the Damned III
Tracknumber=2
Year=2016

[/more]

Register
(15) 0x13, 1968_janeart, blacky66, Buregon, Darkthronefoad, Haerelon, Immortality, kim666, Paatddal, Rosen, tont, varg-38ru, varlam4, vasiljev_sergej, Например,
Apr 22 2016, 13:57:01 Skyforest - Unity (2016)
ЦИТАТА(gena @ Apr 22 2016, 13:46:16) *
tags: black metal dsbm dark ambient doom metal metal shoegaze Ukraine

??? это с бэндкэмп ??

эт лейбла бандкамп походу. вот нормальный)) skyforest.bandcamp.com
(1) gena,
Feb 6 2016, 15:03:45 Happiness In Veins - Esc [ep] (2015)


*Artist: Happiness In Veins
*Album: Esc [ep]
*Year: 2015
*Genre: Post-Black Metal/Shoegaze/Instrumental
*Country: Russian Federation
*Format: mp3@CBR320kbps
*Size: 50MB

Tracklist:
1. e 07:42
2. s 06:20
3. c 07:18
******************************
Total playing time: 21:20

[more=Extended info]side project of Ivan (Хлад)[/more]

[more=Technical info]
Input File: happiness in veins - esc - 02 s.mp3
Channels : 2
Sample Rate : 44100
Precision : 16-bit
Duration : 00:06:20.27 = 16770039 samples = 28520.5 CDDA sectors
File Size : 15.3M
Bit Rate : 322k
Sample Encoding: MPEG audio (layer I, II or III)
Comments :
Title=s
Artist=happiness in veins
Album=esc
Tracknumber=2
Year=2015

[/more]

Register
(3) 0x13, Rosen, varlam4,
Feb 4 2016, 11:52:23 Lucifer Effect - Cleansing The Cult Of Disgust (2016)


*Artist: Lucifer Effect
*Album: Cleansing The Cult Of Disgust
*Year: 2016
*Genre: Atmospheric/Post-Black Metal/Instrumental
*Country: Poland
*Format: mp3@CBR320kbps
*Size: 139MB

Tracklist:
1. A Splinter in the Cold of Perdition 03:05
2. Among Ungrateful, Pessimistic Hedonists 04:30
3. Disposal of the Dead Flesh 05:43
4. Lamb Behind the Mask of Madness 05:07
5. For Your Deception My Body Shall Burn 04:27
6. Leaves (The Blinding Delusion) 05:09
7. First Pig to Repress the Butcher 04:21
8. Dweller of Motionless Rivers 04:43
9. Purity Bathed in Indifference 03:50
10. When Silence Becomes a Nurture 04:01
11. Raised Mute and Trimmed to Square 03:22
12. Your Paradigm Is My Contempt 03:52
13. Shotgun to the Mouth Redemption 05:56
14. In the Absence of Will to Perpetuate Days 01:51
******************************
Total playing time: 59:57

[more=Extended info]side-project of Eija Risen (Eintritt, Mealann etc.)[/more]

[more=Technical info]
Input File: Lucifer Effect - Cleansing the Cult of Disgust - 04 Lamb Behind the Mask of Madness.mp3
Channels : 2
Sample Rate : 44100
Precision : 16-bit
Duration : 00:05:07.41 = 13556825 samples = 23055.8 CDDA sectors
File Size : 12.3M
Bit Rate : 321k
Sample Encoding: MPEG audio (layer I, II or III)
Comments :
Title=Lamb Behind the Mask of Madness
Artist=Lucifer Effect
Album=Cleansing the Cult of Disgust
Tracknumber=4
Year=2016

[/more]

Register
(11) 0x13, 1968_janeart, blacky66, igorzz, Konst, NachtWulf, RENыч, Rosen, SAXON13, varg-38ru, varlam4,
Feb 3 2016, 21:52:09 Fuath - I (2016)
ЦИТАТА(isvili @ Feb 3 2016, 21:01:52) *
Да нет, все вроде в норме, даже получше последнего SAOR

да ладно ж... на саоре там и ударник разнообразно играет (даже чересчур),акустика,флейты,женский вокал,волынка. было очень интересно. а тут все слишком однообразно.
не,ну на вкус и цвет конечно,но мне вообще не понравился этот альбом. я от него ожидал более продуманной работы

кстати лол,я в третьем треке тоже бурзума услыхал,а если точнее что то из философема =)
(1) vosmidesijatye,
Feb 3 2016, 20:48:23 Lumnos - Among The Stars Of Ressurection (2016)


*Artist: Lumnos
*Album: Among The Stars Of Ressurection
*Year: 2016
*Genre: Atmospheric Black Metal/Ambient
*Country: Brazil
*Format: mp3@CBR320kbps
*Size: 93MB

Tracklist:
1. Melнflua I - Among The Stars Of Ressurection 10:24
2. Melнflua II - The Silent Cataclysm 11:32
3. Melнflua III - Denser Than Darkness 09:17
4. Melнflua IV - Lost In Spacetime 09:15
******************************
Total playing time: 40:28

[more=Technical info]
Input File: Lumnos - Among The Stars Of Ressurection - 02 Mel+нflua II - The Silent Cataclysm.mp3
Channels : 2
Sample Rate : 44100
Precision : 16-bit
Duration : 00:11:32.28 = 30529680 samples = 51921.2 CDDA sectors
File Size : 27.8M
Bit Rate : 321k
Sample Encoding: MPEG audio (layer I, II or III)
Comments :
Title=MelГ­flua II - The Silent Cataclysm
Artist=Lumnos
Album=Among The Stars Of Ressurection
Tracknumber=2
Year=2016

[/more]

Register
(17) 0x13, 1968_janeart, artscald, Buregon, Darkthronefoad, Dark_Viking, Dwole, igorzz, kim666, metaljinie, Razorbladeswaltz, Rosen, satanist666, stone88, tont, varlam4, vasiljev_sergej,
Jan 31 2016, 22:54:24 Wordclock - Self Destruction Themes (2015)


*Artist: Wordclock
*Album: Self Destruction Themes
*Year: 2015
*Genre: Dark Ambient/Cinematic
*Country: Portugal
*Format: mp3@CBR320kbps
*Size: 139MB

Tracklist:
1. Here We'll Be Gone 11:15
2. The Fever of Our Waiting 08:14
3. It May Come 04:43
4. When Indecision Strikes 07:14
5. Something More 04:12
6. More Often Than Not 02:35
7. Every Shade 06:40
8. Something Else 05:11
9. 32 Walls 06:16
10. Lack of Language 05:06
******************************
Total playing time: 1:01:26

[more=Technical info]
Input File: 10 - Lack Of Language.mp3
Channels : 2
Sample Rate : 44100
Precision : 16-bit
Duration : 00:05:06.66 = 13523574 samples = 22999.3 CDDA sectors
File Size : 12.3M
Bit Rate : 321k
Sample Encoding: MPEG audio (layer I, II or III)
Comments :
Title=Lack Of Language
Artist=Wordclock
Album=Self Destruction Themes
Tracknumber=10
Year=2015
Genre=Dark Ambient

[/more]

Register
(2) Hell_Is_Here, Konst,
Jan 31 2016, 22:01:08 Asukrai - Closed Space (2015)


*Artist: Asukrai
*Album: Closed Space
*Year: 2015
*Genre: Drone Ambient/Soundscape
*Country: United States
*Format: mp3@CBR320kbps
*Size: 123MB

Tracklist:
1. Island 08:03
2. Iceberg 07:15
3. Distant 06:50
4. Voices 08:28
5. Winter 07:57
6. Occlusion 11:41
7. Rainspeed 03:17
******************************
Total playing time: 53:31

[more=Technical info]
Input File: Asukrai - Closed Space - 04 Voices.mp3
Channels : 2
Sample Rate : 44100
Precision : 16-bit
Duration : 00:08:29.02 = 22447650 samples = 38176.3 CDDA sectors
File Size : 20.4M
Bit Rate : 321k
Sample Encoding: MPEG audio (layer I, II or III)
Comments :
Title=Voices
Artist=Asukrai
Album=Closed Space
Tracknumber=4
Year=2015

[/more]

Register
(2) dronewolf, gena,
Oct 15 2015, 13:17:40 Stollo - The Decay Of Euphoria (2015)
под ударку можно рэп читать
(1) Igor Filth,

11 Pages V   1 2 3 > » 
- Lo-Fi Version Support form
Copyrights and abuse reports form
Time is now: 25th May 2020 - 19:33:50