Welcome Guest ( Log In | Register )

История благодарностей участнику demenn ::: Спасибо сказали: 12102 раз(а)
Дата поста: В теме: За сообщение: Спасибо сказали:
Nov 11 2018, 16:15:22 Fatum Semitar - Сто Лет В Темноте (2018)


*Artist: Fatum Semitar
*Album: Сто Лет В Темноте
*Year: 2018
*Genre: Symphonic Extreme Metal
*Country: Belarus
*Format: mp3@CBR320kbps
*Size: 81MB

Tracklist:
01. Ужас Новорожденного Века 01:39
02. Их Лица 04:30
03. Символы Великой Войны 05:35
04. Белые Стены 04:07
05. Всё, что Oсталось 06:19
06. Память о Тебе 06:51
07. FIN 06:06
******************************
Total playing time: 35:09

Preview 1

[more=Technical info]
Input File: 02. Их Лица.mp3
Channels : 2
Sample Rate : 48000
Precision : 16-bit
Duration : 00:04:30.19 = 12969360 samples ~ 20264.6 CDDA sectors
File Size : 10.8M
Bit Rate : 320k
Sample Encoding: MPEG audio (layer I, II or III)
Comments :
Title=Их Лица
Artist=Fatum Semitar
Album=Сто Лет в Темноте
Tracknumber=02
Year=2018

[/more]

Register
(4) Aresson, artscald, csgmnk, Foneg,
Nov 10 2018, 10:56:45 Mjød - Пламя (2018)


*Artist: Mjød
*Album: Пламя
*Year: 2018
*Genre: Viking/Folk Metal
*Country: Russian Federation
*Format: mp3@CBR320kbps
*Size: 102MB

Tracklist:
01. Гнева Преданный Раб 03:57
02. Кость 03:03
03. Пламя 03:54
04. Мертвецы Должны Веселиться 03:45
05. Песнь Лофту 03:57
06. Речи Узника 05:07
07. Освобождённый 03:33
08. Небо Плачет Пожаром 04:23
09. Смерти Хладный Взор 04:42
10. Сон Оберегов (feat Хрен, Дрыгва) 03:59
11. Под Покровом Ночи 04:05
******************************
Total playing time: 44:32



[more=Technical info]
Input File: 02. Кость.mp3
Channels : 2
Sample Rate : 44100
Precision : 16-bit
Duration : 00:03:03.65 = 8099141 samples = 13774 CDDA sectors
File Size : 7.35M
Bit Rate : 320k
Sample Encoding: MPEG audio (layer I, II or III)
Comments :
Title=Кость
Artist=Mjød
Album=Пламя
Tracknumber=02
Year=2018
Genre=Viking Metal

[/more]

Register
(16) apostol_13, Aresson, artscald, Cartman223, csgmnk, Dark_Viking, DMIYUR, Druidir, Fess, Moonshtook, Ostinato, Rosen, satanist666, teleskop, tOmV, Смусмумбрик,
Nov 8 2018, 14:24:20 Feed Them Death - No Solution/Dissolution (2018)


*Artist: Feed Them Death
*Album: No Solution/Dissolution
*Year: 2018
*Genre: Death Metal/Grindcore
*Country: United Kingdom
*Format: mp3@CBR320kbps
*Size: 58MB

Tracklist:
01. Cadavoracity I 01:36
02. Exposed Parading Dissent 02:53
03. Bloodshed Theatre 02:13
04. The Horrific Balance 01:36
05. Terrific Gods Caravan 02:49
06. First Time Dead 02:02
07. Prosperity / Captivity 02:28
08. Doctrine Of Approximation 02:17
09. Penance In The Wrong Direction 02:01
10. Inception In Rot 01:51
11. Divide + Conquer 02:19
12. Cadavoracity II 01:15
******************************
Total playing time: 25:25




[more=Extended info][youtube]hW_BBDbh_9w[/youtube]
[youtube]ehk2kYWIyug[/youtube]
[youtube]pWL19AVxMis[/youtube]
[youtube]vnh9uvfxdek[/youtube]
[youtube]fRZChoDlLyI[/youtube][/more]

[more=Technical info]
Input File: 02. Exposed Parading Dissent.mp3
Channels : 2
Sample Rate : 44100
Precision : 16-bit
Duration : 00:02:53.52 = 7652144 samples = 13013.9 CDDA sectors
File Size : 6.94M
Bit Rate : 320k
Sample Encoding: MPEG audio (layer I, II or III)
Comments :
Title=Exposed Parading Dissent
Artist=Feed Them Death
Album=No Solution / Dissolution
Tracknumber=02
Year=2018
Genre=Death Metal

[/more]

Register
(7) jollo, Kehl05, Ostinato, Rosen, satanist666, terron, Герб,
Nov 7 2018, 21:42:51 Forbidden Rites - Pantheon Arcanum (2018)


*Artist: Forbidden Rites
*Album: Pantheon Arcanum
*Year: 2018
*Genre: Black/Death Metal
*Country: Mexico / Cyprus
*Format: mp3@CBR320kbps
*Size: 97MB

Tracklist:
01. Human Mortuary Landscapes 04:52
02. Reborn 04:55
03. Slavery Before The Soma 04:26
04. Judgement 04:48
05. Now That The Moon Illuminates The Remains 06:02
06. We Are Your Sinister 04:57
07. The Hope Of The Abandoned Planet 04:48
08. The Defeat Of Man By Man 04:41
09. Arcane Initiation 02:48
******************************
Total playing time: 42:21




[more=Extended info][youtube]tG5rUzUmWTY[/youtube]
[youtube]V3EKcCtvXlA[/youtube]
[youtube]iJ1jjZjnNhQ[/youtube]
[youtube]VX6izG6P7k4[/youtube]
[youtube]YbIpwPNVHvM[/youtube][/more]

[more=Technical info]
Input File: 01. Human Mortuary Landscapes.mp3
Channels : 2
Sample Rate : 44100
Precision : 16-bit
Duration : 00:04:52.80 = 12912436 samples = 21959.9 CDDA sectors
File Size : 11.7M
Bit Rate : 320k
Sample Encoding: MPEG audio (layer I, II or III)
Comments :
Title=Human Mortuary Landscapes
Artist=Forbidden Rites
Album=Pantheon Arcanum
Tracknumber=01
Year=2018
Genre=Death Metal

[/more]

Register
(11) AHBAnep, artscald, Kehl05, kim666, Ostinato, Rosen, satanist666, Shadechaser, terron, Wolftribes, wtk.412,
Nov 3 2018, 06:11:02 Edremerion - Ambre Gris (2018)


*Artist: Edremerion
*Album: Ambre Gris
*Year: 2018
*Genre: Avant-Garde Black Metal
*Country: France
*Format: mp3@CBR320kbps
*Size: 99MB

Tracklist:
01. Deûle 07:07
02. Lèpre 08:32
03. Ambre Gris 09:56
04. Déchets Nés 07:52
05. ...Mais Les Étoiles Ne Sont Pas Pour L'Homme 09:33
******************************
Total playing time: 43:01



[more=Extended info][youtube]tKbsEar6kII[/youtube]
[youtube]3ryIwuW_vl0[/youtube]
[youtube]bWCoAd4Ar_A[/youtube]
[youtube]yrdaM4GCzLI[/youtube]
[youtube]b37KjSLDUXk[/youtube]
[youtube]WO1b89ySES4[/youtube][/more]

[more=Technical info]
Input File: 01. Deûle.mp3
Channels : 2
Sample Rate : 44100
Precision : 16-bit
Duration : 00:07:07.10 = 18835198 samples = 32032.6 CDDA sectors
File Size : 17.1M
Bit Rate : 320k
Sample Encoding: MPEG audio (layer I, II or III)
Comments :
Title=Deûle
Artist=Edremerion
Album=Ambre Gris
Tracknumber=01
Year=2018
Genre=Black Metal

[/more]

Register
(16) 1968_janeart, artscald, Korpse, krotovich, loicv70, Moonshtook, murian, nsk2008, Ostinato, Rosen, satanist666, scorn33, spiritualdecay666, tOmV, vasiljev_sergej, yuratroll,
Nov 2 2018, 12:33:24 Second To Sun - The Walk (2018)


*Artist: Second To Sun
*Album: The Walk
*Year: 2018
*Genre: Post-Black Metal
*Country: Russian Federation
*Format: mp3@CBR320kbps
*Size: 100MB

Tracklist:
01. We Are Not Alone 05:32
02. Black Lines 04:35
03. Home 06:04
04. From Outer Space 03:17
05. The Train 1702 05:00
06. The Owls 07:02
07. New World Order 04:23
08. To Live 04:13
09. We Are Alone 03:19
******************************
Total playing time: 43:48



[more=Technical info]
Input File: 01. We Are Not Alone.mp3
Channels : 2
Sample Rate : 44100
Precision : 16-bit
Duration : 00:05:32.53 = 14664749 samples = 24940 CDDA sectors
File Size : 13.3M
Bit Rate : 320k
Sample Encoding: MPEG audio (layer I, II or III)
Comments :
Title=We Are Not Alone
Artist=Second To Sun
Album=The Walk
Tracknumber=01
Year=2018
Genre=Black Metal

[/more]

Register
(12) 0x13, 1968_janeart, artscald, kim666, Ostinato, RedSparrow, Rosen, satanist666, stone88, SyncestrA, tOmV, yuratroll,
Oct 31 2018, 18:04:29 Severoth - When The Night Falls (2018)
ЦИТАТА(recber @ Oct 31 2018, 15:50:00) *
Добрые люди залейте на мегу кто нибудь bye.gif

157 mb https://mega.nz/#!YrBXmI4a!8wkmxtmj...VLpOtYEz_s1VVk0
(11) 1968_janeart, CultMetalSerge, Femto, Luminous, nsk2008, Old Vyaine, Pinhead666, recber, terron, zorn666, дивин,
Oct 31 2018, 17:40:26 Ezkaton - Last Breath [ep] (2018)


*Artist: Ezkaton
*Album: Last Breath [ep]
*Year: 2018
*Genre: Atmospheric/Depressive Black Metal
*Country: Ukraine
*Format: mp3@CBR320kbps
*Size: 42MB

Tracklist:
01. Luring Needle 06:40
02. Last Breath 06:23
03. Wisdom (Instrumental) 05:26
******************************
Total playing time: 18:30



[more=Technical info]
Input File: 01. Luring Needle.mp3
Channels : 2
Sample Rate : 44100
Precision : 16-bit
Duration : 00:06:40.90 = 17679690 samples = 30067.5 CDDA sectors
File Size : 16.0M
Bit Rate : 320k
Sample Encoding: MPEG audio (layer I, II or III)
Comments :
Title=Luring Needle
Artist=Ezkaton
Album=Last Breath
Tracknumber=01
Year=2018
Genre=Black Metal

[/more]

Register
(9) artscald, kim666, Maximvs, Ostinato, Rosen, satanist666, Shadechaser, SilentNidhogg, udt4050,
Oct 31 2018, 15:13:41 Pannychida - Missense Mutation (2018)


*Artist: Pannychida
*Album: Missense Mutation
*Year: 2018
*Genre: Death Metal
*Country: Russian Federation
*Format: mp3@CBR320kbps
*Size: 97MB

Tracklist:
01. Missense Mutation 05:27
02. Mental Thromb 03:39
03. Harmonious Mechanism 04:09
04. Subsistence Will 04:04
05. Trapped 05:53
06. Fear Generates Tolerance 03:52
07. Blinds Lead Blinds 04:25
08. Absurd Attacks 06:35
09. False Victim 04:13
******************************
Total playing time: 42:21


Preview 2

[more=Extended info][youtube]cEIylMiPj4I[/youtube]
[youtube]ctRj5X9Nezw[/youtube]
[youtube]w2OvPQOaR5E[/youtube]
[youtube]5CLVsL8w6ZM[/youtube]
[youtube]SIb1Q7o0NAI[/youtube]
[youtube]XTg2JPmN60M[/youtube][/more]

[more=Technical info]
Input File: 01. Missense Mutation.mp3
Channels : 2
Sample Rate : 44100
Precision : 16-bit
Duration : 00:05:27.99 = 14464271 samples = 24599.1 CDDA sectors
File Size : 13.1M
Bit Rate : 320k
Sample Encoding: MPEG audio (layer I, II or III)
Comments :
Title=Missense Mutation
Artist=Pannychida
Album=Missense Mutation
Tracknumber=01
Year=2018
Genre=Death Metal

[/more]

Register
(12) andreikun, artscald, Balusina, Korpse, metaljan, Ostinato, Proteus_666, Rosen, Samaritianin, samokot, Shadechaser, SyncestrA,
Oct 31 2018, 09:43:07 Чёрный Обелиск - Х (2018)


*Artist: Чёрный Обелиск
*Album: Х
*Year: 2018
*Genre: Heavy/Thrash Metal
*Country: Russian Federation
*Format: mp3@CBR320kbps
*Size: 89MB

Tracklist:
01. Надоело 03:55
02. Молитва 04:25
03. Пауки 03:48
04. Звезда 02:49
05. Время 03:04
06. Бей 03:36
07. Мы Вместе 03:13
08. Воины Света 03:39
09. Палачи 03:33
10. Осколки 03:50
11. Звон Монет (Эпидемия Cover) 03:02
******************************
Total playing time: 38:58

Preview 1

[more=Technical info]
Input File: 01. Надоело.mp3
Channels : 2
Sample Rate : 44100
Precision : 16-bit
Duration : 00:03:55.28 = 10375628 samples = 17645.6 CDDA sectors
File Size : 9.41M
Bit Rate : 320k
Sample Encoding: MPEG audio (layer I, II or III)
Comments :
Title=Надоело
Artist=Чёрный Обелиск
Album=Х
Tracknumber=01
Year=2018
Genre=Heavy Metal

[/more]

Register
(20) 0x13, A.L.Rapsod, apostol_13, Aresson, artscald, avkruchinin, caro, cesar, Diflock, DMIYUR, gwar, Penetralia, pichileon, Rosen, Rover, Shadechaser, sking, VALERY, vir2al, Yanek,
Oct 30 2018, 12:53:26 Indesiderium - Of Twilight And Evenfall​.​.​. (2018)


*Artist: Indesiderium
*Album: Of Twilight And Evenfall​.​.​.
*Year: 2018
*Genre: Black Metal
*Country: United States
*Format: mp3@CBR320kbps
*Size: 92MB

Tracklist:
01. Ascending The Serpent Throne 03:44
02. Upon The Shores Of Acheron 06:27
03. Fallen Into Shadow 06:13
04. The Conqueror's Return 05:34
05. Lightless Star: Transcending The Chasm 05:05
06. Wrathcrown: One Final Victory 04:18
07. The Knell And The World (Dawn cover) 08:59
******************************
Total playing time: 40:22




[more=Extended info][youtube]DHQNzKyqcQ4[/youtube]
[youtube]-A6cL7i3ONk[/youtube]
[youtube]H6BlJAwVuos[/youtube][/more]

[more=Technical info]
Input File: 01. Ascending The Serpent Throne.mp3
Channels : 2
Sample Rate : 44100
Precision : 16-bit
Duration : 00:03:44.07 = 9881355 samples = 16805 CDDA sectors
File Size : 8.97M
Bit Rate : 320k
Sample Encoding: MPEG audio (layer I, II or III)
Comments :
Title=Ascending The Serpent Throne
Artist=Indesiderium
Album=Of Twilight And Evenfall​.​.​.
Tracknumber=01
Year=2018
Genre=Black Metal

[/more]

Register
(20) 1968_janeart, Amsterdam, artscald, CRUNCH, DarkHorde, garmonbozia, Indamage, Kehl05, kim666, Korpse, Orphan, Ostinato, Rosen, satanist666, SilentNidhogg, stub888, VALERY, vasiljev_sergej, vovenom, Wolftribes,
Oct 29 2018, 15:29:36 Lascar - Wildlife (2018)
ЦИТАТА(Razorbladeswaltz @ Oct 29 2018, 11:58:35) *
mirror, pls

Добавил в теме.
(1) Razorbladeswaltz,
Oct 29 2018, 14:39:34 Mallephyr - Womb Of Worms (2018)


*Artist: Mallephyr
*Album: Womb Of Worms
*Year: 2018
*Genre: Black/Death Metal
*Country: Czech Republic
*Format: mp3@CBR320kbps
*Size: 88MB

Tracklist:
01. The Temple Of Nothingness 04:24
02. Towards The Interminable Hatred 04:47
03. The Absolute Inner Genocide 05:24
04. W.Y.I.D. 05:03
05. Womb Of Worms I 11:10
06. ...Just A Fraction Remains To Be Forever Ruined... The Deliverance Is Near... 01:03
07. Womb Of Worms II 06:20
******************************
Total playing time: 38:15



[more=Extended info][youtube]DvVh4W4RtHE[/youtube]
[youtube]PaG_0a4SGng[/youtube]
[youtube]CkopnsNKVA4[/youtube]
[youtube]sZAZukZMyqM[/youtube]
[youtube]M0QCcBM3uic[/youtube]
[youtube]0d8-eN5bPpw[/youtube][/more]

[more=Technical info]
Input File: 01. The Temple Of Nothingness.mp3
Channels : 2
Sample Rate : 44100
Precision : 16-bit
Duration : 00:04:24.79 = 11677415 samples = 19859.5 CDDA sectors
File Size : 10.6M
Bit Rate : 320k
Sample Encoding: MPEG audio (layer I, II or III)
Comments :
Title=The Temple Of Nothingness
Artist=Mallephyr
Album=Womb Of Worms
Tracknumber=01
Year=2018
Genre=Black Metal

[/more]

Register
(18) AHBAnep, artscald, Doooomed, infozahist, Kehl05, metala, Ostinato, Rosen, satanist666, SatanMy_Master, Shadechaser, SHADOW148814, SilentNidhogg, Themgorothhh, VALERY, vasiljev_sergej, vov7609, yuratroll,
Oct 29 2018, 12:20:34 From The Vastland - Daevayasna (2018)
ЦИТАТА(Razorbladeswaltz @ Oct 29 2018, 11:59:08) *
mirror, pls

В теме добавил.
(1) Razorbladeswaltz,
Oct 25 2018, 14:14:07 Realm Of Wolves - Oblivion (2018)
ЦИТАТА(Razorbladeswaltz @ Oct 22 2018, 23:29:40) *
mirror, pls

Ссылку добавил в теме.
(1) Razorbladeswaltz,
Oct 25 2018, 13:01:23 From The Vastland - Daevayasna (2018)


*Artist: From The Vastland
*Album: Daevayasna
*Year: 2018
*Genre: Black Metal
*Country: Norway
*Format: mp3@CBR320kbps
*Size: 108MB

Tracklist:
01. Fall Into Duzakh 06:44
02. Sinful Oblivion 07:08
03. Agas 06:43
04. Daevayasna 07:06
05. Sickle Of Melmedas 05:55
06. The Cadavers Tower 06:31
07. As The Gray Clouds Rain 06:55
******************************
Total playing time: 47:05




[more=Extended info][youtube]aU0GRUhkrww[/youtube]
[youtube]FO1pteYEvOg[/youtube]
[youtube]NuWIfmADmzs[/youtube]
[youtube]nEHyjd3q6n0[/youtube]
[youtube]dSKjwWznap8[/youtube][/more]

[more=Technical info]
Input File: 01. Fall Into Duzakh.mp3
Channels : 2
Sample Rate : 44100
Precision : 16-bit
Duration : 00:06:44.71 = 17847887 samples = 30353.5 CDDA sectors
File Size : 16.2M
Bit Rate : 320k
Sample Encoding: MPEG audio (layer I, II or III)
Comments :
Title=Fall Into Duzakh
Artist=From The Vastland
Album=Daevayasna
Tracknumber=01
Year=2018
Genre=Black Metal

[/more]

Register
(20) 1968_janeart, AndreFrancis, Black Cat, cancer1974, kim666, Korpse, legion01, neoatheist, nsk2008, Ostinato, Precaria, rimfrost, Rosen, RUDACHUR, satanist666, SilentNidhogg, THROWER666, varg-38ru, vasiljev_sergej, vovenom,
Oct 25 2018, 12:37:53 Lascar - Wildlife (2018)


*Artist: Lascar
*Album: Wildlife
*Year: 2018
*Genre: Atmospheric Black Metal
*Country: Chile
*Format: mp3@VBR263kbps
*Size: 76MB

Tracklist:
01. The Disdain 06:26
02. Petals 06:06
03. Submission 05:56
04. The Zenith 06:43
05. Fatigue 07:01
06. The Majestic Decay 08:01
******************************
Total playing time: 40:16




[more=Technical info]
Input File: 01. The Disdain.mp3
Channels : 2
Sample Rate : 44100
Precision : 16-bit
Duration : 00:06:26.90 = 17062246 samples = 29017.4 CDDA sectors
File Size : 12.8M
Bit Rate : 264k
Sample Encoding: MPEG audio (layer I, II or III)
Comments :
Title=The Disdain
Artist=Lascar
Album=Wildlife
Tracknumber=01
Year=2018
Genre=Black Metal

[/more]

Register
(18) 1968_janeart, Groundzerocorpse1990, kim666, Korpse, KVRT, Maximvs, Mogozoz, Moonshtook, murian, nemx, nsk2008, Ostinato, Rosen, satanist666, SilentNidhogg, stone88, varg-38ru, vasiljev_sergej,
Oct 22 2018, 09:43:33 Elderwind - Чем холоднее ночь (2018)
(2) Aresson, artscald,
Oct 19 2018, 17:13:36 Realm Of Wolves - Oblivion (2018)


*Artist: Realm Of Wolves
*Album: Oblivion
*Year: 2018
*Genre: Atmospheric Black Metal
*Country: Hungary
*Format: mp3@CBR320kbps
*Size: 92MB

Tracklist:
01. Cascadia 04:32
02. Ignifer 05:06
03. Old Roots 06:24
04. Translucent Stones 03:51
05. Twelve Miles To Live 04:44
06. Into The Woods Of Oblivion 09:12
07. Northern Wind 06:24
******************************
Total playing time: 40:13




[more=Extended info]Realm Of Wolves - это проект участников VVilderness (vvildr - тексты, вокал, барабаны, оформление), Silent Island (Stvannyr - гитары, написание песен) и примкнувшего к ним басиста Ghöul.[/more]

[more=Technical info]
Input File: 01. Cascadia.mp3
Channels : 2
Sample Rate : 44100
Precision : 16-bit
Duration : 00:04:32.08 = 11998860 samples = 20406.2 CDDA sectors
File Size : 10.9M
Bit Rate : 320k
Sample Encoding: MPEG audio (layer I, II or III)
Comments :
Title=Cascadia
Artist=Realm Of Wolves
Album=Oblivion
Tracknumber=01
Year=2018
Genre=Black Metal

[/more]

Register
(23) 1968_janeart, csgmnk, djsema4, DowntownGsus, Fess, Indamage, juanguillermo13, kim666, Korpse, Leolomb, Ludwig Hagen, metaljinie, nsk2008, Ostinato, rimfrost, Rosen, satanist666, SilentNidhogg, Thunderbird, v.v.m, varg-38ru, vasiljev_sergej, Wolftribes,
Oct 19 2018, 11:01:35 Voidhaven - Voidhaven [ep] (2018)


*Artist: Voidhaven
*Album: Voidhaven [ep]
*Year: 2018
*Genre: Doom/Death Metal
*Country: Germany
*Format: mp3@CBR320kbps
*Size: 42MB

Tracklist:
01. The Floating Grave 08:54
02. Beyond The Bounds Of Sleep 09:17
******************************
Total playing time: 18:11



[more=Extended info]Дебютная работа немецкой группы, в которую вошли музыканты Crimson Swan и Ophis.
https://solitude-prod.com[/more]

[more=Technical info]
Input File: 01. The Floating Grave.mp3
Channels : 2
Sample Rate : 44100
Precision : 16-bit
Duration : 00:08:54.58 = 23574802 samples = 40093.2 CDDA sectors
File Size : 21.4M
Bit Rate : 320k
Sample Encoding: MPEG audio (layer I, II or III)
Comments :
Title=The Floating Grave
Artist=Voidhaven
Album=Voidhaven
Tracknumber=01
Year=2018
Genre=Doom Metal

[/more]

Register
(12) chefo, KVRT, LightWizard, marilin, Mogozoz, nord6666, Ostinato, Rosen, RUDACHUR, russ777, Shadechaser, vyacheslav,
Oct 17 2018, 12:42:42 Lutowrat - Ведомые Волком (2018)


*Artist: Lutowrat
*Album: Ведомые Волком
*Year: 2018
*Genre: Pagan Metal
*Country: Russian Federation
*Format: mp3@CBR320kbps
*Size: 89MB

Tracklist:
01. Intro 02:11
02. Гниль 06:23
03. В Огне 05:06
04. Ведомые Волком 05:51
05. Йомсгарда Витязи 04:11
06. Воинство Белого Бога 04:47
07. Ulfhednir Todesschwadronn (Absurd cover) 04:50
08. В Окружении Вечных Дубов 05:22
******************************
Total playing time: 38:58


Preview 2

[more=Technical info]
Input File: 02. Гниль.mp3
Channels : 2
Sample Rate : 44100
Precision : 16-bit
Duration : 00:06:25.49 = 16999977 samples = 28911.5 CDDA sectors
File Size : 15.4M
Bit Rate : 320k
Sample Encoding: MPEG audio (layer I, II or III)
Comments :
Title=Гниль
Artist=Lutowrat
Album=Ведомые Волком
Tracknumber=02
Year=2018
Genre=Pagan Metal

[/more]

Register
(9) Aresson, dermarsoran, fabriziomagno, GrimmSkald, Mogozoz, Ostinato, Rosen, satanist666, serach,
Oct 15 2018, 23:22:59 Crystalmoors & Hordak - Árguma/Ophiusa [split] (2018)


*Artist: Crystalmoors & Hordak
*Album: Árguma/Ophiusa [split]
*Year: 2018
*Genre: Celtic/Pagan Black Metal | Pagan Metal
*Country: Spain | Spain
*Format: mp3@CBR320kbps
*Size: 94MB

Tracklist:
CrystalMoors:
01. Hijos Del Sol 04:34
02. With The Eyes Towards The Moon 07:02
03. Llaranza 03:27
04. Into The Second Punic War 05:41
Hordak:
05. Ophiusa 20:05
******************************
Total playing time: 40:52



[more=Technical info]
Input File: 05. Ophiusa.mp3
Channels : 2
Sample Rate : 44100
Precision : 16-bit
Duration : 00:20:05.91 = 53180543 samples = 90443.1 CDDA sectors
File Size : 48.2M
Bit Rate : 320k
Sample Encoding: MPEG audio (layer I, II or III)
Comments :
Title=Ophiusa
Artist=Hordak
Album=Árguma / Ophiusa
Tracknumber=05
Year=2018
Genre=Pagan Metal

[/more]

Register
(16) Cartman223, Druidir, Lanceatum, Maximvs, Mirddin, Necromayhem, Ostinato, Pinhead666, Raw1488, Relicario, Rosen, satanist666, SilentNidhogg, Slavas, talismanFS, zolotoiskatel,
Oct 14 2018, 21:53:12 Marche Funèbre - Death Wish Woman [ep] (2018)


*Artist: Marche Funèbre
*Album: Death Wish Woman [ep]
*Year: 2018
*Genre: Doom/Death Metal
*Country: Belgium
*Format: mp3@CBR320kbps
*Size: 67MB

Tracklist:
01. Broken Wings 06:47
02. Death Wish Woman 05:53
03. A Departing Guest 12:43
04. As I Die (Paradise Lost cover) 03:42
******************************
Total playing time: 29:06




[more=Extended info][youtube]BWaTCnMIJwg[/youtube]
[youtube]vGB0Rk5GDis[/youtube]
[youtube]SXe8sWin3SQ[/youtube][/more]

[more=Technical info]
Input File: 01. Broken Wings.mp3
Channels : 2
Sample Rate : 44100
Precision : 16-bit
Duration : 00:06:47.51 = 17971147 samples = 30563.2 CDDA sectors
File Size : 16.3M
Bit Rate : 320k
Sample Encoding: MPEG audio (layer I, II or III)
Comments :
Title=Broken Wings
Artist=Marche Funèbre
Album=Death Wish Woman
Tracknumber=01
Year=2018
Genre=Doom Metal

[/more]

Register
(28) AHBAnep, as71, chefo, Daale, doomTemplar, gena, Hell_Is_Here, infozahist, libertine, Lux, marilin, nsk2008, Ostinato, Rosen, RUDACHUR, SatanicPanzer, satanist666, sergsazan, Shadechaser, snot, TeamatSE, thenecromancer, THROWER666, Tino, tOmV, vyacheslav, Zenial, Герб,
Oct 13 2018, 12:20:09 Ravencry - Elder (2018)


*Artist: Ravencry
*Album: Elder
*Year: 2018
*Genre: Black/Viking Metal
*Country: Russian Federation
*Format: mp3@CBR320kbps
*Size: 89MB

Tracklist:
01. Elder (intro) 01:25
02. Ravenbattles 03:35
03. March Of Giants 02:56
04. Stormsky 03:27
05. Around Fire 03:43
06. Borealis 02:35
07. Doom 04:48
08. Tritohn 03:39
09. Windfall 04:37
10. Borealis Elder 05:36
11. Thundra (hidden track) 02:15
******************************
Total playing time: 38:41



[more=Technical info]
Input File: 03. March Of Giants.mp3
Channels : 2
Sample Rate : 44100
Precision : 16-bit
Duration : 00:02:56.57 = 7786913 samples = 13243 CDDA sectors
File Size : 7.07M
Bit Rate : 320k
Sample Encoding: MPEG audio (layer I, II or III)
Comments :
Title=March Of Giants
Artist=Ravencry
Album=Elder
Tracknumber=03
Year=2018
Genre=Black Metal

[/more]

Register
(8) Cartman223, Constantinus I, fabriziomagno, Necroeire, Rosen, satanist666, spiritualdecay666, vasiljev_sergej,
Oct 11 2018, 21:45:13 Ancient Oak - To Kill A Weak One (2018)


*Artist: Ancient Oak
*Album: To Kill A Weak One
*Year: 2018
*Genre: Atmospheric Black Metal
*Country: Russian Federation
*Format: mp3@CBR320kbps
*Size: 82MB

Tracklist:
01. Dragon's Greed 06:37
02. Promised In Legends 04:30
03. Swing Of The Sword 06:38
04. Witch Spell 06:11
05. Order Of Death 06:02
06. To Kill A Weak One 05:44
******************************
Total playing time: 35:42



[more=Technical info]
Input File: 02. Promised In Legends.mp3
Channels : 2
Sample Rate : 44100
Precision : 16-bit
Duration : 00:04:30.40 = 11924464 samples = 20279.7 CDDA sectors
File Size : 10.8M
Bit Rate : 320k
Sample Encoding: MPEG audio (layer I, II or III)
Comments :
Title=Promised In Legends
Artist=Ancient Oak
Album=To Kill A Weak One
Tracknumber=02
Year=2018
Genre=Black Metal

[/more]

Register
(13) 0x13, Dark_Viking, Druidir, Indamage, kim666, Moonshtook, Ostinato, Rosen, satanist666, Shadechaser, SilentNidhogg, varlam4, vasiljev_sergej,

30 Pages V   1 2 3 > » 
- Lo-Fi Version Support form
Copyrights and abuse reports form
Time is now: 14th November 2018 - 08:28:11