Welcome Guest ( Log In | Register )

История благодарностей участнику demenn ::: Спасибо сказали: 11408 раз(а)
Дата поста: В теме: За сообщение: Спасибо сказали:
Jul 15 2018, 13:53:07 Cosmic Autumn - Cosmic Autumn (2018)


*Artist: Cosmic Autumn
*Album: Cosmic Autumn
*Year: 2018
*Genre: Atmospheric Black Metal
*Country: Germany
*Format: mp3@CBR320kbps
*Size: 88MB

Tracklist:
01. The Last Deception 06:01
02. Event Horizon 06:11
03. Indistinct Visions 05:25
04. Realms Of Eternal Light 10:31
05. Solitude (Instrumental) 10:13
******************************
Total playing time: 38:23




[more=Technical info]
Input File: 01. The Last Deception.mp3
Channels : 2
Sample Rate : 44100
Precision : 16-bit
Duration : 00:06:01.32 = 15934300 samples = 27099.1 CDDA sectors
File Size : 14.5M
Bit Rate : 320k
Sample Encoding: MPEG audio (layer I, II or III)
Comments :
Title=The Last Deception
Artist=Cosmic Autumn
Album=Cosmic Autumn
Tracknumber=01
Year=2018
Genre=Black Metal

[/more]

Register
(15) 1968_janeart, andydoom, djsema4, kim666, Korpse, Ludwig Hagen, Maximvs, Olrak, Ostinato, Shadechaser, SSBandera, system36, terron, thenecromancer, vasiljev_sergej,
Jul 15 2018, 09:15:17 Talsur - Tormented (2018)


*Artist: Talsur
*Album: Tormented
*Year: 2018
*Genre: Melodic Doom/Death Metal
*Country: Russian Federation
*Format: mp3@CBR320kbps
*Size: 134MB

Tracklist:
01. Lamentoso 00:33
02. Demorior 07:06
03. I Bequeath 07:10
04. Waters Of Loss 06:36
05. Bleeding 06:09
06. Mortal Beloved 05:47
07. Regrets 05:47
08. Sanctuary Of Sinners 05:56
09. Tormented By Fate 13:34
******************************
Total playing time: 58:43




[more=Technical info]
Input File: 02 Demorior.mp3
Channels : 2
Sample Rate : 44100
Precision : 16-bit
Duration : 00:07:06.42 = 18805254 samples = 31981.7 CDDA sectors
File Size : 17.1M
Bit Rate : 320k
Sample Encoding: MPEG audio (layer I, II or III)
Comments :
Title=Demorior
Artist=Talsur
Album=Tormented
Tracknumber=02
Year=2018
Genre=Doom Metal

[/more]

Register
(13) chefo, djsema4, doomTemplar, Guns, infozahist, krotovich, KVRT, SatanicPanzer, Shadechaser, skidnik, SymbyoticEntity, tOmV, zaqxsw,
Jul 13 2018, 11:05:15 Foothill Roots - Nature Resonates [demo] (2018)
ЦИТАТА(Razorbladeswaltz @ Jul 11 2018, 22:44:23) *
mirror, pls

Прямая ссылка на
(1) Razorbladeswaltz,
Jul 11 2018, 10:54:34 Foothill Roots - Nature Resonates [demo] (2018)


*Artist: Foothill Roots
*Album: Nature Resonates [demo]
*Year: 2018
*Genre: Atmospheric Black Metal
*Country: Ireland
*Format: mp3@CBR320kbps
*Size: 59MB

Tracklist:
01. Intro 01:10
02. The Forest In Spring 10:44
03. Silver Under The Hills 07:18
04. Years Of Endless Rain 03:59
05. Tribute To Sun And Moon Dance - Hymne Til Freyja 02:24
******************************
Total playing time: 25:36



[more=Extended info][youtube]YwsZnv-SUfg[/youtube][/more]

[more=Technical info]
Input File: 02 The Forest In Spring.mp3
Channels : 2
Sample Rate : 44100
Precision : 16-bit
Duration : 00:10:44.82 = 28436518 samples = 48361.4 CDDA sectors
File Size : 25.8M
Bit Rate : 320k
Sample Encoding: MPEG audio (layer I, II or III)
Comments :
Title=The Forest In Spring
Artist=Foothill Roots
Album=Nature Resonates
Tracknumber=02
Year=2018
Genre=Black Metal

[/more]

Register
(9) 1968_janeart, infiltrator, kim666, Ostinato, Rosen, SilentNidhogg, stub888, varg-38ru, vasiljev_sergej,
Jul 4 2018, 19:31:50 Wintaar & Dzö-Nga - Into The Heart Of The Ice [split] (2018)
ЦИТАТА(Razorbladeswaltz @ Jul 4 2018, 13:00:45) *
mirror, pls

Ссылку добавил в теме.
(1) Razorbladeswaltz,
Jul 3 2018, 20:11:51 Wintaar - Songs Of White Wilderness (2018)


*Artist: Wintaar
*Album: Songs Of White Wilderness
*Year: 2018
*Genre: Atmospheric Black Metal
*Country: Russian Federation
*Format: mp3@CBR320kbps
*Size: 105MB

Tracklist:
01. Kingdom Of The Ice Ridge 07:20
02. Dust 07:46
03. Knowledge Of The Wanderer 04:27
04. White Wilderness 07:09
05. The Mountain Chant 05:20
06. Thundrasong 05:36
07. Wounds Of The Sun 08:19
******************************
Total playing time: 45:59



[more=Technical info]
Input File: 02. Dust.mp3
Channels : 2
Sample Rate : 44100
Precision : 16-bit
Duration : 00:07:46.11 = 20555231 samples = 34957.9 CDDA sectors
File Size : 18.6M
Bit Rate : 320k
Sample Encoding: MPEG audio (layer I, II or III)
Comments :
Title=Dust
Artist=Wintaar
Album=Songs Of White Wilderness
Tracknumber=02
Year=2018
Genre=Black Metal

[/more]

Register
(17) 0x13, 1968_janeart, cesar, Daale, Doooomed, Fater_Hu, infiltrator, kim666, Korpse, Ostinato, pfk505, Rosen, Shadechaser, simvolist777, stone88, VALERY, vasiljev_sergej,
Jul 2 2018, 21:02:46 The World Within - From The Ashes Of A Wasteland (2018)


*Artist: The World Within
*Album: From The Ashes Of A Wasteland
*Year: 2018
*Genre: Symphonic/Melodic Death Metal
*Country: Russian Federation
*Format: mp3@CBR320kbps
*Size: 123MB

Tracklist:
01. Fireborn 07:49
02. Point Of No Return 04:22
03. Cult Of Aberration 05:53
04. Depths Of My Memory 08:03
05. Ghost Of Yesterday 06:26
06. Under The Flag Of Self-Destruction 02:38
07. Spring 04:11
08. Weakness Plague 05:17
09. Nothing To Save 04:20
10. Emberland 04:49
******************************
Total playing time: 53:51


Preview 2

[more=Extended info]Состав:
Joni Teppo (Finland, Nivala)
Hadfes Oblivion (Russia, Vladivostok)
Igor Plotnikov (Russia, Novosibirsk)
Kevin Tutaj (USA, Las Vegas)[/more]

[more=Technical info]
Input File: 02. Point Of No Return.mp3
Channels : 2
Sample Rate : 44100
Precision : 16-bit
Duration : 00:04:22.08 = 11557640 samples = 19655.9 CDDA sectors
File Size : 10.5M
Bit Rate : 320k
Sample Encoding: MPEG audio (layer I, II or III)
Comments :
Title=Point Of No Return
Artist=The World Within
Album=From The Ashes Of A Wasteland
Tracknumber=02
Year=2018
Genre=Death Metal

[/more]

Register
(20) 0x13, AHBAnep, csgmnk, djsema4, infiltrator, Lucifer, Ludwig Hagen, Luminous, MeatWolf, oldvarg, Olrak, Ostinato, Rosen, sergsazan, stratoartica, talismanFS, tOmV, VALERY, wreak, скептик,
Jun 29 2018, 20:50:04 Puzhmer - Nihil Sub Sole Novum [ep] (2018)


*Artist: Puzhmer
*Album: Nihil Sub Sole Novum [ep]
*Year: 2018
*Genre: Black/Doom Metal
*Country: Russian Federation
*Format: mp3@CBR320kbps
*Size: 48MB

Tracklist:
01. Swarming In Dust 05:36
02. Dance Of Denial 04:24
03. Dementia 05:25
04. Yore 05:28
******************************
Total playing time: 20:55



[more=Technical info]
Input File: 01. Swarming In Dust.mp3
Channels : 2
Sample Rate : 44100
Precision : 16-bit
Duration : 00:05:36.43 = 14836387 samples = 25232 CDDA sectors
File Size : 13.5M
Bit Rate : 320k
Sample Encoding: MPEG audio (layer I, II or III)
Comments :
Title=Swarming In Dust
Artist=Puzhmer
Album=Nihil Sub Sole Novum
Tracknumber=01
Year=2018
Genre=Black Metal

[/more]

Register
(8) 1968_janeart, infiltrator, marilin, Ostinato, Rosen, varg-38ru, vasiljev_sergej, wreak,
Jun 23 2018, 10:11:09 Wintaar & Dzö-Nga - Into The Heart Of The Ice [split] (2018)


*Artist: Wintaar & Dzö-Nga
*Album: Into The Heart Of The Ice [split]
*Year: 2018
*Genre: Atmospheric Black Metal | Atmospheric Black Metal/Ambient
*Country: Russian Federation | United States
*Format: mp3@CBR320kbps
*Size: 121MB

Tracklist:
Wintaar:
01. Dyatlov's Pass 11:54
02. Drown Itself In The Snow 06:58
03. When Eternity Will Claim Our Ashes 08:06
Dzö-nga:
04. Crystal Monastery 04:47
05. Silhouetted Against Snow 08:00
06. A Grave Of Pure White 12:57
******************************
Total playing time: 52:45




[more=Technical info]
Input File: 01. Dyatlov's Pass.mp3
Channels : 2
Sample Rate : 44100
Precision : 16-bit
Duration : 00:11:55.04 = 31533220 samples = 53627.9 CDDA sectors
File Size : 28.6M
Bit Rate : 320k
Sample Encoding: MPEG audio (layer I, II or III)
Comments :
Title=Dyatlov's Pass
Artist=Wintaar
Album=Into The Heart Of The Ice
Tracknumber=01
Year=2018
Genre=Black Metal

[/more]

Register
(17) 1968_janeart, Doooomed, fallen, kim666, Korpse, Lanceatum, Maximvs, Old Vyaine, Orphan, Ostinato, pfk505, Razorbladeswaltz, Rosen, SilentNidhogg, TAKATAEL, varg-38ru, vasiljev_sergej,
Jun 8 2018, 10:40:18 Aistvara - Aistvara [ep] (2018)


*Artist: Aistvara
*Album: Aistvara [ep]
*Year: 2018
*Genre: Progressive Folk Metal
*Country: Lithuania
*Format: mp3@CBR320kbps
*Size: 68MB

Tracklist:
01. Daina Apie Kalvį 04:07
02. Maskolėli Žalnierėli 03:31
03. Daina Apie Lapę 06:24
04. Sakalėli Sierasai 03:51
05. Laumė 03:48
06. Daina Apie Linus 08:03
******************************
Total playing time: 29:48




[more=Technical info]
Input File: 01 Daina apie kalvį.mp3
Channels : 2
Sample Rate : 44100
Precision : 16-bit
Duration : 00:04:07.33 = 10907121 samples = 18549.5 CDDA sectors
File Size : 9.89M
Bit Rate : 320k
Sample Encoding: MPEG audio (layer I, II or III)
Comments :
Title=Daina apie kalvДЇ
Artist=Aistvara
Album=Aistvara
Tracknumber=01
Year=2018
Genre=Folk Metal

[/more]

Register
(13) Cartman223, csgmnk, fabriziomagno, gwar, infiltrator, kimkayoung, Rosen, RotAnus, terron, undeadlich, wreak, zhol, скептик,
Jun 3 2018, 21:15:58 Фактотум - Ничего Кроме Правды! (2018)


*Artist: Фактотум
*Album: Ничего Кроме Правды!
*Year: 2018
*Genre: Heavy Metal
*Country: Russian Federation
*Format: mp3@CBR320kbps
*Size: 82MB

Tracklist:
01. Приговор / Ветер и Прах 03:57
02. Псы Войны 02:55
03. Клыки 03:09
04. Меченые Смертью / Конец Тишины 05:55
05. Последнее Слово 04:02
06. Разгневанные Ангелы 04:09
07. Врубай Ярче Свет 03:52
08. Darksiders 04:05
09. Сладкая Месть 03:34
******************************
Total playing time: 35:41

Preview 1

[more=Extended info][youtube]5o729XxJZTY[/youtube][/more]

[more=Technical info]
Input File: 02. Псы Войны.mp3
Channels : 2
Sample Rate : 44100
Precision : 16-bit
Duration : 00:02:55.46 = 7737654 samples = 13159.3 CDDA sectors
File Size : 7.02M
Bit Rate : 320k
Sample Encoding: MPEG audio (layer I, II or III)
Comments :
Title=РџСЃС‹ Р’РѕР№РЅС‹
Artist=Фактотум
Album=Ничего Кроме Правды!
Tracknumber=02
Year=2018
Genre=Heavy Metal

[/more]

Register
(4) apostol_13, Aresson, Rosen, Rover,
Jun 3 2018, 09:38:29 Fortress Of The Olden Days & Wintaar - Von Ruinen Und Einsamkeit [split] (2018)
ЦИТАТА(Razorbladeswaltz @ Jun 2 2018, 22:46:22) *
mirror, pls

Ссылку добавил в теме.
(1) satanist666,
Jun 2 2018, 14:07:20 Fortress Of The Olden Days & Wintaar - Von Ruinen Und Einsamkeit [split] (2018)


*Artist: Fortress Of The Olden Days & Wintaar
*Album: Von Ruinen Und Einsamkeit [split]
*Year: 2018
*Genre: Atmospheric Black Metal | Atmospheric Black Metal
*Country: Germany | Russian Federation
*Format: mp3@CBR320kbps
*Size: 74MB

Tracklist:
Fortress Of The Olden Days:
01. Where I Am King 14:44
Wintaar:
02. The Long Dark 07:57
03. Winter Dawn Over The Mountain's Castle 09:40
******************************
Total playing time: 32:22


Preview 2

[more=Technical info]
Input File: 02. The Long Dark.mp3
Channels : 2
Sample Rate : 44100
Precision : 16-bit
Duration : 00:07:57.51 = 21058367 samples = 35813.5 CDDA sectors
File Size : 19.1M
Bit Rate : 320k
Sample Encoding: MPEG audio (layer I, II or III)
Comments :
Title=The Long Dark
Artist=Wintaar
Album=Von Ruinen Und Einsamkeit
Tracknumber=02
Year=2018
Genre=Black Metal

[/more]

Register
(21) 1968_janeart, blacky66, craP_cillA, ctulhudagon, infiltrator, kim666, Lanceatum, Mirddin, Moonshtook, NachtWulf, Ostinato, pfk505, Rosen, satanist666, SilentNidhogg, stone88, thenecromancer, Thunderbird, Tyrone, undeadlich, vasiljev_sergej,
Jun 1 2018, 10:45:29 Soliloquium - Contemplations (2018)


*Artist: Soliloquium
*Album: Contemplations
*Year: 2018
*Genre: Doom/Death Metal
*Country: Sweden
*Format: mp3@CBR320kbps
*Size: 113MB

Tracklist:
01. Chains 08:59
02. Catharsis 05:04
03. Streetlights 03:45
04. 22 03:40
05. Unfulfilling Prophecy 06:57
06. For The Accursed 06:15
07. In Affect 05:34
08. Wanderlust 08:58
******************************
Total playing time: 49:11




[more=Technical info]
Input File: 01. Chains.mp3
Channels : 2
Sample Rate : 44100
Precision : 16-bit
Duration : 00:08:56.77 = 23671337 samples = 40257.4 CDDA sectors
File Size : 21.5M
Bit Rate : 320k
Sample Encoding: MPEG audio (layer I, II or III)
Comments :
Title=Chains
Artist=Soliloquium
Album=Contemplations
Tracknumber=01
Year=2018
Genre=Doom Metal

[/more]

Register
(21) aa144aa, AHBAnep, BERZERK, chefo, doomTemplar, Doooomed, Hell_Is_Here, libertine, marilin, metala, Metalass, Ostinato, Razorbladeswaltz, Rosen, RUDACHUR, terron, THROWER666, tOmV, VALERY, vyacheslav, wreak,
May 31 2018, 09:10:30 Autumnwind - Endless Fear (2018)


*Artist: Autumnwind
*Album: Endless Fear
*Year: 2018
*Genre: Atmospheric Black Metal/Ambient
*Country: Syria
*Format: mp3@CBR320kbps
*Size: 72MB

Tracklist:
01. The Panic Attack 05:58
02. The Hallucination 07:21
03. Lost And Alone 08:10
04. Forever Insomnia 05:17
05. Endless Fear 04:39
******************************
Total playing time: 31:27




[more=Extended info][youtube]kq6KVOBOTUA[/youtube][/more]

[more=Technical info]
Input File: 01. The Panic Attack.mp3
Channels : 2
Sample Rate : 44100
Precision : 16-bit
Duration : 00:05:58.75 = 15820875 samples = 26906.2 CDDA sectors
File Size : 14.4M
Bit Rate : 320k
Sample Encoding: MPEG audio (layer I, II or III)
Comments :
Title=The Panic Attack
Artist=Autumnwind
Album=Endless Fear
Tracknumber=01
Year=2018
Genre=Black Metal

[/more]

Register
(13) 1968_janeart, infiltrator, kim666, kimkayoung, Lucifere, oldvarg, Ostinato, Rosen, satanist666, serach, tOmV, undeadlich, wreak,
May 17 2018, 14:30:30 Violet Cold - Sommermorgen (Pt. III) - Nostalgia (2018)
ЦИТАТА(Aimr @ May 17 2018, 11:38:28) *
Thank you! Do you have the other parts aswell?

89mb 320kbps mega.nz Violet Cold - Sommermorgen (Pt. II) - Joy (2018)
91mb 320kbps mega.nz Violet Cold - Sommermorgen (Pt. I) - Innocence (2018)
(6) Femto, Groundzerocorpse1990, juanguillermo13, Korpse, Moonshtook, Shadechaser,
May 17 2018, 00:42:56 Violet Cold - Sommermorgen (Pt. III) - Nostalgia (2018)


*Artist: Violet Cold
*Album: Sommermorgen (Pt. III) - Nostalgia
*Year: 2018
*Genre: Atmospheric/Post-Black Metal
*Country: Azerbaijan
*Format: mp3@CBR320kbps
*Size: 92MB

Tracklist:
01. Sommermorgen 05:55
02. Weltschmerz 05:30
03. Ein Hauch Von Ewigkeit 04:47
04. Blütezeit 04:55
05. Langsamer Als Licht 04:52
06. Lebensmüde 04:23
07. Es Kann Niemals Erklärt Werden 04:21
08. Revelation 05:26
******************************
Total playing time: 40:09


Preview 2

[more=Extended info]Violet Cold, опубликовал трилогию альбомов Sommermorgen. Все ее части имеют собственные цвета и исполнены в разных музыкальных стилях.
Первая часть - Innocence, фиолетовый альбом на стыке эмбиента и пост-рока.
Вторая часть - Joy, красный альбом в гитарно-ориентированном пост-роковом стиле.
Третья часть - Nostalgia, черный альбом в более привычном для этого автора металлическом стиле. Официально выходит 1 августа.[/more]

[more=Technical info]
Input File: 01. Sommermorgen.mp3
Channels : 2
Sample Rate : 44100
Precision : 16-bit
Duration : 00:05:55.82 = 15691838 samples = 26686.8 CDDA sectors
File Size : 14.2M
Bit Rate : 320k
Sample Encoding: MPEG audio (layer I, II or III)
Comments :
Title=Sommermorgen
Artist=Violet Cold
Album=Sommermorgen (Pt. III) - Nostalgia
Tracknumber=01
Year=2018
Genre=Black Metal

[/more]

Register
(29) 1968_janeart, Aimr, djsema4, Femto, gena, Groundzerocorpse1990, GuldenDraak, juanguillermo13, Kabv, kim666, kimkayoung, KLOP, Korpse, LEGION69, MeatWolf, MMMMM, Moonshtook, Ostinato, pfk505, Rosen, satanist666, Shadechaser, stone88, stratoartica, thenecromancer, tOmV, undeadlich, varg-38ru, vasiljev_sergej,
May 11 2018, 16:26:59 Хёнир - Стальные Сны [single] (2018)


*Artist: Хёнир
*Album: Стальные Сны [single]
*Year: 2018
*Genre: Pagan Metal
*Country: Russian Federation
*Format: mp3@CBR320kbps
*Size: 16MB

Tracklist:
01. Стальные Сны (single version) 03:04
02. Шабаш 04:01
******************************
Total playing time: 7:06

Preview 1

[more=Technical info]
Input File: 02. Шабаш.mp3
Channels : 2
Sample Rate : 44100
Precision : 16-bit
Duration : 00:04:01.35 = 10643447 samples = 18101.1 CDDA sectors
File Size : 9.65M
Bit Rate : 320k
Sample Encoding: MPEG audio (layer I, II or III)
Comments :
Title=Шабаш
Artist=Хёнир
Album=Стальные Сны
Tracknumber=02
Year=2018
Genre=Pagan Metal

[/more]

Register
(4) Aresson, Rosen, satanist666, wreak,
May 9 2018, 14:18:15 Легенда - Неоспоримый (2018)


*Artist: Легенда
*Album: Неоспоримый
*Year: 2018
*Genre: Heavy Metal
*Country: Russian Federation
*Format: mp3@CBR320kbps
*Size: 87MB

Tracklist:
01. Неоспоримый 05:05
02. Крылья 04:13
03. Монте-Кристо 04:38
04. Шторм 04:14
05. Час Мёртвых 06:27
06. Роза Ветров 05:16
07. Я и Ты 04:35
08. Прощай 03:39
******************************
Total playing time: 38:10

Preview 1

[more=Extended info][youtube]_tADENjaSxI[/youtube][/more]

[more=Technical info]
Input File: 01. Неоспоримый.mp3
Channels : 2
Sample Rate : 44100
Precision : 16-bit
Duration : 00:05:05.30 = 13463642 samples = 22897.4 CDDA sectors
File Size : 12.2M
Bit Rate : 320k
Sample Encoding: MPEG audio (layer I, II or III)
Comments :
Title=Неоспоримый
Artist=Легенда
Album=Неоспоримый
Tracknumber=01
Year=2018
Genre=Heavy Metal

[/more]

Register
(7) apostol_13, Aresson, cesar, DMIYUR, DTGB, Rosen, wreak,
Apr 30 2018, 21:18:31 Harmony In Grotesque - Noumenon (2018)


*Artist: Harmony In Grotesque
*Album: Noumenon
*Year: 2018
*Genre: Avant-garde/Doom/Death Metal
*Country: Russian Federation
*Format: mp3@CBR320kbps
*Size: 140MB

Tracklist:
01. Neolithic 11:20
02. Infected 05:47
03. Stepentatio 06:24
04. The Funeral Song 09:12
05. Wind-Up Bird 12:32
06. ...And Sorrow Will Be My Wings 06:13
07. Painted By Pain 09:35
******************************
Total playing time: 1:01:04




[more=Technical info]
Input File: 01. Neolithic.mp3
Channels : 2
Sample Rate : 44100
Precision : 16-bit
Duration : 00:11:20.09 = 29991793 samples = 51006.5 CDDA sectors
File Size : 27.2M
Bit Rate : 320k
Sample Encoding: MPEG audio (layer I, II or III)
Comments :
Title=Neolithic
Artist=Harmony In Grotesque
Album=Noumenon
Tracknumber=01
Year=2018
Genre=Doom Metal

[/more]

Register
(12) AHBAnep, chefo, Hell_Is_Here, kimkayoung, MeatWolf, metala, Ostinato, Rosen, satarn, Shadechaser, tOmV, yuratroll,
Apr 30 2018, 20:26:33 Aornos - The Great Scorn (2018)


*Artist: Aornos
*Album: The Great Scorn
*Year: 2018
*Genre: Black Metal
*Country: Hungary
*Format: mp3@CBR320kbps
*Size: 106MB

Tracklist:
01. Ad Futuram Memoriam 02:36
02. From A Higher Reality 05:53
03. The Kingdom Of Nemesis 05:23
04. Trace To Beckoning Fade 05:20
05. Come And See 05:30
06. The Great Scorn 05:52
07. De Profundis 01:34
08. Funeral March For The Death Of The Earth 07:02
09. Adamante Notare 07:17
******************************
Total playing time: 46:30





[more=Extended info][youtube]nfq_8z8BVLo[/youtube]
[youtube]LO60JxCxQUM[/youtube]
[youtube]NWjbj-SIhY4[/youtube]
[youtube]Ztpk2ipPQqA[/youtube]
[youtube]lxEkditdvIk[/youtube]
[youtube]NQekDYlZjzI[/youtube]
[youtube]dmOWu52EeYk[/youtube]
[youtube]Ogvx1jN13MY[/youtube]
[youtube]ent9XqhfVWM[/youtube][/more]

[more=Technical info]
Input File: 02. From A Higher Reality.mp3
Channels : 2
Sample Rate : 44100
Precision : 16-bit
Duration : 00:05:53.76 = 15600816 samples = 26532 CDDA sectors
File Size : 14.2M
Bit Rate : 320k
Sample Encoding: MPEG audio (layer I, II or III)
Comments :
Title=From A Higher Reality
Artist=Aornos
Album=The Great Scorn
Tracknumber=02
Year=2018
Genre=Black Metal

[/more]

Register
(28) 1968_janeart, Amsterdam, bacl, Disgorge666, doden, Fater_Hu, garml2, Hell_Is_Here, Ildjarn, Indamage, judaz, kim666, Korpse, Lamby90, Moonshtook, Ostinato, rimfrost, Rosen, satanist666, serach, SilentNidhogg, stub888, tOmV, VALERY, varg-38ru, vasiljev_sergej, Vidder242, vov7609,
Apr 29 2018, 18:42:08 Dwarrowdelf - The Sons Of Fëanor (2018)


*Artist: Dwarrowdelf
*Album: The Sons Of Fëanor
*Year: 2018
*Genre: Epic/Atmospheric Black Metal
*Country: United Kingdom
*Format: mp3@VBR273kbps
*Size: 120MB

Tracklist:
01. Amrod 08:14
02. Curufin 08:34
03. Celegorm 08:20
04. Caranthir 11:12
05. Amras 08:13
06. Maedhros 06:36
07. Maglor 09:54
******************************
Total playing time: 1:01:05




[more=Technical info]
Input File: 01. Amrod.mp3
Channels : 2
Sample Rate : 48000
Precision : 16-bit
Duration : 00:08:14.42 = 23732352 samples ~ 37081.8 CDDA sectors
File Size : 17.2M
Bit Rate : 278k
Sample Encoding: MPEG audio (layer I, II or III)
Comments :
Title=Amrod
Artist=Dwarrowdelf
Album=The Sons Of FГ«anor
Tracknumber=01
Year=2018
Genre=Black Metal

[/more]

Register
(21) 1968_janeart, avather, Boozer, csgmnk, Druidir, infozahist, kim666, krotovich, neoatheist, Olrak, Ostinato, Rosen, satanist666, stone88, stub888, talismanFS, tOmV, Torop, v.v.m, varg-38ru, vasiljev_sergej,
Apr 28 2018, 22:46:48 Postmortal - Soil [ep] (2018)


*Artist: Postmortal
*Album: Soil [ep]
*Year: 2018
*Genre: Doom/Death Metal
*Country: Poland
*Format: mp3@CBR320kbps
*Size: 55MB

Tracklist:
01. Elusion 07:48
02. Nighttime Serenity 08:44
03. Seven 07:31
******************************
Total playing time: 24:04



[more=Technical info]
Input File: 01. Elusion.mp3
Channels : 2
Sample Rate : 44100
Precision : 16-bit
Duration : 00:07:48.50 = 20660850 samples = 35137.5 CDDA sectors
File Size : 18.7M
Bit Rate : 320k
Sample Encoding: MPEG audio (layer I, II or III)
Comments :
Title=Elusion
Artist=Postmortal
Album=Soil
Tracknumber=01
Year=2018
Genre=Doom Metal

[/more]

Register
(17) chefo, kolar666, krotovich, KVRT, libertine, lordbathor, Ostinato, Rosen, SatanicPanzer, sergsazan, Shadechaser, thenecromancer, THROWER666, tOmV, VALERY, vikt11, vyacheslav,
Apr 28 2018, 16:20:18 Blackthorn - Evocation [ep] (2018)


*Artist: Blackthorn
*Album: Evocation [ep]
*Year: 2018
*Genre: Symphonic/Extreme Metal
*Country: Russian Federation
*Format: mp3@CBR320kbps
*Size: 77MB

Tracklist:
01. Некроманс (Re-recorded version 2018) 03:44
02. Одем (Re-recorded version 2018) 03:56
03. Ritualist (Dimmu Borgir cover) 04:54
04. Nothing Stands in Our Way (Lacuna Coil cover) 04:21
05. Ritualist (Dimmu Borgir cover, Instrumental version) 04:54
06. Одем (Instrumental version) 03:56
07. Одем (Chamber version) 03:59
08. Некроманс (Sympho&Piano version) 03:42
******************************
Total playing time: 33:29


Preview 2

[more=Technical info]
Input File: 04. Nothing Stands in Our Way (Lacuna Coil cover).mp3
Channels : 2
Sample Rate : 44100
Precision : 16-bit
Duration : 00:04:21.12 = 11515436 samples = 19584.1 CDDA sectors
File Size : 10.4M
Bit Rate : 320k
Sample Encoding: MPEG audio (layer I, II or III)
Comments :
Title=Nothing Stands in Our Way (Lacuna Coil cover)
Artist=Blackthorn
Album=Evocation
Tracknumber=04
Year=2018
Genre=Symphonic Metal

[/more]

Register
(10) AHBAnep, Alpha_Prime, csgmnk, dulak, Kasper969, kimkayoung, Mogozoz, Rosen, satanist666, SymbyoticEntity,
Apr 23 2018, 21:58:21 Hevvn - Deliverance (2018)


*Artist: Hevvn
*Album: Deliverance
*Year: 2018
*Genre: Avant-garde/Black Metal
*Country: Ukraine
*Format: mp3@CBR320kbps
*Size: 95MB

Tracklist:
01. Of Fallen 00:56
02. Invoking Dweller Within Darkened Shrines 05:20
03. Ritualist 04:15
04. Road Of Sacrifices 03:45
05. Traverse The Abyss 05:07
06. King 04:32
07. In Humility and Repentance 04:00
08. Adam 04:19
09. Genuine Scourge 04:45
10. Urn 04:22
******************************
Total playing time: 41:27


Preview 2

[more=Extended info][youtube]31LumLhkfHM[/youtube][/more]

[more=Technical info]
Input File: 02. Invoking Dweller Within Darkened Shrines.mp3
Channels : 2
Sample Rate : 44100
Precision : 16-bit
Duration : 00:05:21.07 = 14159363 samples = 24080.5 CDDA sectors
File Size : 12.8M
Bit Rate : 320k
Sample Encoding: MPEG audio (layer I, II or III)
Comments :
Title=Invoking Dweller Within Darkened Shrines
Artist=Hevvn
Album=Deliverance
Tracknumber=02
Year=2018
Genre=Black Metal

[/more]

Register
(11) 1968_janeart, ctulhudagon, Doooomed, kimkayoung, metala, Rosen, satanist666, Shadechaser, terron, varg-38ru, vasiljev_sergej,

28 Pages V   1 2 3 > » 
- Lo-Fi Version Support form
Copyrights and abuse reports form
Time is now: 17th July 2018 - 04:47:45