Welcome Guest ( Log In | Register )

История благодарностей участнику demenn ::: Спасибо сказали: 12954 раз(а)
Дата поста: В теме: За сообщение: Спасибо сказали:
Feb 12 2019, 10:48:23 Emmeleia - I (2019)


*Artist: Emmeleia
*Album: I
*Year: 2019
*Genre: Atmospheric Black Metal
*Country: Colombia
*Format: mp3@CBR320kbps
*Size: 73MB

Tracklist:
01. Ashen 11:12
02. The Many Names Of Night 10:03
03. We Were Strangers and Pilgrims On The Earth 10:36
******************************
Total playing time: 31:52



[more=Technical info]
Input File: 01 Ashen.mp3
Channels : 2
Sample Rate : 44100
Precision : 16-bit
Duration : 00:11:12.14 = 29641550 samples = 50410.8 CDDA sectors
File Size : 26.9M
Bit Rate : 320k
Sample Encoding: MPEG audio (layer I, II or III)
Comments :
Title=Ashen
Artist=Emmeleia
Album=I
Tracknumber=01
Year=2019
Genre=Black Metal

[/more]

Register
(15) 1968_janeart, artscald, Bloodn Lord, Doooomed, kim666, metaljinie, murian, Olethros, peppuzzo, Rosen, satanist666, SilentNidhogg, terron, tOmV, varlam4,
Feb 8 2019, 13:39:13 Lauxnos - Hidden Ancient World [ep] (2019)


*Artist: Lauxnos
*Album: Hidden Ancient World [ep]
*Year: 2019
*Genre: Post-Black Metal
*Country: Russian Federation
*Format: mp3@CBR320kbps
*Size: 36MB

Tracklist:
01. Dutchman 04:45
02. Hidden Ancient World 05:09
03. She's The One Who Knows 05:55
******************************
Total playing time: 15:49



[more=Technical info]
Input File: 01. Dutchman.mp3
Channels : 2
Sample Rate : 44100
Precision : 16-bit
Duration : 00:04:45.08 = 12572116 samples = 21381.1 CDDA sectors
File Size : 11.4M
Bit Rate : 320k
Sample Encoding: MPEG audio (layer I, II or III)
Comments :
Title=Dutchman
Artist=Lauxnos
Album=Hidden Ancient World
Tracknumber=01
Year=2019
Genre=Post-Metal

[/more]

Register
(8) artscald, kim666, Olethros, Ostinato, Rosen, satanist666, tOmV, varlam4,
Feb 4 2019, 16:57:37 Appalachian Winter - Winter Always Returns (2019)


*Artist: Appalachian Winter
*Album: Winter Always Returns
*Year: 2019
*Genre: Epic/Atmospheric Black Metal
*Country: United States
*Format: mp3@CBR320kbps
*Size: 140MB

Tracklist:
01. Endless 06:40
02. Desolation 06:11
03. Darkness 07:25
04. Coldness 05:46
05. Echoes 07:15
06. Entrancement 05:58
07. Beautiful 06:18
08. Fierce 04:38
09. Eternal 06:54
10. Into the Abode on Wolves (2019) 04:25
******************************
Total playing time: 1:01:15




[more=Technical info]
Input File: 01. Endless.mp3
Channels : 2
Sample Rate : 44100
Precision : 16-bit
Duration : 00:06:34.84 = 17412400 samples = 29612.9 CDDA sectors
File Size : 15.8M
Bit Rate : 320k
Sample Encoding: MPEG audio (layer I, II or III)
Comments :
Title=Endless
Artist=Appalachian Winter
Album=Winter Always Returns
Tracknumber=01
Year=2019
Genre=Black Metal

[/more]

Register
(34) 1968_janeart, andeimon, artscald, csgmnk, djsema4, Druidir, kim666, Korpse, maochen, Mogozoz, Old Vyaine, Olethros, Olrak, peppuzzo, pivi901, Reverend, Rosen, satanist666, SilentNidhogg, stub888, talismanFS, TeamatSE, Thunderbird, toly1917, tOmV, tt2008, udt4050, VALERY, varlam4, vasilisk, vasiljev_sergej, ZA670, Герб, Например,
Jan 23 2019, 16:03:30 Moruga - ...In Memory Of Lost Souls [ep] (2018)


*Artist: Moruga
*Album: ...In Memory Of Lost Souls [ep]
*Year: 2018
*Genre: Symphonic Black Metal
*Country: Belarus
*Format: mp3@CBR320kbps
*Size: 41MB

Tracklist:
1. Hatred In Me 04:34
2. Chaos Bringer 04:36
3. Grave Of Witch 03:40
4. Melancholy 05:11
******************************
Total playing time: 18:03


Preview 2

[more=Technical info]
Input File: 01. Hatred In Me.mp3
Channels : 2
Sample Rate : 44100
Precision : 16-bit
Duration : 00:04:34.43 = 12102539 samples = 20582.5 CDDA sectors
File Size : 11.0M
Bit Rate : 320k
Sample Encoding: MPEG audio (layer I, II or III)
Comments :
Title=Hatred In Me
Artist=Moruga
Album=...In Memory Of Lost Souls
Tracknumber=01
Year=2018
Genre=Black Metal

[/more]

Register
(8) artscald, Mogozoz, Olethros, Ostinato, Rosen, Shadechaser, TeamatSE, v.v.m,
Jan 18 2019, 22:33:25 Ancient Oak - Human Eater (2019)


*Artist: Ancient Oak
*Album: Human Eater
*Year: 2019
*Genre: Atmospheric Black Metal
*Country: Russian Federation
*Format: mp3@CBR320kbps
*Size: 91MB

Tracklist:
01. Burning Cross 05:37
02. Lost Battles 04:54
03. Dead Face 05:26
04. Bound by Flesh 04:39
05. Ritual 07:35
06. Human Eater 11:31
******************************
Total playing time: 39:43



[more=Technical info]
Input File: 01. Burning Cross.mp3
Channels : 2
Sample Rate : 44100
Precision : 16-bit
Duration : 00:05:37.14 = 14867830 samples = 25285.4 CDDA sectors
File Size : 13.5M
Bit Rate : 320k
Sample Encoding: MPEG audio (layer I, II or III)
Comments :
Title=Burning Cross
Artist=Ancient Oak
Album=Human Eater
Tracknumber=01
Year=2019
Genre=Black Metal

[/more]

Register
(15) 1968_janeart, artscald, kim666, oldvarg, Olethros, Ostinato, Rosen, satanist666, Shadechaser, thenecromancer, Thunderbird, VALERY, varlam4, vasiljev_sergej, volostakoeto,
Jan 15 2019, 07:10:48 Shadowland - Empty Horizon (2019)
ЦИТАТА(Razorbladeswaltz @ Jan 14 2019, 21:23:18) *
mirror, pls

http://file.sampo.ru/76fv8z/
(4) Druidir, kim666, Razorbladeswaltz, vasiljev_sergej,
Jan 14 2019, 16:44:39 Shadowland - Empty Horizon (2019)


*Artist: Shadowland
*Album: Empty Horizon
*Year: 2019
*Genre: Ambient/Atmospheric Black Metal
*Country: Russian Federation
*Format: mp3@CBR320kbps
*Size: 100MB

Tracklist:
01. Beauty Of The Dark 01:28
02. Search For The Sun 06:22
03. Hunger Night 04:20
04. Last Green Meadow 05:31
05. The Only Way 04:44
06. Empty Horizon 04:21
07. Pray For Me 03:45
08. Cold is Coming Again 13:03
******************************
Total playing time: 43:37



[more=Technical info]
Input File: 02. Search For The Sun.mp3
Channels : 2
Sample Rate : 44100
Precision : 16-bit
Duration : 00:06:22.33 = 16860577 samples = 28674.5 CDDA sectors
File Size : 15.3M
Bit Rate : 320k
Sample Encoding: MPEG audio (layer I, II or III)
Comments :
Title=Search For The Sun
Artist=Shadowland
Album=Empty Horizon
Tracknumber=02
Year=2019
Genre=Black Metal

[/more]

Register
(11) 1968_janeart, artscald, Branis, kim666, oldvarg, Olethros, Ostinato, Rosen, satanist666, Shadechaser, Torop,
Jan 7 2019, 09:41:32 Nasheim - Jord Och Aska (2019)


*Artist: Nasheim
*Album: Jord Och Aska
*Year: 2019
*Genre: Atmospheric Black Metal
*Country: Sweden
*Format: mp3@VBR190kbps
*Size: 55MB

Tracklist:
01. Att Sväva Över Vidderna 20:01
02. Grå De Bittert Sådda Skogar 05:35
03. Sänk Mig I Tystnad 16:23
******************************
Total playing time: 42:00



[more=Technical info]
Input File: 01. Att Sväva Över Vidderna.mp3
Channels : 2
Sample Rate : 44100
Precision : 16-bit
Duration : 00:20:01.06 = 52966614 samples = 90079.3 CDDA sectors
File Size : 27.7M
Bit Rate : 185k
Sample Encoding: MPEG audio (layer I, II or III)
Comments :
Title=Att Sväva Över Vidderna
Artist=Nasheim
Album=Jord Och Aska
Tracknumber=01
Year=2019
Genre=Black Metal

[/more]

Register
(21) 1968_janeart, andivi, Boozer, craP_cillA, Doooomed, Ildjarn, Indamage, judaz, Murphy, nnnmmm, Ostinato, satanist666, Sjelekval, soulskinner681, stub888, TeamatSE, thenecromancer, varg-38ru, vasiljev_sergej, ZA670, Абигор,
Jan 6 2019, 16:23:06 Caligo & Wintaar - Northspells And Winterscars [split] (2019)


*Artist: Caligo & Wintaar
*Album: Northspells And Winterscars [split]
*Year: 2019
*Genre: Black Metal | Atmospheric Black Metal
*Country: Moldova | Russian Federation
*Format: mp3@CBR320kbps
*Size: 67MB

Tracklist:
Caligo:
01. The Northern Warfare 05:37
02. At the Gates of Remembrance 05:44
03. Wintraw (Wintaar cover) 03:27
Wintaar:
04. Under The Sign Of Winter 05:43
05. Descend Into The Ural Rivers 03:46
06. Frozen Idols 05:07
******************************
Total playing time: 29:26





[more=Technical info]
Input File: 01. The Northern Warfare.mp3
Channels : 2
Sample Rate : 44100
Precision : 16-bit
Duration : 00:05:37.71 = 14892835 samples = 25328 CDDA sectors
File Size : 13.5M
Bit Rate : 320k
Sample Encoding: MPEG audio (layer I, II or III)
Comments :
Title=The Northern Warfare
Artist=Caligo
Album=Northspells and Winterscars
Tracknumber=01
Year=2019
Genre=Black Metal

[/more]

Register
(12) 1968_janeart, Branis, kim666, Lanceatum, Ostinato, Rosen, satanist666, SilentNidhogg, VALERY, varg-38ru, varlam4, Герб,
Jan 5 2019, 10:15:10 Ermengrond - Men Amongst Wolves (2019)
ЦИТАТА(Razorbladeswaltz @ Jan 4 2019, 21:29:20) *
mirror, pls

Прямая ссылка на
(1) Razorbladeswaltz,
Jan 3 2019, 16:14:55 Nyctophilia - Ad Mortem Et Tenebrae (2018)


*Artist: Nyctophilia
*Album: Ad Mortem Et Tenebrae
*Year: 2018
*Genre: Atmospheric/Depressive Black Metal
*Country: Poland
*Format: mp3@CBR320kbps
*Size: 94MB

Tracklist:
01. Untill Death... 08:07
02. With Hate Freezing My Veins 06:31
03. Ad Mortem Et Tenebrae 07:09
04. When Stars Shine No More 09:56
05. Through Fullmoon Forest 09:24
******************************
Total playing time: 41:08




[more=Technical info]
Input File: 01. Untill Death....mp3
Channels : 2
Sample Rate : 44100
Precision : 16-bit
Duration : 00:08:07.24 = 21487284 samples = 36543 CDDA sectors
File Size : 19.5M
Bit Rate : 320k
Sample Encoding: MPEG audio (layer I, II or III)
Comments :
Title=Untill Death...
Artist=Nyctophilia
Album=Ad Mortem Et Tenebrae
Tracknumber=01
Year=2018
Genre=Black Metal

[/more]

Register
(20) 0x13, 1968_janeart, artscald, craP_cillA, Indamage, kim666, Korpse, Krosis, Ludwig Hagen, monajatnameh, Olethros, Ostinato, Rosen, RUSP73, satanist666, Shadechaser, SilentNidhogg, Tyrone, varg-38ru, Victim of fate,
Jan 3 2019, 12:19:06 Krüger - Созвездия Фар (2019)


*Artist: Krüger
*Album: Созвездия Фар
*Year: 2019
*Genre: Heavy Metal
*Country: Russian Federation
*Format: mp3@CBR320kbps
*Size: 90MB

Tracklist:
01. Созвездия Фар 04:40
02. Сердце Мотора 02:54
03. Не Ровняйте Нас с Собой 04:34
04. Преступники 02:54
05. Долгий Путь 03:44
06. Свет Горящих Глаз 02:39
07. Страсть и Огонь 04:38
08. Комета Летит Вперед 04:21
09. Дизель 03:26
10. Песня До Небес 05:29
******************************
Total playing time: 39:25



[more=Technical info]
Input File: 01. Созвездия Фар.mp3
Channels : 2
Sample Rate : 44100
Precision : 16-bit
Duration : 00:04:41.06 = 12394702 samples = 21079.4 CDDA sectors
File Size : 11.2M
Bit Rate : 320k
Sample Encoding: MPEG audio (layer I, II or III)
Comments :
Title=Созвездия Фар
Artist=Krüger
Album=Созвездия Фар
Tracknumber=01
Year=2019
Genre=Heavy Metal

[/more]

Register
(17) A.L.Rapsod, Aresson, artscald, cancer1974, Darkness, Druidir, Fess, gwar, metalboll, oldvarg, recber, Reverend, Rosen, Rover, Shadechaser, varlam4, vir2al,
Jan 2 2019, 06:09:16 Ermengrond - Men Amongst Wolves (2019)


*Artist: Ermengrond
*Album: Men Amongst Wolves
*Year: 2019
*Genre: Atmospheric/Post-Black Metal
*Country: Netherlands
*Format: mp3@CBR320kbps
*Size: 138MB

Tracklist:
01. By Fang and Claw 08:36
02. As I Lay Down To Die 10:36
03. As The Bones Turns To Dust 03:12
04. Death Freeze Every Soul 09:18
05. For This is Our Fate 09:22
06. The Faceless Being 19:12
******************************
Total playing time: 1:00:16



[more=Technical info]
Input File: 01. By Fang and Claw.mp3
Channels : 2
Sample Rate : 44100
Precision : 16-bit
Duration : 00:08:36.11 = 22760275 samples = 38708 CDDA sectors
File Size : 20.6M
Bit Rate : 320k
Sample Encoding: MPEG audio (layer I, II or III)
Comments :
Title=By fang and claw
Artist=Men Amongst Wolves
Album=Men amongst wolves
Tracknumber=01
Year=2019
Genre=Black Metal

[/more]

Register
(17) 0x13, 1968_janeart, A.L.Rapsod, artscald, d0zer, kim666, Korpse, Maximvs, Olethros, Ostinato, Rosen, satanist666, Shadechaser, stone88, TAKATAEL, Unleashed, varg-38ru,
Jan 1 2019, 15:21:09 Khaos Labyrinth - The Cold Universe (2019)


*Artist: Khaos Labyrinth
*Album: The Cold Universe
*Year: 2019
*Genre: Melodic Black Metal
*Country: Russian Federation
*Format: mp3@CBR320kbps
*Size: 126MB

Tracklist:
01. The Cold Universe 00:59
02. The Great Deicide 04:35
03. Throught The Ruins 03:37
04. Cosmic Alchemy 04:02
05. Cold 05:58
06. Illusion Of Life 03:54
07. Star Princess 04:08
08. Depths Without Stellar Light 04:45
09. Sarcastik 05:22
10. How Often Do We Think About The Planet 05:01
11. First Man In Cosmos 04:47
12. Rest In Sand 07:49
******************************
Total playing time: 55:02



[more=Technical info]
Input File: 02. The Great Deicide.mp3
Channels : 2
Sample Rate : 44100
Precision : 16-bit
Duration : 00:04:35.58 = 12153254 samples = 20668.8 CDDA sectors
File Size : 11.0M
Bit Rate : 320k
Sample Encoding: MPEG audio (layer I, II or III)
Comments :
Title=The Great Deicide
Artist=Khaos Labyrinth
Album=The Cold Universe
Tracknumber=02
Year=2019
Genre=Black Metal

[/more]

Register
(22) 1968_janeart, ago1, artscald, DenisKov, Golodomor, JuicyMaraca, kazulapka, Korpse, Krosis, logunarm, MMMMM, nsk2008, oldvarg, Olethros, Ostinato, Rosen, satanist666, Shadechaser, SilentNidhogg, talismanFS, tOmV, varg-38ru,
Dec 29 2018, 21:34:31 Nachthafen - Todellisuuden Tuolla Puolen (2018)


*Artist: Nachthafen
*Album: Todellisuuden Tuolla Puolen
*Year: 2018
*Genre: Blackened/Melodic Death Metal
*Country: Finland
*Format: mp3@CBR320kbps
*Size: 70MB

Tracklist:
01. Todellisuuden Tuolle Puolen 00:48
02. Rakkautta ja Saatanaa 03:53
03. Huuto Tulesta 03:38
04. Myrkytys 03:16
05. Hävityksen Sanat 03:36
06. 1716 09:20
07. Paholaisen Seitsemäs Veli 05:47
******************************
Total playing time: 30:22



[more=Extended info]Two-man project.[/more]

[more=Technical info]
Input File: 02 Rakkautta ja Saatanaa.mp3
Channels : 2
Sample Rate : 44100
Precision : 16-bit
Duration : 00:03:53.42 = 10293822 samples = 17506.5 CDDA sectors
File Size : 9.34M
Bit Rate : 320k
Sample Encoding: MPEG audio (layer I, II or III)
Comments :
Title=Rakkautta ja Saatanaa
Artist=Nachthafen
Album=Todellisuuden Tuolla Puolen
Tracknumber=02
Year=2018
Genre=Death Metal

[/more]

Register
(5) artscald, Olethros, Rosen, satanist666, zhol,
Dec 29 2018, 14:51:42 Vox Mortuis - Kult Miortvaha Sonca (2018)


*Artist: Vox Mortuis
*Album: Kult Miortvaha Sonca
*Year: 2018
*Genre: Black Metal
*Country: Belarus
*Format: mp3@CBR320kbps
*Size: 116MB

Tracklist:
01. Sny Varjataŭ (Sleep Of The Demented) 05:34
02. Adračeńnie (Renounce) 05:20
03. Istoty Biez Abliččaŭ (Essences Without Images) 05:59
04. Čatyry Stychii (Four Elements) 07:08
05. Kult Miortvaha Sonca (Cult Of The Dead Sun) 06:56
06. Schizma (Schism) 07:26
07. Tvaja Cišynia (Your Silence) 07:30
08. Imhniеńnie Da Viečnaści (A Moment Before Eternity) 04:49
******************************
Total playing time: 50:45


Preview 2

[more=Technical info]
Input File: 02. Adračeńnie (Renounce).mp3
Channels : 2
Sample Rate : 44100
Precision : 16-bit
Duration : 00:05:20.84 = 14149000 samples = 24062.9 CDDA sectors
File Size : 12.8M
Bit Rate : 320k
Sample Encoding: MPEG audio (layer I, II or III)
Comments :
Title=Adračeńnie (Renounce)
Artist=Vox Mortuis
Album=Kult Miortvaha Sonca
Tracknumber=02
Year=2018
Genre=Black Metal

[/more]

Register
(20) 1968_janeart, artscald, Boozer, Constantinus I, Emhyr var Emreis, Evilded, Indamage, kim666, lestllk, Narasimha, nsk2008, Olethros, Ostinato, Ramcheg1981, rickzammuto, Rosen, Ruben, satanist666, vovenom, Wotanwatch,
Dec 28 2018, 22:00:23 Astathica - Symbiosis (2018)


*Artist: Astathica
*Album: Symbiosis
*Year: 2018
*Genre: Black Metal
*Country: Netherlands
*Format: mp3@CBR320kbps
*Size: 137MB

Tracklist:
01. Flawed Conception (intro) 02:40
02. Fucking Life 07:44
03. Symbiont 07:46
04. Stillborn 08:04
05. Introspective Failure 05:11
06. Insolence Above All, Guiding Us 14:23
07. Symbiosis 10:05
08. Fresh Ruins Clutter the Lands (outro) 04:06
******************************
Total playing time: 1:00:04




[more=Technical info]
Input File: 02 Fucking Life.mp3
Channels : 2
Sample Rate : 44100
Precision : 16-bit
Duration : 00:07:44.28 = 20474616 samples = 34820.8 CDDA sectors
File Size : 18.6M
Bit Rate : 320k
Sample Encoding: MPEG audio (layer I, II or III)
Comments :
Title=Fucking Life
Artist=Astathica
Album=Symbiosis
Tracknumber=02
Year=2018
Genre=Black Metal

[/more]

Register
(19) 1968_janeart, artscald, Ildjarn, Kazoth, kim666, Korpse, legion01, older68, Olethros, Ostinato, Rosen, Sanctus, satanist666, SilentNidhogg, stub888, tOmV, varg-38ru, varlam4, vovenom,
Dec 26 2018, 21:18:41 Is - Another Side Of Existence (2018)


*Artist: Is
*Album: Another Side Of Existence
*Year: 2018
*Genre: Atmospheric Black Metal
*Country: Russian Federation
*Format: mp3@CBR320kbps
*Size: 87MB

Tracklist:
01. Faded Lights, Howling Winds 06:27
02. Evil Feast 06:35
03. Visions Of The Past 05:53
04. One Silent Night 06:14
05. Frozen Stars And Cold Bright Moon 05:58
06. Last Days On Earth 06:54
******************************
Total playing time: 38:04



[more=Technical info]
Input File: 01. Faded Lights, Howling Winds.mp3
Channels : 2
Sample Rate : 44100
Precision : 16-bit
Duration : 00:06:27.51 = 17089191 samples = 29063.2 CDDA sectors
File Size : 15.5M
Bit Rate : 320k
Sample Encoding: MPEG audio (layer I, II or III)
Comments :
Title=Faded Lights, Howling Winds
Artist=Is
Album=Another Side Of Existence
Tracknumber=01
Year=2018
Genre=Black Metal

[/more]

Register
(17) 0x13, 1968_janeart, artscald, Constantinus I, Emhyr var Emreis, kim666, Mogozoz, oldvarg, Olethros, Orgasmik, Ostinato, pfk505, Rosen, satanist666, SilentNidhogg, Unleashed, varlam4,
Dec 26 2018, 15:00:29 Acathexis - Acathexis (2018)


*Artist: Acathexis
*Album: Acathexis
*Year: 2018
*Genre: Black Metal
*Country: International
*Format: mp3@CBR320kbps
*Size: 91MB

Tracklist:
01. Immurement 09:36
02. Life Only Festers 09:21
03. Veins Hollowed 10:37
04. Stillborn // Isolate 10:07
******************************
Total playing time: 39:41




[more=Extended info]Deha (Maladie, Yhdarl, Imber Luminis) - Songwriting, guitars
Dany Tee (Downfall of Nur, Seelenmord, In Element) - Vocals
Jacob Buczarski (Mare Cognitum) - Drums[/more]

[more=Technical info]
Input File: 01 Immurement.mp3
Channels : 2
Sample Rate : 44100
Precision : 16-bit
Duration : 00:09:36.09 = 25405437 samples = 43206.5 CDDA sectors
File Size : 23.0M
Bit Rate : 320k
Sample Encoding: MPEG audio (layer I, II or III)
Comments :
Title=Immurement
Artist=Acathexis
Album=Acathexis
Tracknumber=01
Year=2018
Genre=Black Metal

[/more]

Register

Register
(27) 1968_janeart, artscald, death733, demonosz, Emhyr var Emreis, ErikGoth, gena, Haerelon, Indamage, kefka, kim666, kimkayoung, Korpse, murian, nadin85, Olethros, Rosen, satanist666, SilentNidhogg, stub888, TeamatSE, terron, udt4050, VALERY, varlam4, vasiljev_sergej, vovenom,
Dec 26 2018, 08:03:27 Aeon Winds - Legacy Of The Unconquered Sun [ep] (2018)


*Artist: Aeon Winds
*Album: Legacy Of The Unconquered Sun [ep]
*Year: 2018
*Genre: Atmospheric Black Metal
*Country: Slovakia
*Format: mp3@CBR320kbps
*Size: 30MB

Tracklist:
01. Legacy Of The Unconquered Sun 07:00
02. On The Moonlight Path (Nokturnal Mortum cover) 06:00
******************************
Total playing time: 13:00



[more=Technical info]
Input File: 01 Legacy of the Unconquered Sun.mp3
Channels : 2
Sample Rate : 44100
Precision : 16-bit
Duration : 00:07:00.89 = 18561029 samples = 31566.4 CDDA sectors
File Size : 16.8M
Bit Rate : 320k
Sample Encoding: MPEG audio (layer I, II or III)
Comments :
Title=Legacy of the Unconquered Sun
Artist=Aeon Winds
Album=Legacy of the Unconquered Sun
Tracknumber=01
Year=2018
Genre=Black Metal

[/more]

Register
(17) 1968_janeart, artscald, djsema4, Doooomed, Druidir, Evjenne, Ildjarn, kim666, Olethros, Ostinato, pfk505, Rosen, satanist666, SilentNidhogg, varlam4, vasiljev_sergej, zargonath,
Dec 21 2018, 14:19:23 Northrend - Winterborn (2018)


*Artist: Northrend
*Album: Winterborn
*Year: 2018
*Genre: Pagan Metal
*Country: Ukraine
*Format: mp3@CBR320kbps
*Size: 112MB

Tracklist:
01. Frozen Wastes 06:59
02. Also Sprach Zarathustra 03:35
03. Pagan Horde 02:17
04. Outbreak 02:59
05. Морок (Gloom) 03:21
06. Elder Runes 05:15
07. Winterborn 06:02
08. Gardarika 04:09
09. Последнее Пламя (The Last Flame) 02:20
10. Руїни (Ruins) 03:27
11. A Land Forgotten 02:45
12. White Legacy 05:30
******************************
Total playing time: 48:44



[more=Technical info]
Input File: 02. Also Sprach Zarathustra.mp3
Channels : 2
Sample Rate : 48000
Precision : 16-bit
Duration : 00:03:35.28 = 10333584 samples ~ 16146.2 CDDA sectors
File Size : 8.62M
Bit Rate : 320k
Sample Encoding: MPEG audio (layer I, II or III)
Comments :
Title=Also Sprach Zarathustra
Artist=Northrend
Album=Winterborn
Tracknumber=02
Year=2018
Genre=Pagan Metal

[/more]

Register
(9) artscald, fabriziomagno, gwar, iteration666, Mogozoz, Olethros, Rosen, terron, varlam4,
Dec 18 2018, 16:58:09 Embers Of Oblivion - Widdershins Path (2018)


*Artist: Embers Of Oblivion
*Album: Widdershins Path
*Year: 2018
*Genre: Melodic Death Metal
*Country: Netherlands
*Format: mp3@CBR320kbps
*Size: 107MB

Tracklist:
01. Enter The Void 02:32
02. When Emptiness Follows 04:14
03. Tread The Widdershins Path 06:35
04. A Sorrow Mourned 04:33
05. Inherited Screams 04:31
06. Hate 07:15
07. As Lies Prosper 05:38
08. When a Sun Drowns in Fear 06:50
09. Staring Into The Abyss 04:24
******************************
Total playing time: 46:37



[more=Technical info]
Input File: 02. When Emptiness Follows.mp3
Channels : 2
Sample Rate : 44100
Precision : 16-bit
Duration : 00:04:14.95 = 11243119 samples = 19121 CDDA sectors
File Size : 10.2M
Bit Rate : 320k
Sample Encoding: MPEG audio (layer I, II or III)
Comments :
Title=When Emptiness Follows
Artist=Embers Of Oblivion
Album=Widdershins Path
Tracknumber=02
Year=2018
Genre=Death Metal

[/more]

Register
(19) artscald, DenisKov, djsema4, HellMetalloid, kakha_k, Kehl05, lary_veel, MMMMM, Mogozoz, oldvarg, Olethros, Ostinato, Rosen, samokot, satanist666, sta1081, talismanFS, terron, zhol,
Dec 15 2018, 14:27:50 Хранитель - Дети Севера (2018)


*Artist: Хранитель
*Album: Дети Севера
*Year: 2018
*Genre: Speed/Power Metal
*Country: Russian Federation
*Format: mp3@CBR320kbps
*Size: 106MB

Tracklist:
01. Северный Ветер 03:46
02. Герой 05:22
03. Абсолютный Ноль 04:16
04. Погоня за Счастьем 05:50
05. Книга Истории 04:01
06. Дети Севера 07:23
07. Бородино 05:18
08. План Кутузова 05:17
09. Русская Осень 1812 05:04
******************************
Total playing time: 46:22



[more=Technical info]
Input File: 05. Книга Истории.mp3
Channels : 2
Sample Rate : 48000
Precision : 16-bit
Duration : 00:04:02.02 = 11616912 samples ~ 18151.4 CDDA sectors
File Size : 9.68M
Bit Rate : 320k
Sample Encoding: MPEG audio (layer I, II or III)
Comments :
Title=Книга Истории
Artist=Хранитель
Album=Дети Севера
Tracknumber=05
Year=2018
Genre=Power Metal

[/more]

Register
(12) A.L.Rapsod, Aresson, artscald, aviacademy, Fess, gwar, Rosen, Rover, satanist666, varlam4, wn129aa, zamunder,
Dec 10 2018, 13:39:04 Сандарния - К Оружию! (2018)


*Artist: Сандарния
*Album: К Оружию!
*Year: 2018
*Genre: Heavy/Power Metal
*Country: Russian Federation
*Format: mp3@CBR320kbps
*Size: 143MB

Tracklist:
01. Готовьте Мечи 04:50
02. Мир Грёз 05:21
03. О Славных Торговцах 03:57
04. Забытое Племя 03:25
05. Бал Сатаны 03:02
06. На Холсте Небес 05:19
07. Та, Что Встретит С Тобой Смерть 05:53
08. Иерусалим (ч.1 На святой земле) 05:15
09. Прощание (ч.2 На святой земле) 03:59
10. Шторм (ч.3 На святой земле) 03:46
11. Хранители 05:51
12. Там, Где Уснул Карфаген 02:37
13. Лебединое Озеро (cover) 02:47
14. Warcraft 2 Tides of Darkness (cover) 04:39
15. Game of Thrones (cover) 01:38
******************************
Total playing time: 1:02:24

Preview 1

[more=Technical info]
Input File: 01. Готовьте Мечи.mp3
Channels : 2
Sample Rate : 44100
Precision : 16-bit
Duration : 00:04:50.08 = 12792616 samples = 21756.1 CDDA sectors
File Size : 11.6M
Bit Rate : 320k
Sample Encoding: MPEG audio (layer I, II or III)
Comments :
Title=Готовьте Мечи
Artist=Сандарния
Album=К Оружию!
Tracknumber=01
Year=2018
Genre=Heavy Metal

[/more]

Register
(11) apostol_13, Aresson, artscald, csgmnk, Foneg, gwar, kide, oldvarg, Rosen, Rover, varlam4,
Dec 10 2018, 09:34:21 The Ghost I've Become - Circle Of Sorrow [ep] (2018)
ЦИТАТА(Razorbladeswaltz @ Dec 9 2018, 20:11:03) *
mirror, pls

http://file.sampo.ru/5t62tj/
(1) Mogozoz,

32 Pages V   1 2 3 > » 
- Lo-Fi Version Support form
Copyrights and abuse reports form
Time is now: 19th February 2019 - 16:37:18