Welcome Guest ( Log In | Register )

История благодарностей участнику demenn ::: Спасибо сказали: 11610 раз(а)
Дата поста: В теме: За сообщение: Спасибо сказали:
Sep 21 2018, 20:39:54 Karma Rassa - Vesna​.​.​. Snova Vesna (2018)


*Artist: Karma Rassa
*Album: Vesna​.​.​. Snova Vesna
*Year: 2018
*Genre: Progressive Metal/Progressive Rock
*Country: Russian Federation
*Format: mp3@CBR320kbps
*Size: 97MB

Tracklist:
01. Vesna 08:20
02. Leto 07:40
03. Osen' 07:58
04. Zima 09:21
05. Snova Vesna 08:54
******************************
Total playing time: 42:14


Preview 2

[more=Technical info]
Input File: 01. Vesna.mp3
Channels : 2
Sample Rate : 44100
Precision : 16-bit
Duration : 00:08:20.09 = 22054057 samples = 37506.9 CDDA sectors
File Size : 20.0M
Bit Rate : 320k
Sample Encoding: MPEG audio (layer I, II or III)
Comments :
Title=Vesna
Artist=Karma Rassa
Album=Vesna​.​.​. Snova Vesna
Tracknumber=01
Year=2018
Genre=Progressive Metal

[/more]

Register
(1) SatanicPanzer,
Sep 18 2018, 20:34:05 Heimdallr - Даллахан [ep] (2018)


*Artist: Heimdallr
*Album: Даллахан [ep]
*Year: 2018
*Genre: Pagan Metal
*Country: Russian Federation
*Format: mp3@CBR320kbps
*Size: 34MB

Tracklist:
01. Безголовая Всадница 05:51
02. Нами Правит Зима 04:54
03. С Теми, Кто Жалует Мёд 03:50
******************************
Total playing time: 14:36


Preview 2

[more=Technical info]
Input File: 01. Безголовая Всадница.mp3
Channels : 2
Sample Rate : 44100
Precision : 16-bit
Duration : 00:05:51.64 = 15507456 samples = 26373.2 CDDA sectors
File Size : 14.1M
Bit Rate : 320k
Sample Encoding: MPEG audio (layer I, II or III)
Comments :
Title=Безголовая Всадница
Artist=Heimdallr
Album=Даллахан
Tracknumber=01
Year=2018
Genre=Pagan Metal

[/more]

Register
(6) Dark_Viking, Druidir, fabriziomagno, Rosen, stone88, talismanFS,
Sep 17 2018, 20:55:44 Fatum Semitar - Идея Плоти И Корней (2018)


*Artist: Fatum Semitar
*Album: Идея Плоти И Корней
*Year: 2018
*Genre: Symphonic Extreme Metal
*Country: Belarus
*Format: mp3@CBR320kbps
*Size: 127MB

Tracklist:
01. Прелюдия 0:27
02. В Лесах Полной Луны 08:17
03. Я - Провиденс 05:53
04. Чума и Огонь 07:06
05. Амон Тар 08:37
06. Воитель 06:42
07. Я Был 04:58
08. Культ Чёрной Бабочки 07:38
09. Орден Четырёх Сторон 05:54
******************************
Total playing time: 55:36

Preview 1

[more=Extended info][youtube]CPaqgFRLicM[/youtube][/more]

[more=Technical info]
Input File: 02. В Лесах Полной Луны.mp3
Channels : 2
Sample Rate : 48000
Precision : 16-bit
Duration : 00:08:17.43 = 23876496 samples ~ 37307 CDDA sectors
File Size : 19.9M
Bit Rate : 320k
Sample Encoding: MPEG audio (layer I, II or III)
Comments :
Title=В Лесах Полной Луны
Artist=Fatum Semitar
Album=Идея Плоти и Корней
Tracknumber=02
Year=2018

[/more]

Register
(3) infiltrator, Rosen, wanderer73,
Sep 16 2018, 11:05:53 Graveflower - Sardonically Laughing Sky [single] (2018)


*Artist: Graveflower
*Album: Sardonically Laughing Sky [single]
*Year: 2018
*Genre: Doom/Death Metal
*Country: Russian Federation
*Format: mp3@CBR320kbps
*Size: 20MB

Tracklist:
01. Sardonically Laughing Sky 08:57
******************************
Total playing time: 8:57


Preview 2

[more=Extended info]Новый альбом Graveflower "Deferred Retribution" Выход ориентировочно намечен на сентябрь.
Тизер [youtube]https://www.youtube.com/watch?time_continue=27&v=HIczncrYIDA[/youtube][/more]

[more=Technical info]
Input File: 01. Sardonically Laughing Sky.mp3
Channels : 2
Sample Rate : 44100
Precision : 16-bit
Duration : 00:08:57.40 = 23699208 samples = 40304.8 CDDA sectors
File Size : 21.5M
Bit Rate : 320k
Sample Encoding: MPEG audio (layer I, II or III)
Comments :
Title=Sardonically Laughing Sky
Artist=Graveflower
Album=Sardonically Laughing Sky
Tracknumber=01
Year=2018
Genre=Doom Metal

[/more]

Register
(6) chefo, Faust_Vulkan_16, KVRT, Ostinato, Rosen, woldemort,
Sep 14 2018, 17:48:14 North Black - Tårer Av Skogen (2018)
ЦИТАТА(Razorbladeswaltz @ Sep 14 2018, 14:02:50) *
mirror, pls

Ссылку добавил в теме.
(1) Razorbladeswaltz,
Sep 13 2018, 15:47:42 Laptev's Epidemia - Затерянный Храм Энии (2018)


*Artist: Laptev's Epidemia
*Album: Затерянный Храм Энии
*Year: 2018
*Genre: Heavy/Power Metal
*Country: Russian Federation
*Format: mp3@CBR320kbps
*Size: 140MB

Tracklist:
01. Intro 01:59
02. Знаменье Зимы 09:52
03. Не Жалей 04:50
04. Непрочность Надежд 04:41
05. Вечная Ночь 03:49
06. Честь Королей 05:14
07. Жизнь Без Тьмы 04:15
08. Солнца Восход 05:47
Bonus Tracks:
09. Знаменье Зимы (Булгаков) 09:53
10. Не Жалей (Высокосов) 04:50
11. Солнца Восход (acoustic) 05:45
******************************
Total playing time: 1:00:59

Preview 1

[more=Technical info]
Input File: 03. Не Жалей.mp3
Channels : 2
Sample Rate : 44100
Precision : 16-bit
Duration : 00:04:50.44 = 12808272 samples = 21782.8 CDDA sectors
File Size : 11.6M
Bit Rate : 320k
Sample Encoding: MPEG audio (layer I, II or III)
Comments :
Title=Не Жалей
Artist=Laptev's Epidemia
Album=Затерянный Храм Энии
Tracknumber=03
Year=2018
Genre=Power Metal

[/more]

Register
(10) apostol_13, Aresson, csgmnk, Druidir, DTGB, Ludwig Hagen, older68, Rosen, Rover, Сварог Барг,
Sep 13 2018, 10:51:57 Akvan - اسفندیار/Esfandiyar [ep] (2018)


*Artist: Akvan
*Album: اسفندیار/Esfandiyar [ep]
*Year: 2018
*Genre: Black Metal
*Country: Iran
*Format: mp3@CBR320kbps
*Size: 20MB

Tracklist:
01. اسفندیار /Esfandiyar 06:14
02. شکوه برب / Barbad's Glory 02:37
******************************
Total playing time: 8:52



[more=Technical info]
Input File: 01 اسفندیار - Esfandiyar.mp3
Channels : 2
Sample Rate : 44100
Precision : 16-bit
Duration : 00:06:14.52 = 16516112 samples = 28088.6 CDDA sectors
File Size : 15.0M
Bit Rate : 320k
Sample Encoding: MPEG audio (layer I, II or III)
Comments :
Title=اسفندیار / Esfandiyar
Artist=Akvan
Album=اسفندیار / Esfandiyar
Tracknumber=01
Year=2018
Genre=Black Metal

[/more]

Register
(7) 1968_janeart, Druidir, Ostinato, Rosen, Shadechaser, SilentNidhogg, vasiljev_sergej,
Sep 12 2018, 06:31:03 North Black - Tårer Av Skogen (2018)


*Artist: North Black
*Album: Tårer Av Skogen
*Year: 2018
*Genre: Atmospheric Black Metal
*Country: Russian Federation
*Format: mp3@CBR320kbps
*Size: 126MB

Tracklist:
01. Visjoner Av Arten 09:36
02. I Deg Hele Naturen 07:42
03. Berør Uten Strøm 03:44
04. Tårer Av Skogen 08:22
Bonus:
05. Visjoner Av Arten (Instrumental Synth version) 09:36
06. I Deg Hele Naturen (Instrumental Synth version) 07:42
07. Tårer Av Skogen (Instrumental Synth version) 08:22
******************************
Total playing time: 55:06



[more=Technical info]
Input File: 01. Visjoner Av Arten.mp3
Channels : 2
Sample Rate : 48000
Precision : 16-bit
Duration : 00:09:36.00 = 27648144 samples ~ 43200.2 CDDA sectors
File Size : 23.0M
Bit Rate : 320k
Sample Encoding: MPEG audio (layer I, II or III)
Comments :
Title=Visjoner Av Arten
Artist=North Black
Album=Tårer Av Skogen
Tracknumber=01
Year=2018
Genre=Black Metal

[/more]

Register
(21) 1968_janeart, A.L.Rapsod, Doooomed, dulak, infiltrator, kim666, Ludwig Hagen, nemx, nsk2008, Olrak, Ostinato, pfk505, Rosen, Sethan, Shadechaser, SilentNidhogg, toly1917, Unleashed, varg-38ru, vasiljev_sergej, ZambuL,
Sep 10 2018, 18:41:53 Ode Sakura - Chaotic Withering (2018)


*Artist: Ode Sakura
*Album: Chaotic Withering
*Year: 2018
*Genre: Melodic Death Metal
*Country: Russian Federation
*Format: mp3@CBR320kbps
*Size: 93MB

Tracklist:
01. Pain 03:37
02. Miasma 05:13
03. Depth Of The Night 04:17
04. Funeral March 04:21
05. Fall Into Grey 04:52
06. Dreamfall 04:29
07. Frames Collision 04:58
08. Isolation Complex 03:15
09. Chaos Within 05:36
******************************
Total playing time: 40:41



Preview 3

[more=Extended info][youtube]https://www.youtube.com/watch?time_continue=8&v=FUkM0bUu0PM[/youtube][/more]

[more=Technical info]
Input File: 01. Pain.mp3
Channels : 2
Sample Rate : 44100
Precision : 16-bit
Duration : 00:03:37.09 = 9573757 samples = 16281.9 CDDA sectors
File Size : 8.69M
Bit Rate : 320k
Sample Encoding: MPEG audio (layer I, II or III)
Comments :
Title=Pain
Artist=Ode Sakura
Album=Chaotic Withering
Tracknumber=01
Year=2018
Genre=Death Metal

[/more]

Register
(4) infiltrator, Ostinato, Rosen, talismanFS,
Sep 9 2018, 11:55:19 Självmord & No Point In Living & Spätjahr Melancholie - Höst Utan Mig [split] (2018)


*Artist: Självmord & No Point In Living & Spätjahr Melancholie
*Album: Höst Utan Mig [split]
*Year: 2018
*Genre: Depressive Black Metal/Post-Black Metal | Depressive Black Metal | Depressive Black Metal
*Country: Russian Federation | Japan | Germany
*Format: mp3@CBR320kbps
*Size: 84MB

Tracklist:
Självmord:
01. The End Of The Avidya 05:01
02. Among The High Mountains 06:40
No Point In Living:
03. Alone 05:49
04. Bleeding 11:40
Spätjahr Melancholie:
05. Höstermelancholy 03:05
06. Ritualistic Isolation II 04:15
******************************
Total playing time: 36:32





[more=Extended info][youtube]ZGBGjv1c7fg[/youtube][/more]

[more=Technical info]
Input File: 01. The End Of The Avidya.mp3
Channels : 2
Sample Rate : 48000
Precision : 16-bit
Duration : 00:05:01.54 = 14473872 samples ~ 22615.4 CDDA sectors
File Size : 12.1M
Bit Rate : 320k
Sample Encoding: MPEG audio (layer I, II or III)
Comments :
Title=The End Of The Avidya
Artist=Självmord
Album=Höst Utan Mig
Tracknumber=01
Year=2018
Genre=Black Metal

[/more]

Register
(7) ErikGoth, kim666, Lanceatum, Ostinato, Rosen, Thunderbird, vasiljev_sergej,
Sep 9 2018, 11:13:04 MetalBlack - Глубины Сознания (2018)


*Artist: MetalBlack
*Album: Глубины Сознания
*Year: 2018
*Genre: Ambient/Atmospheric Black Metal
*Country: Russian Federation
*Format: mp3@CBR320kbps
*Size: 115MB

Tracklist:
01. Резать Снова 05:00
02. Фонарь 06:10
03. Искры 07:13
04. Из Бездонной Темноты 07:25
05. Обещание 06:34
06. Тихо в Темноте Ночей 03:37
07. Для Мотыльков Приходит Ночь 04:30
08. Всё Было Зря 03:13
09. Я Оставляю Тебя 06:37
******************************
Total playing time: 50:22


Preview 2

[more=Technical info]
Input File: 01. Резать Снова.mp3
Channels : 2
Sample Rate : 44100
Precision : 16-bit
Duration : 00:05:00.58 = 13255754 samples = 22543.8 CDDA sectors
File Size : 12.0M
Bit Rate : 320k
Sample Encoding: MPEG audio (layer I, II or III)
Comments :
Title=Резать Снова
Artist=MetalBlack
Album=Глубины Сознания
Tracknumber=01
Year=2018
Genre=Black Metal

[/more]

Register
(8) 1968_janeart, Ludwig Hagen, pfk505, rabindranad, Rosen, Shadechaser, SilentNidhogg, udt4050,
Sep 2 2018, 17:59:48 Lunar Hollow - Endless Cold (2018)


*Artist: Lunar Hollow
*Album: Endless Cold
*Year: 2018
*Genre: Atmospheric/Depressive Black Metal
*Country: Russian Federation
*Format: mp3@CBR320kbps
*Size: 115MB

Tracklist:
01. Frozen Land 09:00
02. Season Of Sorrow 06:58
03. Lost Amongst Snow 06:45
04. Embrace Of Winter 08:20
05. Endless Cold 08:26
06. Solitude 11:00
******************************
Total playing time: 50:30


Preview 2

[more=Technical info]
Input File: 01. Frozen Land.mp3
Channels : 2
Sample Rate : 44100
Precision : 16-bit
Duration : 00:09:00.06 = 23816734 samples = 40504.6 CDDA sectors
File Size : 21.6M
Bit Rate : 320k
Sample Encoding: MPEG audio (layer I, II or III)
Comments :
Title=Frozen Land
Artist=Lunar Hollow
Album=Endless Cold
Tracknumber=01
Year=2018
Genre=Black Metal

[/more]

Register
(12) 1968_janeart, kim666, Korpse, MeatWolf, nsk2008, Ostinato, randumbum, Rosen, SatanicPanzer, singrad, stone88, varg-38ru,
Sep 1 2018, 12:40:03 Alkonost - Врата Зимы [single] (2018)


*Artist: Alkonost
*Album: Врата Зимы [single]
*Year: 2018
*Genre: Folk/Pagan Metal
*Country: Russian Federation
*Format: mp3@CBR320kbps
*Size: 13MB

Tracklist:
01. Врата Зимы 05:40
******************************
Total playing time: 5:40


Preview 2

[more=Technical info]
Input File: 01. Врата Зимы.mp3
Channels : 2
Sample Rate : 44100
Precision : 16-bit
Duration : 00:05:40.89 = 15033381 samples = 25567 CDDA sectors
File Size : 13.6M
Bit Rate : 320k
Sample Encoding: MPEG audio (layer I, II or III)
Comments :
Title=Врата Зимы
Artist=Alkonost
Album=Врата Зимы
Tracknumber=01
Year=2018
Genre=Folk Metal

[/more]

Register
(12) Aresson, Cartman223, csgmnk, finntroll3, gwar, infozahist, Ludwig Hagen, Rosen, SAPOGi, talismanFS, Unleashed, Луч,
Aug 20 2018, 12:37:18 Abysskvlt - Khaogenesis (2018)


*Artist: Abysskvlt
*Album: Khaogenesis
*Year: 2018
*Genre: Funeral Doom Metal
*Country: Russian Federation
*Format: mp3@CBR320kbps
*Size: 177MB

Tracklist:
01. Yi Kun 20:23
02. Self-Renounce 19:02
03. Cryptomnesia 17:05
04. Deathforms 20:53
******************************
Total playing time: 1:17:25


Preview 2

[more=Technical info]
Input File: 01. Yi Kun.mp3
Channels : 2
Sample Rate : 44100
Precision : 16-bit
Duration : 00:20:24.01 = 53978929 samples = 91800.9 CDDA sectors
File Size : 49.0M
Bit Rate : 320k
Sample Encoding: MPEG audio (layer I, II or III)
Comments :
Title=Yi Kun
Artist=Abysskvlt
Album=Khaogenesis
Tracknumber=01
Year=2018
Genre=Doom Metal

[/more]

Register
(20) AHBAnep, andreikun, Black Cat, d0zer, DMIYUR, Guns, Hell_Is_Here, infozahist, KVRT, marilin, Occultas, Ostinato, Rosen, RUDACHUR, Sabbathian, SatanicPanzer, Shadechaser, StoneTemple, tOmV, VALERY,
Aug 13 2018, 19:18:03 Insanis - Dawn Ov The Black Sun (2018)


*Artist: Insanis
*Album: Dawn Ov The Black Sun
*Year: 2018
*Genre: Black/Death Metal
*Country: Russian Federation
*Format: mp3@CBR320kbps
*Size: 83MB

Tracklist:
01. From The Womb Ov Lilith 05:14
02. At One With The Universe 03:14
03. Nightfall 05:32
04. Tanin'iver Liftoach Nia! 03:20
05. Dawn Ov The Black Sun 05:20
06. Symbol Ov Faith 03:31
07. Bloody Crucifixion 04:05
08. Circle 05:57
******************************
Total playing time: 36:16



Preview 3

[more=Extended info]Дебютный альбом российской black metal группы INSANIS. Эта работа является итогом первых пяти лет существования коллектива и представляет собой уникальный фьюжн из post-black’a и качёвого death’а. Альбом погрузит слушателя в атмосферу гнетущей отчуждённости от мира и поставит его лицом к лицу с мрачными образами, существующими по ту сторону бытия. Идеи хаософии, вплетённые в полотно альбома и пропущенные коллективом через себя, расширяют горизонт ощущений, порождаемых этим альбомом и настраивают слушателя не на безмятежное созерцание вселенной, а скорее на прилив диких эмоций от вида её разрушения. Играя black metal, в не самых обычных его проявлениях, INSANIS держат слушателя в состоянии повышенного внимания к материалу и показывают странные, дерзкие, но всегда удивительные трактовки жанра.
morehate.com[/more]

[more=Technical info]
Input File: 01. From The Womb Ov Lilith.mp3
Channels : 2
Sample Rate : 44100
Precision : 16-bit
Duration : 00:05:14.82 = 13883650 samples = 23611.6 CDDA sectors
File Size : 12.6M
Bit Rate : 320k
Sample Encoding: MPEG audio (layer I, II or III)
Comments :
Title=From The Womb Ov Lilith
Artist=INSANIS
Album=Dawn Ov The Black Sun
Tracknumber=01
Year=2018
Genre=Black Metal

[/more]

Register
(6) judaz, Korpse, Ludwig Hagen, Rosen, Shadechaser, SilentNidhogg,
Aug 3 2018, 06:07:06 Charting The Depths Of Despair - Deeper Into The Darkness [ep] (2018)


*Artist: Charting The Depths Of Despair
*Album: Deeper Into The Darkness [ep]
*Year: 2018
*Genre: Funeral Doom Metal
*Country: Australia
*Format: mp3@CBR320kbps
*Size: 44MB

Tracklist:
01. Caught In The Tangled Threads Of Delusion 09:23
02. Deeper Into The Darkness 09:36
******************************
Total playing time: 19:00




[more=Technical info]
Input File: 01 Caught In The Tangled Threads Of Delusion.mp3
Channels : 2
Sample Rate : 44100
Precision : 16-bit
Duration : 00:09:23.99 = 24872047 samples = 42299.4 CDDA sectors
File Size : 22.6M
Bit Rate : 320k
Sample Encoding: MPEG audio (layer I, II or III)
Comments :
Title=Caught In The Tangled Threads Of Delusion
Artist=Charting The Depths Of Despair
Album=Deeper Into The Darkness
Tracknumber=01
Year=2018
Genre=Doom Metal

[/more]

Register
(5) Hell_Is_Here, Jurmagund, Rosen, Shadechaser, terron,
Jul 27 2018, 11:43:41 Living Twice - Living Twice (2018)


*Artist: Living Twice
*Album: Living Twice
*Year: 2018
*Genre: Stoner/Doom Metal
*Country: Russian Federation
*Format: mp3@CBR320kbps
*Size: 88MB

Tracklist:
01. Grey Demon 03:42
02. Art Of Stone Bodies 06:51
03. Radiance 07:09
04. Living Twice 03:37
05. Dead Dog 05:17
06. My Hate 05:35
07. Lonly House 06:09
******************************
Total playing time: 38:24


Preview 2

[more=Technical info]
Input File: 02 Art Of Stone Bodies.mp3
Channels : 2
Sample Rate : 44100
Precision : 16-bit
Duration : 00:06:51.74 = 18157778 samples = 30880.6 CDDA sectors
File Size : 16.5M
Bit Rate : 320k
Sample Encoding: MPEG audio (layer I, II or III)
Comments :
Title=Art Of Stone Bodies
Artist=Living Twice
Album=Living Twice
Tracknumber=02
Year=2018
Genre=Doom Metal

[/more]

Register
(3) infiltrator, Rosen, SatanicPanzer,
Jul 23 2018, 10:37:07 Talsur - Tormented (2018)
ЦИТАТА(Razorbladeswaltz @ Jul 20 2018, 06:19:05) *
mirror, pls
Прямая ссылка на
(3) denver, Hell_Is_Here, Razorbladeswaltz,
Jul 23 2018, 10:32:48 Cosmic Autumn - Cosmic Autumn (2018)
ЦИТАТА(Razorbladeswaltz @ Jul 20 2018, 06:19:53) *
mirror, pls

http://file.sampo.ru/75vtz8/
(3) Aphotic, gav-gafi, Razorbladeswaltz,
Jul 15 2018, 13:53:07 Cosmic Autumn - Cosmic Autumn (2018)


*Artist: Cosmic Autumn
*Album: Cosmic Autumn
*Year: 2018
*Genre: Atmospheric Black Metal
*Country: Germany
*Format: mp3@CBR320kbps
*Size: 88MB

Tracklist:
01. The Last Deception 06:01
02. Event Horizon 06:11
03. Indistinct Visions 05:25
04. Realms Of Eternal Light 10:31
05. Solitude (Instrumental) 10:13
******************************
Total playing time: 38:23




[more=Technical info]
Input File: 01. The Last Deception.mp3
Channels : 2
Sample Rate : 44100
Precision : 16-bit
Duration : 00:06:01.32 = 15934300 samples = 27099.1 CDDA sectors
File Size : 14.5M
Bit Rate : 320k
Sample Encoding: MPEG audio (layer I, II or III)
Comments :
Title=The Last Deception
Artist=Cosmic Autumn
Album=Cosmic Autumn
Tracknumber=01
Year=2018
Genre=Black Metal

[/more]

Register
(25) 1968_janeart, andydoom, BrutalAsFuck, djsema4, Druidir, Ildjarn, juanguillermo13, kim666, Korpse, Ludwig Hagen, Maximvs, Olrak, Ostinato, Rosen, RUDACHUR, Shadechaser, SilentNidhogg, SSBandera, stratoartica, system36, terron, thenecromancer, Tino, varg-38ru, vasiljev_sergej,
Jul 15 2018, 09:15:17 Talsur - Tormented (2018)


*Artist: Talsur
*Album: Tormented
*Year: 2018
*Genre: Melodic Doom/Death Metal
*Country: Russian Federation
*Format: mp3@CBR320kbps
*Size: 134MB

Tracklist:
01. Lamentoso 00:33
02. Demorior 07:06
03. I Bequeath 07:10
04. Waters Of Loss 06:36
05. Bleeding 06:09
06. Mortal Beloved 05:47
07. Regrets 05:47
08. Sanctuary Of Sinners 05:56
09. Tormented By Fate 13:34
******************************
Total playing time: 58:43




[more=Technical info]
Input File: 02 Demorior.mp3
Channels : 2
Sample Rate : 44100
Precision : 16-bit
Duration : 00:07:06.42 = 18805254 samples = 31981.7 CDDA sectors
File Size : 17.1M
Bit Rate : 320k
Sample Encoding: MPEG audio (layer I, II or III)
Comments :
Title=Demorior
Artist=Talsur
Album=Tormented
Tracknumber=02
Year=2018
Genre=Doom Metal

[/more]

Register
(22) asgaroth, chefo, djsema4, doomTemplar, Guns, infozahist, krotovich, KVRT, libertine, Mogozoz, nsk2008, oldvarg, Razorbladeswaltz, Rosen, RUDACHUR, SatanicPanzer, Shadechaser, skidnik, SymbyoticEntity, tOmV, woldemort, zaqxsw,
Jul 13 2018, 11:05:15 Foothill Roots - Nature Resonates [demo] (2018)
ЦИТАТА(Razorbladeswaltz @ Jul 11 2018, 22:44:23) *
mirror, pls

Прямая ссылка на
(1) Razorbladeswaltz,
Jul 11 2018, 10:54:34 Foothill Roots - Nature Resonates [demo] (2018)


*Artist: Foothill Roots
*Album: Nature Resonates [demo]
*Year: 2018
*Genre: Atmospheric Black Metal
*Country: Ireland
*Format: mp3@CBR320kbps
*Size: 59MB

Tracklist:
01. Intro 01:10
02. The Forest In Spring 10:44
03. Silver Under The Hills 07:18
04. Years Of Endless Rain 03:59
05. Tribute To Sun And Moon Dance - Hymne Til Freyja 02:24
******************************
Total playing time: 25:36



[more=Extended info][youtube]YwsZnv-SUfg[/youtube][/more]

[more=Technical info]
Input File: 02 The Forest In Spring.mp3
Channels : 2
Sample Rate : 44100
Precision : 16-bit
Duration : 00:10:44.82 = 28436518 samples = 48361.4 CDDA sectors
File Size : 25.8M
Bit Rate : 320k
Sample Encoding: MPEG audio (layer I, II or III)
Comments :
Title=The Forest In Spring
Artist=Foothill Roots
Album=Nature Resonates
Tracknumber=02
Year=2018
Genre=Black Metal

[/more]

Register
(10) 1968_janeart, infiltrator, kim666, nsk2008, Ostinato, Rosen, SilentNidhogg, stub888, varg-38ru, vasiljev_sergej,
Jul 4 2018, 19:31:50 Wintaar & Dzö-Nga - Into The Heart Of The Ice [split] (2018)
ЦИТАТА(Razorbladeswaltz @ Jul 4 2018, 13:00:45) *
mirror, pls

Ссылку добавил в теме.
(1) Razorbladeswaltz,
Jul 3 2018, 20:11:51 Wintaar - Songs Of White Wilderness (2018)


*Artist: Wintaar
*Album: Songs Of White Wilderness
*Year: 2018
*Genre: Atmospheric Black Metal
*Country: Russian Federation
*Format: mp3@CBR320kbps
*Size: 105MB

Tracklist:
01. Kingdom Of The Ice Ridge 07:20
02. Dust 07:46
03. Knowledge Of The Wanderer 04:27
04. White Wilderness 07:09
05. The Mountain Chant 05:20
06. Thundrasong 05:36
07. Wounds Of The Sun 08:19
******************************
Total playing time: 45:59



[more=Technical info]
Input File: 02. Dust.mp3
Channels : 2
Sample Rate : 44100
Precision : 16-bit
Duration : 00:07:46.11 = 20555231 samples = 34957.9 CDDA sectors
File Size : 18.6M
Bit Rate : 320k
Sample Encoding: MPEG audio (layer I, II or III)
Comments :
Title=Dust
Artist=Wintaar
Album=Songs Of White Wilderness
Tracknumber=02
Year=2018
Genre=Black Metal

[/more]

Register
(18) 0x13, 1968_janeart, cesar, Daale, Doooomed, Fater_Hu, infiltrator, kim666, Korpse, Ostinato, pfk505, Rosen, Shadechaser, simvolist777, stone88, VALERY, varg-38ru, vasiljev_sergej,

29 Pages V   1 2 3 > » 
- Lo-Fi Version Support form
Copyrights and abuse reports form
Time is now: 23rd September 2018 - 12:03:41