Welcome Guest ( Log In | Register )

История благодарностей участнику RotAnus ::: Спасибо сказали: 1960 раз(а)
Дата поста: В теме: За сообщение: Спасибо сказали:
Oct 9 2018, 12:30:18 Zerodak - The Black Of Life [demo] (2013)


*Artist: Zerodak
*Album: The Black Of Life [demo]
*Year: 2013
*Genre: Thrash Metal
*Country: Mexico
*Format: mp3@CBR320kbps
*Size: 44MB

Tracklist:
1. Fake Mask
2. Abyss of Perdition
3. Whipping Mind
4. Blackout of Lives
******************************
Total playing time: 20:03




[more=Technical info]
Input File: 2 Abyss of Perdition.mp3
Channels : 2
Sample Rate : 44100
Precision : 16-bit
Duration : 00:04:25.00 = 11686588 samples = 19875.1 CDDA sectors
File Size : 10.6M
Bit Rate : 320k
Sample Encoding: MPEG audio (layer I, II or III)

[/more]

Register
(3) pichileon, Rosen, scorpionmk,
Oct 6 2018, 13:42:07 Vecordia - Dukaty [demo] (2011)


*Artist: Vecordia
*Album: Dukaty [demo]
*Year: 2011
*Genre: Folk Metal
*Country: Poland
*Format: mp3@CBR320kbps
*Size: 37MB

Tracklist:
1. Dukaty 04:27
2. Leśna armia 02:51
3. Wyobraźnia 04:32
4. Nemo (Nightwish cover) 04:28
******************************
Total playing time: 16:18



[more=Technical info]
Input File: 2 - Leśna Armia.mp3
Channels : 2
Sample Rate : 44100
Precision : 16-bit
Duration : 00:02:50.09 = 7501057 samples = 12756.9 CDDA sectors
File Size : 6.80M
Bit Rate : 320k
Sample Encoding: MPEG audio (layer I, II or III)

[/more]

Register
(6) Cartman223, csgmnk, fabriziomagno, Rosen, spiritualdecay666, Svafrlami,
Oct 6 2018, 13:04:45 Burntence - Rotten Night [ep] (2016)


*Artist: Burntence
*Album: Rotten Night [ep]
*Year: 2016
*Genre: Thrash Metal/Punk
*Country: Spain
*Format: mp3@CBR320kbps
*Size: 35MB

Tracklist:
1. Another Night 01:14
2. A ballad for someone 01:51
3. Berlin Wall 03:43
4. I hate children (Adolescents cover) 01:42
5. Nervous overdose 04:04
6. Rotten rats 02:20
******************************
Total playing time: 14:54

[more=Technical info]
Input File: 6 Rotten Rats.mp3
Channels : 2
Sample Rate : 44100
Precision : 16-bit
Duration : 00:02:16.97 = 6040377 samples = 10272.8 CDDA sectors
File Size : 5.48M
Bit Rate : 320k
Sample Encoding: MPEG audio (layer I, II or III)
Comments :
Artist=Burntence
Album=Rotten Night (EP)
Tracknumber=6
Year=2016

[/more]

Register
(4) METALHUNTER, Rosen, spiritualdecay666, wgs73,
Oct 6 2018, 13:00:22 Burntence - Davai! [ep] (2014)
Register
(1) wgs73,
Oct 5 2018, 11:33:57 Veal - Perpetual Swansong [ep] (2018)


*Artist: Veal
*Album: Perpetual Swansong [ep]
*Year: 2018
*Genre: Progressive Death/Groove Metal
*Country: Poland
*Format: mp3@CBR320kbps
*Size: 64MB

Tracklist:
1. Perfect Scam 04:57
2. To Have or to Be 06:06
3. The Mountain 03:59
4. Strange Stability 05:12
5. Perpetual Swansong 08:50
******************************
Total playing time: 29:04





[more=Technical info]
Input File: 01 - Perfect Scam.mp3
Channels : 2
Sample Rate : 44100
Precision : 16-bit
Duration : 00:04:57.61 = 13124425 samples = 22320.5 CDDA sectors
File Size : 12.0M
Bit Rate : 322k
Sample Encoding: MPEG audio (layer I, II or III)
Comments :
Title=Perfect Scam
Artist=Veal
Album=Perpetual Swansong
Tracknumber=1/5
Year=2018
Genre=Groove Metal / Metalcore

[/more]

Register
(4) csgmnk, Ostinato, Rosen, VALERY,
Oct 4 2018, 19:04:30 Żywia - Słowiańska Wiara (2014)


*Artist: Żywia
*Album: Słowiańska Wiara
*Year: 2014
*Genre: Folk/Pagan Metal
*Country: Poland
*Format: mp3@CBR192kbps
*Size: 56MB

Tracklist:
01. Pieśń Perunowa
02. Bramy Nawii
03. Wilcza Pani
04. Kupała, Kupała
05. Pieśń Plonowa
06. Mokosz
07. Ostatni Żerca
08. Modlitwa Wojownika
09. Kobieta-Drzewo
10. Wataha
******************************
Total playing time: 40:43



[more=Technical info]
Input File: 06. Mokosz.mp3
Channels : 2
Sample Rate : 44100
Precision : 16-bit
Duration : 00:02:46.49 = 7342121 samples = 12486.6 CDDA sectors
File Size : 4.13M
Bit Rate : 198k
Sample Encoding: MPEG audio (layer I, II or III)
Comments :
Title=Mokosz
Artist=Żywia
Album=Słowiańska Wiara
Tracknumber=06
Year=2014
Genre=Folk / Pagan Metal

[/more]

Register
(4) avather, Cartman223, gwar, Rosen,
Oct 4 2018, 11:31:44 Zenek - Albo Grubo Albo Wcale (2018)


*Artist: Zenek
*Album: Albo Grubo Albo Wcale
*Year: 2018
*Genre: Groove Metal
*Country: Poland
*Format: mp3@CBR320kbps
*Size: 100MB

Tracklist:
1. Albo grubo albo wcale 04:02
2. Maść na ból dupy 06:14
3. Karwa mać 03:30
4. Jednoroźec 04:49
5. Ptasiek 05:04
6. Frodo 06:33
7. Babcia 05:17
8. Uparty osioł 04:55
9. Carpe Diem 03:09
******************************
Total playing time: 43:33



[more=Technical info]
Input File: 6 - Frodo.mp3
Channels : 2
Sample Rate : 44100
Precision : 16-bit
Duration : 00:06:33.09 = 17335093 samples = 29481.5 CDDA sectors
File Size : 15.7M
Bit Rate : 320k
Sample Encoding: MPEG audio (layer I, II or III)

[/more]

Register
(2) Rosen, yavamir,
Oct 4 2018, 10:51:05 Nemesis Inferi - A Bad Mess (2018)


*Artist: Nemesis Inferi
*Album: A Bad Mess
*Year: 2018
*Genre: Groove Metal
*Country: Italy
*Format: mp3@CBR320kbps
*Size: 92MB

Tracklist:
1. Never on Your Mouth 03:54
2. Breaking Bad 04:15
3. Hate My Name 04:09
4. Rising 05:02
5. Anything Anymore 05:05
6. Bad Mess 05:40
7. Crawling in the Dust 06:58
8. Vertigo 05:11
******************************
Total playing time: 40:14




[more=Technical info]
Input File: 06 Bad Mess.mp3
Channels : 2
Sample Rate : 44100
Precision : 16-bit
Duration : 00:05:40.19 = 15002291 samples = 25514.1 CDDA sectors
File Size : 13.9M
Bit Rate : 327k
Sample Encoding: MPEG audio (layer I, II or III)
Comments :
Title=Bad Mess
Artist=Nemesis Inferi
Album=A Bad Mess
Tracknumber=6
Year=2018
Genre=Metal
Discnumber=1

[/more]

Register
(3) csgmnk, infozahist, Rosen,
Oct 3 2018, 11:04:47 Iron Altar - Pillars Of Blood (2018)


*Artist: Iron Altar
*Album: Pillars Of Blood
*Year: 2018
*Genre: Groove Metal
*Country: United Kingdom
*Format: mp3@CBR320kbps
*Size: 115MB

Tracklist:
1. Deincarnation 05:40
2. Amaranthine 04:41
3. Burning Fields 05:41
4. Sanguine Petrichor 05:10
5. Shepherds 06:22
6. Manifestation 05:06
7. Small Gods 05:38
8. Lost Insignificance 03:51
9. Echo Chamber 08:24
******************************
Total playing time: 50:33





[more=Technical info]
Input File: 06 - Manifestation.mp3
Channels : 2
Sample Rate : 44100
Precision : 16-bit
Duration : 00:05:06.91 = 13534555 samples = 23018 CDDA sectors
File Size : 12.3M
Bit Rate : 320k
Sample Encoding: MPEG audio (layer I, II or III)
Comments :
Title=Manifestation
Artist=Iron Altar
Album=Pillars of Blood
Tracknumber=6
Year=2018
Genre=Metal

[/more]

Register
(3) Ostinato, Rosen, WX419,
Sep 30 2018, 08:26:53 Black Velvet Band - Pożoga (2015)
Register
(1) Orkkh,
Sep 30 2018, 08:26:29 Black Velvet Band - Pieśni Obląkane (2013)
Register
(1) Orkkh,
Sep 30 2018, 08:26:07 Black Velvet Band - Black Velvet Band [ep] (2012)
Register
(1) Orkkh,
Sep 29 2018, 12:25:51 Rigore - Nometus (2018)


*Artist: Rigore
*Album: Nometus
*Year: 2018
*Genre: Groove Metal
*Country: Argentina
*Format: mp3@CBR320kbps
*Size: 89MB

Tracklist:
01. Miedo
02. Matando Nuestra Voluntad
03. Plano
04. Hacia el Abismo
05. Inmortal
06. Rigore
07. 7 Principios
08. X
09. Sintiendo el Vacio
******************************
Total playing time: 38:45




[more=Technical info]
Input File: 06 Rigore.mp3
Channels : 2
Sample Rate : 44100
Precision : 16-bit
Duration : 00:02:45.47 = 7297271 samples = 12410.3 CDDA sectors
File Size : 6.93M
Bit Rate : 335k
Sample Encoding: MPEG audio (layer I, II or III)
Comments :
Title=Rigore
Artist=Rigore
Album=Nometus
Tracknumber=6/9
Year=2018
Genre=Metal
Discnumber=1/1

[/more]

Register
(3) avkruchinin, METALHUNTER, Rosen,
Sep 29 2018, 11:54:42 The Elite - Total Destruction (2018)


*Artist: The Elite
*Album: Total Destruction
*Year: 2018
*Genre: Groove Metal
*Country: United States
*Format: mp3@CBR320kbps
*Size: 98MB

Tracklist:
01. Sleepwalker 3:29
02. Weightless 2:34
03. My Last Murder 4:33
04. Goddamn Criminal 4:04
05. Total Destruction 4:38
06. You're Not Ready 4:18
07. The Next Great Divide 4:15
08. Gun to Your Head 4:35
09. While the Devil Sleeps 4:30
10. Black As Can Be 5:40
******************************
Total playing time: 42:36




[more=Extended info]T.J. Frost (Banished, Baphomet, Mythic, STEMM) — Vocals
Rob Arnold (Chimaira, Six Feet Under) — Guitars
Austin D’Amond (Chimaira, DevilDriver, Bleed the Sky) — Drums[/more]

[more=Technical info]
Input File: 06 - You\'re Not Ready.mp3
Channels : 2
Sample Rate : 44100
Precision : 16-bit
Duration : 00:04:18.13 = 11383665 samples = 19360 CDDA sectors
File Size : 10.6M
Bit Rate : 329k
Sample Encoding: MPEG audio (layer I, II or III)
Comments :
Title=You're Not Ready
Artist=The Elite
Album=Total Destruction
Tracknumber=6
Year=2018
Genre=key2nothing
Discnumber=1

[/more]

Register
(4) infozahist, METALHUNTER, Rosen, Wolbers,
Sep 20 2018, 12:20:17 Malört - The Feast (2013)


*Artist: Malört
*Album: The Feast
*Year: 2013
*Genre: Modern Melodic Death Metal
*Country: Switzerland
*Format: mp3@CBR320kbps
*Size: 127MB

Tracklist:
1. The Race 03:31
2. The Crowning 03:44
3. The Feast 04:07
4. The Maniac 03:51
5. The Burning River 04:41
6. Solstice 03:20
7. Shedding Nothing 04:32
8. S.A.L.I.G.I.A. 03:58
9. The Red Division 04:15
10. Blessed Faces 03:47
11. Devil's Mark 03:50
12. Hurt 03:50
13. The Shining 03:21
14. Rise 04:36
******************************
Total playing time: 55:23




[more=Technical info]
Input File: 06 - Solstice.mp3
Channels : 2
Sample Rate : 44100
Precision : 16-bit
Duration : 00:03:20.82 = 8856030 samples = 15061.3 CDDA sectors
File Size : 8.19M
Bit Rate : 326k
Sample Encoding: MPEG audio (layer I, II or III)
Comments :
Title=Solstice
Artist=Malört
Album=The Feast
Tracknumber=6
Year=2013
Genre=Melodic Death Metal

[/more]

Register
(3) Mogozoz, Rosen, VALERY,
Sep 11 2018, 11:23:24 Diversia - Demo (1999)
192
Register
(3) SyncestrA, thenecromancer, tont,
Sep 9 2018, 11:07:34 Žrec - Klíč K Pokladům [ep] (2017)


*Artist: Žrec
*Album: Klíč K Pokladům [ep]
*Year: 2017
*Genre: Folk/Pagan Metal
*Country: Czech Republic
*Format: mp3@CBR128kbps
*Size: 20MB

Tracklist:
1. Uvedení 01:04
2. Klíč k pokladům 07:05
3. Řeka domova 05:22
4. Vozka 08:48
******************************
Total playing time: 22:19




[more=Technical info]
Input File: 2 Klíč k pokladům.mp3
Channels : 2
Sample Rate : 44100
Precision : 16-bit
Duration : 00:07:05.61 = 18769313 samples = 31920.6 CDDA sectors
File Size : 6.91M
Bit Rate : 130k
Sample Encoding: MPEG audio (layer I, II or III)
Comments :
Title=Klíč k pokladům
Artist=Žrec
Album=Klíč k pokladům (EP)
Year=2017

[/more]

Register
(5) Cartman223, Eldarmoon, Rosen, Slavas, varg-38ru,
Sep 3 2018, 09:31:28 Norrsinnt - Dåvahugg (2017)


*Artist: Norrsinnt
*Album: Dåvahugg
*Year: 2017
*Genre: Folk/Pagan Metal
*Country: Sweden
*Format: mp3@CBR320kbps
*Size: 91MB

Tracklist:
1. Kraftpunkt 02:39
2. Vägen 04:45
3. Rötter 03:22
4. Djupt jer mörkre 05:58
5. Skogstjärnen 02:09
6. Förkunnelser 03:59
7. Skogsgömd 03:47
8. Tiden går 05:15
9. Slutet 05:04
10. Kraftpunkt (Pagan Ritual Version) 02:47
******************************
Total playing time: 39:45




[more=Technical info]
Input File: 6. Förkunnelser.mp3
Channels : 2
Sample Rate : 44100
Precision : 16-bit
Duration : 00:03:59.73 = 10572269 samples = 17980 CDDA sectors
File Size : 9.61M
Bit Rate : 321k
Sample Encoding: MPEG audio (layer I, II or III)
Comments :
Title=Förkunnelser
Artist=Norrsinnt
Album=Dåvahugg
Tracknumber=6/10
Year=2017
Genre=Folk Pagan Metal

[/more]

Register
(16) alex-82, Cartman223, csgmnk, fabriziomagno, infiltrator, Mogozoz, Moonshtook, muncho, neoatheist, Rosen, RUDACHUR, talismanFS, terron, VALERY, zhol, Смусмумбрик,
Aug 27 2018, 12:36:30 Grabnebelfürsten - Zeitenwende - Dem Wort Ein Schwert, Der Flamme Ein Volk [demo] (1998)
Register
vbr
(4) 1968_janeart, kim666, thenecromancer, vasiljev_sergej,
Aug 27 2018, 07:34:48 Scataholic - Coprophiliac Rapist (2018)


*Artist: Scataholic
*Album: Coprophiliac Rapist
*Year: 2018
*Genre: Porno Goregrind/Coprogrind
*Country: Sweden
*Format: mp3@CBR320kbps
*Size: 102MB

Tracklist:
1.From My Asshole Into Your Mouth 00:40
2. Let Me Take A Shit On You 01:44
3. Pansexual Cunt Frisbees 01:37
4. Morbid Cock Addiction 01:14
5. Penetrating The Corpse 02:57
6. Feminists Call Me A Misogynist Pig 00:58
7. Getting Bitches & Cash Like Harvey Weinstein 03:24
8. Coprophiliac Rapist 05:14
9. Cracking Your Bowel 01:11
10. To Find Out How Many Genders There Are, Check Out The Length Of This Song 00:02
11. Angry Foreigners Lurking In The Park 01:49
12. Worldwide Rape Epidemic 02:56
13. Depraved Transsexual Fuckfest 02:06
14. Puzzy Zlayer 666 03:05
15. Drinking Menstruation Straight From The Pussy 02:00
16. Islam Is Not A Religion Of Peace 03:21
17. Smeared Scat Aids 01:17
18. Whining About Racism Is Stupid And Gay 01:33
19. I Don't Pick Up Bitches, Bitches Pick Up Me 00:57
20. You Fat Fuck. Feat Yungranch 04:01
21. The Autistic Melody Of Doom 03:41
******************************
Total playing time: 45:47



[more=Technical info]
Input File: 06. Feminists Call Me A Misogynist Pig.mp3
Channels : 2
Sample Rate : 44100
Precision : 16-bit
Duration : 00:00:58.26 = 2569090 samples = 4369.2 CDDA sectors
File Size : 2.46M
Bit Rate : 337k
Sample Encoding: MPEG audio (layer I, II or III)
Comments :
Title=Feminists Call Me A Misogynist Pig
Artist=Scataholic
Album=Coprophiliac Rapist
Tracknumber=6/21
Year=2018
Genre=Goregrind, Slamming Brutal Death Metal

[/more]

Register
(9) A.L.Rapsod, aa144aa, denver, infiltrator, jollo, metala, Rosen, uk82, vyacheslav,
Aug 26 2018, 10:20:37 Infliction - Revolution Machine (2018)


*Artist: Infliction
*Album: Revolution Machine
*Year: 2018
*Genre: Groove Metal
*Country: Poland
*Format: mp3@CBR320kbps
*Size: 113MB

Tracklist:
1. The New Beginning 04:44
2. Anger Savagement 03:28
3. Bombs Away! 03:35
4. O.D. 04:37
5. Raising the Terror 03:49
6. Fuck tha Police 04:53
7. No Respect 04:13
8. Inflict the Masses 03:53
9. Hate into Hate 05:03
10. Candyman 02:31
11. Kingslayer 03:15
12. Dawn of the New World 05:16
******************************
Total playing time: 49:17



[more=Technical info]
Input File: 06. Fuck Tha Police.mp3
Channels : 2
Sample Rate : 44100
Precision : 16-bit
Duration : 00:04:53.22 = 12930870 samples = 21991.3 CDDA sectors
File Size : 11.7M
Bit Rate : 320k
Sample Encoding: MPEG audio (layer I, II or III)
Comments :
Title=Fuck Tha Police
Artist=Infliction
Album=Revolution Machine
Tracknumber=6/12
Year=2018
Genre=Metal
Discnumber=1/1

[/more]

Register
(6) infiltrator, infozahist, METALHUNTER, Pentium.Disel, Rosen, terron,
Aug 26 2018, 10:16:50 Infliction - Blame The Sun [ep] (2012)


*Artist: Infliction
*Album: Blame The Sun [ep]
*Year: 2012
*Genre: Groove Metal
*Country: Poland
*Format: mp3@CBR128kbps
*Size: 22MB

Tracklist:
1. Blame the Sun
2. Meaning of Death
3. Ethnic
4. Schrödinger's Cat
5. Path of Sanity
******************************
Total playing time: 24:16



[more=Technical info]
Input File: 01. Blame The Sun.mp3
Channels : 2
Sample Rate : 44100
Precision : 16-bit
Duration : 00:04:43.12 = 12485724 samples = 21234.2 CDDA sectors
File Size : 4.53M
Bit Rate : 128k
Sample Encoding: MPEG audio (layer I, II or III)
Comments :
Title=Blame The Sun
Artist=Infliction
Album=Blame The Sun (EP)
Tracknumber=01. Blame The Sun
Year=2012

[/more]

Register
(3) infiltrator, METALHUNTER, Rosen,
Aug 26 2018, 10:09:07 Infliction - Low Distance Boom [demo] (2011)
128
Register
(1) METALHUNTER,
Aug 24 2018, 14:48:25 The Last Twilight - La Octava Copa De Ira (2011)
Register
(3) Ostinato, varg-38ru, Wail,
Aug 24 2018, 14:36:47 The Last Twilight - Eternal Tribulation [ep] (2010)
Register
(2) Ostinato, varg-38ru,

19 Pages V   1 2 3 > » 
- Lo-Fi Version Support form
Copyrights and abuse reports form
Time is now: 17th October 2018 - 19:26:36