Welcome Guest ( Log In | Register )

История благодарностей участнику RotAnus ::: Спасибо сказали: 2217 раз(а)
Дата поста: В теме: За сообщение: Спасибо сказали:
Jan 20 2019, 11:08:24 In Process - Surgery [ep] (2012)


*Artist: In Process
*Album: Surgery [ep]
*Year: 2012
*Genre: Groove Metal
*Country: Finland
*Format: mp3@CBR320kbps
*Size: 38MB

Tracklist:
1. I Am
2. Enemy
3. ...---...
4. Flatline
5. Surgery
******************************
Total playing time: 16:49

[more=Technical info]
Input File: 01 - I Am.mp3
Channels : 2
Sample Rate : 44100
Precision : 16-bit
Duration : 00:03:43.08 = 9837608 samples = 16730.6 CDDA sectors
File Size : 8.92M
Bit Rate : 320k
Sample Encoding: MPEG audio (layer I, II or III)
Comments :
Title=I Am
Artist=In Process
Album=Surgery [EP]
Tracknumber=01
Year=2012

[/more]

Register
(1) Olethros,
Jan 13 2019, 12:29:05 Confront - Totally Fucked Up [demo] (2005)


*Artist: Confront
*Album: Totally Fucked Up [demo]
*Year: 2005
*Genre: Thrash Metal
*Country: Belgium
*Format: mp3@CBR192kbps
*Size: 32MB

Tracklist:
01. Judge yourself 03:54
02. Hold on Nordland 06:33
03. When all systems fail 07:33
04. Cut the flesh 05:26
******************************
Total playing time: 23:26

[more=Technical info]
Input File: 02 - Hold on Nordland.mp3
Channels : 2
Sample Rate : 44100
Precision : 16-bit
Duration : 00:06:33.84 = 17368300 samples = 29537.9 CDDA sectors
File Size : 9.45M
Bit Rate : 192k
Sample Encoding: MPEG audio (layer I, II or III)
Comments :
Title=Hold on Nordland
Artist=Confront
Album=Totally fucked up
Tracknumber=02
Year=2005

[/more]

Register
(4) James817, METALHUNTER, pichileon, wgs73,
Jan 12 2019, 09:34:58 Eroded - The Pact [demo] (1992)
VBR~235
Register
(1) thenecromancer,
Jan 8 2019, 13:23:12 Mincing Fury And Guttural Clamour Of Queer Decay - Thousand Years Of Emptiness (2017)
Register
(1) DarkHorde,
Jan 8 2019, 11:52:58 Mincing Fury And Guttural Clamour Of Queer Decay - Thousand Years Of Emptiness (2017)


*Artist: Mincing Fury And Guttural Clamour Of Queer Decay
*Album: Thousand Years Of Emptiness
*Year: 2017
*Genre: Grindcore/Brutal Death Metal
*Country: Czech Republic
*Format: mp3@CBR320kbps
*Size: 71MB

Tracklist:
1. Tenuous Vision 02:25
2. Thousand Years of Emptiness 03:41
3. Liability 01:26
4. Lies 02:44
5. Break Me Down 03:08
6. Fake Fate 02:58
7. Gutalaxomy-Psy 00:16
8. Access 01:22
9. Denied 00:59
10. Progeny 03:41
11. While Guitar Player Motorak Was Drinking Beers 01:38
12. Bigger Dement We Hoped 03:42
13. Paranormal Abnormal 03:07
******************************
Total playing time: 31:07



[more=Technical info]
Input File: 06 - Fake Fate.mp3
Channels : 2
Sample Rate : 44100
Precision : 16-bit
Duration : 00:02:58.51 = 7872115 samples = 13388 CDDA sectors
File Size : 7.14M
Bit Rate : 320k
Sample Encoding: MPEG audio (layer I, II or III)
Comments :
Title=Fake Fate
Artist=Mincing Fury and Guttural Clamour of Queer Decay
Album=Thousand Years of Emptiness
Tracknumber=6
Year=2017
Genre=Goregrind

[/more]

Register
(12) artscald, DarkHorde, jollo, metala, METALHUNTER, Olethros, PIMP, Radek, satanist666, WX419, yuratroll, Герб,
Jan 7 2019, 23:06:32 Scumfuck - Fuck Popmusic (2000)
Register
(2) Lanceatum, Герб,
Jan 7 2019, 08:50:22 Psychomancy - Gein (1996)


*Artist: Psychomancy
*Album: Gein
*Year: 1996
*Genre: Thrash/Groove Metal
*Country: United States
*Format: mp3@CBR320kbps
*Size: 101MB

Tracklist:
1. Part of the Groove
2. Release Yourself
3. Here I Am
4. Burns My Mind
5. Fatigue Incognito
6. Shake Your Ass
7. Not My Fate
8. Huh Fur a Biggin
9. Dig a Dik
10. Everyday
11. Chimera
12. Gein
13. Scheemin Bonus Track
14. Unhinged Bonus Track
15. Come On (rough Mix) Bonus Track
16. Again (rough Mix) Bonus Track
17. Everyday (alternate Version) Bonus Track
******************************
Total playing time: 57:27

[more=Technical info]
Input File: 06 - Shake Your Ass.mp3
Channels : 2
Sample Rate : 44100
Precision : 16-bit
Duration : 00:01:46.43 = 4693387 samples = 7981.95 CDDA sectors
File Size : 4.26M
Bit Rate : 320k
Sample Encoding: MPEG audio (layer I, II or III)
Comments :
Title=Shake Your Ass
Artist=Psychomancy
Album=Gein
Tracknumber=6
Year=1996
Genre=Thrash/Groove metal

[/more]

Register
(10) analbleeding, artscald, boby9052, doomsword11, metala, METALHUNTER, Mogozoz, Olethros, pichileon, varlam4,
Jan 4 2019, 12:42:36 Carnival's Carnage - L'era Dell'odio [ep] (2007)


*Artist: Carnival's Carnage
*Album: L'era Dell'odio [ep]
*Year: 2007
*Genre: Grindcore/Hardcore
*Country: Italy
*Format: mp3@CBR320kbps
*Size: 41MB

Tracklist:
01. Furti And Rapine
02. Dove Bacia Il Tuo Amore Uccide Il Mio Odio
03. Inferno
04. Per Quel Che Chiamate Vivere
05. Degna Solo Di Torture
06. La Voglia Di Impiccarti
07. La Prova Del Nove
08. Vita Morta
09. Stop Routine
10. Smash Normality
11. Refrigerazione Religiosa
******************************
Total playing time: 14:55

[more=Technical info]
Input File: 06. La Voglia Di Impiccarti.mp3
Channels : 2
Sample Rate : 44100
Precision : 16-bit
Duration : 00:01:27.52 = 3859588 samples = 6563.93 CDDA sectors
File Size : 3.50M
Bit Rate : 320k
Sample Encoding: MPEG audio (layer I, II or III)
Comments :
Title=La Voglia Di Impiccarti
Artist=Carnival's Carnage
Album=L'era dell'odio
Tracknumber=06
Year=2007

[/more]

Register
(3) artscald, Olethros, Герб,
Jan 3 2019, 16:55:44 Homicida - Ataque Sin Piedad [ep] (2013)


*Artist: Homicida
*Album: Ataque Sin Piedad [ep]
*Year: 2013
*Genre: Thrash Metal
*Country: Chile
*Format: mp3@CBR320kbps
*Size: 44MB

Tracklist:
1. Ataque 03:21
2. Sacrificio 03:03
3. Muerte y destrucción 03:09
4. Masacre 03:31
5. Destinado a morir 04:41
6. Sin piedad 02:21
******************************
Total playing time: 20:06



[more=Technical info]
Input File: 06 - Sin Piedad.mp3
Channels : 2
Sample Rate : 44100
Precision : 16-bit
Duration : 00:02:22.20 = 6270888 samples = 10664.8 CDDA sectors
File Size : 5.69M
Bit Rate : 320k
Sample Encoding: MPEG audio (layer I, II or III)
Comments :
Title=Sin Piedad
Artist=Homicida
Album=Ataque Sin Piedad
Tracknumber=6
Year=2013
Genre=Thrash Metal

[/more]

Register
(4) artscald, boby9052, gwar, METALHUNTER,
Jan 3 2019, 16:47:36 Homicida - Renacer Satánico [demo] (2010)
Register
192
(1) METALHUNTER,
Jan 1 2019, 11:46:23 D3Gr3Do - D3Gr3Do [ep] (2009)


*Artist: D3Gr3Do
*Album: D3Gr3Do [ep]
*Year: 2009
*Genre: Groove Metal
*Country: Portugal
*Format: mp3@CBR320kbps
*Size: 50MB

Tracklist:
1. Intro
2. River Runs Cold
3. Shadows & Skulls
4. Inside
5. Maga
******************************
Total playing time: 22:42




[more=Technical info]
Input File: 01 - Intro.mp3
Channels : 2
Sample Rate : 44100
Precision : 16-bit
Duration : 00:05:13.02 = 13804226 samples = 23476.6 CDDA sectors
File Size : 12.6M
Bit Rate : 321k
Sample Encoding: MPEG audio (layer I, II or III)
Comments :
Title=Intro
Artist=D3gr3do
Album=D3gr3do
Tracknumber=01/05
Year=2009

[/more]

Register
(3) artscald, pichileon, respect,
Dec 28 2018, 16:46:42 Necromancia - Back From The Dead (2012)


*Artist: Necromancia
*Album: Back From The Dead
*Year: 2012
*Genre: Thrash Metal
*Country: Brazil
*Format: mp3@CBR320kbps
*Size: 91MB

Tracklist:
1. Playing God 05:14
2. Under the Gun 03:18
3. Back from the Dead 05:28
4. Necrosphere 05:52
5. Birth... Suffering... Death... 04:21
6. Global Fall 02:16
7. Near Death Experience (N.D.E.) 03:30
8. Necrology 02:43
9. Afraid of Being Alive 02:57
10. Sinister Mind 04:02
11. Death Lust (Bonus Track) 05:18
******************************
Total playing time: 44:59



[more=Technical info]
Input File: 06 - Global Fall.mp3
Channels : 2
Sample Rate : 44100
Precision : 16-bit
Duration : 00:02:15.92 = 5994072 samples = 10194 CDDA sectors
File Size : 5.44M
Bit Rate : 320k
Sample Encoding: MPEG audio (layer I, II or III)
Comments :
Title=Global Fall
Artist=Necromancia
Album=Back From The Dead
Tracknumber=6
Year=2015
Genre=Heavy Metal

[/more]

Register
(8) artscald, boby9052, Diflock, gwar, METALHUNTER, pichileon, Proteus_666, sergsazan,
Dec 27 2018, 21:58:11 The Corals - Delemur (2015)


*Artist: The Corals
*Album: Delemur
*Year: 2015
*Genre: Stoner Metal
*Country: Indonesia
*Format: mp3@CBR320kbps
*Size: 86MB

Tracklist:
1. Intro 02:52
2. Delemur 03:58
3. Mosh Area 03:16
4. Muda Membara 03:56
5. Replika Sebuah Dogma 05:20
6. Mengikis Paranoia 04:16
7. Realisasi Fantasi 04:28
8. Setajam Belati 06:01
9. Hey Keledai 03:18
******************************
Total playing time: 37:25




[more=Technical info]
Input File: 06. Mengikis Paranoia.mp3
Channels : 2
Sample Rate : 44100
Precision : 16-bit
Duration : 00:04:17.04 = 11335288 samples = 19277.7 CDDA sectors
File Size : 11.0M
Bit Rate : 343k
Sample Encoding: MPEG audio (layer I, II or III)
Comments :
Title=Mengikis Paranoia
Artist=The Corals
Album=Delemur
Tracknumber=06/09
Year=2015

[/more]

Register
(5) artscald, marilin, Olethros, Rosen, VALERY,
Dec 27 2018, 21:52:21 The Corals - Terbelenggu Depresi [ep] (2010)


*Artist: The Corals
*Album: Terbelenggu Depresi [ep]
*Year: 2010
*Genre: Stoner Metal/Rock
*Country: Indonesia
*Format: mp3@CBR192kbps
*Size: 22MB

Tracklist:
1. Janji Sang Pembual 03:42
2. Realita Kota 02:55
3. Romantika Dunia Maya 03:05
4. Terbelenggu Depresi 03:25
5. Midnite in Town 02:49
******************************
Total playing time: 15:56

[more=Technical info]
Input File: 1 Janji Sang Pembual.mp3
Channels : 2
Sample Rate : 44100
Precision : 16-bit
Duration : 00:03:42.05 = 9792273 samples = 16653.5 CDDA sectors
File Size : 5.33M
Bit Rate : 192k
Sample Encoding: MPEG audio (layer I, II or III)

[/more]

Register
(1) artscald,
Dec 27 2018, 13:14:41 Restricted Area - Restricted Area [ep] (2018)


*Artist: Restricted Area
*Album: Restricted Area [ep]
*Year: 2018
*Genre: Groove Metal
*Country: France
*Format: mp3@CBR320kbps
*Size: 62MB

Tracklist:
01. One Way
02. Wake Up
03. Circle
04. Mechanical Upstairs
05. Two Deep Inside
06. Error System (feat. Phoebe de Nowina)
******************************
Total playing time: 27:30

[more=Technical info]
Input File: 06. Error System (feat. Phoebe de Nowina).mp3
Channels : 2
Sample Rate : 44100
Precision : 16-bit
Duration : 00:04:23.57 = 11623305 samples = 19767.5 CDDA sectors
File Size : 10.6M
Bit Rate : 321k
Sample Encoding: MPEG audio (layer I, II or III)
Comments :
Title=Error System (feat. Phoebe de Nowina)
Artist=Restricted Area, Phoebe de Nowina
Album=Restricted Area
Tracknumber=6/6
Year=2018

[/more]

Register
(4) artscald, METALHUNTER, Olethros, Rosen,
Dec 27 2018, 11:50:20 Libremente - Atraccion (2018)


*Artist: Libremente
*Album: Atraccion
*Year: 2018
*Genre: Groove Metal
*Country: Argentina
*Format: mp3@CBR320kbps
*Size: 131MB

Tracklist:
1. Atraccion 6:06
2. Que No Te Importe 5:02
3. Colapsar 3:54
4. Culpable 4:09
5. Universo 4:43
6. Impulso (feat. Elías Villavicencio) 4:32
7. Mil Palabras 3:20
8. Corriendo una Vez Mas 4:30
9. Serpiente 5:00
10. Inferior 4:33
11. Resiliencia 5:29
12. Un Nuevo Fin 5:48
******************************
Total playing time: 57:06



[more=Technical info]
Input File: 06 - Impulso.mp3
Channels : 2
Sample Rate : 44100
Precision : 16-bit
Duration : 00:04:32.34 = 12010370 samples = 20425.8 CDDA sectors
File Size : 11.0M
Bit Rate : 324k
Sample Encoding: MPEG audio (layer I, II or III)
Comments :
Title=Impulso
Artist=Libremente
Album=Atraccion
Tracknumber=06
Year=2018
Genre=Nu-Metal | Groove Metal

[/more]

Register
(4) artscald, METALHUNTER, Rosen, sadmannn,
Dec 24 2018, 11:15:16 Neck Sprain - God's Snake [ep] (2013)
320
Register
(1) METALHUNTER,
Dec 22 2018, 20:48:07 Kariwa - No Creo Que A Dios Le Importe (2018)


*Artist: Kariwa
*Album: No Creo Que A Dios Le Importe
*Year: 2018
*Genre: Groove Metal
*Country: Colombia
*Format: mp3@CBR320kbps
*Size: 100MB

Tracklist:
1. El Traidor 4:31
2. El Gran Poder 4:11
3. Fauces del Rencor 3:21
4. Bacteria 3:52
5. Nunca Mas 3:46
6. No Creo Que a Dios Le Importe 3:22
7. El Usurpador 5:07
8. Nuestra Pasión 3:48
9. Como Balas 3:20
10. El Origen 3:01
11. Hipócrita 4:30
12. Prisión 4:37
******************************
Total playing time: 47:26




[more=Technical info]
Input File: 06 - No Creo Que a Dios Le Importe.mp3
Channels : 2
Sample Rate : 44100
Precision : 16-bit
Duration : 00:03:22.75 = 8941275 samples = 15206.2 CDDA sectors
File Size : 8.16M
Bit Rate : 322k
Sample Encoding: MPEG audio (layer I, II or III)
Comments :
Title=No Creo Que a Dios Le Importe
Artist=Kariwa
Album=No Creo Que a Dios Le Importe
Tracknumber=6
Year=2018
Discnumber=1

[/more]

Register
(2) artscald, Rosen,
Dec 20 2018, 12:23:31 Denial - Rape Of The Century [ep] (1996)


*Artist: Denial
*Album: Rape Of The Century [ep]
*Year: 1996
*Genre: Thrash/Groove Metal
*Country: Sweden
*Format: mp3@CBR192kbps
*Size: 16MB

Tracklist:
1. Nature Abused 4:04
2. Animal Roots 2:47
3. Hate the Police 2:49
4. Humanity Fails 1:36
******************************
Total playing time: 11:16

[more=Technical info]
Input File: 2 - Animal Roots.mp3
Channels : 2
Sample Rate : 44100
Precision : 16-bit
Duration : 00:02:47.72 = 7396276 samples = 12578.7 CDDA sectors
File Size : 4.02M
Bit Rate : 192k
Sample Encoding: MPEG audio (layer I, II or III)
Comments :
Title=Animal Roots
Artist=Denial
Album=Rape Of The Century (EP)
Tracknumber=2
Year=1996
Genre=Metal

[/more]

Register
(12) analbleeding, artscald, boby9052, METALHUNTER, Olethros, pichileon, Proteus_666, Rosen, SyncestrA, Tino, Xutun, Z28517,
Dec 1 2018, 12:42:04 Deep Dirty - Brutal Silence (2018)


*Artist: Deep Dirty
*Album: Brutal Silence
*Year: 2018
*Genre: Groovy Goregrind
*Country: Germany
*Format: mp3@CBR128kbps
*Size: 37MB

Tracklist:
1. Warmachine 01:40
2. Grind Phobia 01:19
3. Victory 03:27
4. Tick Tack 02:35
5. Dirty Night 02:55
6. Godzilla 02:48
7. Moon Child 02:42
8. Daemon King 01:32
9. The Swarm 02:54
10. My Baby Doll 02:54
11. The Hunt 03:13
12. Brutal SIlence 03:34
13. Hellsound 02:27
14. Das Wesen Der Sünde 02:45
15. Powerfull Meat 02:24
16. Catalepsy 01:24
******************************
Total playing time: 40:33




[more=Technical info]
Input File: 06. Godzilla.mp3
Channels : 2
Sample Rate : 44100
Precision : 16-bit
Duration : 00:02:48.49 = 7430277 samples = 12636.5 CDDA sectors
File Size : 3.09M
Bit Rate : 147k
Sample Encoding: MPEG audio (layer I, II or III)
Comments :
Title=Godzilla
Artist=Deep Dirty
Album=Brutal Silence
Tracknumber=6
Year=2018
Genre=Goregrind

[/more]

Register
(9) artscald, Grinder999, gwar, jollo, kipelov999, metala, Rosen, SameMan, satanist666,
Nov 29 2018, 12:40:05 Trenches - Trenches (2018)
Register
(1) satanist666,
Nov 29 2018, 10:53:35 Agria - Más Fuerte Que Nunca [ep] (2015)


*Artist: Agria
*Album: Más Fuerte Que Nunca [ep]
*Year: 2015
*Genre: Groove Metal/Hardcore
*Country: Peru
*Format: mp3@CBR320kbps
*Size: 42MB

Tracklist:
1. Último Aliento 04:28
2. Ante El Sol 03:40
3. Más Allá De Las Sombras 04:27
4. L.S. 04:59
5. M.F.Q.N. 00:40
******************************
Total playing time: 18:14






[more=Technical info]
Input File: 01 - Último Aliento.mp3
Channels : 2
Sample Rate : 44100
Precision : 16-bit
Duration : 00:04:28.11 = 11823739 samples = 20108.4 CDDA sectors
File Size : 10.7M
Bit Rate : 320k
Sample Encoding: MPEG audio (layer I, II or III)
Comments :
Title=Último Aliento
Artist=AGRIA
Album=Mas Fuerte Que Nunca [EP]
Tracknumber=01
Year=2015

[/more]

Register
(7) artscald, DiegoMassakre, METALHUNTER, Olethros, pichileon, Rosen, varlam4,
Nov 29 2018, 10:51:45 Agria - Renacer [ep] (2012)


*Artist: Agria
*Album: Renacer [ep]
*Year: 2012
*Genre: Groove Metal/Hardcore
*Country: Peru
*Format: mp3@CBR320kbps
*Size: 41MB

Tracklist:
1. Intro 01:13
2. Renacer 04:30
3. Milicia Del Poder 03:15
4. Princesa Del Horror 04:20
5. Asesino 04:43
******************************
Total playing time: 18:01





[more=Technical info]
Input File: 03 - Milicia del Poder.mp3
Channels : 2
Sample Rate : 44100
Precision : 16-bit
Duration : 00:03:14.52 = 8578376 samples = 14589.1 CDDA sectors
File Size : 7.78M
Bit Rate : 320k
Sample Encoding: MPEG audio (layer I, II or III)
Comments :
Title=Milicia del Poder
Artist=AGRIA
Album=Renacer [EP]
Tracknumber=03
Year=2012

[/more]

Register
(7) artscald, DiegoMassakre, METALHUNTER, Olethros, pichileon, Rosen, varlam4,
Nov 21 2018, 11:11:06 Akani - Santa Muerte [ep] (2014)


*Artist: Akani
*Album: Santa Muerte [ep]
*Year: 2014
*Genre: Thrash/Groove Metal/Hardcore
*Country: International
*Format: mp3@CBR320kbps
*Size: 21MB

Tracklist:
1. Slither 01:41
2. Who's to Blame? 02:26
3. Leeches 02:08
4. Santa Muerte 03:26
******************************
Total playing time: 9:41




[more=Technical info]
Input File: 02-Who\'s To Blame.mp3
Channels : 2
Sample Rate : 44100
Precision : 16-bit
Duration : 00:02:27.00 = 6482788 samples = 11025.1 CDDA sectors
File Size : 5.88M
Bit Rate : 320k
Sample Encoding: MPEG audio (layer I, II or III)
Comments :
Title=Who's to Blame?
Artist=Akani
Album=Santa Muerte (EP)
Tracknumber=2/4
Year=2014
Genre=129

[/more]

Register
(7) artscald, boby9052, gwar, METALHUNTER, Olethros, Rosen, terron,
Nov 21 2018, 11:03:36 Akani - Through My Darkest Infernal (2016)
Register
(1) boby9052,

21 Pages V   1 2 3 > » 
- Lo-Fi Version Support form
Copyrights and abuse reports form
Time is now: 23rd January 2019 - 06:20:56