Welcome Guest ( Log In | Register )

История благодарностей участнику RotAnus ::: Спасибо сказали: 1698 раз(а)
Дата поста: В теме: За сообщение: Спасибо сказали:
Apr 15 2018, 16:18:27 Fall Of Carthage - Emma Green (2018)


*Artist: Fall Of Carthage
*Album: Emma Green
*Year: 2018
*Genre: Groove Metal/Hardcore
*Country: Germany
*Format: mp3@CBR320kbps
*Size: 72MB

Tracklist:
01. Signs Of Corruption
02. Priceless
03. Superior
04. Down There
05. Emma Green
06. Lies In Your Cup
07. Belongings
08. F.A. Gov
09. Dollarhungry
******************************
Total playing time: 30:42



[more=Technical info]
Input File: 6 Lies in your Cup.mp3
Channels : 2
Sample Rate : 44100
Precision : 16-bit
Duration : 00:03:23.46 = 8972718 samples = 15259.7 CDDA sectors
File Size : 8.32M
Bit Rate : 327k
Sample Encoding: MPEG audio (layer I, II or III)
Comments :
Title=Lies in your Cup
Artist=Fall Of Carthage
Album=Emma Green
Tracknumber=6/9
Year=2018
Genre=9
Discnumber=1/1

[/more]

Register
(2) Ostinato, Rosen,
Apr 14 2018, 13:12:51 Marc Rizzo - Rotation (2018)


*Artist: Marc Rizzo
*Album: Rotation
*Year: 2018
*Genre: Instrumental Progressive Groove Metal
*Country: United States
*Format: mp3@CBR320kbps
*Size: 94MB

Tracklist:
1. Downside Up 03:28
2. Hear Nor There 05:28
3. Signum 03:49
4. Special Intensities 04:30
5. Ad Pila Et Spathas 05:02
6. Rotation 04:23
7. Wicked Shattered 05:08
8. Jungle Jam Slam 06:38
9. Thrash Boogie 05:41
******************************
Total playing time: 44:07



[more=Technical info]
Input File: 06 - Rotation.mp3
Channels : 2
Sample Rate : 44100
Precision : 16-bit
Duration : 00:04:22.87 = 11592611 samples = 19715.3 CDDA sectors
File Size : 10.5M
Bit Rate : 320k
Sample Encoding: MPEG audio (layer I, II or III)
Comments :
Title=Rotation
Artist=Marc Rizzo
Album=Rotation
Tracknumber=6/9
Year=2018

[/more]

Register
(9) dimitriusk, metala, RENыч, Rosen, Rover, savaman, terron, wreak, Луч,
Apr 14 2018, 12:02:40 Bound By Fate - Steadfast (2015)
Register
(2) boby9052, varlam4,
Apr 13 2018, 16:58:43 Ossuary - Ossuary (1998)
Register
(2) Anger, METALHUNTER,
Apr 9 2018, 15:46:56 Aggressive Tyrants - Narcosurrealismus (2013)
Register
(1) varlam4,
Apr 9 2018, 15:45:31 Aggressive Tyrants - Aggressive Tyrants [demo] (2008)
Register
(2) satanist666, varlam4,
Apr 9 2018, 15:44:16 Aggressive Tyrants - 2002 (2002)
320
Register
(2) kimkayoung, varlam4,
Apr 9 2018, 15:43:34 Aggressive Tyrants - Žužlání Klitorisu Zdechlé Narkomanky [demo] (1998)
Register
(1) varlam4,
Apr 9 2018, 15:42:58 Aggressive Tyrants - Sexuální Pathologický Aggressor [demo] (1997)
Register
(1) varlam4,
Apr 9 2018, 15:42:25 Aggressive Tyrants - ...A Miminko Je Na Svìtì! [demo] (1998)
Register
(1) varlam4,
Apr 8 2018, 11:57:55 Rêx Mündi - IHVH (2011)
Register
320
(2) LazarShadow, thenecromancer,
Apr 6 2018, 14:01:42 Black Inhale - Rule Of Force (2011)


*Artist: Black Inhale
*Album: Rule Of Force
*Year: 2011
*Genre: Thrash/Groove Metal
*Country: Austria
*Format: mp3@CBR320kbps
*Size: 108MB

Tracklist:
1. Rule of Force 05:36
2. The Worst Is Yet to Come 03:51
3. Control 04:14
4. Red Khmer 04:30
5. Losing My Faith 04:52
6. Hypocrite 04:17
7. Dejected 06:16
8. Face to Face 03:20
9. Through Assassins Hand 05:45
10. Hell's Gate 04:28
******************************
Total playing time: 47:09

[more=Technical info]
Input File: 06 - Hypocrite.mp3
Channels : 2
Sample Rate : 44100
Precision : 16-bit
Duration : 00:04:17.78 = 11367966 samples = 19333.3 CDDA sectors
File Size : 10.3M
Bit Rate : 321k
Sample Encoding: MPEG audio (layer I, II or III)
Comments :
Title=Hypocrite
Artist=Black Inhale
Album=Rule Of Force
Tracknumber=06
Year=2011
Genre=Thrash\Groove Metal

[/more]

Register
(7) boby9052, lortz, METALHUNTER, Rosen, SymbyoticEntity, varlam4, wreak,
Apr 6 2018, 12:26:06 Last Grain In The Hourglass - Following The River, Finding The Sea [ep] (2007)
Register
(2) snot, varlam4,
Apr 6 2018, 12:25:38 Last Grain In The Hourglass - Last Grain In The Hourglass [ep] (2006)
Register
(2) snot, varlam4,
Apr 6 2018, 12:24:33 Last Grain In The Hourglass - Now I Am Become Death, The Destroyer Of Worlds [promo] (2009)


*Artist: Last Grain In The Hourglass
*Album: Now I Am Become Death, The Destroyer Of Worlds [promo]
*Year: 2009
*Genre: Post-Metal
*Country: Germany
*Format: mp3@CBR320kbps
*Size: 36MB

Tracklist:
1. Ice 05:33
2. Army of Butterflies 03:22
3. If Then Else [Sleepless in Vienna] 07:04
******************************
Total playing time: 15:59



[more=Technical info]
Input File: 03 - If Then Else.mp3
Channels : 2
Sample Rate : 44100
Precision : 16-bit
Duration : 00:07:04.07 = 18701531 samples = 31805.3 CDDA sectors
File Size : 17.0M
Bit Rate : 320k
Sample Encoding: MPEG audio (layer I, II or III)
Comments :
Title=If Then Else [Sleepless In Vienna]
Artist=Last Grain In The Hourglass
Album=Now I Am Become Death, The Destroyer Of Worlds - Promo 2009
Year=2009

[/more]

Register
(6) ctulhudagon, Rosen, Sanc, snot, varlam4, wreak,
Mar 30 2018, 12:31:39 Cryptica - Pitborn (2013)


*Artist: Cryptica
*Album: Pitborn
*Year: 2013
*Genre: Groove Metal
*Country: Estonia
*Format: mp3@CBR320kbps
*Size: 88MB

Tracklist:
1. You're Nothing 03:41
2. Delirium 03:53
3. Marked for Life 03:38
4. The Groove 04:20
5. Debts of Mankind 04:17
6. Aunt Thally 04:15
7. No Return 04:18
8. Cry of the Refugee 04:31
9. Shattered 03:29
10. Unbreakable 02:40
******************************
Total playing time: 39:02




[more=Technical info]
Input File: 06 - Aunt Thally.mp3
Channels : 2
Sample Rate : 44100
Precision : 16-bit
Duration : 00:04:15.22 = 11255070 samples = 19141.3 CDDA sectors
File Size : 10.2M
Bit Rate : 320k
Sample Encoding: MPEG audio (layer I, II or III)
Comments :
Title=Aunt Thally
Artist=Cryptica
Album=Pitborn
Tracknumber=6/10
Year=2013
Genre=Groove Metal
Discnumber=1/1

[/more]

Register
(4) lortz, METALHUNTER, Rosen, varlam4,
Mar 30 2018, 12:18:06 Forward To Eden - When Blood Covers Morality [ep] (2017)


*Artist: Forward To Eden
*Album: When Blood Covers Morality [ep]
*Year: 2017
*Genre: Death Metal/Hardcore
*Country: Germany
*Format: mp3@VBR238kbps
*Size: 30MB

Tracklist:
1. Indirect Cannibalism 02:28
2. Rage / Dying 04:18
3. Human Animal 02:59
4. Break Free 03:02
5. If Only You Could Judge Me 02:38
******************************
Total playing time: 15:25




[more=Technical info]
Input File: 01 Indirect Cannibalism.mp3
Channels : 2
Sample Rate : 44100
Precision : 16-bit
Duration : 00:02:28.24 = 6537560 samples = 11118.3 CDDA sectors
File Size : 4.64M
Bit Rate : 251k
Sample Encoding: MPEG audio (layer I, II or III)
Comments :
Title=Indirect Cannibalism
Artist=Forward To Eden
Album=When Blood Covers Morality
Tracknumber=1
Year=2017

[/more]

Register
(2) Rosen, varlam4,
Mar 22 2018, 15:22:45 Wake Up On Fire - Wake Up On Fire (2005)
Register
(1) nemoW,
Mar 21 2018, 16:28:52 Dunce - Divine Power (2007)
320
Register
(1) avkruchinin,
Mar 21 2018, 16:28:28 Dunce - Salem Witches [demo] (1992)
Register
(2) pichileon, thenecromancer,
Mar 20 2018, 13:33:13 Глоток Спермы - Грайнд Kор Aлілуя (2012)
320
Register
(1) varlam4,
Mar 20 2018, 13:32:54 Глоток Спермы - Бодрость (2011)
Register
(1) varlam4,
Mar 20 2018, 13:28:07 Глоток Спермы - Спермотоксикоз (2015)


*Artist: Глоток Спермы
*Album: Спермотоксикоз
*Year: 2015
*Genre: Grindcore
*Country: Ukraine
*Format: mp3@CBR320kbps
*Size: 58MB

Tracklist:
1. Глоток спермы 01:05
2. Подрочи и всё пройдёт 01:52
3. Работай на работе до смерти 01:53
4. Сперма ей к лицу 01:45
5. Пять сантиметров 01:33
6. Рождённый быть дочерью 02:40
7. Загадочный инструмент 00:50
8. Какария 02:15
9. Мама у меня СПИД 01:28
10. Все девственницы попадают в ад! 01:29
11. Ненасытная и безотказная 01:12
12. Бухло и бляди 01:31
13. Ковёр-вертолёт (Агата Кристи cover) 02:49
14. Какария (special version) 02:19
15. Dubstep уже устарел 01:15
******************************
Total playing time: 25:56

[more=Technical info]
Input File: 06. Рожденный быть дочерью.mp3
Channels : 2
Sample Rate : 44100
Precision : 16-bit
Duration : 00:02:40.10 = 7060234 samples = 12007.2 CDDA sectors
File Size : 6.41M
Bit Rate : 320k
Sample Encoding: MPEG audio (layer I, II or III)

[/more]

Register
(5) infiltrator, Nattfodd, Rosen, VALERY, varlam4,
Mar 20 2018, 13:26:59 Глоток Спермы - Заебись (2014)


*Artist: Глоток Спермы
*Album: Заебись
*Year: 2014
*Genre: Grindcore
*Country: Ukraine
*Format: mp3@CBR320kbps
*Size: 53MB

Tracklist:
1. Till Lindemann смотрит порно 01:18
2. Инкубатор запорожских кастрированых metal групп 01:11
3. Поджигатель шлюх 01:37
4. Между ног 01:17
5. Red Hot Cannibal Chili Corpse 01:54
6. Клоун без причины 02:17
7. Доктор Кунилингус 01:12
8. Еврейский Ад 01:31
9. З.О.Ж. патруль 01:11
10. Жанглёр сатанист 01:05
11. Долгий миньет на прощание 01:48
12. Приговорённая к оргазму (live) 00:56
13. Grind Core аллилуя (live) 01:58
14. Лысина Ансельмо (live) 00:44
15. Sexy (live) 01:42
******************************
Total playing time: 21:41

[more=Technical info]
Input File: 06. Клоун без причины.mp3
Channels : 2
Sample Rate : 44100
Precision : 16-bit
Duration : 00:02:17.32 = 6055592 samples = 10298.6 CDDA sectors
File Size : 6.14M
Bit Rate : 358k
Sample Encoding: MPEG audio (layer I, II or III)
Comment : 'Tracknumber=06'

[/more]

Register
(5) deadterror, infiltrator, Rosen, VALERY, varlam4,
Mar 15 2018, 12:03:53 Ripped - Blotter (1991)
Register
192
(1) METALHUNTER,

17 Pages V   1 2 3 > » 
- Lo-Fi Version Support form
Copyrights and abuse reports form
Time is now: 22nd May 2018 - 17:01:35