Welcome Guest ( Log In | Register )

История благодарностей участнику RotAnus ::: Спасибо сказали: 2883 раз(а)
Дата поста: В теме: За сообщение: Спасибо сказали:
Yesterday, 11:34:56 Amordeum - Demo [demo] (2001)
Register
(1) thenecromancer,
Nov 18 2019, 11:38:05 Water Into Blood - Become The Disease (2018)


*Artist: Water Into Blood
*Album: Become The Disease
*Year: 2018
*Genre: Groove/Death Metal/Hardcore
*Country: United States
*Format: mp3@CBR320kbps
*Size: 85MB

Tracklist:
1. Bitter End 02:26
2. Warrior Culture 03:01
3. Hell is Red 02:00
4. Kalopsia. Malison. Threnody. 05:00
5. Meat 03:48
6. Disrupters 03:58
7. Become The Disease 04:19
8. Interlude in B Minor 05:02
9. Solaromancy II 07:23
******************************
Total playing time: 36:57




[more=Technical info]
Input File: 6 - Disrupters.mp3
Channels : 2
Sample Rate : 44100
Precision : 16-bit
Duration : 00:03:58.49 = 10517277 samples = 17886.5 CDDA sectors
File Size : 9.54M
Bit Rate : 320k
Sample Encoding: MPEG audio (layer I, II or III)
Comments :
Title=Disrupters
Artist=Water Into Blood
Album=Become The Disease
Tracknumber=6
Year=2018
Genre=Metal

[/more]

Register
(1) Ostinato,
Nov 7 2019, 13:06:24 Benoint - Rebirth In Reverse [ep] (1999)


*Artist: Benoint
*Album: Rebirth In Reverse [ep]
*Year: 1999
*Genre: Sludge/Doom Metal
*Country: United States
*Format: mp3@CBR320kbps
*Size: 50MB

Tracklist:
1. Koan 05:15
2. Divine 03:37
3. Water Door 08:02
4. Tussinfection 04:48
******************************
Total playing time: 21:42

[more=Technical info]
Input File: 2 - Divine.mp3
Channels : 2
Sample Rate : 44100
Precision : 16-bit
Duration : 00:03:37.75 = 9602599 samples = 16331 CDDA sectors
File Size : 8.72M
Bit Rate : 320k
Sample Encoding: MPEG audio (layer I, II or III)
Comments :
Title=Divine
Artist=Benoint
Album=Rebirth in Reverse
Tracknumber=02
Year=1999
Genre=sludge/stoner

[/more]

Register
(6) marilin, Olethros, Rosen, stub888, stumpheavyrock, VALERY,
Nov 6 2019, 14:10:45 Hejtman & Bajonet & Tyranizer & Hellocaustor - Underground Elite 2013 [split] (2013)


*Artist: Hejtman & Bajonet & Tyranizer & Hellocaustor
*Album: Underground Elite 2013 [split]
*Year: 2013
*Genre: Crust'n'roll | Thrash Metal | Thrash/Death Metal | Thrash Metal
*Country: Czech Republic | Czech Republic | Czech Republic | Czech Republic
*Format: mp3@CBR320kbps
*Size: 120MB

Tracklist:
Hejtman:
1. Bloodlines 04:18
2. This Is Their Fault 04:28
3. Deadly Force 02:54
4. Don't Trust Unturned Cross 02:44
Bajonet:
5. Matka jara 01:32
6. Masakra 01:15
7. Gangréna 01:45
8. Marie z Lazaretu 01:53
9. Stalingrad 01:22
Tyranizer:
10. Teror 04:29
11. Posedlost 03:50
12. Zabij! 04:05
Hellocaustor:
13. Ničitel světů 05:25
14. V.R.A.Ž.D.A. 03:53
15. Příchod kosmického zla 04:25
16. Hellocaustor II 04:20
******************************
Total playing time: 52:38

[more=Technical info]
Input File: 06.Bajonet-Masakra.mp3
Channels : 2
Sample Rate : 44100
Precision : 16-bit
Duration : 00:01:13.77 = 3253433 samples = 5533.05 CDDA sectors
File Size : 2.95M
Bit Rate : 320k
Sample Encoding: MPEG audio (layer I, II or III)
Comments :
Title=Masakra
Artist=Bajonet
Album=Underground Elite 2013 (Split)
Tracknumber=6
Year=2013
Genre=Metal

[/more]

Register
(6) A.L.Rapsod, boby9052, Olethros, Rosen, stumpheavyrock, Wail,
Oct 30 2019, 19:17:51 Hammer Of The Gods - Hammer Of The Gods (1997)
320
Register
(1) stumpheavyrock,
Oct 30 2019, 11:55:34 Big Iron - Tierra Del Diablo (1997)


*Artist: Big Iron
*Album: Tierra Del Diablo
*Year: 1997
*Genre: Groove Metal
*Country: United States
*Format: mp3@CBR320kbps
*Size: 108MB

Tracklist:
1. Suffocation 04:16
2. The Black Sheep Excuse 04:00
3. Closet 05:35
4. Soul of a Twenty-Two Year Old Lover 03:07
5. Beautiful Life 04:38
6. Individious Exhibition 03:03
7. Slow Southern Crawl 02:50
8. Crush in a Mudfield 03:14
9. Confidence Man 03:39
10. Politics of Intimidation 03:20
11. Feel 04:35
12. Sometimes 02:48
13. Wallflower 02:15
******************************
Total playing time: 47:20



[more=Technical info]
Input File: 09 - Confidence Man.mp3
Channels : 2
Sample Rate : 44100
Precision : 16-bit
Duration : 00:03:39.44 = 9677436 samples = 16458.2 CDDA sectors
File Size : 8.78M
Bit Rate : 320k
Sample Encoding: MPEG audio (layer I, II or III)
Comments :
Title=Confidence Man
Artist=Big Iron
Album=Tierra del Diablo
Tracknumber=9
Year=1997
Genre=Groove Metal

[/more]

Register
(4) boby9052, infiltrator, Olethros, Rosen,
Oct 27 2019, 15:34:41 Mose Giganticus - Gift Horse (2010)
Register
(1) Герб,
Oct 23 2019, 11:29:25 Act Of Aggression - First Blood: Attack Of The Chubby Rubber Death Squad [ep] (2014)


*Artist: Act Of Aggression
*Album: First Blood: Attack Of The Chubby Rubber Death Squad [ep]
*Year: 2014
*Genre: Groove Metal
*Country: United States
*Format: mp3@CBR320kbps
*Size: 68MB

Tracklist:
1. Predestined 5:06
2. Strive 3:01
3. Forgotten 5:28
4. Fifth Column 4:45
5. Craving Myotonic 6:36
6. Confession 4:52
******************************
Total playing time: 29:48




[more=Technical info]
Input File: 06 - Confession.mp3
Channels : 2
Sample Rate : 44100
Precision : 16-bit
Duration : 00:04:52.67 = 12906703 samples = 21950.2 CDDA sectors
File Size : 11.7M
Bit Rate : 320k
Sample Encoding: MPEG audio (layer I, II or III)
Comments :
Title=Confession
Artist=Act of Aggression
Album=First Blood: Attack of the Chubby Rubber Death Squad
Tracknumber=6
Year=2014

[/more]

Register
(5) artscald, boby9052, Olethros, Rosen, stumpheavyrock,
Oct 22 2019, 11:57:18 Caelestis - Demo 2007 [demo] (2007)


*Artist: Caelestis
*Album: Demo 2007 [demo]
*Year: 2007
*Genre: Death Metal
*Country: Hungary
*Format: mp3@CBR256kbps
*Size: 20MB

Tracklist:
1. Leszáll az éj
2. Véred Véremmé Vált
3. Segits
******************************
Total playing time: 11:42

[more=Technical info]
Input File: 3 segíts.mp3
Channels : 2
Sample Rate : 44100
Precision : 16-bit
Duration : 00:04:15.38 = 11262082 samples = 19153.2 CDDA sectors
File Size : 8.17M
Bit Rate : 256k
Sample Encoding: MPEG audio (layer I, II or III)
Comments :
Title=segíts
Artist=Caelestis
Genre=Other

[/more]

Register
(8) artscald, chipsgott, Hell_Is_Here, Olethros, Rosen, scorpionmk, wanderer73, Герб,
Oct 21 2019, 11:28:06 Midnight Tears - Dr. Plague [ep] (2019)


*Artist: Midnight Tears
*Album: Dr. Plague [ep]
*Year: 2019
*Genre: Doom/Groove Metal
*Country: Hungary
*Format: mp3@CBR320kbps
*Size: 47MB

Tracklist:
1. Scream 02:47
2. Russian Roulette 05:19
3. Dr. Plague 04:59
4. Invisible Wings 04:20
5. Hundred's Faith 02:56
******************************
Total playing time: 20:21




[more=Technical info]
Input File: 01 - Scream.mp3
Channels : 2
Sample Rate : 44100
Precision : 16-bit
Duration : 00:02:47.64 = 7392924 samples = 12573 CDDA sectors
File Size : 6.79M
Bit Rate : 324k
Sample Encoding: MPEG audio (layer I, II or III)
Comments :
Title=Scream
Artist=Midnight Tears
Album=Dr. Plague (EP)
Tracknumber=1
Year=2019

[/more]

Register
(7) artscald, fallen, infiltrator, Olethros, Rosen, stumpheavyrock, VALERY,
Oct 6 2019, 09:55:42 Mindfak - Wierutny (2019)


*Artist: Mindfak
*Album: Wierutny
*Year: 2019
*Genre: Groove Metal
*Country: Poland
*Format: mp3@CBR320kbps
*Size: 68MB

Tracklist:
1. Kroczy leszy 03:17
2. Latarnik 02:46
3. Łowca czarownic 04:12
4. Świt ciemności 03:40
5. Flauta 01:27
6. Scheda 04:05
7. Będziemy straszy 03:01
8. Bagno 04:10
9. Kolor z przestworzy 02:47
******************************
Total playing time: 29:25




[more=Technical info]
Input File: 06 - Scheda.mp3
Channels : 2
Sample Rate : 44100
Precision : 16-bit
Duration : 00:04:05.67 = 10834135 samples = 18425.4 CDDA sectors
File Size : 10.1M
Bit Rate : 329k
Sample Encoding: MPEG audio (layer I, II or III)
Comments :
Title=Scheda
Artist=Mindfak
Album=Wierutny
Tracknumber=6
Year=2019
Genre=Groove Metal

[/more]

Register
(6) artscald, chipsgott, let4ikmiha, Olethros, Rosen, stumpheavyrock,
Oct 6 2019, 09:53:40 Mindfak - Treter Ep [ep] (2016)


*Artist: Mindfak
*Album: Treter Ep [ep]
*Year: 2016
*Genre: Groove Metal
*Country: Poland
*Format: mp3@CBR320kbps
*Size: 48MB

Tracklist:
1. Jestesœmy Wkurwieni
2. Zabijka
3. Lobo
4. Skoczniak
5. Prehistoryczne Psy
******************************
Total playing time: 21:17



[more=Technical info]
Input File: 1 - Jesteśmy Wkurwieni.mp3
Channels : 2
Sample Rate : 44100
Precision : 16-bit
Duration : 00:03:02.68 = 8056364 samples = 13701.3 CDDA sectors
File Size : 7.31M
Bit Rate : 320k
Sample Encoding: MPEG audio (layer I, II or III)
Comments :
Title=Jesteśmy Wkurwieni
Artist=Mindfak
Album=Treter EP
Tracknumber=1
Year=2016
Genre=Groove

[/more]

Register
(4) artscald, chipsgott, Olethros, Rosen,
Oct 3 2019, 11:47:17 454 - Death Rides A Horse (2011)


*Artist: 454
*Album: Death Rides A Horse
*Year: 2011
*Genre: Groove Metal
*Country: United States
*Format: mp3@CBR320kbps
*Size: 114MB

Tracklist:
1. 1972
2. Columbian Necktie
3. Enemy
4. Death Rides A Horse
5. Alco High Yall!
6. Slaves of Ourselves
7. Coont Logic
8. Sheltered Life
9. Crave
10. Creepy Carrie
11. Irrelevant
12. Change
13. Evil Eye
14. Fade Away
******************************
Total playing time: 53:55

[more=Technical info]
Input File: 06 - Slaves of Ourselves.mp3
Channels : 2
Sample Rate : 44100
Precision : 16-bit
Duration : 00:03:26.07 = 9087555 samples = 15455 CDDA sectors
File Size : 8.24M
Bit Rate : 320k
Sample Encoding: MPEG audio (layer I, II or III)
Comments :
Title=Slaves of Ourselves
Artist=454
Album=Death Rides A Horse
Tracknumber=6
Year=2011
Genre=Metal

[/more]

Register
(7) artscald, boby9052, chipsgott, gwar, Olethros, Rosen, stumpheavyrock,
Oct 3 2019, 11:45:53 454 - Pound (2004)


*Artist: 454
*Album: Pound
*Year: 2004
*Genre: Groove Metal
*Country: United States
*Format: mp3@CBR320kbps
*Size: 117MB

Tracklist:
1. Fall
2. Dead But Not
3. Third Born
4. Killing Me
5. Fade
6. Stain
7. Dear Tommarow
8. Digit Too
9. Cold
10. Choke
11. Brick By Brick
12. My Other Life
13. Disskys
14. Wrong
15. Happy
16. 95%
17. Pigshit
******************************
Total playing time: 58:00

[more=Technical info]
Input File: 06 - Stain.mp3
Channels : 2
Sample Rate : 44100
Precision : 16-bit
Duration : 00:04:18.76 = 11411448 samples = 19407.2 CDDA sectors
File Size : 11.5M
Bit Rate : 357k
Sample Encoding: MPEG audio (layer I, II or III)
Comments :
Title=Stain
Artist=454
Album=Pound
Tracknumber=06
Year=2004

[/more]

Register
(7) artscald, boby9052, chipsgott, gwar, infiltrator, Olethros, Rosen,
Oct 2 2019, 10:45:08 Seid - Darkness Shall Fall (2017)
Register
(2) Ludwig Hagen, morbidangelo,
Oct 2 2019, 10:40:24 Seid - Neocrome 1992-1995 [ep] (2018)


*Artist: Seid
*Album: Neocrome 1992-1995 [ep]
*Year: 2018
*Genre: Black/Viking Metal
*Country: Sweden
*Format: mp3@CBR320kbps
*Size: 44MB

Tracklist:
1. The Protector of Doom 03:39
2. Warrior Within 04:58
3. One of the Worst from Jotunheim 03:42
4. Mr. Slash Pierce 03:59
5. Nihilismens Söner 02:56
******************************
Total playing time: 19:14



[more=Technical info]
Input File: 1 - The Protector of Doom.mp3
Channels : 2
Sample Rate : 44100
Precision : 16-bit
Duration : 00:03:39.36 = 9673952 samples = 16452.3 CDDA sectors
File Size : 8.77M
Bit Rate : 320k
Sample Encoding: MPEG audio (layer I, II or III)
Comments :
Title=The Protector of Doom
Artist=SEID
Album=Neocrome 1992-1995 EP
Tracknumber=1
Year=2018
Genre=Black/Viking Metal

[/more]

Register
(17) artscald, Cartman223, craP_cillA, Ildjarn, Ludwig Hagen, Moonshtook, morbidangelo, Olethros, Rosen, satanist666, sergsazan, SilentNidhogg, stub888, supremo, Surt, vasiljev_sergej, Xutun,
Oct 1 2019, 13:09:22 Krack - Heaven In Return [ep] (2018)


*Artist: Krack
*Album: Heaven In Return [ep]
*Year: 2018
*Genre: Deathcore
*Country: Indonesia
*Format: mp3@CBR256kbps
*Size: 38MB

Tracklist:
1. Endless Thrill 04:36
2. Product of Power 03:58
3. Heaven in Return 05:00
4. Upheavel 03:41
5. Enmity & Servant 03:32
******************************
Total playing time: 20:47

[more=Technical info]
Input File: 1. Endless Thrill.mp3
Channels : 2
Sample Rate : 44100
Precision : 16-bit
Duration : 00:04:36.10 = 12176186 samples = 20707.8 CDDA sectors
File Size : 8.91M
Bit Rate : 258k
Sample Encoding: MPEG audio (layer I, II or III)
Comments :
Title=Endless Thrill
Artist=Krack
Album=Heaven in Return
Tracknumber=1
Year=2018
Genre=Deathcore

[/more]

Register
(4) artscald, infiltrator, Olethros, Rosen,
Oct 1 2019, 13:08:26 Krack - Vicious Circle (2013)


*Artist: Krack
*Album: Vicious Circle
*Year: 2013
*Genre: Deathcore
*Country: Indonesia
*Format: mp3@CBR128kbps
*Size: 32MB

Tracklist:
1. Sculpture 01:49
2. Mutually Constructed 05:13
3. Land of Misery 05:07
4. Psikis Nominal 04:00
5. Infection 04:35
6. Absence of Existential 01:52
7. Decentralized 01:53
8. Doomsayer (Hatebreed cover) 03:38
9. Manipulated Will 04:15
10. Unconscious 03:24
******************************
Total playing time: 35:46

[more=Technical info]
Input File: 06. Absence of Existential.mp3
Channels : 2
Sample Rate : 44100
Precision : 16-bit
Duration : 00:01:52.61 = 4965925 samples = 8445.45 CDDA sectors
File Size : 1.89M
Bit Rate : 134k
Sample Encoding: MPEG audio (layer I, II or III)
Comments :
Title=Absence of Existential
Artist=Krack
Album=Vicious Circle
Tracknumber=6
Genre=Deathcore

[/more]

Register
(3) infiltrator, Olethros, Rosen,
Sep 28 2019, 10:45:03 Pain Is - Pain Is [ep] (2019)


*Artist: Pain Is
*Album: Pain Is [ep]
*Year: 2019
*Genre: Groove Metal
*Country: Austria
*Format: mp3@CBR320kbps
*Size: 46MB

Tracklist:
1. All Hell Breaks Loose 04:02
2. Never Walk Alone 03:59
3. Don't Put the Blame on Me 04:08
4. Making Me Happy 04:00
5. Don't Let Us Down (remastered) 04:03
******************************
Total playing time: 20:12





[more=Technical info]
Input File: 1 All Hell Breaks Loose.mp3
Channels : 2
Sample Rate : 48000
Precision : 16-bit
Duration : 00:04:02.89 = 11658720 samples ~ 18216.8 CDDA sectors
File Size : 9.72M
Bit Rate : 320k
Sample Encoding: MPEG audio (layer I, II or III)
Comments :
Title=All Hell Breaks Loose
Artist=Pain Is
Album=Pain Is (EP)
Tracknumber=1
Year=2019
Genre=Groove Metal

[/more]

Register
(8) artscald, boby9052, chipsgott, infiltrator, Olethros, robertho777, Rosen, wreak,
Sep 15 2019, 19:51:32 Extinction Protocol - Aeonic Obliteration (2013)
Register
(2) nikolay81, SyncestrA,
Sep 8 2019, 11:37:44 Cerebral Enema - Erase The Human Dung (2019)
Register
(1) morbidangelo,
Sep 8 2019, 11:37:21 Cerebral Enema - Amateur Porn [demo] (2017)
Register
(1) morbidangelo,
Sep 8 2019, 11:36:57 Cerebral Enema - Demo 2014 [demo] (2014)
Register
(1) morbidangelo,
Sep 8 2019, 11:34:11 Sewer - Gore Groovy Madness [ep] (2015)


*Artist: Sewer
*Album: Gore Groovy Madness [ep]
*Year: 2015
*Genre: Groovy Goregrind
*Country: Brazil
*Format: mp3@CBR320kbps
*Size: 33MB

Tracklist:
1. Morlock's Crocodile Orgy 03:05
2. Slaughter With Bored Eyes 01:51
3. Coq Beach Sewer Mermaid 02:51
4. Endless Dirt Path 02:03
5. Merde's Payback 02:34
6. Underworld Rat King 01:59
******************************
Total playing time: 14:23

[more=Technical info]
Input File: 06 Underworld Rat King.mp3
Channels : 2
Sample Rate : 44100
Precision : 16-bit
Duration : 00:01:59.36 = 5263776 samples = 8952 CDDA sectors
File Size : 4.97M
Bit Rate : 333k
Sample Encoding: MPEG audio (layer I, II or III)
Comments :
Title=Underworld Rat King
Artist=Sewer
Album=GORE GROOVY MADNESS
Tracknumber=6
Year=2015

[/more]

Register
(5) infiltrator, Olethros, Orkkh, Rosen, Герб,
Sep 8 2019, 11:29:38 Bizarre Ejaculation & Bowel Evacuation & Cerebral Enema & Anal Fistfuckers & Hxmxrxs & Gecinyelő - 6 X Kotstulle Zum Mitnehmen [split] (2016)


*Artist: Bizarre Ejaculation & Bowel Evacuation & Cerebral Enema & Anal Fistfuckers & Hxmxrxs & Gecinyelő
*Album: 6 X Kotstulle Zum Mitnehmen [split]
*Year: 2017
*Genre: Groovy Porno Goregrind | Coprogrind | Groovy Goregrind | Coprogrind | Porngrind | Porngrind
*Country: Mexico | Germany | Germany | Germany | Germany | Hungary
*Format: mp3@CBR320kbps
*Size: 130MB

Tracklist:
Bizarre Ejaculation:
1. Midget Fucking Olympics 01:59
2. Genital Apotemnophilia 01:39
3. Infibulated, Sodomised and Crucified 01:48
4. Pornobsession 01:33
5. Frenzied Facefuck Fanatic 01:29
Bowel Evacuation:
6. Human Toilet 03:01
7. Oh Mein Gott, Wie Soll Der Denn Da Rein? 02:14
8. Blowjob Von Hinten 02:36
9. Cuntfleshfilet - Fastfood vs. Slowfood 02:45
Cerebral Enema:
10. Eintauchen in den Plasmapool 02:32
11. Paranormal Virginity 01:16
12. Wiwi´s of Flesh and Blood 01:51
13. Foetus Blaster 01:13
14. I Am Orphancrippler 02:13
15. Zombie Apocalypse (Mortician cover) 02:53
Anal Fistfuckers:
16. Scat Wizard 00:31
17. Das Besteigen Der Lammer 01:07
18. Liebling, Ich habe die Kinder Gefickt 01:12
19. Die Verhurte Krankenschwester (Rektal Fetus cover) 01:18
20. LSD Anusrakete 01:08
21. Scatnado 00:57
22. Torso (Machetazo cover) 01:31
23. Scatnado (Demo 2009) 00:58
HxMxRxS:
24. Fame Bitch Fuck for Fameness 02:02
25. Fistfucking Fury 01:44
26. Kick in her Teeth (Toothless Blowjob) 00:15
27. Black Metal ist Kot 00:43
28. Cancer Dancer 00:37
29. Bitchslap the Unborn 01:52
30. Peewatch 00:39
31. Vomit Dolls Rape Bonanza 02:06
32. Living (2 Minute Dreka cover) 00:08
33. Die in Pain (Carcass cover) 00:10
34. You Suffer (Napalm Death cover) 00:09
Gecinyelő:
35. Cumlett 01:35
36. Menstrual Cupcakes 01:24
37. Xenophilic Desires 01:51
38. Night of the Titsuckers 01:45
39. Dildozer 02:20
******************************
Total playing time: 59:04

[more=Technical info]
Input File: 06 Bowel Evacuation - Human Toilet.mp3
Channels : 2
Sample Rate : 44100
Precision : 16-bit
Duration : 00:03:00.57 = 7963181 samples = 13542.8 CDDA sectors
File Size : 7.22M
Bit Rate : 320k
Sample Encoding: MPEG audio (layer I, II or III)
Comments :
Title=Human Toilet
Artist=Bowel Evacuation
Album=6 x Kotstulle Zum Mitnehmen (Split)
Tracknumber=6

[/more]

Register
(9) artscald, craP_cillA, infiltrator, morbidangelo, Persian Gorgrinder, Rosen, uk82, wreak, Герб,

26 Pages V   1 2 3 > » 
- Lo-Fi Version Support form
Copyrights and abuse reports form
Time is now: 20th November 2019 - 02:35:39