Welcome Guest ( Log In | Register )

История благодарностей участнику RotAnus ::: Спасибо сказали: 1837 раз(а)
Дата поста: В теме: За сообщение: Спасибо сказали:
Aug 12 2018, 15:57:20 Zorra - El Tiempo Hace Estragos En La Gratitud... (2016)


*Artist: Zorra
*Album: El Tiempo Hace Estragos En La Gratitud...
*Year: 2016
*Genre: Heavy/Groove Metal
*Country: Argentina
*Format: mp3@CBR320kbps
*Size: 88MB

Tracklist:
1. El Tiempo Hace Estragos 2:01
2. La Intolerancia Gana por Goleada 3:39
3. Ciempies de Amor y Muerte 3:09
4. Alpiste 3:48
5. Empatia 4:13
6. El Costillar 4:22
7. La Calesita de la Mentira 1:13
8. Romper y Destruir 3:21
9. Tiragente 4:03
10. Actitud Sustituyente 3:11
11. La Envidia del Panzon 3:04
12. Saber 3:31
13. Pogo en el Ascensor (Pilsen) 2:57
14. Segundo Trago 2:08
******************************
Total playing time: 44:40

[more=Technical info]
Input File: 06 Romper y Destruir.mp3
Channels : 2
Sample Rate : 44100
Precision : 16-bit
Duration : 00:03:21.62 = 8891398 samples = 15121.4 CDDA sectors
File Size : 9.15M
Bit Rate : 363k
Sample Encoding: MPEG audio (layer I, II or III)
Comments :
Title=Romper y Destruir
Artist=Zorra
Album=El Tiempo hace estragos en la Gratitud
Tracknumber=6
Year=2016-06-07
Genre=9
Discnumber=2

[/more]

Register
(1) Rosen,
Aug 12 2018, 14:55:53 Meat Spreader - A Swarm Of Green Flies Over The Rusty Pot (2018)


*Artist: Meat Spreader
*Album: A Swarm Of Green Flies Over The Rusty Pot
*Year: 2018
*Genre: Goregrind
*Country: Poland
*Format: mp3@CBR320kbps
*Size: 70MB

Tracklist:
1. Disturbing Stench From Butchers Below
2. His Guts Were Pulled Out By Hungry Pigs
3. Shredded Alive
4. Popping Sound Of Rectal Prolapse
5. Saturday's Night Acid Shower
6. Something Smells Like Silent Fart
7. Meat Spreader
8. Frozen. Trapped. Cannibalised
9. Uterine Derangement
10. A Man Who Falls Into The Boiling Septic Tank
11. I Was Tempted To Eat Purulent Scabs
12. Vicious Retard With Dislocated Spinal Cord
13. Frostbite Gangrene
14. Shit Mixed With Rotten Meat
******************************
Total playing time: 31:48



[more=Technical info]
Input File: 06. Something Smells Like Silent Fart.mp3
Channels : 2
Sample Rate : 44100
Precision : 16-bit
Duration : 00:01:38.85 = 4359373 samples = 7413.9 CDDA sectors
File Size : 3.96M
Bit Rate : 320k
Sample Encoding: MPEG audio (layer I, II or III)
Comments :
Title=Something Smells Like Silent Fart
Artist=Meat Spreader
Album=A Swarm Of Green Flies Over The Rusty Pot
Tracknumber=6
Year=2018
Genre=Goregrind

[/more]

Register
(6) Antichrist696, jollo, metala, MP101M, Rosen, vyacheslav,
Aug 6 2018, 10:15:26 Vigoorian - Driven By The Demons [demo] (2011)
Register
(1) varg-38ru,
Aug 6 2018, 10:14:27 Vigoorian - Warriors Of The Eternal Cosmos [demo] (2010)
Register
(1) varg-38ru,
Aug 4 2018, 14:23:52 Stomoxys - Uno Para Vivir, Uno Para Morir (2018)


*Artist: Stomoxys
*Album: Uno Para Vivir, Uno Para Morir
*Year: 2018
*Genre: Groove Metal
*Country: Chile
*Format: mp3@CBR320kbps
*Size: 102MB

Tracklist:
01. De Frente
02. Tesla
03. Ritual
04. Máquina Asesina
05. Kara Kara
06. Mentes
07. Pacto
08. Trauma
09. Profecía
10. No Te Dejes Humillar
11. Enjambre
******************************
Total playing time: 44:49




[more=Technical info]
Input File: 06 - Mentes.mp3
Channels : 2
Sample Rate : 44100
Precision : 16-bit
Duration : 00:05:09.55 = 13650935 samples = 23215.9 CDDA sectors
File Size : 12.4M
Bit Rate : 320k
Sample Encoding: MPEG audio (layer I, II or III)
Comments :
Title=Mentes
Artist=Stomoxys
Album=Uno Para Vivir, Uno Para Morir
Tracknumber=6
Year=2018

[/more]

Register
(3) infiltrator, METALHUNTER, Rosen,
Jul 28 2018, 11:29:48 Dead And Dying - The Prosecution Rests (2010)


*Artist: Dead And Dying
*Album: The Prosecution Rests
*Year: 2010
*Genre: Groove Metal/Hardcore
*Country: United States
*Format: mp3@CBR320kbps
*Size: 57MB

Tracklist:
1. Prophecy Of War 3:52
2. Shallow 3:39
3. Father Forgive Me 3:32
4. The Boiling Point 3:36
5. Strength Through Pain 2:51
6. Victim's Impact 3:45
7. ...But Not Forgotten 3:09
8. Ode To A Cunt 1:05
******************************
Total playing time: 25:29



[more=Technical info]
Input File: 6- Victim\'s Impact.mp3
Channels : 2
Sample Rate : 44100
Precision : 16-bit
Duration : 00:03:45.79 = 9957383 samples = 16934.3 CDDA sectors
File Size : 9.03M
Bit Rate : 320k
Sample Encoding: MPEG audio (layer I, II or III)
Comments :
Title=Victim's Impact
Artist=Dead And Dying
Album=The Prosecution Rests
Tracknumber=6
Year=2010
Genre=Metal

[/more]

Register
(4) MeathookSeed, Rosen, terron, Tino,
Jul 21 2018, 17:27:17 Boa - Todo Muere (2018)


*Artist: Boa
*Album: Todo Muere
*Year: 2018
*Genre: Groove Metal
*Country: Chile
*Format: mp3@CBR320kbps
*Size: 94MB

Tracklist:
1. Muerto en vida 01:00
2. Solo 04:26
3. Entierro & olvido 04:38
4. Verdad 04:24
5. Animal de miseria 04:03
6. Desgarrado 04:16
7. Trance 03:58
8. Vacío 05:44
9. Todo muere 05:13
******************************
Total playing time: 37:42



[more=Technical info]
Input File: 06 Desgarrado.mp3
Channels : 2
Sample Rate : 44100
Precision : 16-bit
Duration : 00:04:17.29 = 11346357 samples = 19296.5 CDDA sectors
File Size : 10.6M
Bit Rate : 331k
Sample Encoding: MPEG audio (layer I, II or III)
Comments :
Title=Desgarrado
Artist=BOA
Album=Todo Muere
Tracknumber=6/9
Year=2018
Genre=Groove Metal
Discnumber=1/1

[/more]

Register
(3) infiltrator, METALHUNTER, Rosen,
Jul 21 2018, 17:09:20 Cabron - Cabron (2018)


*Artist: Cabron
*Album: Cabron
*Year: 2018
*Genre: Groove Metal
*Country: Mexico
*Format: mp3@CBR320kbps
*Size: 73MB

Tracklist:
1. Chiknaui
2. Bazooka
3. The Hum
4. Paria
5. Cabrón
6. Loco Latino
7. Fuego
8. Tribus
9. Sol De Cobre
10. Satanás
******************************
Total playing time: 30:40



[more=Technical info]
Input File: 06 Loco Latino.mp3
Channels : 2
Sample Rate : 44100
Precision : 16-bit
Duration : 00:04:12.57 = 11138293 samples = 18942.7 CDDA sectors
File Size : 10.7M
Bit Rate : 340k
Sample Encoding: MPEG audio (layer I, II or III)
Comments :
Title=Loco Latino
Artist=Cabron
Album=Cabron
Tracknumber=6/10
Year=2018
Genre=Metal
Discnumber=1/1

[/more]

Register
(3) infiltrator, METALHUNTER, Rosen,
Jul 17 2018, 12:02:51 战斧 - 深海 (Deep Ocean) (2016)


*Artist: 战斧
*Album: 深海 (Deep Ocean)
*Year: 2016
*Genre: Post-Thrash/Groove Metal
*Country: China
*Format: mp3@VBR280kbps
*Size: 84MB

Tracklist:
1. Intro 01:56
2. 最后的星期天 04:21
3. 野兽 03:55
4. 深海 04:09
5. 双重罪 04:58
6. 天葬 05:14
7. 没人能阻挡我 04:37
8. 美丽的世界 04:45
9. 平行空间 03:56
10. 这就是现在 04:18
******************************
Total playing time: 42:09

[more=Technical info]
Input File: 06 - 天葬.mp3
Channels : 2
Sample Rate : 44100
Precision : 16-bit
Duration : 00:05:15.25 = 13902305 samples = 23643.4 CDDA sectors
File Size : 10.8M
Bit Rate : 275k
Sample Encoding: MPEG audio (layer I, II or III)
Comments :
Title=天葬
Artist=战斧(Tomahawk)
Album=深海 (Deep Ocean)
Tracknumber=6
Year=2016
Genre=Groove Metal

[/more]

Register
(6) infiltrator, METALHUNTER, Rosen, SyncestrA, terron, WX419,
Jul 16 2018, 11:05:38 Manhunt - Fake [ep] (2008)
VBR~203
Register
(2) artscald, METALHUNTER,
Jul 16 2018, 10:57:05 Manhunt - The Conquerors: Anthem [ep] (2016)
Register
(2) artscald, wgs73,
Jul 15 2018, 12:08:14 Motherboar - The Beast Becomes The Servant (2011)
Register
(1) Ostinato,
Jul 15 2018, 12:07:52 Motherboar - Raise The Death Toll (2006)
Register
VBR~230
(1) Ostinato,
Jul 14 2018, 17:24:56 Женский вокал в дэте
Liquid Graveyard
(1) Decapitated,
Jul 11 2018, 13:17:41 Apocalipsis & Puño De Hierro & Sacrilegio & Auster & Bestial Invasion - Explosión Metálica [split] (1988)


*Artist: Apocalipsis & Puño De Hierro & Sacrilegio & Auster & Bestial Invasion
*Album: Explosión Metálica [split]
*Year: 1988
*Genre: Heavy/Speed/Power Metal | Power/Speed Metal | Heavy Metal | Heavy Metal | Thrash Metal
*Country: Mexico | Mexico | Mexico | Mexico | Mexico
*Format: mp3@CBR160kbps
*Size: 36MB

Tracklist:
1. Apocalipsis - Piloto Infernal 02:54
2. Bestial Invasion - Exiliado de Sodoma 03:17
3. Puño de Hierro - Caballero Tigre 03:13
4. Sacrilegio - Entes de la Maldad 03:18
5. Auster - Hombre de Metal 03:47
6. Puño de Hierro - Bonokor (La Justicia Divina) 03:37
7. Sacrilegio - Robot 02:40
8. Apocalipsis - Siente el Rock 02:53
9. Auster - Hey, Hey (Ya es Tiempo) 03:19
10. Bestial Invasion - En las Sombras 03:02
******************************
Total playing time: 32:00

[more=Technical info]
Input File: 06 Puño de Hierrro - Bonokor (La Justicia Divina).mp3
Channels : 1
Sample Rate : 48000
Precision : 16-bit
Duration : 00:03:34.06 = 10274688 samples ~ 16054.2 CDDA sectors
File Size : 4.28M
Bit Rate : 160k
Sample Encoding: MPEG audio (layer I, II or III)
Comments :
Title=Puño de Hierrro - Bonokor (La Justicia Divina)
Artist=Discos Gas
Album=Explosión Metálica
Tracknumber=6/10
Year=1988
Genre=Heavy Metal

[/more]

Register
(6) FUDEDOR, infiltrator, Lanceatum, pichileon, Rosen, wgs73,
Jul 10 2018, 08:51:21 Вольга - Солнцеславие (2018)


*Artist: Вольга
*Album: Солнцеславие
*Year: 2018
*Genre: Folk/Groove Metal
*Country: Russian Federation
*Format: mp3@CBR320kbps
*Size: 86MB

Tracklist:
1. Грезилось 02:51
2. Солнцеславие 05:22
3. Жаворонки 04:21
4. Как по горам 01:45
5. Ветры 04:11
6. Стрижочки 05:02
7. Сварожич 02:36
8. Роса 04:48
9. Полдень 04:45
10. Родник 04:22
******************************
Total playing time: 40:03


Preview 2

[more=Technical info]
Input File: 06. Стрижочки.mp3
Channels : 2
Sample Rate : 44100
Precision : 16-bit
Duration : 00:05:02.67 = 13347923 samples = 22700.5 CDDA sectors
File Size : 12.2M
Bit Rate : 322k
Sample Encoding: MPEG audio (layer I, II or III)
Comments :
Title=Стрижочки
Artist=Вольга
Album=Солнцеславие
Tracknumber=06
Year=2018
Genre=Folk Metal

[/more]

Register
(8) Aresson, Cartman223, csgmnk, djsema4, gwar, infiltrator, Moonshtook, Луч,
Jun 28 2018, 12:59:01 Attack - Kill Your Fear (1998)


*Artist: Attack
*Album: Kill Your Fear
*Year: 1998
*Genre: Thrash Metal
*Country: Czech Republic
*Format: mp3@CBR320kbps
*Size: 113MB

Tracklist:
1. Udavač 5:30
2. Ne! 4:39
3. Věrni Zůstaneme 4:48
4. Kill Your Fear 3:32
5. Lynč 3:36
6. Krysy 4:02
7. Zrozen V Ohni 9:42
8. Pouta Krve 4:57
9. Hněv 4:15
10. Tomorrow Belongs To Us 2:30
******************************
Total playing time: 47:31

[more=Technical info]
Input File: 06. Krysy.mp3
Channels : 2
Sample Rate : 44100
Precision : 16-bit
Duration : 00:04:01.89 = 10667129 samples = 18141.4 CDDA sectors
File Size : 9.68M
Bit Rate : 320k
Sample Encoding: MPEG audio (layer I, II or III)
Comments :
Title=Krysy
Artist=Attack
Album=Kill your Fear
Tracknumber=06

[/more]

Register
(10) boby9052, ExeThrash, metala, METALHUNTER, pichileon, Proteus_666, Rosen, SymbyoticEntity, wgs73, wreak,
Jun 28 2018, 11:20:06 Silent Scream - Serenades Of Fear (2005)


*Artist: Silent Scream
*Album: Serenades Of Fear
*Year: 2005
*Genre: Power/Speed Metal
*Country: Germany
*Format: mp3@CBR320kbps
*Size: 145MB

Tracklist:
1. Follow Me
2. Your Pain
3. Sea of Life
4. To Live Means to Die
5. Meus Venenum Te Comburebit
6. Private Enemy
7. I Need More
8. I Can't Run
9. Surgical Strikes
10. Running for the Night
11. Rebellion
12. Beyond the Silence
13. Rain
14. Have No Fear
******************************
Total playing time: 1:05:49

Preview 1

[more=Technical info]
Input File: 01 - Follow Me.mp3
Channels : 2
Sample Rate : 44100
Precision : 16-bit
Duration : 00:03:24.12 = 9001648 samples = 15308.9 CDDA sectors
File Size : 8.17M
Bit Rate : 320k
Sample Encoding: MPEG audio (layer I, II or III)
Comments :
Title=Follow Me
Artist=Silent Scream
Album=Serenades of Fear

[/more]

Register
(9) aviacademy, Druidir, DTGB, gwar, metala, Mogozoz, Rosen, Rover, wreak,
Jun 27 2018, 17:16:28 Casi Humano - Biorevolución (2018)


*Artist: Casi Humano
*Album: Biorevolución
*Year: 2018
*Genre: Thrash/Groove Metal
*Country: Argentina
*Format: mp3@CBR320kbps
*Size: 72MB

Tracklist:
1. Imponiendo fe 04:04
2. Rencor 03:15
3. 192 04:46
4. Biorevolución 03:05
5. Cicatrices 05:56
6. Romper fronteras 04:06
7. Casi humano 02:10
8. A.D.I.C.T.O 03:46
9. Escuchame 03:22
******************************
Total playing time: 34:30



[more=Technical info]
Input File: 06 - Romper Fronteras.mp3
Channels : 2
Sample Rate : 44100
Precision : 16-bit
Duration : 00:04:05.78 = 10838722 samples = 18433.2 CDDA sectors
File Size : 9.94M
Bit Rate : 324k
Sample Encoding: MPEG audio (layer I, II or III)
Comments :
Title=Romper Fronteras
Artist=Casi Humano
Album=Biorevolución
Tracknumber=6/9
Year=2018
Genre=Metal
Discnumber=1/1

[/more]

Register
(5) METALHUNTER, pichileon, Rosen, SymbyoticEntity, wreak,
Jun 25 2018, 11:19:12 Deadpass - AS1 [ep] (2015)
Register
(1) kimkayoung,
Jun 24 2018, 14:39:51 Feraliminal Lycanthropizer - The Ideal Model Of Deviance (2018)


*Artist: Feraliminal Lycanthropizer
*Album: The Ideal Model Of Deviance
*Year: 2018
*Genre: Porno Goregrind
*Country: Russian Federation
*Format: mp3@CBR320kbps
*Size: 55MB

Tracklist:
1. The Apocalyptic Triumph of Vaginal Infernality 01:08
2. The Anal Conception of a Dominant Female 01:36
3. The Dissection of a Vaginal Nerve through Anal Spasm Stimulation 00:22
4. Radical Followers of Vaginoplasty Apologists 01:43
5. The Universal Epidemic of Erectile Dysfunction 01:23
6. Next Song... 00:06
7. The Turborocker, Who Pathetically Enters the Last Gran-Batman of a Discowhore 01:20
8. The Aggressive Masturbation of a Inoffensive Impotent 01:45
9. The Carnal Embrace of Malodorous Cattle Mortuary 02:00
10. The Critical Concentration of Gay Power 01:45
11. The Ceremonial Exhumation of Female Remains in Order to Produce Visual AIDS for Professional Cunnilingus 00:07
12. Dangerous Know-How of a Cynical Proctologist 02:13
13. The Sudden Petrifaction of Intestinal Wastes 01:17
14. The Genital Mutation of a Miserable Gerontofil 01:46
15. The Oral Execution of a Compassionate Sadist 01:05
16. The Deadly Equilibrium of an Elastic Womanizer 01:18
17. Breath (The Prodigy cover) 02:54
******************************
Total playing time: 23:48

[more=Technical info]
Input File: 07 The Turborocker Who Pathetically Enters The Last Gran-Batman Of A Discowhore.mp3
Channels : 2
Sample Rate : 44100
Precision : 16-bit
Duration : 00:01:20.57 = 3553093 samples = 6042.68 CDDA sectors
File Size : 3.22M
Bit Rate : 320k
Sample Encoding: MPEG audio (layer I, II or III)
Comments :
Title=The Turborocker Who Pathetically Enters The Last Gran-Batman Of A Discowhore
Artist=Feraliminal Lycanthropizer
Album=The Ideal Model Of Deviance
Tracknumber=7
Year=2018

[/more]

Register
(5) aa144aa, infiltrator, jollo, Rosen, WX419,
Jun 24 2018, 11:46:22 Arysan - War Made Flesh (2013)


*Artist: Arysan
*Album: War Made Flesh
*Year: 2013
*Genre: Dark/Gothic Metal
*Country: Australia
*Format: mp3@CBR320kbps
*Size: 92MB

Tracklist:
01. Arisen 03:49
02. War Made Flesh 05:48
03. Call Of The North 06:17
04. I Dream 03:32
05. Hollowman 04:33
06. Sacrifice 02:53
07. The Last Sane Man 05:11
08. Solitary Confinement 04:04
******************************
Total playing time: 36:07

[more=Technical info]
Input File: 06. Sacrifice.mp3
Channels : 2
Sample Rate : 44100
Precision : 16-bit
Duration : 00:02:53.21 = 7638341 samples = 12990.4 CDDA sectors
File Size : 6.93M
Bit Rate : 320k
Sample Encoding: MPEG audio (layer I, II or III)
Comments :
Title=Sacrifice
Artist=Arysan
Album=War Made Flesh
Tracknumber=06
Year=2013

[/more]

Register
(9) avkruchinin, Cartman223, csgmnk, infiltrator, metala, Mogozoz, Rosen, VALERY, wreak,
Jun 23 2018, 12:23:02 Guerra - Transmissions Through Oil And Blood (2010)


*Artist: Guerra
*Album: Transmissions Through Oil And Blood
*Year: 2010
*Genre: Thrash/Death Metal/Hardcore
*Country: United States
*Format: mp3@CBR192kbps
*Size: 61MB

Tracklist:
1. Dark Woods Cometh
2. Pathogens
3. Beyond the Hills
4. Anesthesia
5. 2084
6. Subhuman
7. Tweleve Knives
8. Winds of Tomorrow's Empty Promise
9. Homesick
10. House of the Unholy
11. A Glimpse into Perspective
12. Two Steps Over Reason's Edge
******************************
Total playing time: 44:34

[more=Technical info]
Input File: 06-Subhuman.mp3
Channels : 2
Sample Rate : 44100
Precision : 16-bit
Duration : 00:04:26.51 = 11752871 samples = 19987.9 CDDA sectors
File Size : 6.40M
Bit Rate : 192k
Sample Encoding: MPEG audio (layer I, II or III)
Comments :
Title=Subhuman
Artist=Guerra
Album=Transmissions Through Oil and Blood
Tracknumber=6
Year=2010
Genre=Metal

[/more]

Register
(5) boby9052, infiltrator, jollo, Rosen, SyncestrA,
Jun 18 2018, 10:50:06 Slim Grim & The Reaper Bros - Anger Machine [ep] (2016)


*Artist: Slim Grim & The Reaper Bros
*Album: Anger Machine [ep]
*Year: 2016
*Genre: Stoner Metal
*Country: United States
*Format: mp3@VBR275kbps
*Size: 49MB

Tracklist:
1. Hang Me Up 04:26
2. Depression 02:47
3. Till It's Time 03:24
4. Skeletal Ghoul 04:07
5. The Mist 03:19
6. Anger Machine 04:08
******************************
Total playing time: 22:11



[more=Technical info]
Input File: 06 Anger Machine.mp3
Channels : 2
Sample Rate : 44100
Precision : 16-bit
Duration : 00:04:08.71 = 10968155 samples = 18653.3 CDDA sectors
File Size : 8.90M
Bit Rate : 286k
Sample Encoding: MPEG audio (layer I, II or III)
Comments :
Title=Anger Machine
Artist=Slim Grim & The Reaper Bros
Album=Anger Machine
Tracknumber=6
Year=2016

[/more]

Register
(4) Rosen, Sabbathian, stub888, VALERY,
Jun 10 2018, 12:17:40 Dispossessed - Besieged [ep] (2014)


*Artist: Dispossessed
*Album: Besieged [ep]
*Year: 2014
*Genre: Sludge
*Country: United States
*Format: mp3@CBR320kbps
*Size: 48MB

Tracklist:
1. Blood And Oil 07:54
2. The Law 07:23
3. Siege 05:42
******************************
Total playing time: 20:59



[more=Technical info]
Input File: 03 - Siege.mp3
Channels : 2
Sample Rate : 44100
Precision : 16-bit
Duration : 00:05:43.00 = 15126124 samples = 25724.7 CDDA sectors
File Size : 13.9M
Bit Rate : 324k
Sample Encoding: MPEG audio (layer I, II or III)
Comments :
Title=Siege
Artist=Dispossessed
Album=Besieged
Tracknumber=3
Year=2014

[/more]

Register
(6) denver, fishish, marilin, Rosen, stub888, varlam4,

18 Pages V   1 2 3 > » 
- Lo-Fi Version Support form
Copyrights and abuse reports form
Time is now: 21st August 2018 - 20:17:31