Welcome Guest ( Log In | Register )

История благодарностей участнику RotAnus ::: Спасибо сказали: 4199 раз(а)
Дата поста: В теме: За сообщение: Спасибо сказали:
Jan 15 2021, 10:37:34 Egggore - A Journey Into The Mind Of A Psychopath [ep] (2020)


*Artist: Egggore
*Album: A Journey Into The Mind Of A Psychopath [ep]
*Year: 2020
*Genre: Goregrind
*Country: Czech Republic
*Format: mp3@CBR320kbps
*Size: 37MB

Tracklist:
1. Humiliation, Neglect and Emotional Suffering 01:49
2. Inclination to Violence and Manipulation 01:07
3. Sociopathy - Narcissism 00:54
4. Failure to Accept Responsibility 01:23
5. Superficial Charm and Glibness 01:23
6. Inflated Sense of Self - Worth 01:22
7. Borderline Personality Disorder 02:04
8. Lack of Remorse or Guilt 00:46
9. Promiscuous Sexual Behavior 01:32
10. Tender Words Over Dead Bodies 01:40
11. Manifestation on Verrucose Urethra (Carcass Cover) 01:02
******************************
Total playing time: 15:02



[more=Technical info]
Input File: 06 Inflated Sense Of Self - Worth.mp3
Channels : 2
Sample Rate : 44100
Precision : 16-bit
Duration : 00:01:22.63 = 3644115 samples = 6197.47 CDDA sectors
File Size : 3.53M
Bit Rate : 342k
Sample Encoding: MPEG audio (layer I, II or III)
Comments :
Title=Inflated Sense Of Self - Worth
Artist=Egggore
Album=A Journey Into The Mind Of A Psychopath
Tracknumber=06
Year=2020
Genre=Goregrind

[/more]

Register
(1) Olethros,
Jan 13 2021, 15:53:50 Cthuluminati - Reliqideus (2019)
Register
(1) kimkayoung,
Jan 12 2021, 17:38:07 Shiver - Bones.Spirit.Ashes.Madness [ep] (2014)


*Artist: Shiver
*Album: Bones.Spirit.Ashes.Madness [ep]
*Year: 2014
*Genre: Death/Groove Metal
*Country: Israel
*Format: mp3@CBR128kbps
*Size: 19MB

Tracklist:
1. Serve A Purpose 02:47
2. Collecting Parts 02:21
3. Piece Of Us 03:33
4. Preach 03:31
5. Too Much To Bear 04:08
6. Combined (feat. Tiran Ezra of Ferium) 03:57
******************************
Total playing time: 20:17



[more=Technical info]
Input File: 6 - Combined (feat. Tiran Ezra of Ferium).mp3
Channels : 2
Sample Rate : 44100
Precision : 16-bit
Duration : 00:03:58.03 = 10497167 samples = 17852.3 CDDA sectors
File Size : 3.81M
Bit Rate : 128k
Sample Encoding: MPEG audio (layer I, II or III)
Comments :
Title=Combined (feat. Tiran Ezra of Ferium)
Artist=Shiver
Album=Bones.Spirit.Ashes.Madness (EP)
Tracknumber=6
Year=2014
Genre=Metal

[/more]

Register
(2) infiltrator, Olethros,
Jan 11 2021, 18:31:24 Hëllstrike - Spill The Blood [demo] (2020)


*Artist: Hëllstrike
*Album: Spill The Blood [demo]
*Year: 2020
*Genre: Black/Thrash Metal
*Country: Romania
*Format: mp3@CBR320kbps
*Size: 27MB

Tracklist:
1. Metal Gods 02:38
2. Master of Hell 03:30
3. Vomitor 03:36
4. Spill the Blood 02:01
******************************
Total playing time: 11:45



[more=Technical info]
Input File: 2.Master of Hell.mp3
Channels : 2
Sample Rate : 44100
Precision : 16-bit
Duration : 00:03:30.55 = 9285255 samples = 15791.2 CDDA sectors
File Size : 8.45M
Bit Rate : 321k
Sample Encoding: MPEG audio (layer I, II or III)
Comments :
Title=Master of Hell
Artist=Hëllstrike
Album=Spill the Blood (Demo)
Tracknumber=2
Year=2020
Genre=Black/Thrash Metal

[/more]

Register
(11) caro, infiltrator, Leolomb, Olethros, Rosen, stumpheavyrock, Taakeferd, varlam4, vasiljev_sergej, Wail, wgs73,
Jan 5 2021, 19:11:00 Pleasure Cross - Wait For The End [ep] (2015)


*Artist: Pleasure Cross
*Album: Wait For The End [ep]
*Year: 2015
*Genre: Grindcore
*Country: United States
*Format: mp3@CBR320kbps
*Size: 31MB

Tracklist:
1. Wait For The End 01:20
2. Regurgitate 01:18
3. Subjugate The Earth 01:16
4. Homage To Perfection 01:01
5. Carve It Out 01:13
6. Pulled In By Death 01:11
7. Whirlwind Spit 00:47
8. Only In A Dream 01:19
9. Face Eater 01:07
10. Regimented Feeding Schedule 00:56
11. Seal My Fate 01:38
******************************
Total playing time: 13:06



[more=Technical info]
Input File: 06 Pulled In By Death.mp3
Channels : 2
Sample Rate : 44100
Precision : 16-bit
Duration : 00:01:11.35 = 3146403 samples = 5351.03 CDDA sectors
File Size : 3.03M
Bit Rate : 340k
Sample Encoding: MPEG audio (layer I, II or III)
Comments :
Title=Pulled In By Death
Artist=PLEASURE CROSS
Album=Wait For The End (EP)
Tracknumber=6
Year=2014

[/more]

Register
(6) infiltrator, Olethros, Rosen, stabilizator, varlam4, wgs73,
Jan 4 2021, 12:33:13 Заград-Отряд - Баба Яга (2021)
Удалите эту х у е тень,пока никто не слышал!
(9) atavist, Bulldozzzzzzer, infiltrator, RUSP73, spazm, Tular, VerminGhost, Vitald, Сварог Барг,
Jan 3 2021, 16:22:47 Golem Of Gore & Pharmacist - Ambulatory Sonic Suppuration [split] (2020)


*Artist: Golem Of Gore & Pharmacist
*Album: Ambulatory Sonic Suppuration [split]
*Year: 2020
*Genre: Goregrind | Death Metal/Goregrind
*Country: Italy | Japan
*Format: mp3@CBR320kbps
*Size: 67MB

Tracklist:
Golem of Gore:
1. Bloody Mucous Diarrhea 01:03
2. Unspeakable Osteosarcoma Visions 01:28
3. Bloodshed Across the Toilet 01:12
4. Disgraceful Mycoplasma Genitalium 01:14
5. Necrotic Enteropathogenic Triumphant 01:46
6. Sadomasochistic Decadence in Gore 03:37
Pharmacist:
7. Clinical Tremor 05:42
8. Echoes of Somatic Symptoms 05:53
9. Autoimmune Rheumatic Disease Bouquet 05:41
******************************
Total playing time: 27:36





[more=Technical info]
Input File: 06. Sadomasochistic Decadence In Gore.mp3
Channels : 2
Sample Rate : 44100
Precision : 16-bit
Duration : 00:03:37.87 = 9607979 samples = 16340.1 CDDA sectors
File Size : 8.95M
Bit Rate : 329k
Sample Encoding: MPEG audio (layer I, II or III)
Comments :
Title=Sadomasochistic Decadence In Gore
Artist=Golem Of Gore
Album=Ambulatory Sonic Suppuration
Tracknumber=06
Year=2020
Genre=Goregrind

[/more]

Register
(10) alikkon, FUDEDOR, infiltrator, Occultas, Rosen, smysl, stabilizator, Taakeferd, vyacheslav, Wail,
Jan 2 2021, 13:07:52 Martha's Got A Limp Wrist & Cerebral Enema & Caveman Attack - Split [split] (2020)


*Artist: Martha's Got A Limp Wrist & Cerebral Enema & Caveman Attack
*Album: Split [split]
*Year: 2020
*Genre: Grindcore/Hardcore | Goregrind | Groovy Goregrind
*Country: United States | Germany | Germany
*Format: mp3@CBR320kbps
*Size: 71MB

Tracklist:
Martha's Got a Limp Wrist:
1. We're Sick Of Your Shit 00:38
2. Clitellum 00:56
3. Pompous Jizzrag 00:37
4. Next In Line (A Human's Life) 00:49
5. Green River Killer 00:42
6. Circus Act Rebellion 01:13
7. A Life's A Life (Disrupt) 01:51
8. Disco Cannibal 01:32
Cerebral Enema:
9. Illegal baby death tournament 01:59
10. Omiklatscher 01:39
11. Tackling a 5 year old 01:25
12. Sternbasis Foetenzyklon 01:51
13. Golden intestinal cyst (Ahumado Granujo cover recorded in 2017) 02:19
Caveman Attack:
14. Grave Rituals 03:42
15. Reckless Attack 00:28
16. Ultra Violent Cavemans 02:05
17. Age Of Rage 01:41
18. Fuck Punkrock! This Is Caveman Power-Gore-Violence! 00:45
19. Saber-Tooth Circle Pit 01:42
******************************
Total playing time: 27:54





[more=Technical info]
Input File: 09. Iillegal Baby Death Tournament.mp3
Channels : 2
Sample Rate : 44100
Precision : 16-bit
Duration : 00:01:59.49 = 5269465 samples = 8961.68 CDDA sectors
File Size : 4.93M
Bit Rate : 330k
Sample Encoding: MPEG audio (layer I, II or III)
Comments :
Title=Iillegal Baby Death Tournament
Artist=Cerebral Enema
Album=Split
Tracknumber=09
Year=2020
Genre=Goregrind

[/more]

Register
(5) alikkon, infiltrator, KKK1488, Lanceatum, Rosen,
Dec 31 2020, 12:53:54 Abortion - No Lives Matter (2020)


*Artist: Abortion
*Album: No Lives Matter
*Year: 2020
*Genre: Grindcore
*Country: Slovakia
*Format: mp3@CBR320kbps
*Size: 54MB

Tracklist:
1. Don't Forget to Pay 01:24
2. Christian Catalog 00:58
3. Count the Dead 01:22
4. Maybe Someone 01:02
5. Blitzkrieg Drugs 00:48
6. Prince Hoax 01:13
7. Stay Human 00:48
8. Your Fault 00:38
9. Choise 00:53
10. Alcohol 00:49
11. Holes 00:29
12. False Friends 00:46
13. Not You 00:46
14. Who are You? 01:09
15. Infected 00:39
16. Time is Sick 01:16
17. Dance, Dance 00:25
18. Heroe of the Carpatian Type 01:09
19. Correct Expression 01:10
20. Bombs on Nitra 02:09
21. Kill Me on Sunday 03:28
******************************
Total playing time: 23:21




[more=Technical info]
Input File: 06. Prince Hoax.mp3
Channels : 2
Sample Rate : 44100
Precision : 16-bit
Duration : 00:01:14.06 = 3266222 samples = 5554.8 CDDA sectors
File Size : 3.24M
Bit Rate : 350k
Sample Encoding: MPEG audio (layer I, II or III)
Comments :
Title=Prince Hoax
Artist=Abortion
Album=No Lives Matter
Tracknumber=6
Year=2020
Genre=Death/Grind

[/more]

Register
(8) atavist, infiltrator, jollo, kipelov999, Olethros, Rosen, spazm, varlam4,
Dec 22 2020, 17:20:17 Slackjaw - Ritual Of Dissonance (2020)


*Artist: Slackjaw
*Album: Ritual Of Dissonance
*Year: 2020
*Genre: Groove Metal
*Country: United States
*Format: mp3@CBR320kbps
*Size: 80MB

Tracklist:
01. A Force to be Reckoned With 02:00
02. WMD 04:36
03. Caught in the Crossfire 03:56
04. Gallows 05:04
05. House of Broken Bones 04:18
06. Phantasmagoria 05:41
07. Vindictive 05:08
08. Bite the Bullet 04:14
******************************
Total playing time: 34:57




[more=Technical info]
Input File: 06 - Phantasmagoria.mp3
Channels : 2
Sample Rate : 44100
Precision : 16-bit
Duration : 00:05:41.08 = 15041452 samples = 25580.7 CDDA sectors
File Size : 13.6M
Bit Rate : 320k
Sample Encoding: MPEG audio (layer I, II or III)
Comments :
Title=Phantasmagoria
Artist=Slackjaw
Album=Ritual of Dissonance
Tracknumber=6
Year=2020
Genre=Groove Metal

[/more]

Register
(7) boby9052, infiltrator, infozahist, Olethros, Rosen, sludge666, stumpheavyrock,
Dec 22 2020, 15:18:33 Plasma - Engulfed In Terror (2020)


*Artist: Plasma
*Album: Engulfed In Terror
*Year: 2020
*Genre: Death Metal/Goregrind
*Country: Germany
*Format: mp3@CBR320kbps
*Size: 151MB

Tracklist:
1. Blotching Protoplasma 04:24
2. Raid of the Undead 02:56
3. Human Extermination 02:30
4. Martian Massinvasion 03:40
5. Crawling Giant 02:52
6. Unearthly Warfare 03:41
7. The Horrifying Horde 02:42
8. Eight legged Terror 02:23
9. Rampaging Master-Beast 03:54
10. Afflicted Zombification 03:37
11. Shattering Swarm 02:40
12. Test Tube Terror 02:05
13. Deadly Menace 03:34
14. Thundering Sea Giant 03:42
15. Atoms Gone Wild 03:11
16. Tremendous Terror-Beast 03:21
17. Hungering for Human Pray 03:55
18. Prehistoric Abomination 03:44
19. From Laboratory Into War 03:30
******************************
Total playing time: 1:02:21



[more=Technical info]
Input File: 06. Unearthly Warfare.mp3
Channels : 2
Sample Rate : 44100
Precision : 16-bit
Duration : 00:03:41.53 = 9769605 samples = 16615 CDDA sectors
File Size : 9.19M
Bit Rate : 332k
Sample Encoding: MPEG audio (layer I, II or III)
Comments :
Title=Unearthly Warfare
Artist=Plasma
Album=Engulfed in Terror (320)
Tracknumber=06
Year=2020
Genre=Metal

[/more]

Register
(21) alikkon, andreikun, atavist, BandR75, BERZERK, infiltrator, insufferable, jollo, KKK1488, Konungr, metala, multizwilling, Olethros, randumbum, Rosen, RUSP73, Typhoid, varlam4, Vladimir, vyacheslav, WX419,
Dec 22 2020, 15:12:28 Disgorged Foetus & Oxidised Razor & Plasma - Geriatric Goregrind 3 Way Cd [split] (2020)


*Artist: Disgorged Foetus & Oxidised Razor & Plasma
*Album: Geriatric Goregrind 3 Way Cd [split]
*Year: 2020
*Genre: Goregrind | Death Metal/Goregrind | Death Metal/Goregrind
*Country: France | Mexico | Germany
*Format: mp3@CBR320kbps
*Size: 118MB

Tracklist:
Disgorged Foetus:
01. Cumfortable Circumstance 3:49
02. Sect-Sex-Six 2:39
03. Necro-Eater Worm Infestation 1:32
04. Cancerous Pus From Brain 2:38
05. Ruptured Sphincter's Ligature (Pus Attack Pt. I) 5:27
06. Out Rot 2:58
Oxidised Razor:
07. Entrails Explorer 5:41
08. Necrosis 2:53
09. Mummified 3:28
10. Masticator Of Swollen Carcass 3:32
Plasma:
11. Bug Hunt 4:06
12. Medlab Terror 2:43
13. Aborning Nightmare 5:01
14. Combat Drop 1:21
15. Game Over 4:13
******************************
Total playing time: 52:01

[more=Technical info]
Input File: 06. Out Rot.mp3
Channels : 2
Sample Rate : 44100
Precision : 16-bit
Duration : 00:02:57.99 = 7849139 samples = 13348.9 CDDA sectors
File Size : 7.18M
Bit Rate : 323k
Sample Encoding: MPEG audio (layer I, II or III)
Comments :
Title=Out Rot
Artist=Disgorged Foetus
Album=Geriatric Goregrind 3 Way CD
Tracknumber=06
Year=2020
Genre=Goregrind

[/more]

Register
(11) Anhra Mainyu, BERZERK, DimON, heinz88, infiltrator, KKK1488, Lanceatum, Rosen, stabilizator, varlam4, vyacheslav,
Dec 19 2020, 11:56:10 Dormant Inferno - In Sanity [demo] (2011)
Register
(3) stumpheavyrock, thenecromancer, Wail,
Dec 13 2020, 16:35:38 Skeleton Crew - Shining Blood [ep] (2000)
Register
(1) dimcho0,
Dec 10 2020, 16:34:19 Blindfolded And Led To The Woods - My Vaseline Diaries (2014)


*Artist: Blindfolded And Led To The Woods
*Album: My Vaseline Diaries
*Year: 2014
*Genre: Technical Death Metal/Deathcore
*Country: New Zealand
*Format: mp3@CBR320kbps
*Size: 73MB

Tracklist:
1. Fuck You Look Awesome 04:42
2. A Wolf in a Wall Street Tomb 03:21
3. Father Harlequin 02:53
4. Sorry You're Not Invited 01:58
5. Free Thought + A Time Machine = 03:26
6. Abigail is Dead 01:57
7. New Shirt and a Fade 03:12
8. The Earwig 03:43
9. 26846 04:16
10. You're Just Like Captain Planet But With Less Friends 02:32
******************************
Total playing time: 32:00




[more=Technical info]
Input File: 06 Abigail is Dead.mp3
Channels : 2
Sample Rate : 44100
Precision : 16-bit
Duration : 00:01:58.00 = 5203844 samples = 8850.07 CDDA sectors
File Size : 4.82M
Bit Rate : 327k
Sample Encoding: MPEG audio (layer I, II or III)
Comments :
Title=Abigail is Dead
Artist=Blindfolded and Led to the Woods
Album=My Vaseline Diaries
Tracknumber=6
Year=2014

[/more]

Register
(11) chipsgott, infiltrator, kimkayoung, Marek, metala, Olethros, Rosen, VALERY, varlam4, wreak, Yngwarr,
Dec 10 2020, 12:32:52 Abomínio - Altar Fúnebre (2015)


*Artist: Abomínio
*Album: Altar Fúnebre
*Year: 2015
*Genre: Death/Doom Metal
*Country: Brazil
*Format: mp3@CBR320kbps
*Size: 93MB

Tracklist:
1. Altar Fúnebre 04:51
2. O Fim de Muitos 03:12
3. Frutos do Mal 06:28
4. O Amor da Hipocrisia 04:54
5. Destruição 02:13
6. Morte Infinita 04:04
7. Lembranças de um Enterro 08:39
8. Mortos que se Acham Vivos 03:14
9. O seu Jesus Está Morto 03:32
10. Mãos Poluídas 02:53
******************************
Total playing time: 44:00

[more=Technical info]
Input File: 06 - Morte Infinita.mp3
Channels : 2
Sample Rate : 44100
Precision : 16-bit
Duration : 00:04:04.44 = 10779584 samples = 18332.6 CDDA sectors
File Size : 9.78M
Bit Rate : 320k
Sample Encoding: MPEG audio (layer I, II or III)
Comments :
Title=Morte Infinita
Artist=Abomínio
Album=Altar Fúnebre
Tracknumber=06
Year=2015
Genre=Death Metal

[/more]

Register
(11) andreikun, infiltrator, metala, Olethros, Rosen, sergsazan, stumpheavyrock, VALERY, varlam4, vyacheslav, wreak,
Dec 8 2020, 19:52:18 Deathcraft - Return From Hell [ep] (2017)
Register
(1) wanderer73,
Dec 6 2020, 13:14:04 P.G.S.K. - Assaulted [ep] (2016)


*Artist: P.G.S.K.
*Album: Assaulted [ep]
*Year: 2016
*Genre: Death Metal
*Country: United States
*Format: mp3@CBR320kbps
*Size: 39MB

Tracklist:
1. Molten Fetus Salvo 04:15
2. Raped by the Hounds of War 05:48
3. The Ecstasy of Combat 03:30
4. Weaponized Dick Storm 03:13
******************************
Total playing time: 16:46



[more=Technical info]
Input File: 02 Raped by the Hounds of War.mp3
Channels : 2
Sample Rate : 44100
Precision : 16-bit
Duration : 00:05:48.75 = 15380007 samples = 26156.5 CDDA sectors
File Size : 14.1M
Bit Rate : 324k
Sample Encoding: MPEG audio (layer I, II or III)
Comments :
Title=Raped by the Hounds of War
Artist=P G S K
Album=Assaulted
Tracknumber=2
Year=2016

[/more]

Register
(12) GorAtheist, hell_armageddon, infiltrator, Olethros, randumbum, Rosen, sagratan, VALERY, varlam4, vyacheslav, wanderer73, wreak,
Dec 5 2020, 18:29:26 Blood Empire - Sermons Of Suffering [ep] (2015)
Register
(1) varlam4,
Dec 4 2020, 19:10:21 Dies Ater - Reign Of Tempests (1999)
Register
(3) kimkayoung, rickzammuto, vasiljev_sergej,
Dec 3 2020, 18:50:01 Pestlegion - March To War [ep] (2014)
Register
(1) thenecromancer,
Dec 2 2020, 15:39:47 Sunset Brigade - Russian Schizoroulette [ep] (2018)


*Artist: Sunset Brigade
*Album: Russian Schizoroulette [ep]
*Year: 2018
*Genre: Groove Metal
*Country: Russian Federation
*Format: mp3@CBR320kbps
*Size: 45MB

Tracklist:
1. Bad Blood 02:52
2. Black Dawn 02:59
3. Hellfire 06:03
4. Operation Suicide 02:49
5. Russian Schizoroulette 05:20
******************************
Total playing time: 20:03



Preview 3

[more=Technical info]
Input File: 01. Bad Blood.mp3
Channels : 2
Sample Rate : 44100
Precision : 16-bit
Duration : 00:02:52.76 = 7618672 samples = 12956.9 CDDA sectors
File Size : 6.91M
Bit Rate : 320k
Sample Encoding: MPEG audio (layer I, II or III)
Comments :
Title=Bad Blood
Artist=Sunset Brigade
Album=Russian Schizoroulette
Tracknumber=1
Year=2018
Genre=Groove Metal

[/more]

Register
(5) chipsgott, infiltrator, Olethros, Rosen, wreak,
Dec 2 2020, 15:37:43 Sunset Brigade - Overdosed [ep] (2019)
Register
(1) chipsgott,
Dec 1 2020, 19:48:32 Furtherial - Un Mondo Infinito (2015)
Register
(2) boby9052, kimkayoung,
Dec 1 2020, 19:48:18 Furtherial - Destroying Atropolis (2013)
Register
(2) boby9052, kimkayoung,

36 Pages V   1 2 3 > » 
- Lo-Fi Version Support form
Copyrights and abuse reports form
Time is now: 17th January 2021 - 03:59:19