Welcome Guest ( Log In | Register )

История благодарностей участнику RotAnus ::: Спасибо сказали: 3018 раз(а)
Дата поста: В теме: За сообщение: Спасибо сказали:
Jan 25 2020, 15:13:02 Lunatics Without Skateboards Inc. - Reality (1996)
320
Register
(3) stumpheavyrock, varlam4, wgs73,
Jan 23 2020, 14:13:18 Kraniall - Infected Faith (2020)


*Artist: Kraniall
*Album: Infected Faith
*Year: 2020
*Genre: Heavy/Groove Metal
*Country: Brazil
*Format: mp3@CBR320kbps
*Size: 90MB

Tracklist:
1. Intro
2. Pray
3. Obedience
4. Infected Faith
5. The Line
6. Sell Your Soul
7. Burn
8. Gênesis
9. Lord Of Sickness
10. Decimate
******************************
Total playing time: 39:02




[more=Technical info]
Input File: 06 - Sell Your Soul.mp3
Channels : 2
Sample Rate : 44100
Precision : 16-bit
Duration : 00:05:31.38 = 14614034 samples = 24853.8 CDDA sectors
File Size : 13.8M
Bit Rate : 333k
Sample Encoding: MPEG audio (layer I, II or III)
Comments :
Title=Sell Your Soul
Artist=Kraniall
Album=Infected Faith
Tracknumber=6
Year=2020
Genre=Heavy Metal
Discnumber=1

[/more]

Register
(3) infiltrator, Olethros, Rosen,
Jan 23 2020, 13:41:33 Apocrifo Manifesto - Manifiesto [ep] (2017)


*Artist: Apocrifo Manifesto
*Album: Manifiesto [ep]
*Year: 2017
*Genre: Heavy/Thrash Metal
*Country: Argentina
*Format: mp3@CBR320kbps
*Size: 48MB

Tracklist:
1. Histoeria 04:25
2. Lo que vendrá 05:24
3. Misticismos 03:33
4. Alpha-Omega 04:43
5. Verdades apócrifas 02:01
******************************
Total playing time: 20:06




[more=Technical info]
Input File: 01 Histoeria.mp3
Channels : 2
Sample Rate : 44100
Precision : 16-bit
Duration : 00:04:26.05 = 11732585 samples = 19953.4 CDDA sectors
File Size : 10.8M
Bit Rate : 324k
Sample Encoding: MPEG audio (layer I, II or III)
Comments :
Title=Histoeria
Artist=Apocrifo Manifesto
Album=Manifiesto
Tracknumber=1
Year=2017

[/more]

Register
(5) infiltrator, Olethros, Rosen, stumpheavyrock, varlam4,
Jan 21 2020, 15:16:45 Conspiracy - Irremediable (2010)
256
Register
(3) ALBIGON, varlam4, vasiljev_sergej,
Jan 21 2020, 15:16:14 Conspiracy - Concordat (2009)
Register
(2) varlam4, vasiljev_sergej,
Jan 21 2020, 15:15:51 Conspiracy - Reincarnated (2006)
256
Register
(2) varlam4, vasiljev_sergej,
Jan 19 2020, 19:19:44 Level-C - Level C (2008)
320
Register
(2) stumpheavyrock, varlam4,
Jan 18 2020, 15:55:12 Petals Blade - Holocausto [demo] (2019)


*Artist: Petals Blade
*Album: Holocausto [demo]
*Year: 2019
*Genre: Death/Thrash Metal
*Country: Brazil
*Format: mp3@CBR192kbps
*Size: 28MB

Tracklist:
1. Holocausto 03:25
2. Guerra 03:34
3. Violada 03:06
4. Não há Justiça 04:14
5. No Mesmo Chão 03:29
6. Quem Matou o Brasil? 02:46
******************************
Total playing time: 20:34




[more=Technical info]
Input File: 6 Quem Matou o Brasil.mp3
Channels : 2
Sample Rate : 44100
Precision : 16-bit
Duration : 00:02:46.65 = 7349045 samples = 12498.4 CDDA sectors
File Size : 4.00M
Bit Rate : 192k
Sample Encoding: MPEG audio (layer I, II or III)
Comments :
Title=Quem Matou o Brasil?
Artist=Petals Blade
Album=Holocausto (Demo)
Tracknumber=6
Year=2019
Genre=Thrash/Death Metal

[/more]

Register
(5) Olethros, Rosen, stumpheavyrock, Wail, wgs73,
Jan 5 2020, 14:41:55 Hell Is Here - Fall Of The Morningstar (2018)
Register
(1) wanderer73,
Jan 3 2020, 19:05:28 Abystic Ritual - Dark Carnal Witchery [ep] (2004)
Register
vbr
(2) varlam4, Wail,
Jan 3 2020, 18:39:36 Bloodstained - War Songs (2006)


*Artist: Bloodstained
*Album: War Songs
*Year: 2006
*Genre: Gothic Metal
*Country: Sweden
*Format: mp3@CBR320kbps
*Size: 99MB

Tracklist:
1. When All Lies Die
2. Wish List
3. American Life
4. Day Of The Rope
5. Heat From A Nation
6. Your Eyes Are Blinded
7. Once You Said
8. They Controll It All
9. War Song
10. Your Great Empire
11. Enjoy The Silence (Depeche Mode Cover)
******************************
Total playing time: 38:37

[more=Technical info]
Input File: 06 Your eyes are blinded.mp3
Channels : 2
Sample Rate : 44100
Precision : 16-bit
Duration : 00:03:01.44 = 8001504 samples = 13608 CDDA sectors
File Size : 7.26M
Bit Rate : 320k
Sample Encoding: MPEG audio (layer I, II or III)
Comments :
Title=Your eyes are blinded
Artist=Bloodstained
Album=War Songs
Tracknumber=6
Year=2006
Genre=RAC

[/more]

Register
(10) Alpha_Prime, ASkyThatBurns, Cartman223, Mogozoz, Olethros, Rosen, senecazm, sergsazan, v.v.m, VALERY,
Jan 1 2020, 18:35:18 Demiricous - Two (Poverty) (2007)
320
Register
(1) METALHUNTER,
Dec 15 2019, 16:28:52 Slaves Of Kali - Dawn [ep] (2016)


*Artist: Slaves Of Kali
*Album: Dawn [ep]
*Year: 2016
*Genre: Groove Metal
*Country: Germany
*Format: mp3@CBR192kbps
*Size: 27MB

Tracklist:
1. Liars 03:36
2. Defend 03:05
3. Rich men disease 03:08
4. Act the innocent 02:59
5. Break to fly 02:55
6. Mindless Careless 04:14
******************************
Total playing time: 19:57



[more=Technical info]
Input File: 1 Liars.mp3
Channels : 2
Sample Rate : 44100
Precision : 16-bit
Duration : 00:03:36.32 = 9539668 samples = 16223.9 CDDA sectors
File Size : 5.33M
Bit Rate : 197k
Sample Encoding: MPEG audio (layer I, II or III)
Comments :
Title=Liars
Artist=Slaves of Kali
Album=Dawn
Tracknumber=1
Year=2016
Genre=Metal

[/more]

Register
(3) boby9052, Olethros, Rosen,
Dec 10 2019, 17:52:24 Prophetic Scourge - Corrupt Karmic Invigilators [demo] (2015)


*Artist: Prophetic Scourge
*Album: Corrupt Karmic Invigilators [demo]
*Year: 2015
*Genre: Progressive Death Metal
*Country: France
*Format: mp3@CBR320kbps
*Size: 63MB

Tracklist:
1. The Magus - Man Holds His Gods in His Mind 05:03
2. The Witchfinder - Until Your Flesh Departs 05:14
3. The Martyr - A Trial on a Field of Shadows 06:49
4. The God-King - Awaiting the Gift of Osiris 03:33
5. The Cultist - The Rise of the Great Lord Cthulhu 07:03
******************************
Total playing time: 27:42



[more=Technical info]
Input File: 01. The Magus - Man Holds His Gods in His Mind.mp3
Channels : 2
Sample Rate : 44100
Precision : 16-bit
Duration : 00:05:05.29 = 13463157 samples = 22896.5 CDDA sectors
File Size : 12.3M
Bit Rate : 323k
Sample Encoding: MPEG audio (layer I, II or III)
Comments :
Title=The Magus - Man Holds His Gods in His Mind
Artist=Prophetic Scourge
Album=Corrupt Karmic Invigilators
Tracknumber=01
Year=2015
Genre=Metal

[/more]

Register
(9) AHBAnep, Hell_Is_Here, kimkayoung, metala, Olethros, Rosen, soulflesh, terron, wreak,
Dec 5 2019, 11:14:38 Blindfolded - Blacklisted (2016)


*Artist: Blindfolded
*Album: Blacklisted
*Year: 2016
*Genre: Groove Metal/Hardcore
*Country: Netherlands
*Format: mp3@CBR320kbps
*Size: 57MB

Tracklist:
1. Statement 1:12
2. Sign Of Times 3:09
3. Beat You Down 3:16
4. Think Free 2:44
5. Lies 3:28
6. Brotherhood 3:58
7. Left For Dead 3:47
8. One To Fall 2:31
9. Backstabber 4:14
******************************
Total playing time: 28:19

[more=Technical info]
Input File: 06. Brotherhood.mp3
Channels : 2
Sample Rate : 44100
Precision : 16-bit
Duration : 00:03:53.93 = 10316445 samples = 17545 CDDA sectors
File Size : 9.35M
Bit Rate : 320k
Sample Encoding: MPEG audio (layer I, II or III)
Comments :
Title=Brotherhood
Artist=Blindfolded
Album=Blacklisted
Tracknumber=06/09
Year=2016

[/more]

Register
(5) Brann, Moonshtook, Olethros, Rosen, wreak,
Nov 29 2019, 13:12:18 Mortuus Neurons - Nice To Eat And Gut (2017)


*Artist: Mortuus Neurons
*Album: Nice To Eat And Gut
*Year: 2017
*Genre: Goregrind
*Country: Colombia
*Format: mp3@CBR320kbps
*Size: 76MB

Tracklist:
1. Chapter I : I Want to Kill You 03:16
2. Chapter II : Death Atomic Bomb!!! 03:06
3. Chapter III : Aanthropophagii Eruntur 03:01
4. Chapter IV : Rebirth of Toxic Holocaust 03:24
5. Chapter V : Monstrous Pollution 02:45
6. Chapter VI : Crush Bones 02:09
7. Chapter VII : Exquisita Odore Putrida Cibum 02:31
8. Chapter VIII : Nice to Eat and Gut 02:34
9. Chapter IX : Regurgitated Brains 01:22
10. Chapter X : Dancing with Human Flesh 03:29
11. Chapter XI : R.I.P.(Rest In Pus) 02:42
12. Chapter XII : Miscarriage (Cover to Pungent Stench) 02:39
******************************
Total playing time: 32:58



[more=Technical info]
Input File: 06. Chapter VI Crush Bones.mp3
Channels : 2
Sample Rate : 44100
Precision : 16-bit
Duration : 00:02:09.76 = 5722416 samples = 9732 CDDA sectors
File Size : 5.38M
Bit Rate : 332k
Sample Encoding: MPEG audio (layer I, II or III)
Comments :
Title=Chapter VI : Crush Bones
Artist=Mortuus Neurons
Album=Nice To Eat And Gut
Tracknumber=06
Year=2017
Genre=Horrorgrind, Goregrind, Groovygrind

[/more]

Register
(11) A.L.Rapsod, andreikun, atavist, carnegrinder, jollo, metala, Olethros, Rosen, varlam4, vyacheslav, wreak,
Nov 29 2019, 09:48:57 She Said Destroy - Bleeding Fiction [ep] (2012)
Register
(1) stumpheavyrock,
Nov 29 2019, 09:48:31 She Said Destroy - This City Speaks In Tongues (2008)
Register
(1) cancer1974,
Nov 21 2019, 11:34:42 Abortion & Per Capita - Abortion/Per Capita [split] (2018)


*Artist: Abortion & Per Capita
*Album: Abortion/Per Capita [split]
*Year: 2018
*Genre: Death Metal/Crust/Grindcore | Crust/Grindcore
*Country: Slovakia | Germany
*Format: mp3@CBR192kbps
*Size: 16MB

Tracklist:
Abortion:
1. End of the Journey 01:19
2. Welcome Down 01:04
3. You Will Not Better 01:06
4. Step from the Paradise 00:57
5. In the Name of Glory 01:27
Per Capita:
6. The Bane 00:59
7. The Meaning 00:48
8. Dark Passanger 01:00
9. Social Media Overload 02:28
******************************
Total playing time: 11:08



[more=Technical info]
Input File: 6 The Bane.mp3
Channels : 2
Sample Rate : 44100
Precision : 16-bit
Duration : 00:00:59.78 = 2636254 samples = 4483.43 CDDA sectors
File Size : 1.61M
Bit Rate : 215k
Sample Encoding: MPEG audio (layer I, II or III)
Comments :
Title=The Bane
Artist=Per Capita
Album=Abortion / Per Capita SPLIT
Tracknumber=6
Year=2018

[/more]

Register
(4) Lanceatum, morbidangelo, Rosen, varlam4,
Nov 21 2019, 11:16:39 Darkness & Torvara & Nyx & Trinity - In M.Emory [split] (2018)


*Artist: Darkness & Torvara & Nyx & Trinity
*Album: In M.Emory [split]
*Year: 2018
*Genre: Black/Thrash Metal | Black/Thrash Metal | Black Metal | Black Metal
*Country: Italy | Italy | Italy | Poland
*Format: mp3@CBR320kbps
*Size: 87MB

Tracklist:
Darkness:
1. You Are Dead 05:00
2. Glory and Pleasure of the Pedoprophet 05:12
Torvara:
3. Holy Deceiver 05:46
4. Living Hell 06:13
Nyx:
5. Ritus 01:57
6. Coincidentia Oppositorum 04:09
Trinity:
7. Kurwica 03:42
8. Ramadan 03:52
******************************
Total playing time: 35:51



[more=Technical info]
Input File: 6 Nyx - Coincidentia Oppositorum.mp3
Channels : 2
Sample Rate : 44100
Precision : 16-bit
Duration : 00:04:09.40 = 10998716 samples = 18705.3 CDDA sectors
File Size : 10.1M
Bit Rate : 323k
Sample Encoding: MPEG audio (layer I, II or III)
Comments :
Title=Coincidentia Oppositorum
Artist=Nyx
Album=In M.emory
Tracknumber=6
Year=2018

[/more]

Register
(9) kim666, Lanceatum, Rosen, VALERY, varlam4, vasiljev_sergej, Wail, wgs73, wreak,
Nov 20 2019, 11:22:36 Antipath - The Godly Species [ep] (2018)


*Artist: Antipath
*Album: The Godly Species [ep]
*Year: 2018
*Genre: Progressive Thrash/Groove Metal
*Country: Austria
*Format: mp3@CBR320kbps
*Size: 42MB

Tracklist:
1. Facebiter 05:15
2. Kill Your Friend 03:26
3. Superhuman 04:08
4. Radical Freedom 04:15
******************************
Total playing time: 17:04



[more=Technical info]
Input File: 02 KILL YOUR FRIEND.mp3
Channels : 2
Sample Rate : 44100
Precision : 16-bit
Duration : 00:03:26.07 = 9087467 samples = 15454.9 CDDA sectors
File Size : 8.38M
Bit Rate : 325k
Sample Encoding: MPEG audio (layer I, II or III)
Comments :
Title=KILL YOUR FRIEND
Artist=Antipath
Album=the godly species
Tracknumber=2
Year=2018

[/more]

Register
(9) boby9052, chipsgott, kimkayoung, metala, older68, Rosen, stumpheavyrock, varlam4, wreak,
Nov 19 2019, 11:34:56 Amordeum - Demo [demo] (2001)
Register
(1) thenecromancer,
Nov 18 2019, 11:38:05 Water Into Blood - Become The Disease (2018)


*Artist: Water Into Blood
*Album: Become The Disease
*Year: 2018
*Genre: Groove/Death Metal/Hardcore
*Country: United States
*Format: mp3@CBR320kbps
*Size: 85MB

Tracklist:
1. Bitter End 02:26
2. Warrior Culture 03:01
3. Hell is Red 02:00
4. Kalopsia. Malison. Threnody. 05:00
5. Meat 03:48
6. Disrupters 03:58
7. Become The Disease 04:19
8. Interlude in B Minor 05:02
9. Solaromancy II 07:23
******************************
Total playing time: 36:57




[more=Technical info]
Input File: 6 - Disrupters.mp3
Channels : 2
Sample Rate : 44100
Precision : 16-bit
Duration : 00:03:58.49 = 10517277 samples = 17886.5 CDDA sectors
File Size : 9.54M
Bit Rate : 320k
Sample Encoding: MPEG audio (layer I, II or III)
Comments :
Title=Disrupters
Artist=Water Into Blood
Album=Become The Disease
Tracknumber=6
Year=2018
Genre=Metal

[/more]

Register
(7) chipsgott, jollo, Olethros, Ostin Devil, Ostinato, Rosen, wreak,
Nov 7 2019, 13:06:24 Benoint - Rebirth In Reverse [ep] (1999)


*Artist: Benoint
*Album: Rebirth In Reverse [ep]
*Year: 1999
*Genre: Sludge/Doom Metal
*Country: United States
*Format: mp3@CBR320kbps
*Size: 50MB

Tracklist:
1. Koan 05:15
2. Divine 03:37
3. Water Door 08:02
4. Tussinfection 04:48
******************************
Total playing time: 21:42

[more=Technical info]
Input File: 2 - Divine.mp3
Channels : 2
Sample Rate : 44100
Precision : 16-bit
Duration : 00:03:37.75 = 9602599 samples = 16331 CDDA sectors
File Size : 8.72M
Bit Rate : 320k
Sample Encoding: MPEG audio (layer I, II or III)
Comments :
Title=Divine
Artist=Benoint
Album=Rebirth in Reverse
Tracknumber=02
Year=1999
Genre=sludge/stoner

[/more]

Register
(7) marilin, Olethros, Rosen, stub888, stumpheavyrock, VALERY, varlam4,
Nov 6 2019, 14:10:45 Hejtman & Bajonet & Tyranizer & Hellocaustor - Underground Elite 2013 [split] (2013)


*Artist: Hejtman & Bajonet & Tyranizer & Hellocaustor
*Album: Underground Elite 2013 [split]
*Year: 2013
*Genre: Crust'n'roll | Thrash Metal | Thrash/Death Metal | Thrash Metal
*Country: Czech Republic | Czech Republic | Czech Republic | Czech Republic
*Format: mp3@CBR320kbps
*Size: 120MB

Tracklist:
Hejtman:
1. Bloodlines 04:18
2. This Is Their Fault 04:28
3. Deadly Force 02:54
4. Don't Trust Unturned Cross 02:44
Bajonet:
5. Matka jara 01:32
6. Masakra 01:15
7. Gangréna 01:45
8. Marie z Lazaretu 01:53
9. Stalingrad 01:22
Tyranizer:
10. Teror 04:29
11. Posedlost 03:50
12. Zabij! 04:05
Hellocaustor:
13. Ničitel světů 05:25
14. V.R.A.Ž.D.A. 03:53
15. Příchod kosmického zla 04:25
16. Hellocaustor II 04:20
******************************
Total playing time: 52:38

[more=Technical info]
Input File: 06.Bajonet-Masakra.mp3
Channels : 2
Sample Rate : 44100
Precision : 16-bit
Duration : 00:01:13.77 = 3253433 samples = 5533.05 CDDA sectors
File Size : 2.95M
Bit Rate : 320k
Sample Encoding: MPEG audio (layer I, II or III)
Comments :
Title=Masakra
Artist=Bajonet
Album=Underground Elite 2013 (Split)
Tracknumber=6
Year=2013
Genre=Metal

[/more]

Register
(7) A.L.Rapsod, boby9052, Olethros, Rosen, stumpheavyrock, varlam4, Wail,

28 Pages V   1 2 3 > » 
- Lo-Fi Version Support form
Copyrights and abuse reports form
Time is now: 27th January 2020 - 10:19:01