Welcome Guest ( Log In | Register )

История благодарностей участнику RotAnus ::: Спасибо сказали: 3774 раз(а)
Дата поста: В теме: За сообщение: Спасибо сказали:
Sep 29 2020, 13:44:44 D1Straught - Money Equal Death (2013)


*Artist: D1Straught
*Album: Money Equal Death
*Year: 2013
*Genre: Thrash Metal
*Country: Chile
*Format: mp3@CBR320kbps
*Size: 90MB

Tracklist:
1. Violence In My City 05:25
2. Eating Shit 03:55
3. Evil Companion 06:10
4. Asesinos 05:38
5. Final Destiny 03:32
6. Russian Roulette 04:38
7. Money Equal Death 05:13
8. Welcome To The City Of Chaos 05:10
******************************
Total playing time: 39:41





[more=Technical info]
Input File: 06 - Russian Roulette..mp3
Channels : 2
Sample Rate : 44100
Precision : 16-bit
Duration : 00:04:38.59 = 12285731 samples = 20894.1 CDDA sectors
File Size : 11.3M
Bit Rate : 323k
Sample Encoding: MPEG audio (layer I, II or III)
Comments :
Title=Russian Roulette.
Artist=D1STRAUGHT
Album=Money Equal Death
Tracknumber=6
Year=2019
Genre=Thrash Metal

[/more]

Register
(9) after21allD, andreikun, boby9052, frituz3, infiltrator, Lukittaz, postal67, sergsazan, stumpheavyrock,
Sep 28 2020, 21:49:28 Undead Medical Division - The Decomposition Phenomena [ep] (2014)


*Artist: Undead Medical Division
*Album: The Decomposition Phenomena [ep]
*Year: 2014
*Genre: Brutal Death Metal/Goregrind
*Country: Italy
*Format: mp3@CBR320kbps
*Size: 41MB

Tracklist:
1. Towers Of Silence 02:30
2. Your Mother Vs. Jesus 02:05
3. Zombie Beach 02:53
4. Human Habitat 02:55
******************************
Total playing time: 10:23




[more=Technical info]
Input File: 02 Your Mother Vs. Jesus.mp3
Channels : 2
Sample Rate : 44100
Precision : 16-bit
Duration : 00:02:05.53 = 5535653 samples = 9414.38 CDDA sectors
File Size : 5.22M
Bit Rate : 332k
Sample Encoding: MPEG audio (layer I, II or III)
Comments :
Title=Your Mother Vs. Jesus
Artist=Undead Medical Division
Album=The Decomposition Phenomena
Tracknumber=2
Year=2014

[/more]

Register
(5) cesar, infiltrator, Olethros, Rosen, vyacheslav,
Sep 26 2020, 20:21:03 Pyreworks - Pyreworks Is Destroying Our Nation! (2019)


*Artist: Pyreworks
*Album: Pyreworks Is Destroying Our Nation!
*Year: 2019
*Genre: Progressive Melodic Death/Thrash Metal
*Country: United States
*Format: mp3@CBR320kbps
*Size: 114MB

Tracklist:
1. Sledgehammer Jaw Removal 05:17
2. Malicious Auscultation 04:41
3. The Ultimate Fear (Phobophobia) 05:07
4. Choking on Teeth 03:40
5. Splintering Agony 03:10
6. Vomitous Organ Rejection 04:09
7. Nuclear Casket 04:04
8. Plague Doctor 06:08
9. Quivering Bloody Sushi 04:27
10. Splattered Across the Highway 02:32
11. Quizzical Leftovers 01:37
12. Bolt Action Deliverance 05:35
13. Arachnophile 04:31
******************************
Total playing time: 54:58





[more=Technical info]
Input File: 06. Vomitous Organ Rejection.mp3
Channels : 2
Sample Rate : 44100
Precision : 16-bit
Duration : 00:04:09.36 = 10996556 samples = 18701.6 CDDA sectors
File Size : 10.1M
Bit Rate : 323k
Sample Encoding: MPEG audio (layer I, II or III)
Comments :
Title=Vomitous Organ Rejection
Artist=Pyreworks
Album=Pyreworks Is Destroying Our Nation!
Tracknumber=6
Year=2019
Discnumber=1

[/more]

Register
(11) after21allD, chipsgott, HMHamster, infiltrator, Lukittaz, metala, Olethros, Rosen, stumpheavyrock, VALERY, wreak,
Sep 8 2020, 17:12:41 Nex - The World Collapses (2017)


*Artist: Nex
*Album: The World Collapses
*Year: 2017
*Genre: Death/Groove Metal
*Country: Poland
*Format: mp3@CBR320kbps
*Size: 77MB

Tracklist:
1. Introduction 00:55
2. Silence 04:06
3. Hate 03:09
4. Wide Horizon 04:11
5. God 03:45
6. Creation of the Future 03:57
7. Ten Tables of Faith 03:47
8. The Industrial Democracy 03:31
9. Circles 06:07
******************************
Total playing time: 33:28





[more=Technical info]
Input File: 06. Creation of the Future.mp3
Channels : 2
Sample Rate : 44100
Precision : 16-bit
Duration : 00:03:57.54 = 10475690 samples = 17815.8 CDDA sectors
File Size : 9.74M
Bit Rate : 328k
Sample Encoding: MPEG audio (layer I, II or III)
Comments :
Title=Creation of the Future
Artist=Nex
Album=The World Collapses
Tracknumber=6
Year=2019
Genre=Metal

[/more]

Register
(10) caro, infiltrator, jollo, Lukittaz, Mares, Olethros, Reverend, Rosen, sadmannn, wreak,
Sep 8 2020, 17:10:31 Nex - Totalitarian Leader [ep] (2015)


*Artist: Nex
*Album: Totalitarian Leader [ep]
*Year: 2015
*Genre: Death/Groove Metal
*Country: Poland
*Format: mp3@CBR320kbps
*Size: 26MB

Tracklist:
1. Nex 04:13
2. Ten Tables of Faith 03:44
3. Slaves in the Name of Law 03:36
******************************
Total playing time: 11:33




[more=Technical info]
Input File: 03. Slaves in the Name of Law.mp3
Channels : 2
Sample Rate : 44100
Precision : 16-bit
Duration : 00:03:37.72 = 9601276 samples = 16328.7 CDDA sectors
File Size : 8.77M
Bit Rate : 322k
Sample Encoding: MPEG audio (layer I, II or III)
Comments :
Title=Slaves in the Name of Law
Artist=Nex
Album=Totalitarian Leader (EP)
Tracknumber=3
Year=2015
Genre=Metal

[/more]

Register
(7) caro, infiltrator, Mares, Olethros, Reverend, Rosen, wreak,
Sep 8 2020, 11:41:55 Shotgun Cock - From Anal To Intestinal (2020)


*Artist: Shotgun Cock
*Album: From Anal To Intestinal
*Year: 2020
*Genre: Groovy Pornogrind
*Country: United States
*Format: mp3@CBR320kbps
*Size: 73MB

Tracklist:
1. Get It Out Of Me! 2:30
2. Daddy Wants To Fuck! 3:07
3. Perverts Manifesto 2:36
4. You Like It Rough, Don't You? 1:58
5. Cindy Who Loved To Get Fucked 3:41
6. Experiments Within The Forbidden Rectal Walls 2:15
7. The Whorehouse Special Supreme 3:33
8. Misogynistic Baseball Bat Brain Bashing 2:12
9. Cannibal Fuck Frenzy 2:04
10. Throat Impalement With My Baby Baster 3:01
11. She Was Pure, She Was Mine 3:55
******************************
Total playing time: 30:52



[more=Technical info]
Input File: 03. Perverts Manifesto.mp3
Channels : 2
Sample Rate : 44100
Precision : 16-bit
Duration : 00:02:36.12 = 6884848 samples = 11708.9 CDDA sectors
File Size : 6.45M
Bit Rate : 330k
Sample Encoding: MPEG audio (layer I, II or III)
Comments :
Title=Perverts Manifesto
Artist=Shotgun Cock
Album=From Anal To Intestinal
Tracknumber=3
Year=2020
Genre=Pornogrind

[/more]

Register
(6) infiltrator, jollo, metala, Olethros, Rosen, wreak,
Sep 8 2020, 11:33:38 Vaginal Herpes - Sexually Active Nurses (2020)


*Artist: Vaginal Herpes
*Album: Sexually Active Nurses
*Year: 2020
*Genre: Groovy Pornogrind
*Country: Ecuador
*Format: mp3@CBR320kbps
*Size: 52MB

Tracklist:
1. Intro 01:55
2. Violent run 01:42
3. Anal therapy 01:48
4. Active nurses 01:29
5. Girls full of cum 01:30
6. Sexual emergency 02:01
7. Red hair big tits 01:24
8. Brutal and sadistic orgy 01:59
9. Verusk likes rotten cock 01:51
10. Masturbate with your dirty panties 02:07
11. Fetish prostitute 03:01
12. Outro 01:54
******************************
Total playing time: 22:41




[more=Technical info]
Input File: 06. Sexual Emergency.mp3
Channels : 2
Sample Rate : 44100
Precision : 16-bit
Duration : 00:02:01.63 = 5363927 samples = 9122.32 CDDA sectors
File Size : 5.04M
Bit Rate : 331k
Sample Encoding: MPEG audio (layer I, II or III)
Comments :
Title=Sexual Emergency
Artist=Vaginal Herpes
Album=Sexually Active Nurses
Tracknumber=06
Year=2020
Genre=Pornogrind

[/more]

Register
(5) infiltrator, jollo, Olethros, Rosen, wreak,
Sep 7 2020, 11:04:21 Destroyed By Anger - Destroyed By Anger (1997)


*Artist: Destroyed By Anger
*Album: Destroyed By Anger
*Year: 1997
*Genre: Groove Metal
*Country: United States
*Format: mp3@CBR320kbps
*Size: 77MB

Tracklist:
1. Release
2. Fistful Of Daisies
3. Minus One
4. From The Outside In
5. Cursed Earth
6. Crimes Of The Mind
7. Walking On The Edge
8. Sever
******************************
Total playing time: 33:44



[more=Technical info]
Input File: 06 Crimes Of The Mind.mp3
Channels : 2
Sample Rate : 44100
Precision : 16-bit
Duration : 00:04:37.80 = 12251156 samples = 20835.3 CDDA sectors
File Size : 11.1M
Bit Rate : 320k
Sample Encoding: MPEG audio (layer I, II or III)
Comments :
Title=Crimes Of The Mind
Artist=Destroyed By Anger
Album=Destroyed By Anger
Tracknumber=6
Year=1997

[/more]

Register
(10) analbleeding, boby9052, chipsgott, infiltrator, Ludwig Hagen, okarodb, Olethros, Rosen, wreak, Z28517,
Sep 6 2020, 15:19:48 Anointing - Isaiah 1:9 [ep] (2001)


*Artist: Anointing
*Album: Isaiah 1:9 [ep]
*Year: 2001
*Genre: Groove/Thrash Metal
*Country: Brazil
*Format: mp3@CBR160kbps
*Size: 39MB

Tracklist:
1. Psalm 150 05:18
2. I.N.R.I. 05:56
3. Sin Full Nature Against The Spirit 04:04
4. Pleasure 04:55
5. He Lives 03:42
6. Mundanism 09:04
******************************
Total playing time: 32:59

[more=Technical info]
Input File: 01 - Psalm 150.mp3
Channels : 2
Sample Rate : 44100
Precision : 16-bit
Duration : 00:05:17.63 = 14007659 samples = 23822.5 CDDA sectors
File Size : 6.35M
Bit Rate : 160k
Sample Encoding: MPEG audio (layer I, II or III)
Comments :
Title=Psalm 150
Artist=Anointing
Album=Isaiah 1.9
Tracknumber=1
Year=2001
Genre=Metal

[/more]

Register
(7) boby9052, infiltrator, metala, Olethros, Reverend, Rosen, stumpheavyrock,
Sep 6 2020, 13:03:57 Anointing - A Prayer [demo] (1999)


*Artist: Anointing
*Album: A Prayer [demo]
*Year: 1999
*Genre: Groove/Thrash Metal
*Country: Brazil
*Format: mp3@CBR160kbps
*Size: 22MB

Tracklist:
1. Gênesis 1,2,3 05:17
2. Get Insider 06:09
3. Cante Aleluia 03:14
4. It's a Prayer 04:21
******************************
Total playing time: 19:01

[more=Technical info]
Input File: 02.Get Insider.mp3
Channels : 2
Sample Rate : 44100
Precision : 16-bit
Duration : 00:06:09.20 = 16281764 samples = 27690.1 CDDA sectors
File Size : 7.39M
Bit Rate : 160k
Sample Encoding: MPEG audio (layer I, II or III)
Comments :
Title=Get Insider
Artist=Anointing
Album=A Prayer (Demo)
Tracknumber=2
Year=1999
Genre=Metal

[/more]

Register
(7) after21allD, infiltrator, metala, Olethros, Reverend, Rosen, stumpheavyrock,
Sep 6 2020, 11:03:30 Anointing - Starven I [demo] (1998)


*Artist: Anointing
*Album: Starven I [demo]
*Year: 1998
*Genre: Groove/Thrash Metal
*Country: Brazil
*Format: mp3@CBR160kbps
*Size: 23MB

Tracklist:
1. Starven One 03:59
2. Hell's Messer 04:45
3. The Answer 03:15
4. What's Life 05:20
5. Songs of Soul 03:00
******************************
Total playing time: 20:19

[more=Technical info]
Input File: 1.Starven One.mp3
Channels : 2
Sample Rate : 44100
Precision : 16-bit
Duration : 00:03:59.40 = 10557364 samples = 17954.7 CDDA sectors
File Size : 4.79M
Bit Rate : 160k
Sample Encoding: MPEG audio (layer I, II or III)
Comments :
Title=Starven One
Artist=Anointing
Album=Starven I (Demo)
Tracknumber=1
Year=1998
Genre=Metal

[/more]

Register
(5) infiltrator, Olethros, Reverend, Rosen, stumpheavyrock,
Sep 4 2020, 17:28:54 Scaar - The Second Incision (2005)
320
Register
(1) stumpheavyrock,
Aug 25 2020, 17:40:23 Between The Lies - Compulsive Depressive (2017)
Register
(1) varlam4,
Aug 24 2020, 09:17:49 Dead Sleep - In The Belly Of The Beast (2018)
Register
(1) varlam4,
Aug 24 2020, 09:17:37 Dead Sleep - Dead Sleep [ep] (2016)
Register
(1) varlam4,
Aug 23 2020, 18:22:09 Lyceum - Vengeance (2017)
Register
(1) varlam4,
Aug 23 2020, 18:21:57 Lyceum - Demo 2010 [demo] (2010)
Register
(1) varlam4,
Aug 20 2020, 22:32:26 Amateur Podiatry - Pedicurious (2020)


*Artist: Amateur Podiatry
*Album: Pedicurious
*Year: 2020
*Genre: Groovy Pornogrind
*Country: United States
*Format: mp3@CBR320kbps
*Size: 76MB

Tracklist:
1. Toes Exposed 03:20
2. The Stiletto Stomp 03:33
3. All You Can Feet 03:55
4. Pedicurious 03:44
5. Walking on Sunshine 03:21
6. Footloose 03:41
7. Tickle Torture 02:47
8. Alternative Heeling 04:10
9. Old Soles 02:29
******************************
Total playing time: 31:00



[more=Technical info]
Input File: 06. Footloose.mp3
Channels : 2
Sample Rate : 44100
Precision : 16-bit
Duration : 00:03:41.39 = 9763475 samples = 16604.5 CDDA sectors
File Size : 9.06M
Bit Rate : 327k
Sample Encoding: MPEG audio (layer I, II or III)
Comments :
Title=Footloose
Artist=Amateur Podiatry
Album=Pedicurious
Tracknumber=06
Year=2020
Genre=Groovy Porngrind

[/more]

Register
(11) AlexSmith, grimoir, infiltrator, metala, Morgoth, Olethros, Rosen, scorpionmk, uk82grind, varlam4, wreak,
Aug 20 2020, 12:07:01 Pharmacist - Medical Renditions Of Grinding Decomposition (2020)


*Artist: Pharmacist
*Album: Medical Renditions Of Grinding Decomposition
*Year: 2020
*Genre: Death Metal/Goregrind
*Country: Japan
*Format: mp3@CBR320kbps
*Size: 113MB

Tracklist:
1. Gardening On Human Soils 05:49
2. Cadaveric Osseous Stalactite 06:08
3. Gastronomic Spoiled Courage 05:55
4. Fumes Of Exhumation 05:03
5. Corporal Colophony Nectar 04:23
6. Innards Saponification In Moderate Conditions 04:40
7. Eulogy Of Pathological Surgery 04:52
8. Decrepit Peristaltica 04:29
9. Emphasize Forensic Phenomena Conclusion 05:27
******************************
Total playing time: 46:46




[more=Technical info]
Input File: 06. Innards Saponification In Moderate Conditions.mp3
Channels : 2
Sample Rate : 44100
Precision : 16-bit
Duration : 00:04:40.35 = 12363611 samples = 21026.5 CDDA sectors
File Size : 11.5M
Bit Rate : 327k
Sample Encoding: MPEG audio (layer I, II or III)
Comments :
Title=Innards Saponification In Moderate Conditions
Artist=Pharmacist
Album=Medical Renditions Of Grinding Decomposition
Tracknumber=06
Year=2020
Genre=Goregrind

[/more]

Register
(17) alikkon, andreikun, atavist, carnegrinder, FUDEDOR, Hell_Is_Here, infiltrator, jollo, metala, Moonshtook, Mucupurulence, Occultas, Olethros, Pinhead666, Rosen, troll_swamp, varlam4,
Aug 20 2020, 12:00:12 Trachoma - Surgical Methods For Infectious Diseases (2020)


*Artist: Trachoma
*Album: Surgical Methods For Infectious Diseases
*Year: 2020
*Genre: Goregrind
*Country: Brazil
*Format: mp3@CBR320kbps
*Size: 62MB

Tracklist:
1. Spasmodic Movements Of a Corpse In Putrefaction Process 01:27
2. Interstitial Nephritis 00:43
3. Self-trepanation To Enhance Brain Function (Self-trepanation process) 01:11
4. Human Slaughter 00:47
5. Cystic Fibrosis 01:47
6. Surgically Diverted Biological System 01:48
7. Necrotizing Fasciitis 01:01
8. Inexorable Bloodshed In The Guts 00:42
9. Supplies For Your Own Ostomy Bag 00:51
10. Blinding Endemic Trachoma 01:38
11. Streptococcal Toxic Shock Syndrome 01:20
12. Cavitary Myasis Mimicking Peritonsilar 01:00
13. Eyelid Egenesis 01:51
14. Swelling of Lymph Nodes in Front of 01:17
15. Intestinal Amebiasis 01:24
16. Swarming of Maggots Crawling Over 01:55
17. Superimposed Bacterial Infection 01:35
18. Parasite Worm Infestation 01:15
19. Gushing Guts Disseminate From Festered Fungs Organs (Last Days Of Humanity Cover) 00:41
20. Idiopathic Osteonecrosis 02:14
******************************
Total playing time: 26:27





[more=Technical info]
Input File: 06. Surgically Diverted Biological System.mp3
Channels : 2
Sample Rate : 44100
Precision : 16-bit
Duration : 00:01:48.57 = 4788113 samples = 8143.05 CDDA sectors
File Size : 4.48M
Bit Rate : 330k
Sample Encoding: MPEG audio (layer I, II or III)
Comments :
Title=Surgically Diverted Biological System
Artist=Trachoma
Album=Surgical Methods For Infectious Diseases
Tracknumber=06
Year=2020
Genre= Goregrind

[/more]

Register
(11) alikkon, andreikun, atavist, FUDEDOR, infiltrator, jollo, Moonshtook, Olethros, Rosen, varlam4, vyacheslav,
Aug 14 2020, 21:12:35 Me Pica Un Coco - Hacer Caca Y No Limpiarse [ep] (2020)


*Artist: Me Pica Un Coco
*Album: Hacer Caca Y No Limpiarse [ep]
*Year: 2020
*Genre: Goregrind
*Country: Chile
*Format: mp3@CBR320kbps
*Size: 52MB

Tracklist:
1. Cagando Grumos Fecales De Merken Ahumado (Ardor Del Chico) 05:17
2. Ovoide Vomitado Por El Ano Del Curita 03:05
3. Saboreando Prolapsos En La Gai Parti Nait 03:05
4. Costras De Semen Pegoteadas En El Escroto 03:21
5. Embryonic Necropsy And Devourment (Carcass Cover) 05:41
6. Sugar (System of a Down Cover) 01:57
******************************
Total playing time: 22:26



[more=Technical info]
Input File: 5 Embryonic Necropsy And Devourment (Carcass Cover).mp3
Channels : 2
Sample Rate : 48000
Precision : 16-bit
Duration : 00:05:40.63 = 16350480 samples ~ 25547.6 CDDA sectors
File Size : 13.6M
Bit Rate : 320k
Sample Encoding: MPEG audio (layer I, II or III)
Comments :
Title=Embryonic Necropsy And Devourment (Carcass Cover)
Artist=Me Pica Un Coco
Album=Hacer Caca Y No Limpiarse( EP)
Tracknumber=5
Year=2020
Genre=Goregrind

[/more]

Register
(5) carnegrinder, infiltrator, Olethros, Pinhead666, Rosen,
Aug 13 2020, 19:46:07 Perpetual Warfare - The Age Of War (2013)
Register
(2) Ingvar, Wail,
Aug 13 2020, 19:45:50 Perpetual Warfare - Justicia, Libertad Y Decadencia (2010)
Register
(2) Ingvar, Wail,
Aug 13 2020, 15:13:13 Perpetual Warfare - Hellhounds [ep] (2020)


*Artist: Perpetual Warfare
*Album: Hellhounds [ep]
*Year: 2020
*Genre: Thrash Metal
*Country: Colombia
*Format: mp3@CBR320kbps
*Size: 67MB

Tracklist:
1. The Agony 03:08
2. Hellhounds 02:31
3. My Vengeance 02:33
4. Realidad, Maldita Realidad 02:30
5. Pumpking Head 02:26
6. Poder De Matar (Live) 06:37
7. Muerto en Pogo (Live) 06:04
8. Thrash is Speed (Live) 03:40
******************************
Total playing time: 29:29



[more=Technical info]
Input File: 6 Poder De Matar (live).mp3
Channels : 2
Sample Rate : 44100
Precision : 16-bit
Duration : 00:06:37.69 = 17537953 samples = 29826.5 CDDA sectors
File Size : 15.9M
Bit Rate : 320k
Sample Encoding: MPEG audio (layer I, II or III)
Comments :
Title=Poder De Matar (live)
Artist=Perpetual Warfare
Album=Hellhounds (EP)
Tracknumber=6
Year=2020
Genre=Thrash Metal

[/more]

Register
(16) after21allD, boby9052, cist, gwar, HMHamster, infiltrator, Lukittaz, Mogozoz, Olethros, Rosen, sergsazan, stumpheavyrock, Styx, Wail, wanderer73, wgs73,
Aug 9 2020, 20:12:01 Absinthe - Woods Of Hell [demo] (2005)


*Artist: Absinthe
*Album: Woods Of Hell [demo]
*Year: 2005
*Genre: Thrash/Death Metal
*Country: France
*Format: mp3@CBR320kbps
*Size: 41MB

Tracklist:
1. War
2. Patozorette
3. Breath of Brutality
4. Drink and Die...
5. Rotten
6. Woods of Hell
******************************
Total playing time: 19:49

[more=Technical info]
Input File: 6-Woods Of Hell.mp3
Channels : 2
Sample Rate : 44100
Precision : 16-bit
Duration : 00:04:02.79 = 10706863 samples = 18209 CDDA sectors
File Size : 9.71M
Bit Rate : 320k
Sample Encoding: MPEG audio (layer I, II or III)
Comments :
Title=Woods Of Hell
Artist=Absinthe
Album=Woods of Hell Demo
Tracknumber=6

[/more]

Register
(8) infiltrator, Olethros, Rosen, SadistikSlayer, Svafrlami, varlam4, wanderer73, wreak,

33 Pages V   1 2 3 > » 
- Lo-Fi Version Support form
Copyrights and abuse reports form
Time is now: 1st October 2020 - 05:21:46