Welcome Guest ( Log In | Register )

История благодарностей участнику RotAnus ::: Спасибо сказали: 2925 раз(а)
Дата поста: В теме: За сообщение: Спасибо сказали:
Sep 28 2019, 10:45:03 Pain Is - Pain Is [ep] (2019)


*Artist: Pain Is
*Album: Pain Is [ep]
*Year: 2019
*Genre: Groove Metal
*Country: Austria
*Format: mp3@CBR320kbps
*Size: 46MB

Tracklist:
1. All Hell Breaks Loose 04:02
2. Never Walk Alone 03:59
3. Don't Put the Blame on Me 04:08
4. Making Me Happy 04:00
5. Don't Let Us Down (remastered) 04:03
******************************
Total playing time: 20:12





[more=Technical info]
Input File: 1 All Hell Breaks Loose.mp3
Channels : 2
Sample Rate : 48000
Precision : 16-bit
Duration : 00:04:02.89 = 11658720 samples ~ 18216.8 CDDA sectors
File Size : 9.72M
Bit Rate : 320k
Sample Encoding: MPEG audio (layer I, II or III)
Comments :
Title=All Hell Breaks Loose
Artist=Pain Is
Album=Pain Is (EP)
Tracknumber=1
Year=2019
Genre=Groove Metal

[/more]

Register
(8) artscald, boby9052, chipsgott, infiltrator, Olethros, robertho777, Rosen, wreak,
Sep 15 2019, 19:51:32 Extinction Protocol - Aeonic Obliteration (2013)
Register
(2) nikolay81, SyncestrA,
Sep 8 2019, 11:37:44 Cerebral Enema - Erase The Human Dung (2019)
Register
(1) morbidangelo,
Sep 8 2019, 11:37:21 Cerebral Enema - Amateur Porn [demo] (2017)
Register
(1) morbidangelo,
Sep 8 2019, 11:36:57 Cerebral Enema - Demo 2014 [demo] (2014)
Register
(1) morbidangelo,
Sep 8 2019, 11:34:11 Sewer - Gore Groovy Madness [ep] (2015)


*Artist: Sewer
*Album: Gore Groovy Madness [ep]
*Year: 2015
*Genre: Groovy Goregrind
*Country: Brazil
*Format: mp3@CBR320kbps
*Size: 33MB

Tracklist:
1. Morlock's Crocodile Orgy 03:05
2. Slaughter With Bored Eyes 01:51
3. Coq Beach Sewer Mermaid 02:51
4. Endless Dirt Path 02:03
5. Merde's Payback 02:34
6. Underworld Rat King 01:59
******************************
Total playing time: 14:23

[more=Technical info]
Input File: 06 Underworld Rat King.mp3
Channels : 2
Sample Rate : 44100
Precision : 16-bit
Duration : 00:01:59.36 = 5263776 samples = 8952 CDDA sectors
File Size : 4.97M
Bit Rate : 333k
Sample Encoding: MPEG audio (layer I, II or III)
Comments :
Title=Underworld Rat King
Artist=Sewer
Album=GORE GROOVY MADNESS
Tracknumber=6
Year=2015

[/more]

Register
(5) infiltrator, Olethros, Orkkh, Rosen, Герб,
Sep 8 2019, 11:29:38 Bizarre Ejaculation & Bowel Evacuation & Cerebral Enema & Anal Fistfuckers & Hxmxrxs & Gecinyelő - 6 X Kotstulle Zum Mitnehmen [split] (2016)


*Artist: Bizarre Ejaculation & Bowel Evacuation & Cerebral Enema & Anal Fistfuckers & Hxmxrxs & Gecinyelő
*Album: 6 X Kotstulle Zum Mitnehmen [split]
*Year: 2017
*Genre: Groovy Porno Goregrind | Coprogrind | Groovy Goregrind | Coprogrind | Porngrind | Porngrind
*Country: Mexico | Germany | Germany | Germany | Germany | Hungary
*Format: mp3@CBR320kbps
*Size: 130MB

Tracklist:
Bizarre Ejaculation:
1. Midget Fucking Olympics 01:59
2. Genital Apotemnophilia 01:39
3. Infibulated, Sodomised and Crucified 01:48
4. Pornobsession 01:33
5. Frenzied Facefuck Fanatic 01:29
Bowel Evacuation:
6. Human Toilet 03:01
7. Oh Mein Gott, Wie Soll Der Denn Da Rein? 02:14
8. Blowjob Von Hinten 02:36
9. Cuntfleshfilet - Fastfood vs. Slowfood 02:45
Cerebral Enema:
10. Eintauchen in den Plasmapool 02:32
11. Paranormal Virginity 01:16
12. Wiwi´s of Flesh and Blood 01:51
13. Foetus Blaster 01:13
14. I Am Orphancrippler 02:13
15. Zombie Apocalypse (Mortician cover) 02:53
Anal Fistfuckers:
16. Scat Wizard 00:31
17. Das Besteigen Der Lammer 01:07
18. Liebling, Ich habe die Kinder Gefickt 01:12
19. Die Verhurte Krankenschwester (Rektal Fetus cover) 01:18
20. LSD Anusrakete 01:08
21. Scatnado 00:57
22. Torso (Machetazo cover) 01:31
23. Scatnado (Demo 2009) 00:58
HxMxRxS:
24. Fame Bitch Fuck for Fameness 02:02
25. Fistfucking Fury 01:44
26. Kick in her Teeth (Toothless Blowjob) 00:15
27. Black Metal ist Kot 00:43
28. Cancer Dancer 00:37
29. Bitchslap the Unborn 01:52
30. Peewatch 00:39
31. Vomit Dolls Rape Bonanza 02:06
32. Living (2 Minute Dreka cover) 00:08
33. Die in Pain (Carcass cover) 00:10
34. You Suffer (Napalm Death cover) 00:09
Gecinyelő:
35. Cumlett 01:35
36. Menstrual Cupcakes 01:24
37. Xenophilic Desires 01:51
38. Night of the Titsuckers 01:45
39. Dildozer 02:20
******************************
Total playing time: 59:04

[more=Technical info]
Input File: 06 Bowel Evacuation - Human Toilet.mp3
Channels : 2
Sample Rate : 44100
Precision : 16-bit
Duration : 00:03:00.57 = 7963181 samples = 13542.8 CDDA sectors
File Size : 7.22M
Bit Rate : 320k
Sample Encoding: MPEG audio (layer I, II or III)
Comments :
Title=Human Toilet
Artist=Bowel Evacuation
Album=6 x Kotstulle Zum Mitnehmen (Split)
Tracknumber=6

[/more]

Register
(9) artscald, craP_cillA, infiltrator, morbidangelo, Persian Gorgrinder, Rosen, uk82, wreak, Герб,
Sep 8 2019, 11:27:39 Sewer & Cerebral Enema - Sewer/Cerebral Enema [split] (2016)


*Artist: Sewer & Cerebral Enema
*Album: Sewer/Cerebral Enema [split]
*Year: 2016
*Genre: Groovy Goregrind | Groovy Goregrind
*Country: Brazil | Germany
*Format: mp3@VBR220kbps
*Size: 21MB

Tracklist:
Sewer:
1. Crackhead Zombie Groove 03:01
2. Monstrous Trash Eaters 01:49
Cerebral Enema:
3. Adrenogenital FKK 01:40
4. Awesome Tales of Superaids and Megatripper 01:30
5. Cerebral Enema 01:49
6. Fremdkörper Scheide Kind 01:25
7. Deine Mudda 02:29
******************************
Total playing time: 13:43

[more=Technical info]
Input File: 2 Sewer - Monstrous Trash Eaters.mp3
Channels : 2
Sample Rate : 44100
Precision : 16-bit
Duration : 00:01:49.07 = 4809855 samples = 8180.03 CDDA sectors
File Size : 4.53M
Bit Rate : 332k
Sample Encoding: MPEG audio (layer I, II or III)
Comments :
Title=Monstrous Trash Eaters
Artist=Sewer
Album=SEWER / CEREBRAL ENEMA
Tracknumber=2
Year=2016

[/more]

Register
(7) artscald, infiltrator, Lanceatum, morbidangelo, Rosen, wreak, Герб,
Sep 5 2019, 19:37:42 Hangover - Is Time To Change (2011)


*Artist: Hangover
*Album: Is Time To Change
*Year: 2011
*Genre: Melodic Groove Metal
*Country: Italy
*Format: mp3@CBR192kbps
*Size: 40MB

Tracklist:
1. Intro 00:29
2. My Best Day 03:27
3. Another Day 03:39
4. Changes 04:35
5. Hangover 04:03
6. Coward 04:41
7. Prayer 03:35
8. My Best Day (Acoustic) 05:01
******************************
Total playing time: 29:30

[more=Technical info]
Input File: 6 Coward.mp3
Channels : 2
Sample Rate : 44100
Precision : 16-bit
Duration : 00:04:41.20 = 12400700 samples = 21089.6 CDDA sectors
File Size : 6.75M
Bit Rate : 192k
Sample Encoding: MPEG audio (layer I, II or III)
Comments :
Title=Coward
Artist=Hangover
Album=Is Time to Change
Tracknumber=6
Year=2011
Genre=Metal

[/more]

Register
(7) artscald, Mogozoz, Olethros, Rosen, spiritualdecay666, stumpheavyrock, wreak,
Sep 5 2019, 11:39:49 Alíria - Alíria (2014)


*Artist: Alíria
*Album: Alíria
*Year: 2014
*Genre: Groove Metal
*Country: Brazil
*Format: mp3@CBR320kbps
*Size: 77MB

Tracklist:
1. Intro 01:14
2. Vozes da Morte 05:37
3. Caminhos 04:30
4. Guerra 05:47
5. Além da Passagem 03:14
6. A Redenção 03:17
7. Amorfa Existência 04:59
8. Deus 04:52
******************************
Total playing time: 33:30





[more=Technical info]
Input File: 06 - A Redenção.mp3
Channels : 2
Sample Rate : 44100
Precision : 16-bit
Duration : 00:03:17.60 = 8714336 samples = 14820.3 CDDA sectors
File Size : 7.91M
Bit Rate : 320k
Sample Encoding: MPEG audio (layer I, II or III)
Comments :
Title=A Redenção
Artist=Alíria
Album=Alíria
Tracknumber=6
Year=2014

[/more]

Register
(6) artscald, boby9052, chipsgott, Olethros, Rosen, wreak,
Sep 4 2019, 18:46:28 Scataholic - Attack Of The Shiteaters! (2017)
Register
(2) uk82, Герб,
Sep 3 2019, 15:39:32 Horde Casket - Landscape Of Cadavers (2008)
320
Register
(1) wendigo,
Aug 31 2019, 13:07:56 Stormbringer - Abandon Hope (1999)
320
Register
(3) morbidangelo, rickzammuto, wendigo,
Aug 29 2019, 19:17:42 Virgin Sin - Brotherhood Of Freaks (2007)
320
Register
(1) Wail,
Aug 27 2019, 13:03:04 Source - Left Alone (2003)
Register
320
(1) stumpheavyrock,
Aug 26 2019, 14:27:34 Palmetta - Kavalkád (2018)


*Artist: Palmetta
*Album: Kavalkád
*Year: 2018
*Genre: Folk Metal
*Country: Hungary
*Format: mp3@CBR320kbps
*Size: 115MB

Tracklist:
1. Hej Tulipán, Tulipán... 03:57
2. Szép Holdvilág Volt Az Este... 02:58
3. Esik Eső Szép Csöndösen Csöpörög... 04:24
4. Átvezető I. 00:29
5. Túl A Vízen... 03:54
6. Látod Édesanyám... 05:02
7. Indulj El Egy Úton... 04:18
8. Árvalányhaj Lengedez... 02:19
9. Úgy Elmenyek Arra Helyre... 03:30
10. Csillagok, Csillagok... 03:56
11. Átvezető II. 00:44
12. Édes-kedves Feleségem... 02:35
13. Szivárványos Az Ég Alja... 04:13
14. Átvezető III. 00:35
15. Ha Kimegyek A Doberdói Harctérre... 03:34
16. Nincsen Rózsa...(Népzene) 03:37
******************************
Total playing time: 50:05




[more=Technical info]
Input File: 12 - Édes-kedves feleségem....mp3
Channels : 2
Sample Rate : 44100
Precision : 16-bit
Duration : 00:00:00.16 = 6836 samples = 11.6259 CDDA sectors
File Size : 6.32M
Bit Rate : 326M
Sample Encoding: MPEG audio (layer I, II or III)
Comments :
Title=Édes-kedves feleségem...
Artist=Palmetta
Album=Kavalkád
Tracknumber=12
Year=2018
Discnumber=1/1

[/more]

Register
(21) ahp, artscald, aviacademy, Cartman223, djsema4, gwar, gwynnbleid, infiltrator, Mogozoz, oldvarg, Olethros, Orkkh, Rosen, Surt, talismanFS, tOmV, VALERY, wreak, zhol, Сварог Барг, скептик,
Aug 24 2019, 11:38:25 Murdeath - Apocalipse Sangrento [ep] (2014)
Register
(1) Wail,
Aug 24 2019, 11:37:57 Murdeath - Dragged To Hell [demo] (2013)
192
Register
(1) Wail,
Aug 22 2019, 11:22:14 Parallaxis - Psychotronic Poetry (2009)
Register
(2) kimkayoung, stumpheavyrock,
Aug 19 2019, 08:34:28 Purifire - Godevil Circus (2019)


*Artist: Purifire
*Album: Godevil Circus
*Year: 2019
*Genre: Groove Metal
*Country: Poland
*Format: mp3@CBR320kbps
*Size: 62MB

Tracklist:
1. Godevil 03:45
2. Danse Macabre 04:07
3. Legion of the Broken Sun 04:41
4. Spine Is for the Weak 04:48
5. Czarne wiatry 05:20
6. Doppelganger 02:45
******************************
Total playing time: 25:26





[more=Technical info]
Input File: 03. Legion Of The Broken Sun.mp3
Channels : 2
Sample Rate : 44100
Precision : 16-bit
Duration : 00:04:41.54 = 12415914 samples = 21115.5 CDDA sectors
File Size : 11.5M
Bit Rate : 327k
Sample Encoding: MPEG audio (layer I, II or III)
Comments :
Title=Legion Of The Broken Sun
Artist=Purifire
Album=Godevil Circus
Tracknumber=3
Year=2019
Genre=Groove Metal

[/more]

Register
(9) artscald, boby9052, chipsgott, infiltrator, let4ikmiha, Ludwig Hagen, Olethros, Rosen, wreak,
Aug 15 2019, 18:41:17 Elkir - Elkir [ep] (2019)


*Artist: Elkir
*Album: Elkir [ep]
*Year: 2019
*Genre: Folk Metal
*Country: Italy
*Format: mp3@CBR320kbps
*Size: 49MB

Tracklist:
1. Overcome the Edge 04:33
2. I Will Return 03:34
3. Faun Dance 04:03
4. Seven Warriors 03:55
5. Last Request 05:10
******************************
Total playing time: 21:15





[more=Technical info]
Input File: 1 - Overcome the Edge.mp3
Channels : 2
Sample Rate : 44100
Precision : 16-bit
Duration : 00:04:33.89 = 12078329 samples = 20541.4 CDDA sectors
File Size : 11.0M
Bit Rate : 320k
Sample Encoding: MPEG audio (layer I, II or III)
Comments :
Title=Overcome the Edge
Artist=Elkir
Album=Elkir (EP)
Tracknumber=1
Year=2019
Genre=Folk Metal

[/more]

Register
(19) artscald, Cartman223, chipsgott, djsema4, Druidir, fabriziomagno, gwar, gwynnbleid, Ludwig Hagen, metalwoman, Mogozoz, oldvarg, Olethros, Olrak, Rosen, talismanFS, v.v.m, wreak, zhol,
Aug 11 2019, 17:39:38 Vortex - Deeper Beyond [demo] (2004)


*Artist: Vortex
*Album: Deeper Beyond [demo]
*Year: 2004
*Genre: Progressive Death/Thrash Metal
*Country: Bulgaria
*Format: mp3@CBR320kbps
*Size: 115MB

Tracklist:
1. Plural Speech 06:02
2. Broken Mirror 05:08
3. Deeper Beyond 05:24
4. Psycho 05:24
5. I remember 06:08
6. Burning Beliefs 04:52
7. The Edge 06:36
8. Spreading the Hate 03:37
9. Stuck In Myself 07:06
******************************
Total playing time: 50:17



[more=Technical info]
Input File: 06 Burning Beliefs.mp3
Channels : 2
Sample Rate : 44100
Precision : 16-bit
Duration : 00:04:52.83 = 12913583 samples = 21961.9 CDDA sectors
File Size : 11.7M
Bit Rate : 321k
Sample Encoding: MPEG audio (layer I, II or III)
Comments :
Title=Burning Beliefs
Artist=Vortex
Album=Deeper Beyond demo
Tracknumber=6
Year=2014

[/more]

Register
(13) artscald, Hell_Is_Here, infiltrator, kimkayoung, Ludwig Hagen, magikart, metala, METALHUNTER, Olethros, Rosen, stumpheavyrock, thenecromancer, wreak,
Aug 8 2019, 13:06:01 Vendetta Fucking Metal - V (2018)


*Artist: Vendetta Fucking Metal
*Album: V
*Year: 2018
*Genre: Groove Metal/Hardcore
*Country: Spain
*Format: mp3@VBR204kbps
*Size: 35MB

Tracklist:
1. El Fuego Camina Conmigo 02:47
2. El Anticristo ( feat Estragos Trifulka ) 03:25
3. He Venido a Ganar 02:33
4. Mi Familia ( feat Rana from Proud´z ) 02:58
5. Aún Somos Fuertes 01:02
6. I´m apocalypse 03:35
7. Mirada Al Frente ( feat Jarfaiter ) 03:08
8. Traficantes de Influencias ( feat El Sicario ) 04:28
******************************
Total playing time: 23:56



[more=Technical info]
Input File: 6. I\'m Apocalypse.mp3
Channels : 2
Sample Rate : 44100
Precision : 16-bit
Duration : 00:03:35.61 = 9508577 samples = 16171 CDDA sectors
File Size : 5.36M
Bit Rate : 199k
Sample Encoding: MPEG audio (layer I, II or III)
Comments :
Title=6. I'm Apocalypse
Artist=Vendetta Fucking Metal
Album=Vendetta Fucking Metal - V
Tracknumber=6
Year=2018
Genre=Hardcore

[/more]

Register
(9) artscald, infiltrator, KKK1488, Olethros, Rosen, SatanicPanzer, TeamatSE, Wolfmirovich, wreak,
Aug 8 2019, 10:34:24 Instruction Killer - Promo 2015 [promo] (2015)


*Artist: Instruction Killer
*Album: Promo 2015 [promo]
*Year: 2015
*Genre: Brutal Death Metal
*Country: Indonesia
*Format: mp3@CBR320kbps
*Size: 12MB

Tracklist:
1. Agresi Para Penghancur 03:02
2. Propaganda Sesat 02:31
******************************
Total playing time: 5:33



[more=Technical info]
Input File: 02 Propaganda Sesat.mp3
Channels : 2
Sample Rate : 44100
Precision : 16-bit
Duration : 00:02:31.16 = 6665980 samples = 11336.7 CDDA sectors
File Size : 6.16M
Bit Rate : 326k
Sample Encoding: MPEG audio (layer I, II or III)
Comments :
Title=Propaganda Sesat
Artist=Instruction Killer
Album=Promo 2015
Year=2015
Genre=Brutal Death Metal

[/more]

Register
(6) artscald, infiltrator, Olethros, Rosen, scorpionmk, Герб,
Aug 5 2019, 18:33:19 Enki - Res Non Verba (2019)


*Artist: Enki
*Album: Res Non Verba
*Year: 2019
*Genre: Melodic Groove Metal
*Country: Spain
*Format: mp3@CBR320kbps
*Size: 46MB

Tracklist:
1.Myself 03:18
2.Denial 03:40
3.Equilibrium 03:53
4.Surface 03:40
5.Ignorance 01:59
6.Serpent 04:02
******************************
Total playing time: 20:32



[more=Technical info]
Input File: 6-Serpent.mp3
Channels : 2
Sample Rate : 44100
Precision : 16-bit
Duration : 00:04:02.30 = 10685518 samples = 18172.6 CDDA sectors
File Size : 9.69M
Bit Rate : 320k
Sample Encoding: MPEG audio (layer I, II or III)
Comments :
Title=Serpent
Artist=Enki
Album=Res Non Verba
Tracknumber=6
Year=2019
Genre=Metal

[/more]

Register
(8) artscald, infiltrator, METALHUNTER, Olethros, Olrak, Rosen, terron, wreak,

27 Pages V  < 1 2 3 4 > » 
- Lo-Fi Version Support form
Copyrights and abuse reports form
Time is now: 8th December 2019 - 13:50:35