Welcome Guest ( Log In | Register )

История благодарностей участнику RotAnus ::: Спасибо сказали: 3493 раз(а)
Дата поста: В теме: За сообщение: Спасибо сказали:
May 24 2020, 15:16:00 Tendencia - Cargando Cruces (2018)


*Artist: Tendencia
*Album: Cargando Cruces
*Year: 2018
*Genre: Groove/Thrash/Tribal Metal
*Country: Cuba
*Format: mp3@CBR320kbps
*Size: 93MB

Tracklist:
1. Asesino 04:26
2. El chivatón de mi barrio 06:18
3. Donde la muerte se hace respetar 04:13
4. Cargando cruces 04:41
5. Solo bebemos (los días que hay noticiero) 03:25
6. Actitud 05:14
7. La trampa 03:53
8. Libertad 02:04
9. Himno de pinar del río 01:33
10. Suite XX 04:48
******************************
Total playing time: 40:35

[more=Technical info]
Input File: 06 - Actitud.mp3
Channels : 2
Sample Rate : 44100
Precision : 16-bit
Duration : 00:05:14.64 = 13875580 samples = 23597.9 CDDA sectors
File Size : 12.9M
Bit Rate : 329k
Sample Encoding: MPEG audio (layer I, II or III)
Comments :
Title=Actitud
Artist=Tendencia
Album=Cargando Cruces
Tracknumber=6/10
Year=2018
Genre=Metal
Discnumber=1/1

[/more]

Register
(7) chipsgott, infiltrator, Lukittaz, Olethros, Reverend, Rosen, varlam4,
May 24 2020, 15:14:47 Tendencia - Confidencial (2009)


*Artist: Tendencia
*Album: Confidencial
*Year: 2009
*Genre: Groove/Thrash/Tribal Metal
*Country: Cuba
*Format: mp3@CBR320kbps
*Size: 109MB

Tracklist:
1. A degüello 04:57
2. Clandestinos 03:35
3. Llanto del desierto (Avalanch cover) 06:12
4. Punto 04:12
5. Guantánamo 05:02
6. Estoy como nunca 03:33
7. Toda mi fuerza 05:21
8. Pa'l Chapeao 04:29
9. Guantanamera (Fe de Ratas cover) 04:52
10. La tumba que tumba (version) 05:52
******************************
Total playing time: 48:05

[more=Technical info]
Input File: 06 - Estoy Como Nunca.mp3
Channels : 2
Sample Rate : 44100
Precision : 16-bit
Duration : 00:03:33.17 = 9400973 samples = 15988 CDDA sectors
File Size : 8.53M
Bit Rate : 320k
Sample Encoding: MPEG audio (layer I, II or III)
Comments :
Title=Estoy Como Nunca
Artist=Tendencia
Album=Confidencial
Tracknumber=06
Year=2009

[/more]

Register
(7) chipsgott, infiltrator, Olethros, Reverend, Rosen, stumpheavyrock, varlam4,
May 24 2020, 15:13:40 Tendencia - Re-Evolución (2001)


*Artist: Tendencia
*Album: Re-Evolución
*Year: 2001
*Genre: Groove/Thrash/Tribal Metal
*Country: Cuba
*Format: mp3@CBR320kbps
*Size: 95MB

Tracklist:
1. Mr. Fula 02:56
2. Sin futuro 04:33
3. Por tus venas 05:01
4. Egofilia 04:36
5. De igual a igual 03:44
6. Que te trague la tierra 05:30
7. Naciendo vivos (ya muertos) 02:28
8. La Tumba que tumba 03:36
9. Moñunga (Ritual en cazuela) 03:59
10. Miedo interno 06:09
11. Noumeno 02:15
******************************
Total playing time: 44:47

[more=Technical info]
Input File: 06 - Que Te Trague La Tierra.mp3
Channels : 2
Sample Rate : 44100
Precision : 16-bit
Duration : 00:05:30.29 = 14565657 samples = 24771.5 CDDA sectors
File Size : 13.2M
Bit Rate : 320k
Sample Encoding: MPEG audio (layer I, II or III)
Comments :
Title=Que Te Trague La Tierra
Artist=Tendencia
Album=Re-evolución
Tracknumber=06
Year=2001

[/more]

Register
(7) chipsgott, infiltrator, Olethros, Reverend, Rosen, stumpheavyrock, varlam4,
May 23 2020, 19:49:52 Avicularia - Born To Be Vile (2009)
320
Register
(1) Korpse,
May 22 2020, 18:08:43 Distruzione Di Massa - Varcando Ogni Lucido Limite [ep] (2010)


*Artist: Distruzione Di Massa
*Album: Varcando Ogni Lucido Limite [ep]
*Year: 2010
*Genre: Death Metal/Grindcore
*Country: Italy
*Format: mp3@VBR245kbps
*Size: 42MB

Tracklist:
1. Varcando ogni limite 04:50
2. Invoco la guerra nucleare 02:25
3. Supermercato della carne 02:28
4. 'Shroomin' 05:25
5. Lucido 07:43
******************************
Total playing time: 22:51



[more=Technical info]
Input File: 1 Varcando ogni limite.mp3
Channels : 2
Sample Rate : 48000
Precision : 16-bit
Duration : 00:04:45.91 = 13723776 samples ~ 21443.4 CDDA sectors
File Size : 9.59M
Bit Rate : 268k
Sample Encoding: MPEG audio (layer I, II or III)
Comments :
Title=Varcando ogni limite
Artist=Distruzione di Massa
Album=Varcando ogni lucido limite (EP)
Tracknumber=1
Year=2016

[/more]

Register
(6) infiltrator, killingod, Olethros, Rosen, varlam4, vyacheslav,
May 13 2020, 19:30:28 Roadkill - Killers On The Road [ep] (2017)


*Artist: Roadkill
*Album: Killers On The Road [ep]
*Year: 2017
*Genre: Thrash Metal
*Country: Austria
*Format: mp3@CBR320kbps
*Size: 27MB

Tracklist:
1. Headlock 03:15
2. Haunting Fear 03:43
3. Killers on the Road 04:37
******************************
Total playing time: 11:35

[more=Technical info]
Input File: 3 Killers on the Road.mp3
Channels : 2
Sample Rate : 44100
Precision : 16-bit
Duration : 00:04:37.60 = 12241940 samples = 20819.6 CDDA sectors
File Size : 11.1M
Bit Rate : 320k
Sample Encoding: MPEG audio (layer I, II or III)
Comments :
Title=Killers on the Road
Artist= Roadkill
Album=Killers on the Road (EP)
Tracknumber=3
Year=2017
Genre=Thrash Metal

[/more]

Register
(13) andreikun, atavist, boby9052, Dark Sage, gwar, HMHamster, infiltrator, Olethros, Reverend, Rosen, sergsazan, stumpheavyrock, varlam4,
May 13 2020, 19:24:13 Roadkill - Roadkill (2016)


*Artist: Roadkill
*Album: Roadkill
*Year: 2016
*Genre: Thrash Metal
*Country: Austria
*Format: mp3@CBR320kbps
*Size: 83MB

Tracklist:
1. Tribilin 06:12
2. Emotions 03:34
3. The Evil in me 04:32
4. One Hell of a Ride 04:59
5. Rhythm of Life 03:36
6. Leader of Destiny 04:46
7. Hate 04:10
8. Do or Die 04:31
******************************
Total playing time: 36:20





[more=Technical info]
Input File: 6 Leader of Destiny.mp3
Channels : 2
Sample Rate : 44100
Precision : 16-bit
Duration : 00:04:46.61 = 12639413 samples = 21495.6 CDDA sectors
File Size : 11.5M
Bit Rate : 320k
Sample Encoding: MPEG audio (layer I, II or III)
Comments :
Title=Leader of Destiny
Artist=Roadkill
Album=Roadkill
Tracknumber=6
Year=2016
Genre=Thrash Metal

[/more]

Register
(14) andreikun, atavist, boby9052, Dark Sage, gwar, HMHamster, infiltrator, Lukittaz, Olethros, Reverend, Rosen, sergsazan, stumpheavyrock, varlam4,
May 12 2020, 11:43:14 Jesus Piece & Malice At The Palace - Jesus Piece/Malice At The Palace [split] (2017)


*Artist: Jesus Piece & Malice At The Palace
*Album: Jesus Piece/Malice At The Palace [split]
*Year: 2017
*Genre: Metalcore/Sludge | Hardcore/Groove Metal
*Country: United States | United States
*Format: mp3@CBR320kbps
*Size: 30MB

Tracklist:
Jesus Piece:
01. Hivemind 03:49
02. Deny Reality 02:40
Malice At The Palace:
03. My Target 02:25
04. S.Y.C. 02:52
******************************
Total playing time: 11:46

[more=Technical info]
Input File: 02 Deny Reality.mp3
Channels : 2
Sample Rate : 44100
Precision : 16-bit
Duration : 00:02:40.14 = 7062130 samples = 12010.4 CDDA sectors
File Size : 9.26M
Bit Rate : 463k
Sample Encoding: MPEG audio (layer I, II or III)
Comments :
Title=Deny Reality
Artist=Jesus Piece
Album=Split
Tracknumber=2/4
Year=2017-05-18
Genre=Metallic Hardcore
Discnumber=1/1

[/more]

Register
(5) Angry_Chair, infiltrator, Rosen, sludge666, varlam4,
May 12 2020, 11:42:12 Jesus Piece - Summer '16 Promo [promo] (2016)


*Artist: Jesus Piece
*Album: Summer '16 Promo [promo]
*Year: 2016
*Genre: Metalcore/Sludge
*Country: United States
*Format: mp3@CBR320kbps
*Size: 14MB

Tracklist:
1. Greed 02:55
2. Mantra 01:06
3. Left to Drown 02:00
******************************
Total playing time: 6:01

[more=Technical info]
Input File: 03 - Left to Drown.mp3
Channels : 2
Sample Rate : 44100
Precision : 16-bit
Duration : 00:02:00.17 = 5299629 samples = 9012.97 CDDA sectors
File Size : 4.91M
Bit Rate : 327k
Sample Encoding: MPEG audio (layer I, II or III)
Comments :
Title=Left to Drown
Artist=Jesus Piece
Album=Summer '16 Promo
Tracknumber=3
Year=2016

[/more]

Register
(5) Angry_Chair, infiltrator, Olethros, Rosen, varlam4,
May 12 2020, 11:41:02 Jesus Piece - Jesus Piece [ep] (2015)


*Artist: Jesus Piece
*Album: Jesus Piece [ep]
*Year: 2015
*Genre: Metalcore/Sludge
*Country: United States
*Format: mp3@CBR320kbps
*Size: 31MB

Tracklist:
1. Lost Control 01:52
2. Sinking 03:41
3. Oppressor 02:17
4. Coward's Way 02:52
5. Conjure Life 02:52
******************************
Total playing time: 13:34

[more=Technical info]
Input File: 01 - Lost Control.mp3
Channels : 2
Sample Rate : 44100
Precision : 16-bit
Duration : 00:01:52.26 = 4950534 samples = 8419.28 CDDA sectors
File Size : 4.60M
Bit Rate : 328k
Sample Encoding: MPEG audio (layer I, II or III)
Comments :
Title=Lost Control
Artist=Jesus Piece
Album=S/T EP
Tracknumber=1
Year=2015

[/more]

Register
(6) Angry_Chair, infiltrator, Olethros, Rosen, stumpheavyrock, varlam4,
May 12 2020, 11:26:35 Jesus Piece - Only Self (2018)
Register
(3) Angry_Chair, sludge666, varlam4,
May 11 2020, 19:22:49 Seducer - The Invisible Pain [ep] (2013)


*Artist: Seducer
*Album: The Invisible Pain [ep]
*Year: 2013
*Genre: Heavy/Thrash Metal
*Country: United States
*Format: mp3@CBR192kbps
*Size: 29MB

Tracklist:
1. Invisible Pain 05:04
2. Eye to Ear 05:24
3. Casting No Shadows 05:34
4. All I Had to Give 05:22
******************************
Total playing time: 21:24

[more=Technical info]
Input File: 2 Eye To Ear.mp3
Channels : 2
Sample Rate : 44100
Precision : 16-bit
Duration : 00:05:25.84 = 14369324 samples = 24437.6 CDDA sectors
File Size : 7.85M
Bit Rate : 193k
Sample Encoding: MPEG audio (layer I, II or III)
Comments :
Title=Eye To Ear
Artist=Seducer
Album=The Invisible Pain - EP
Tracknumber=2
Genre=Thrash Metal

[/more]

Register
(4) boby9052, infiltrator, Olethros, stumpheavyrock,
May 10 2020, 20:11:31 Hostility - Uncompromised (2006)
Register
(1) analbleeding,
May 10 2020, 17:43:12 Cobra Czar - Faith In Failure [ep] (2019)


*Artist: Cobra Czar
*Album: Faith In Failure [ep]
*Year: 2019
*Genre: Groove/Sludge/Doom Metal
*Country: United States
*Format: mp3@CBR320kbps
*Size: 27MB

Tracklist:
1. Faith In Failure 04:55
2. Corona 03:50
3. Serpent's Tongue 02:40
******************************
Total playing time: 11:25



[more=Technical info]
Input File: 03 Serpent\'s Tongue.mp3
Channels : 2
Sample Rate : 44100
Precision : 16-bit
Duration : 00:02:40.92 = 7096704 samples = 12069.2 CDDA sectors
File Size : 6.52M
Bit Rate : 324k
Sample Encoding: MPEG audio (layer I, II or III)
Comments :
Title=Serpent's Tongue
Artist=Cobra Czar
Album=Faith In Failure
Tracknumber=3
Year=2019

[/more]

Register
(3) Olethros, Rosen, VALERY,
May 8 2020, 10:58:08 Sabbatariam - From Dust To Dust [ep] (2007)
128
Register
(1) stumpheavyrock,
May 6 2020, 12:54:45 And Hell Followed - Empire Of Ash (2006)
320
Register
(2) stumpheavyrock, varlam4,
May 6 2020, 07:38:43 Force Fed Chaos - Kept Beneath (2012)


*Artist: Force Fed Chaos
*Album: Kept Beneath
*Year: 2012
*Genre: Groove/Death/Nu Metal
*Country: United States
*Format: mp3@CBR320kbps
*Size: 72MB

Tracklist:
1. Angels In My Head 03:05
2. D.M.K. (Death Murder Kill) 02:31
3. Addiction Prone 03:57
4. Kept Beneath 02:19
5. Bulletproof 02:37
6. Misery's Existence 04:22
7. Ghost 03:17
8. Holes Like Eyes 04:07
9. With A Fist 02:02
10. Suicide Letter 03:22
******************************
Total playing time: 31:39




[more=Technical info]
Input File: 6 Misery\'s Existence.mp3
Channels : 2
Sample Rate : 44100
Precision : 16-bit
Duration : 00:04:22.68 = 11584100 samples = 19700.9 CDDA sectors
File Size : 10.5M
Bit Rate : 320k
Sample Encoding: MPEG audio (layer I, II or III)
Comments :
Title=Misery's Existence
Artist=Force Fed Chaos
Album=Kept Beneath
Tracknumber=6
Year=2012
Genre=Metal

[/more]

Register
(7) analbleeding, infiltrator, Lukittaz, Olethros, Rosen, SyncestrA, varlam4,
May 3 2020, 13:32:41 Mordor Ruido - Nuevamente… Contra La Fábrica De Muerte (2019)


*Artist: Mordor Ruido
*Album: Nuevamente… Contra La Fábrica De Muerte
*Year: 2019
*Genre: Crust/Hardcore/Death Metal
*Country: Spain
*Format: mp3@CBR320kbps
*Size: 66MB

Tracklist:
1. Víctimas 02:46
2. Tu Miedo 03:08
3. Cosecha De Odio 03:32
4. El Horror Es La Verdad 02:12
5. Instintos Homicidas 02:54
6. Proyecto Anymus 03:02
7. Dios No Existe 02:38
8. El Exterminador 02:03
9. Kaos 03:51
10. Imagina Que Mañana No Vuelve A Amanecer 01:49
******************************
Total playing time: 27:55



[more=Technical info]
Input File: 06 Proyecto Anymus.mp3
Channels : 2
Sample Rate : 44100
Precision : 16-bit
Duration : 00:03:02.87 = 8064435 samples = 13715 CDDA sectors
File Size : 7.56M
Bit Rate : 331k
Sample Encoding: MPEG audio (layer I, II or III)
Comments :
Title=Proyecto Anymus
Artist=MORDOR RUIDO
Album=Nuevamente... contra la fábrica de muerte...
Tracknumber=6
Year=2019

[/more]

Register
(3) lldma, Olethros, Rosen,
Apr 29 2020, 08:38:13 A.R.I.E.T.E - Cleptocracia (2020)


*Artist: A.R.I.E.T.E
*Album: Cleptocracia
*Year: 2020
*Genre: Groove Metal
*Country: Chile
*Format: mp3@CBR320kbps
*Size: 79MB

Tracklist:
01. A.R.I.E.T.E
02. Vence al miedo
03. Tortura
04. Sentencia
05. Grito de guerra
06. Depredador
07. Aberrante
08. Fuerza y razón
09. Cleptocracia
10. Ciego
******************************
Total playing time: 37:23




[more=Technical info]
Input File: 06 - Depredador.mp3
Channels : 2
Sample Rate : 44100
Precision : 16-bit
Duration : 00:03:48.35 = 10070323 samples = 17126.4 CDDA sectors
File Size : 9.21M
Bit Rate : 323k
Sample Encoding: MPEG audio (layer I, II or III)
Comments :
Title=Depredador
Artist=A.R.I.E.T.E
Album=Cleptocracia
Tracknumber=6/10
Year=2020
Genre=GrooveMetal
Discnumber=1/1

[/more]

Register
(6) chipsgott, gwar, infiltrator, Olethros, Rosen, varlam4,
Apr 21 2020, 09:02:00 Action - Terror (1995)


*Artist: Action
*Album: Terror
*Year: 1995
*Genre: Groove Metal
*Country: Hungary
*Format: mp3@CBR192kbps
*Size: 64MB

Tracklist:
1. Benn A Fejben
2. Lenn A Téren
3. Betöltik A Helyed
4. Heroin
5. Beállt Aggyal
6. Terror
7. Következő A Sorban
8. Neked Véged
9. Utolsó Utca
******************************
Total playing time: 48:39

[more=Technical info]
Input File: 06. Terror.mp3
Channels : 2
Sample Rate : 44100
Precision : 16-bit
Duration : 00:06:03.60 = 16034892 samples = 27270.2 CDDA sectors
File Size : 8.99M
Bit Rate : 198k
Sample Encoding: MPEG audio (layer I, II or III)
Comments :
Title=Terror
Artist=Action
Album=Terror
Tracknumber=6
Year=1995
Genre=Hardcore

[/more]

Register
(6) infiltrator, Moonshtook, Olethros, Reverend, stumpheavyrock, varlam4,
Apr 21 2020, 09:00:45 Action - Összeomlás (1994)


*Artist: Action
*Album: Összeomlás
*Year: 1994
*Genre: Groove Metal
*Country: Hungary
*Format: mp3@CBR192kbps
*Size: 65MB

Tracklist:
1. Sitten
2. Ebben Élsz
3. Mindenki Megdől
4. Fekete Vagy Fehér
5. Ez Így Megy
6. Összeomlás
7. Drágán Add Az Életed
8. Megöl A Rendszer
9. Getto Szült
10. Ganxsta Mix
******************************
Total playing time: 48:24

[more=Technical info]
Input File: 06. Összeomlás.mp3
Channels : 2
Sample Rate : 44100
Precision : 16-bit
Duration : 00:04:27.97 = 11817433 samples = 20097.7 CDDA sectors
File Size : 6.62M
Bit Rate : 198k
Sample Encoding: MPEG audio (layer I, II or III)
Comments :
Title=Összeomlás
Artist=Action
Album=Összeomlá
Tracknumber=6
Year=1994
Genre=Hardcore

[/more]

Register
(5) infiltrator, Olethros, Reverend, stumpheavyrock, varlam4,
Apr 20 2020, 18:35:00 Centaurus - Apokalypse Brd (1996)


*Artist: Centaurus
*Album: Apokalypse Brd
*Year: 1996
*Genre: Heavy/Thrash Metal
*Country: Germany
*Format: mp3@CBR320kbps
*Size: 94MB

Tracklist:
1. Willkommen (Intro) 01:11
2. Apokalypse BRD 03:27
3. Blinder Wahnsinn 04:20
4. Civil War 04:16
5. Tränen im Blut 06:10
6. Das Lebenselixier 06:34
7. Sein im Nichts 05:38
8. Wer die Wahrheit nicht kennt 03:06
9. Harald 03:54
10. 99 Stunden Suff 03:51
******************************
Total playing time: 42:27

[more=Technical info]
Input File: 06. Das Lebenselixier.mp3
Channels : 2
Sample Rate : 44100
Precision : 16-bit
Duration : 00:06:36.53 = 17486841 samples = 29739.5 CDDA sectors
File Size : 15.9M
Bit Rate : 322k
Sample Encoding: MPEG audio (layer I, II or III)
Comments :
Title=Das Lebenselixier
Artist=Centaurus
Album=Apokalypse BRD
Tracknumber=06/10
Year=1996
Genre=Other

[/more]

Register
(13) boby9052, ilsestomartire, infiltrator, metala, morbidangelo, Olethros, Rover, sergsazan, stumpheavyrock, Tino, varlam4, wgs73, White28,
Apr 18 2020, 18:37:37 Winter Of Torment - Immoral World [ep] (1992)
Register
(1) thenecromancer,
Apr 18 2020, 18:34:08 Winter Of Torment - Black Sun [ep] (1994)
Register
(1) thenecromancer,
Apr 16 2020, 18:58:57 F.B.O.T. - Information Disease (2018)
Register
(2) stumpheavyrock, varlam4,

32 Pages V  < 1 2 3 4 > » 
- Lo-Fi Version Support form
Copyrights and abuse reports form
Time is now: 10th July 2020 - 19:33:45