Welcome Guest ( Log In | Register )

История благодарностей участнику RotAnus ::: Спасибо сказали: 2925 раз(а)
Дата поста: В теме: За сообщение: Спасибо сказали:
Jan 8 2016, 00:07:57 Леон увлёкся криминальным чтивом - лучший альбом 1994 года
Machine Head - Burn My Eyes
(1) Anger,
Jan 7 2016, 11:10:53 Thormenthor - Abstract Divinity (1994)
Register
(10) Alfredoelruso, Anhra Mainyu, cuimit1349, ExeThrash, lawronchik, Mist13Signifier, samokot, SyncestrA, varlam4, WARHEAD,
Jan 4 2016, 10:32:24 Pod People - Soil [ep] (1999)


*Artist: Pod People
*Album: Soil [ep]
*Year: 1999
*Genre: Sludge/Death/Doom Metal
*Country: Australia
*Format: mp3@CBR192kbps
*Size: 37MB

Tracklist:
1. Goin' South
2. Pommygranite
3. The Way
4. Rewind
5. Karmageddon
6. Swing
******************************
Total playing time: 27:27

Register
(10) Buregon, Dark Sage, emopi4a1980, Evilded, marilin, morbidangelo, Rosen, VALERY, varlam4, wreak,
Jan 3 2016, 19:30:13 Sole Method - Collateral Suicide (2008)


*Artist: Sole Method
*Album: Collateral Suicide
*Year: 2008
*Genre: Thrash/Groove Metal
*Country: Austria
*Format: mp3@CBR192kbps
*Size: 52MB

Tracklist:
1. Go Sick
2. Free Your Mind
3. My Enemy
4. Nation
5. I Die
6. Look Away
7. Warfare
8. Back for More
9. Take Care For
10. Fuck That Shit
11. Back to War (Remix)
******************************
Total playing time: 38:16

Register
(8) alex72, Buregon, lortz, METALHUNTER, morbidangelo, Rosen, varlam4, wreak,
Jan 1 2016, 17:45:34 Hostility - Set In Stone (2010)


*Artist: Hostility
*Album: Set In Stone
*Year: 2010
*Genre: Groove Metal
*Country: United States
*Format: mp3@CBR192kbps
*Size: 65MB

Tracklist:
1. Leader of the Rejects
2. Aces & Eights
3. Dividing Line
4. Baton Symphony
5. Resented Legacy
6. Flesh Doll
7. Said and Done
8. One by One
9. Hard Luck
10. Something Wicked
11. My Terms
******************************
Total playing time: 47:40

Register
(6) boby9052, djurassic, MeathookSeed, METALHUNTER, Rosen, varlam4,
Dec 31 2015, 12:37:03 Arrestor Hook Down - The Last Request (2015)


*Artist: Arrestor Hook Down
*Album: The Last Request
*Year: 2015
*Genre: Sludge/Groove Metal/Hardcore
*Country: Germany
*Format: mp3@CBR320kbps
*Size: 107MB

Tracklist:
1. Blood Stained Crown
2. Scapegod
3. Warmonger
4. Fuze Is Lit
5. Suffer
6. Makin' Enemies
7. Unleash
8. Onslaught
9. Sick´n´Busted
10. All Eye Hate
11. Nothingness
******************************
Total playing time: 46:00

[more=Technical info]
Input File: 06.Makin\' Enemies.mp3
Channels : 2
Sample Rate : 44100
Precision : 16-bit
Duration : 00:05:16.72 = 13967132 samples = 23753.6 CDDA sectors
File Size : 13.0M
Bit Rate : 327k
Sample Encoding: MPEG audio (layer I, II or III)
Comments :
Title=Makin' Enemies
Artist=Arrestor Hook Down
Album=The Last Request
Tracknumber=6
Year=2015
Genre=Hardcore

[/more]

Register
(9) Genuine Thrashiac, lortz, Rosen, scrollbar, snot, spiritualdecay666, varlam4, wreak, Герб,
Dec 29 2015, 10:51:47 Replika - Des-Humano (2005)


*Artist: Replika
*Album: Des-Humano
*Year: 2005
*Genre: Thrash/Groove Metal
*Country: Chile
*Format: mp3@VBR220kbps
*Size: 75MB

Tracklist:
01. The Path
02. Walking to Death
03. Desde el Otro Lado
04. Maltrata Inocencia
05. Reflejo
06. Carnimal
07. Trincheras del Alma
08. Des-Humano
09. Desperate
10. Prelude of Peace
11. R.I.P
******************************
Total playing time: 46:39

Register
(9) Buregon, METALHUNTER, morbidangelo, Proteus_666, Rosen, Tino, varlam4, wreak, Герб,
Dec 28 2015, 16:36:30 Vargr I Veum - Sig Ende Fridar - Fyr Ende Frettar (2008)


*Artist: Vargr I Veum
*Album: Sig Ende Fridar - Fyr Ende Frettar
*Year: 2008
*Genre: Pagan/Folk Metal
*Country: Switzerland
*Format: mp3@CBR320kbps
*Size: 92MB

Tracklist:
01. 1291
02. Mersburger Zauberspruch
03. Blue Sky
04. Wotanslied (Goch Fock)
05. Nu er Dagr komin
06. Es sassen die alten Germanen
07. Totenvogel
08. Varg I Veum
09. Friedenstauben
10. Zur Schlacht von Schwaderloh
11. Ode an...
******************************
Total playing time: 35:34

[more=Technical info]
Input File: 06. Es sassen die alten Germanen.mp3
Channels : 2
Sample Rate : 44100
Precision : 16-bit
Duration : 00:02:50.17 = 7504585 samples = 12762.9 CDDA sectors
File Size : 6.89M
Bit Rate : 324k
Sample Encoding: MPEG audio (layer I, II or III)
Comments :
Title=Es sassen die alten Germanen
Artist=Vargr I Veum
Album=Sig Ende Fridar - Fyr Ende Frettar
Tracknumber=06/11
Year=2008
Genre=Other

[/more]

Register
(14) blacky66, Buregon, gwynnbleid, Mogozoz, Moonshtook, morbidangelo, neoatheist, Ratibor366, Rosen, satanist666, tont, v.v.m, varlam4, wreak,
Dec 27 2015, 15:27:54 Vargr I Veum - Helheim (2013)
Register
(3) blacky66, Ratibor366, varlam4,
Dec 17 2015, 10:44:14 OverProof Groove - Collect And Readvance (2014)
Register
(2) METALHUNTER, morbidangelo,
Dec 16 2015, 15:59:43 Beissert - ...Nothin' Left To Luv! (2007)
Register
(2) sayfut, varlam4,
Dec 16 2015, 14:06:23 Beissert - The Pusher (2010)
Register
(1) sayfut,
Dec 15 2015, 11:29:06 Stormheit - Kvenland (2009)
Register
(3) Filosofem91, Ratibor366, wolverine,
Dec 8 2015, 12:42:44 Slow Agony - Spiritual Euphoria (2002)
Register
(1) juand,
Dec 8 2015, 12:41:49 Slow Agony - Crumbling Empires (2000)
Register
(1) juand,
Dec 3 2015, 09:48:24 Spasm - Pussy(De)Luxe (2015)


*Artist: Spasm
*Album: Pussy(De)Luxe
*Year: 2015
*Genre: Porngrind
*Country: Czech Republic
*Format: mp3@CBR320kbps
*Size: 62MB

Tracklist:
1. Intro
2. Juicy Foreplay
3. WTF
4. Lick your fingers!
5. I run a bitch
6. Tranny pop
7. My body, your toy
8. Ladyboy party
9. Suck my dick!
10. Submissive granny game
11. Cock fisting
12. Lovely sweet incontinence
13. Anus Malus Manual
14. The milf anthem
15. Gib mir deinen Schwanz
16. Golden shower
17. Shemale transformer
18. Hit me, Hate me, Rape me, Kill me
******************************
Total playing time: 23:56

[more=Technical info]
Input File: 11 Cock fisting.mp3
Channels : 2
Sample Rate : 44100
Precision : 16-bit
Duration : 00:00:57.84 = 2550876 samples = 4338.22 CDDA sectors
File Size : 2.38M
Bit Rate : 329k
Sample Encoding: MPEG audio (layer I, II or III)
Comments :
Title=Cock Fisting
Artist=Spasm
Album=Pussy(De)Luxe
Tracknumber=11
Year=2015
Genre=Goregrind

[/more]

Register
(21) A.L.Rapsod, abob, analbleeding, andreikun, crackedbrain, CRUNCH, DarkHorde, Indamage, Konungr, mcrooh, morbidangelo, popen13, rabindranad, Rosen, Sarcis, satanist666, Tular, varlam4, vyacheslav, zotyo1975, Герб,
Dec 1 2015, 11:03:59 Slackwar - Human Subject Of Sylax Project [demo] (2011)


*Artist: Slackwar
*Album: Human Subject Of Sylax Project [demo]
*Year: 2011
*Genre: Groove/Thrash Metal
*Country: France
*Format: mp3@VBR185kbps
*Size: 27MB

Tracklist:
1. Awakening (Intro)
2. System
3. Relideath Show
4. Respect
5. My Fuckin' Way
6. Outro
******************************
Total playing time: 19:50

Register
(3) Diflock, METALHUNTER, Rosen,
Nov 30 2015, 18:17:50 Anal Kudasai - Creampie For Kawaii [ep] (2014)
Register
(1) satanist666,
Nov 30 2015, 18:15:13 Anal Kudasai - Cyberanus Fecalust Musicum (2014)


*Artist: Anal Kudasai
*Album: Cyberanus Fecalust Musicum
*Year: 2014
*Genre: Porngrind
*Country: Russian Federation
*Format: mp3@CBR320kbps
*Size: 109MB

Tracklist:
01 Fucking with C-3PO with a fatal outcome
02 Godzilla masturbates with Terminator
03 Djent and Deathcore are for gays
04 Robocop's natural rectum and a lustful elk
05 Rainbow Dash has frenched all Equestria ponies for oatmeal cookies
06 EVA-01 gives a blowjob to Optimus Prime
07 Johnny Mnemonic has a blu-ray drive in his arse
08 People wear beards in order that the sperm gets stuck there
09 Deep Purple Anus
10 Anal perversions of EVA-02 and ED-209
11 R2D2, I am Your Father
12 Alien from Ur-Anus
13 Cyrax Cock Corrosion
14 Pantsu Division
15 Cyberanus Fecalust Musicum (Hentai-Machine Dance Mix)
******************************
Total playing time: 47:38

[more=Technical info]
Input File: 06 EVA-01 gives a blowjob to Optimus Prime.mp3
Channels : 2
Sample Rate : 44100
Precision : 16-bit
Duration : 00:02:05.53 = 5536005 samples = 9414.97 CDDA sectors
File Size : 5.02M
Bit Rate : 320k
Sample Encoding: MPEG audio (layer I, II or III)
Comment : 'Year=2014'

[/more]

Register
(3) Rosen, satanist666, varlam4,
Nov 30 2015, 12:48:51 Wombstomp - Passion To Abort (2015)


*Artist: Wombstomp
*Album: Passion To Abort
*Year: 2015
*Genre: Goregrind/Porngrind
*Country: Germany
*Format: mp3@CBR128kbps
*Size: 38MB

Tracklist:
1. Human Flesh Makes Me Horny
2. Fuck All Feminists In The Ass
3. Wet Taco Waltz
4. Fetus Fetish
5. Enraged Tit Terminator
6. Metallicunt
7. Gore Is The Law
8. Acts Of Satisfaction
9. Passion To Abort
10. Nicole Clitman
11. Lethal Cunt Crush
12. Erection In A Women's Shelter
13. Rape, Sex, Death (Hymen Holocaust)
14. Decimating The Human Race
******************************
Total playing time: 41:49

Register
(6) cesar, metala, Pess, Rosen, satanist666, Герб,
Nov 30 2015, 11:02:13 Replika - Igazi Kép [live] (2006)


*Artist: Replika
*Album: Igazi Kép [live]
*Year: 2006
*Genre: Post-Thrash Metal
*Country: Hungary
*Format: mp3@VBR250kbps
*Size: 144MB

Tracklist:
1. A föld
2. Testek
3. Miénk a hely
4. Félj
5. Ez a sorsom
6. Függetlenség, szabadság
7. Feszíts meg
8. Igazi kép
9. Másik világ kapujában
10. A kezdet és a vég
11. Valami vár itt rám
12. Mindent akarok
13. Átverés
14. Egyedül nincs esély
15. Tépd szét
******************************
Total playing time: 1:19:57

Register
(4) Rosen, snot, varlam4, wreak,
Nov 30 2015, 10:51:31 Replika - Az Élvezetek Földjén (2010)
Register
(2) SyncestrA, varlam4,
Nov 30 2015, 10:47:25 Replika - Nem Hiszek / I Don't Believe [2 Cd] (2007)
Register
(4) KLOP, morbidangelo, SyncestrA, varlam4,
Nov 30 2015, 10:43:59 Replika - Durva Élet (2004)
Register
(2) SyncestrA, varlam4,
Nov 30 2015, 10:20:23 Replika - Másik Világ Kapujában (2001)


*Artist: Replika
*Album: Másik Világ Kapujában
*Year: 2001
*Genre: Post-Thrash Metal
*Country: Hungary
*Format: mp3@CBR320kbps
*Size: 121MB

Tracklist:
1. Fel a csúcsra
2. A lélek útja
3. Másik világ kapujában
4. Ott ragyog
5. A kezdet és a vég
6. Itt vagyunk még
7. Soha nem múlik el
8. A film
9. Kicsi a világ...
10. Hogy szerethesselek
11. Végtelen lánc
12. Vigyél el
******************************
Total playing time: 51:57

[more=Technical info]
Input File: 06.Itt Vagyunk Meg.mp3
Channels : 2
Sample Rate : 44100
Precision : 16-bit
Duration : 00:04:38.62 = 12287318 samples = 20896.8 CDDA sectors
File Size : 11.1M
Bit Rate : 320k
Sample Encoding: MPEG audio (layer I, II or III)
Comments :
Title=Itt Vagyunk Meg
Artist=Replika
Album=Masik Vilag Kapujaban
Tracknumber=06
Year=2001
Genre=9

[/more]

Register
(7) avkruchinin, Buregon, METALHUNTER, Rosen, SyncestrA, varlam4, wreak,

27 Pages V  « < 24 25 26 27 >
- Lo-Fi Version Support form
Copyrights and abuse reports form
Time is now: 10th December 2019 - 00:22:17