Welcome Guest ( Log In | Register )

История благодарностей участнику RotAnus ::: Спасибо сказали: 3497 раз(а)
Дата поста: В теме: За сообщение: Спасибо сказали:
Oct 14 2016, 19:07:19 March Of Hate - Infecçao Tecnológica [ep] (2010)


*Artist: March Of Hate
*Album: Infecçao Tecnológica [ep]
*Year: 2010
*Genre: Thrash/Death/Groove Metal
*Country: Brazil
*Format: mp3@CBR320kbps
*Size: 21MB

Tracklist:
1. Caçador de Almas
2. Infecçao Tecnológica
******************************
Total playing time: 9:39

[more=Technical info]
Input File: 02 - Infec?ao Tecnol?gica.mp3
Channels : 2
Sample Rate : 44100
Precision : 16-bit
Duration : 00:05:22.20 = 14208844 samples = 24164.7 CDDA sectors
File Size : 12.9M
Bit Rate : 321k
Sample Encoding: MPEG audio (layer I, II or III)
Comments :
Title=Infeccao Tecnologica
Artist=March of Hate
Album=Caçador de Almas
Tracknumber=2
Year=2010
Genre=Thrash Metal/Groove Metal

[/more]

Register
(2) Genuine Thrashiac, Rosen,
Oct 14 2016, 16:40:58 Это Я Убил Кеннеди - Трудно Быть Богом [ep] (2015)


*Artist: Это Я Убил Кеннеди
*Album: Трудно Быть Богом [ep]
*Year: 2015
*Genre: Groove Metal/Hardcore
*Country: Russian Federation
*Format: mp3@CBR320kbps
*Size: 33MB

Tracklist:
1. Окоп Напротив
2. Это Я Убил Кеннеди
3. Трудно Быть Богом
4. Хочешь? (на слова Земфиры Рамазановой)
******************************
Total playing time: 13:59


Preview 2


[more=Technical info]
Input File: 02 Это я убил Кеннеди.mp3
Channels : 2
Sample Rate : 44100
Precision : 16-bit
Duration : 00:03:14.53 = 8578729 samples = 14589.7 CDDA sectors
File Size : 7.78M
Bit Rate : 320k
Sample Encoding: MPEG audio (layer I, II or III)
Comments :
Title=Это Я Убил Кеннеди
Artist=Это Я Убил Кеннеди
Album=Трудно Быть Богом
Tracknumber=2/4
Year=2015
Genre=metal

[/more]

Register
(3) Aresson, Rosen, VALERY,
Oct 14 2016, 16:26:50 ЙYЙ - Pochemu Smeshno Taxistu ? [ep] (2016)


*Artist: ЙYЙ
*Album: Pochemu Smeshno Taxistu ? [ep]
*Year: 2016
*Genre: Groove Goregrind/Grindcore
*Country: Ukraine
*Format: mp3@CBR320kbps
*Size: 23MB

Tracklist:
1. Pochemu smeshno Taxistu?
2. Sheeshter-Meeshter
3. Shtangen Tsyngoon
4. Sinь - Pyanь
5. Ebanarium
6. Goatbusters (Bonus Track)
******************************
Total playing time: 11:35

Preview 1

[more=Technical info]
Input File: 3 Shtangen Tsyngoon.mp3
Channels : 2
Sample Rate : 44100
Precision : 16-bit
Duration : 00:01:07.92 = 2995184 samples = 5093.85 CDDA sectors
File Size : 2.71M
Bit Rate : 320k
Sample Encoding: MPEG audio (layer I, II or III)

[/more]

Register
(6) Aresson, Gurgles, morbidangelo, Rosen, varlam4, Сварог Барг,
Oct 12 2016, 18:18:15 Unnamed - The Black Monk [demo] (1995)
Register
(2) marrtins, thenecromancer,
Oct 11 2016, 09:50:36 Malicious Assault - Ripping Death [demo] (2006)
Register
(2) Diflock, METALHUNTER,
Oct 8 2016, 11:45:53 Extrema - The Seed Of Foolishness (2013)
Register
(3) darconio, thenecromancer, varlam4,
Oct 5 2016, 12:24:49 Alkonost - Песни Белой Лилии (2016)


*Artist: Alkonost
*Album: Песни Белой Лилии
*Year: 2016
*Genre: Folk/Pagan Metal
*Country: Russian Federation
*Format: mp3@CBR320kbps
*Size: 106MB

Tracklist:
1. Река
2. Жемчужина
3. Русалка
4. Невеста Лешего
5. Сражение С Бездной
6. Ветер, Вей!
7. Травница
8. Хмель
9. Птица-Печаль
10. Русалка (Acoustic)
11. Птица-Печаль (Acoustic)
******************************
Total playing time: 46:28



Preview 3
Preview 4

[more=Technical info]
Input File: 06. Ветер, Вей!.mp3
Channels : 2
Sample Rate : 44100
Precision : 16-bit
Duration : 00:04:28.93 = 11859901 samples = 20169.9 CDDA sectors
File Size : 10.8M
Bit Rate : 323k
Sample Encoding: MPEG audio (layer I, II or III)
Comments :
Title=Ветер, вей!
Artist=Alkonost
Album=Песни белой лилии
Tracknumber=6
Year=2016

[/more]

Register
(56) Aresson, artscald, Ballisargon, Black Arts, Cartman223, dark1988, DMIYUR, Druidir, Dzombie, Eldarmoon, Emhyr var Emreis, fabriziomagno, Femto, Fess, finntroll3, Glioma, gwar, Igor Filth, infozahist, jet55, judaz, Jurmagund, Kaphiel, Kasper969, LightWizard, Marina543, metalfanatic666, Mogozoz, morbidangelo, neoatheist, nirth, oldvarg, Phlebotomized, princeshr, rabindranad, randyhermit, Raw1488, recber, Rosen, SAPOGi, sarcophagus, satanist666, Spunkynut, stone88, StoneTemple, talismanFS, tont, Torop, Unleashed, v.v.m, Virgil, Well_To_Hell, WillyWonka, ZA670, Луч, Сварог Барг,
Oct 3 2016, 08:10:36 Isolation In Infamy - Isolation In Infamy [ep] (2011)
Register
(1) Ostinato,
Oct 2 2016, 08:42:57 Daggers Drawn - Emoticon [ep] (2011)


*Artist: Daggers Drawn
*Album: Emoticon [ep]
*Year: 2011
*Genre: Progressive Thrash/Groove Metal
*Country: United Kingdom
*Format: mp3@VBR274kbps
*Size: 38MB

Tracklist:
1. Pariah Among the Lepers
2. Midas in Reverse
3. Emoticon
4. World of Lies
******************************
Total playing time: 19:14




Register
(5) ExeThrash, METALHUNTER, morbidangelo, Rosen, SymbyoticEntity,
Sep 27 2016, 12:08:45 Lunacy - Fairytales Of A New Breed [ep] (2000)
ЦИТАТА(Язва @ Aug 11 2014, 22:33:03) *
ссылки умерли, перезалейте пжл


Register
(3) Aresson, ExeThrash, Язва,
Sep 27 2016, 11:42:50 Stomp Box - Travis [ep] (1992)


*Artist: Stomp Box
*Album: Travis [ep]
*Year: 1992
*Genre: Groove Metal/Grunge/Alternative
*Country: United States
*Format: mp3@CBR128kbps
*Size: 24MB

Tracklist:
1. What's It Worth
2. Chevy S-10
3. Hate Me
4. Beer Slide
5. Saltpeterexitwound
6. Lobotomizer
7. Screwing In America
******************************
Total playing time: 27:55

Register
(3) AndreFrancis, Rosen, Tino,
Sep 26 2016, 12:49:05 Sordid Flesh - Torturer (2013)
Register
(3) cuimit1349, LUCASDEATH, morbidangelo,
Sep 25 2016, 11:35:05 Brazen - Nasty Bruises [ep] (2000)


*Artist: Brazen
*Album: Nasty Bruises [ep]
*Year: 2000
*Genre: Psychedelic Stoner/Heavy Metal
*Country: Italy
*Format: mp3@CBR320kbps
*Size: 46MB

Tracklist:
1. Crash
2. Standing Empty
3. Denial
4. Psycho Bitch
******************************
Total playing time: 20:53

[more=Technical info]
Input File: 2 - Standing Empty .mp3
Channels : 2
Sample Rate : 44100
Precision : 16-bit
Duration : 00:05:29.56 = 14533728 samples = 24717.2 CDDA sectors
File Size : 13.2M
Bit Rate : 320k
Sample Encoding: MPEG audio (layer I, II or III)
Comments :
Artist=Brazen
Album=Nasty Bruises (EP)
Year=2000

[/more]

Register
(4) krmu2, marilin, Rosen, thenecromancer,
Sep 24 2016, 19:59:13 Siebensünden - En Kula Till Tröst (1998)
Register
(1) Ostinato,
Sep 24 2016, 19:53:30 Siebensünden - Blod, Slem, Galla (2006)
Register
(1) Ostinato,
Sep 22 2016, 11:21:12 Kathew - D_Generación XXI (2013)


*Artist: Kathew
*Album: D_Generación XXI
*Year: 2013
*Genre: Groove Metal
*Country: Spain
*Format: mp3@CBR320kbps
*Size: 111MB

Tracklist:
01. Insurreccion
02. En Memoria Del Minotauro
03. Bucle Vital
04. Mientras Duermes
05. El Ojo
06. Dual E Indivisible
07. Medium
08. D_Generación XXI
09. El Violin Del Diablo
10. Ion 0
11. Caida libre
******************************
Total playing time: 47:50





[more=Technical info]
Input File: 06 DUAL E INDIVISIBLE.mp3
Channels : 2
Sample Rate : 44100
Precision : 16-bit
Duration : 00:04:05.34 = 10819670 samples = 18400.8 CDDA sectors
File Size : 9.82M
Bit Rate : 320k
Sample Encoding: MPEG audio (layer I, II or III)
Comments :
Artist=Kathew
Album=D_GENERACION XXI
Year=2013
Genre=Groove Metal

[/more]

Register
(4) METALHUNTER, Rosen, varlam4, wreak,
Sep 20 2016, 12:05:38 Aleph - Seven Steps Of Stone (2009)
Register
(2) ExeThrash, HellMetalloid,
Sep 20 2016, 12:04:41 Aleph - In Tenebra (2005)
Register


320
(2) ExeThrash, HellMetalloid,
Sep 19 2016, 17:36:13 Aurost - Canticum Spectrum (2014)
Register


обновил
(1) kim666,
Sep 17 2016, 09:04:02 Insomnia - Insomnia [ep] (1990)
Register


обновил
(6) Alfredoelruso, avkruchinin, ExeThrash, METALHUNTER, Mortul, muskatnuss,
Sep 16 2016, 20:21:35 Anal Kudasai - Otaku Perverse Chronicles (chapter III - Interstellar Oblivion) (2016)


*Artist: Anal Kudasai
*Album: Otaku Perverse Chronicles (chapter III - Interstellar Oblivion)
*Year: 2016
*Genre: Porngrind
*Country: Russian Federation
*Format: mp3@CBR320kbps
*Size: 76MB

Tracklist:
1. Tokyo inspector from department anal affairs of schoolgirls
2. Pull the governmental dick out of your ass and support revolution
3. Kawaii anime world
4. The prime minister doesn't like anime, but adores taste of cum
5. Jubei Kibagami - ninja quite useful with a cock
6. Universal Temple of Shotakon
7. Straights choose porngrind
8. Gay police patrol
9. The smaller the brain, the bigger the cock
******************************
Total playing time: 33:26

[more=Technical info]
Input File: 06 - Jubei Kibagami - ninja quite useful with a cock.mp3
Channels : 2
Sample Rate : 48000
Precision : 16-bit
Duration : 00:03:35.04 = 10322064 samples ~ 16128.2 CDDA sectors
File Size : 8.60M
Bit Rate : 320k
Sample Encoding: MPEG audio (layer I, II or III)
Comments :
Title=Jubei Kibagami - ninja quite useful with a cock
Artist=Anal Kudasai
Album=Otaku perverse chronicles chapter 3
Tracknumber=6
Year=2016
Genre=Death metal/Porngrind/Animegrind

[/more]

Register
(7) jollo, morbidangelo, Rosen, satanist666, spiritualdecay666, varlam4, wreak,
Sep 16 2016, 12:12:06 Zealot Cult - Zealot Cult [ep] (2010)


*Artist: Zealot Cult
*Album: Zealot Cult [ep]
*Year: 2010
*Genre: Death Metal
*Country: Ireland
*Format: mp3@VBR201kbps
*Size: 35MB

Tracklist:
1. Chainsaw Ritual
2. Killing Spree
3. Tongue Of Lies
4. Homocide
5. Perverse Rites
6. Portraits In Blood (bonus)
7. Knives Of The Zealots (bonus)
8. Architects Of Carnage (bonus)
******************************
Total playing time: 23:31




Register
(15) Boozer, Buregon, cuimit1349, Darkthronefoad, Hell_Is_Here, lldma, Mist13Signifier, morbidangelo, Necroeire, Rosen, samokot, satanist666, SymbyoticEntity, vyacheslav, wreak,
Sep 15 2016, 13:06:01 Nihility - Consumed [ep] (2014)


*Artist: Nihility
*Album: Consumed [ep]
*Year: 2014
*Genre: Death Metal/Hardcore
*Country: United Kingdom
*Format: mp3@VBR271kbps
*Size: 29MB

Tracklist:
1. Consumed
2. Deliverance
3. To Protect And Serve
4. Internal War
******************************
Total playing time: 14:24




Register
(2) morbidangelo, Rosen,
Sep 15 2016, 13:01:33 Nihility - Nihility [ep] (2013)


*Artist: Nihility
*Album: Nihility [ep]
*Year: 2013
*Genre: Death Metal/Hardcore
*Country: United Kingdom
*Format: mp3@CBR320kbps
*Size: 34MB

Tracklist:
1. La Mort
2. Dread
3. Abolition
4. At Peace
******************************
Total playing time: 14:14




[more=Technical info]
Input File: 2 - Dread.mp3
Channels : 2
Sample Rate : 44100
Precision : 16-bit
Duration : 00:04:30.76 = 11940428 samples = 20306.9 CDDA sectors
File Size : 11.1M
Bit Rate : 329k
Sample Encoding: MPEG audio (layer I, II or III)
Comments :
Title=Dread
Artist=Nihility
Album=Nihility EP
Tracknumber=2
Year=2013

[/more]

Register
(2) morbidangelo, Rosen,
Sep 14 2016, 19:28:54 Blizzard - Hráz Proti Úpadku (2006)


*Artist: Blizzard
*Album: Hráz Proti Úpadku
*Year: 2006
*Genre: Heavy Metal
*Country: Czech Republic
*Format: mp3@CBR320kbps
*Size: 102MB

Tracklist:
01. Intro
02. Boj Za Budoucnost
03. Sluhové Temna
04. Spasení
05. Proč?
06. Další Obĕt´
07. Zničené Dĕdictví
08. Behind The Bars
09. Politik
10. Život V Rudém Stínu
11. Hráz Proti Úpadku
******************************
Total playing time: 41:18

[more=Technical info]
Input File: 06. Dalsi obet.mp3
Channels : 2
Sample Rate : 44100
Precision : 16-bit
Duration : 00:04:04.44 = 10779672 samples = 18332.8 CDDA sectors
File Size : 9.86M
Bit Rate : 323k
Sample Encoding: MPEG audio (layer I, II or III)
Comments :
Title=Dalsi obet
Artist=Blizzard
Album=Hraz proti upadku
Tracknumber=06/11
Year=2006
Genre=Other

[/more]

Register
(5) morbidangelo, MеtalHead, Rosen, varlam4, wreak,

32 Pages V  « < 24 25 26 27 28 > » 
- Lo-Fi Version Support form
Copyrights and abuse reports form
Time is now: 12th July 2020 - 07:08:38