Welcome Guest ( Log In | Register )

История благодарностей участнику BlackArrow ::: Спасибо сказали: 5700 раз(а)
Дата поста: В теме: За сообщение: Спасибо сказали:
Dec 3 2019, 18:54:05 Nameless - Dirge (2001)
Параметры как в шапке:
Register
(2) Dark_Mind, Veggr,
Nov 28 2019, 18:11:50 Vàlinor - Creant El Camí [demo] (2006)


*Artist: Vàlinor
*Album: Creant El Camí [demo]
*Year: 2006
*Genre: Symphonic Folk/Power Metal
*Country: Spain
*Format: mp3@CBR128kbps
*Size: 22MB

Tracklist:
1. Creant el camí 4:45
2. Visquent la realitat 6:33
3. El combat 3:56
4. Tràgic accident 4:25
5. El món d'Hades 4:09
******************************
Total playing time: 23:48



[more=Technical info]
Input File: 01 - Creant el cami.mp3
Channels : 2
Sample Rate : 44100
Precision : 16-bit
Duration : 00:04:45.89 = 12607793 samples = 21441.8 CDDA sectors
File Size : 4.58M
Bit Rate : 128k
Sample Encoding: MPEG audio (layer I, II or III)
Comments :
Title=Creant el camí
Artist=Vàlinor
Album=Creant el camí
Tracknumber=1
Year=2006
Genre=Metal
Discnumber=1/1

[/more]

Register
(6) Cartman223, gwar, metalwoman, Olethros, Rosen, thenecromancer,
Nov 16 2019, 09:18:58 Atargatis - Alba Gebraich [ep] (1999)


*Artist: Atargatis
*Album: Alba Gebraich [ep]
*Year: 1999
*Genre: Gothic Metal
*Country: Germany
*Format: mp3@CBR320kbps
*Size: 48MB

Tracklist:
1. Intro 0:47
2. Arthus Pendragon 5:57
3. At the End of Time 3:29
4. Eternal Hero 3:16
5. The Battle 6:06
******************************
Total playing time: 19:35

[more=Extended info]lame 3.93[/more]

[more=Technical info]
Input File: 02 - Arthus Pendragon.mp3
Channels : 2
Sample Rate : 44100
Precision : 16-bit
Duration : 00:05:56.39 = 15716579 samples = 26728.9 CDDA sectors
File Size : 14.3M
Bit Rate : 320k
Sample Encoding: MPEG audio (layer I, II or III)
Comments :
Title=Arthus Pendragon
Artist=Atargatis
Album=Alba Gebraich
Tracknumber=2
Year=1999
Genre=Metal

[/more]

Register
(11) AHBAnep, Cartman223, gwynnbleid, leks, Olethros, Rosen, senecazm, sergsazan, VALERY, varlam4, wreak,
Nov 12 2019, 14:12:13 Astheria - Astheria (2016)


*Artist: Astheria
*Album: Astheria
*Year: 2016
*Genre: Gothic Metal
*Country: Poland
*Format: mp3@CBR320kbps
*Size: 91MB

Tracklist:
1. For Blood 5:23
2. Saving Schizophrenia 4:15
3. Clouds 4:41
4. Fire! 3:58
5. Lost It All 5:21
6. The Barrier 4:31
7. In This Living Hell 5:37
8. As a Raven 5:54
******************************
Total playing time: 39:40



[more=Technical info]
Input File: 02 - Saving Schizophrenia.mp3
Channels : 2
Sample Rate : 44100
Precision : 16-bit
Duration : 00:04:14.63 = 11229271 samples = 19097.4 CDDA sectors
File Size : 10.2M
Bit Rate : 320k
Sample Encoding: MPEG audio (layer I, II or III)
Comments :
Title=Saving Schizophrenia
Artist=Astheria
Album=Astheria
Tracknumber=2/8
Year=2016
Genre=Metal

[/more]

Register
(10) Alacc17, Cartman223, gwynnbleid, metalwoman, Mogozoz, Olethros, Rosen, senecazm, VALERY, varlam4,
Nov 3 2019, 20:02:07 Suddenlash - Soul's Revenge (2013)


*Artist: Suddenlash
*Album: Soul's Revenge
*Year: 2013
*Genre: Symphonic Metal
*Country: Spain
*Format: mp3@CBR320kbps
*Size: 100MB

Tracklist:
1. The Rite 4:52
2. Possessed 5:04
3. The Prophecy 3:38
4. Valkyrie's Pride 6:28
5. The Faithful King 5:16
6. Shelter 5:02
7. Rebirth 5:36
8. Soul's Revenge 7:40
******************************
Total playing time: 43:36




[more=Technical info]
Input File: 02 - Possessed.mp3
Channels : 2
Sample Rate : 44100
Precision : 16-bit
Duration : 00:05:04.27 = 13418219 samples = 22820.1 CDDA sectors
File Size : 12.2M
Bit Rate : 320k
Sample Encoding: MPEG audio (layer I, II or III)
Comments :
Title=Possessed
Artist=Suddenlash
Album=Soul's Revenge
Tracknumber=2
Year=2013
Genre=Metal

[/more]

Register
(15) aviacademy, Cartman223, chipsgott, gwar, metala, MetalW, Mogozoz, Olethros, Rosen, Rover, senecazm, sergsazan, valera2010, varlam4, Сварог Барг,
Nov 2 2019, 16:53:23 Display - En La Eternidad (2014)


*Artist: Display
*Album: En La Eternidad
*Year: 2014
*Genre: Melodic Death/Power Metal
*Country: Spain
*Format: mp3@CBR320kbps
*Size: 62MB

Tracklist:
1. Preludio 01:09
2. Adicto 03:41
3. Sedientos de poder 04:56
4. Nada que perder 04:11
5. Imperfecta Màquina 04:07
6. Adrenalina 04:01
7. En la eternidad 04:00
8. Outro 00:47
******************************
Total playing time: 26:52



[more=Extended info]lame 3.93[/more]

[more=Technical info]
Input File: 02 - Adicto.mp3
Channels : 2
Sample Rate : 44100
Precision : 16-bit
Duration : 00:03:41.27 = 9758095 samples = 16595.4 CDDA sectors
File Size : 8.85M
Bit Rate : 320k
Sample Encoding: MPEG audio (layer I, II or III)
Comments :
Title=Adicto
Artist=Display
Album=En la Eternidad
Tracknumber=2
Year=2014
Genre=Metal

[/more]

Register
(5) DCLXVI-135, Olethros, Rosen, VALERY, varlam4,
Nov 2 2019, 16:49:32 Display - En Tierra Ajena [ep] (2012)


*Artist: Display
*Album: En Tierra Ajena [ep]
*Year: 2012
*Genre: Melodic Death/Power Metal
*Country: Spain
*Format: mp3@CBR320kbps
*Size: 67MB

Tracklist:
1. En tierra ajena 05:07
2. La frontera 04:17
3. La puerta del alma 04:37
4. Justicia 05:13
5. Tu propia verdad 04:15
6. Inmortal 05:50
******************************
Total playing time: 29:19



[more=Extended info]lame 3.93[/more]

[more=Technical info]
Input File: 01 - En Tierra Ajena.mp3
Channels : 2
Sample Rate : 44100
Precision : 16-bit
Duration : 00:05:07.87 = 13577199 samples = 23090.5 CDDA sectors
File Size : 12.3M
Bit Rate : 320k
Sample Encoding: MPEG audio (layer I, II or III)
Comments :
Title=En Tierra Ajena
Artist=Display
Album=En Tierra Ajena
Tracknumber=1
Year=2012
Genre=Metal

[/more]

Register
(7) chipsgott, metalwoman, Olethros, Rosen, VALERY, varlam4, zhol,
Nov 2 2019, 13:31:14 Perpetual Lament - Perpetual Lament [demo] (1994)


*Artist: Perpetual Lament
*Album: Perpetual Lament [demo]
*Year: 1994
*Genre: Death/Doom Metal
*Country: Spain
*Format: mp3@CBR320kbps
*Size: 99MB

Tracklist:
1. No More Hate 4:42
2. You 4:40
3. Amor Eterno 5:17
4. My Past... 5:47
5. Open Your Eyes 5:11
6. Un Mundo Irreal 4:58
7. Long Time Ago 4:30
8. Death in My World 8:58
9. The Last Goodbye 1:03
******************************
Total playing time: 45:06

[more=Extended info]Tape-rip[/more]

[more=Technical info]
Input File: 01 - No More Hate.mp3
Channels : 2
Sample Rate : 44100
Precision : 16-bit
Duration : 00:04:42.25 = 12447005 samples = 21168.4 CDDA sectors
File Size : 11.3M
Bit Rate : 320k
Sample Encoding: MPEG audio (layer I, II or III)
Comments :
Title=No More Hate
Artist=Perpetual Lament
Album=Perpetual Lament
Tracknumber=1
Year=1994
Genre=Metal

[/more]

Register
(18) chefo, Darkthronefoad, enslaver, Evilded, Hell_Is_Here, nord6666, Olethros, Pinhead666, Rosen, RUDACHUR, senecazm, sergsazan, stumpheavyrock, thenecromancer, VALERY, varlam4, Wail, wgs73,
Nov 1 2019, 19:51:19 My Thrusting Crown - My Thrusting Crown [demo] (1998)


*Artist: My Thrusting Crown
*Album: My Thrusting Crown [demo]
*Year: 1998
*Genre: Gothic/Black/Doom Metal
*Country: Spain
*Format: mp3@CBR192kbps
*Size: 21MB

Tracklist:
1. Something Sprouts Inside Of Me 4:56
2. Did You Hear Me Cry? 3:24
3. Coldness (instrumental) 1:25
4. The Pain Of Pulling Out a Thorn 5:14
******************************
Total playing time: 14:59



[more=Extended info]Демо выходило только на кассете, спектр соответствующий[/more]

[more=Technical info]
Input File: 01 - Something Sprouts Inside Of Me.mp3
Channels : 2
Sample Rate : 44100
Precision : 16-bit
Duration : 00:04:55.30 = 13022818 samples = 22147.6 CDDA sectors
File Size : 7.09M
Bit Rate : 192k
Sample Encoding: MPEG audio (layer I, II or III)
Comments :
Title=Something Sprouts Inside Of Me
Artist=My Thrusting Crown
Album=My Thrusting Crown
Tracknumber=1
Year=1998
Genre=Metal

[/more]

Register
(13) Cartman223, chefo, Evilded, Ildjarn, Ludwig Hagen, morbidangelo, Olethros, Rosen, senecazm, thenecromancer, VALERY, varlam4, Wail,
Oct 27 2019, 16:51:50 Crysalis - Ein Mitternachtsmord [demo] (2001)
192kbps, но спектр немного лучше:
Register
(2) infiltrator, kimkayoung,
Oct 27 2019, 07:42:48 Today Needed
ЦИТАТА(SyncestrA @ Oct 27 2019, 08:38:44) *

Перезалил
(2) infiltrator, SyncestrA,
Oct 27 2019, 07:41:44 Certainty - The Other (1997)
320kbps со сканами:
Register
(3) stumpheavyrock, SyncestrA, thenecromancer,
Oct 26 2019, 08:00:53 Altars Of Grief - Iris (2018)
Под 1000 уже купивших его на ВС, при том, что он выложен бесплатно, какой-никакой показатель. Но альбом и правда восхитителен. И да, стиль Atmospheric/Melodic Doom/Death, без всяких блэкенед
(2) infiltrator, MeatWolf,
Oct 23 2019, 20:17:36 Today Needed (2) Borderline1991, infiltrator,
Oct 23 2019, 09:28:56 Elderwind - Чем Холоднее Ночь (Instrumental Version) (2018)


*Artist: Elderwind
*Album: Чем Холоднее Ночь (Instrumental Version)
*Year: 2018
*Genre: Instrumental Atmospheric Black Metal/Ambient
*Country: Russian Federation
*Format: mp3@CBR320kbps
*Size: 137MB

Tracklist:
1. Алтай / Altay 7:19
2. Утром / In the morning 5:58
3. Просторы свободы / Vast of freedom 10:59
4. Осенним волшебством / With autumn magic 7:37
5. Тишина / Silence 7:20
6. В сумерках / In the dusk 3:38
7. Покидая родные края / Leaving the homeland 7:19
8. Чем холоднее ночь / The colder the night 9:48
******************************
Total playing time: 59:58



[more=Extended info]Тот нечастый случай, когда инструментальная версия не менее интересна, чем полная[/more]

[more=Technical info]
Input File: 02 - Утром.mp3
Channels : 2
Sample Rate : 44100
Precision : 16-bit
Duration : 00:05:58.61 = 15814481 samples = 26895.4 CDDA sectors
File Size : 14.3M
Bit Rate : 320k
Sample Encoding: MPEG audio (layer I, II or III)
Comments :
Title=Утром
Artist=Elderwind
Album=Чем холоднее ночь (Instrumental version)
Tracknumber=2
Year=2018
Genre=Metal

[/more]

Register
(15) 1968_janeart, Antkh, artscald, dulak, Femto, Olethros, Ostinato, Reverend, Rosen, senecazm, Shadechaser, tOmV, varlam4, vasiljev_sergej, Сварог Барг,
Oct 22 2019, 12:04:01 Realm Of Wolves - Oblivion (Instrumental) (2018)


*Artist: Realm Of Wolves
*Album: Oblivion (Instrumental)
*Year: 2018
*Genre: Instrumental Atmospheric Black Metal
*Country: Hungary
*Format: mp3@CBR320kbps
*Size: 93MB

Tracklist:
1. Cascadia 4:30
2. Ignifer 5:07
3. Old Roots 6:24
4. Translucent Stones 3:51
5. Twelve Miles To Live 4:44
6. Into The Woods Of Oblivion 9:15
7. Northern Wind 6:24
******************************
Total playing time: 40:15



[more=Technical info]
Input File: 02 - Ignifer.mp3
Channels : 2
Sample Rate : 44100
Precision : 16-bit
Duration : 00:05:07.30 = 13551842 samples = 23047.4 CDDA sectors
File Size : 12.3M
Bit Rate : 320k
Sample Encoding: MPEG audio (layer I, II or III)
Comments :
Title=Ignifer
Artist=Realm of Wolves
Album=Oblivion (Instrumental)
Tracknumber=2/7
Year=2018
Genre=Instrumental

[/more]

Register
(15) artscald, craP_cillA, kim666, kimkayoung, MercurioRojo, metala, Olethros, Ostinato, Rosen, senecazm, tamerz, trueandevil, varlam4, vasiljev_sergej, Сварог Барг,
Oct 19 2019, 15:10:54 Desperandum Gothica - II (2018)


*Artist: Desperandum Gothica
*Album: II
*Year: 2018
*Genre: Instrumental Dark/Doom/Gothic Metal
*Country: Belgium
*Format: mp3@CBR320kbps
*Size: 103MB

Tracklist:
1. Umbra Gloria 6:48
2. Stella Evacuatur 4:09
3. Divinum Opus 5:29
4. Somnum Mortis 5:04
5. Aeternum Vale 4:18
6. Aetheres Contritum 4:41
7. Lux Tristis 6:07
8. Tacet Nox 4:51
9. Alma Redemptoris Mater 4:19
******************************
Total playing time: 45:46



[more=Extended info]lame 3.93[/more]

[more=Technical info]
Input File: 02 - Stella Evacuatur.mp3
Channels : 2
Sample Rate : 44100
Precision : 16-bit
Duration : 00:04:09.51 = 11003479 samples = 18713.4 CDDA sectors
File Size : 9.98M
Bit Rate : 320k
Sample Encoding: MPEG audio (layer I, II or III)
Comments :
Title=Stella Evacuatur
Artist=Desperandum Gothica
Album=II
Tracknumber=2
Year=2018
Genre=Metal

[/more]

Register
(8) artscald, Cartman223, kimkayoung, mirotvorets, Olethros, Rosen, Shadechaser, tamerz,
Oct 18 2019, 19:24:02 Nephesh - Inter Armas Silent Leges (2009)
320kbps (100MB, за спектр не кидайте камни, с таким спектром он продаётся на площадках сервисов цифровой музыки):
Register

Thanks to INDARKNESS
(1) Veggr,
Oct 18 2019, 19:22:36 Negative Face - Stin (2005)
320kbps (87MB):
Register

Thanks to INDARKNESS
(1) sarcophagus,
Oct 17 2019, 21:43:00 Lost Infinity - Ravenloft (2006)
320kbps (100MB):
Register

Thanks to INDARKNESS
(1) Guns,
Oct 17 2019, 21:39:18 Lost Emotions - The Scarecrow's Return (2009)
320kbps (85MB):
Register

Thanks to INDARKNESS
(2) dimmannius, satanist666,
Oct 17 2019, 21:36:01 L'Impero Delle Ombre - L'Impero Delle Ombre (2004)
320kbps (109MB):
Register

Thanks to INDARKNESS
(1) thenecromancer,
Oct 17 2019, 19:31:08 Exegesis - Espiritu Artificial (2009)
320kbps (162MB):
Register

Thanks to INDARKNESS
(2) stumpheavyrock, thenecromancer,
Oct 16 2019, 21:04:39 Metalblack - Песни Старика (2018)


*Artist: Metalblack
*Album: Песни Старика
*Year: 2018
*Genre: Atmospheric Black/Doom Metal
*Country: Russian Federation
*Format: mp3@CBR320kbps
*Size: 207MB

Tracklist:
01. Тебя уж нет... 5:27
02. Брожу в стенах монастыря 5:31
03. Я – раб, и был рабом покорным... 5:28
04. Она сидела на полу 4:30
05. Когда с тобой расстался я... 4:23
06. Мои пальцы из рук твоих выпали... 4:44
07. Песня старика 4:01
08. Всё кончено 4:43
09. Слова бывают грустными 3:51
10. Греет солнышко 5:17
11. В молчаньи ночи тайной 5:27
12. Осенние листья 3:32
13. Нет, не тебя так пылко я люблю... 5:05
14. Дождь 4:57
15. Жница 7:48
16. Счастие во сне 4:57
17. Голубая кофта 4:56
18. Цветок 10:51
******************************
Total playing time: 1:35:28



[more=Extended info]All lyrics on the album are verse of Russian poets[/more]

[more=Technical info]
Input File: 01 - Тебя уж нет....mp3
Channels : 2
Sample Rate : 44100
Precision : 16-bit
Duration : 00:05:27.20 = 14429696 samples = 24540.3 CDDA sectors
File Size : 13.1M
Bit Rate : 320k
Sample Encoding: MPEG audio (layer I, II or III)
Comments :
Title=Тебя уж нет...
Artist=MetalBlack
Album=Песни старика
Tracknumber=1
Year=2018
Genre=Metal

[/more]

Register
(23) 1968_janeart, ahp, apostol_13, Aresson, artscald, infiltrator, kimkayoung, Ludwig Hagen, metala, oldvarg, Olethros, rabindranad, robertho777, Rosen, SatanicPanzer, senecazm, Shadechaser, singrad, skidnik, stone88, tOmV, varlam4, vasiljev_sergej,
Oct 14 2019, 21:07:59 Labyrinthus Noctis - Dark Unknown Nonreflective Nondetectable Objects Somewhere (2012)


*Artist: Labyrinthus Noctis
*Album: Dark Unknown Nonreflective Nondetectable Objects Somewhere
*Year: 2012
*Genre: Gothic/Doom Metal
*Country: Italy
*Format: mp3@CBR320kbps
*Size: 163MB

Tracklist:
01. D.U.N.N.O.S. 0:39
02. Apastron 9:06
03. Infinity Behind The Apses 9:56
04. Unholy Susan 6:11
05. Cold Altair 12:09
06. She Said Destroy 4:30
07. Periastron 9:44
08. Rainbow You Leave (a Ghost Tale) 6:13
09. Solaris 2013 6:44
10. Existential Black-Out 5:56
******************************
Total playing time: 1:11:08



[more=Technical info]
Input File: 06 - She Said Destroy.mp3
Channels : 2
Sample Rate : 44100
Precision : 16-bit
Duration : 00:04:26.62 = 11758074 samples = 19996.7 CDDA sectors
File Size : 10.7M
Bit Rate : 320k
Sample Encoding: MPEG audio (layer I, II or III)
Comments :
Title=She Said Destroy
Artist=Labyrinthus Noctis
Album=Dark Unknown Nonreflective Nondetectable Objects Somewhere
Tracknumber=6
Year=2012-07-06
Genre=Metal
Discnumber=1

[/more]

Register
(21) artscald, chipsgott, gwynnbleid, infiltrator, kimkayoung, kluval, metala, metalwoman, Olethros, pothead, Razorbladeswaltz, Rosen, senecazm, sergsazan, Shadechaser, socrates9, tamerz, valera2010, VALERY, varlam4, Veggr,

26 Pages V   1 2 3 > » 
- Lo-Fi Version Support form
Copyrights and abuse reports form
Time is now: 27th January 2020 - 14:40:56