Welcome Guest ( Log In | Register )

История благодарностей участнику BlackArrow ::: Спасибо сказали: 6649 раз(а)
Дата поста: В теме: За сообщение: Спасибо сказали:
Feb 23 2021, 22:22:18 Shiftlight - Conflict (2014)


*Artist: Shiftlight
*Album: Conflict
*Year: 2014
*Genre: Melodic Doom/Death Metal
*Country: Sweden
*Format: mp3@CBR320kbps
*Size: 120MB

Tracklist:
1. New Ground 7:24
2. Pill 4:55
3. The Great Escape 5:15
4. Black Light 6:44
5. Monolith 4:06
6. Degradation 6:36
7. Bloodline 5:37
8. The Guide 7:09
9. Unselfless 5:22
******************************
Total playing time: 53:08

Preview 1

[more=Extended info]lame 3.93[/more]

[more=Technical info]
Input File: 02 - Pill.mp3
Channels : 2
Sample Rate : 44100
Precision : 16-bit
Duration : 00:04:55.02 = 13010382 samples = 22126.5 CDDA sectors
File Size : 11.8M
Bit Rate : 320k
Sample Encoding: MPEG audio (layer I, II or III)
Comments :
Title=Pill
Artist=Shiftlight
Album=Conflict
Tracknumber=2
Year=2014
Genre=Metal

[/more]

Register
(15) DenisKov, HMHamster, infiltrator, kimkayoung, KKK1488, lacrimoza, Old Vyaine, Olethros, sergsazan, stumpheavyrock, Taakeferd, terron, VALERY, wreak, zhol,
Jan 27 2021, 14:04:44 Antti Martikainen - Sonic Savior (2020)


*Artist: Antti Martikainen
*Album: Sonic Savior
*Year: 2020
*Genre: Instrumental Epic/Symphonic Metal
*Country: Finland
*Format: mp3@CBR320kbps
*Size: 178MB

Tracklist:
1. Edenfall 6:49
2. Maverick 6:12
3. The Cure for Weakness 7:30
4. Neogenesis 6:35
5. Sonic Savior 5:53
6. Etherity 6:32
7. World of Hurt 4:24
8. Ascension Gate 7:31
9. Iconoclast 5:27
10. Limitless 6:03
11. Quantum Exodus 6:11
12. Ashes of Decadence 9:40
******************************
Total playing time: 1:18:47



[more=Extended info]lame 3.93[/more]

[more=Technical info]
Input File: 01 - Edenfall.mp3
Channels : 2
Sample Rate : 44100
Precision : 16-bit
Duration : 00:06:50.02 = 18081750 samples = 30751.3 CDDA sectors
File Size : 16.4M
Bit Rate : 320k
Sample Encoding: MPEG audio (layer I, II or III)
Comments :
Title=Edenfall
Artist=Antti Martikainen
Album=Sonic Savior
Tracknumber=1
Year=2020
Genre=Metal

[/more]

Register
(14) dimitriusk, gwynnbleid, infiltrator, Lucifer, MAYH, oldvarg, Olethros, Phlebotomized, Rosen, SaintVitus, talismanFS, varlam4, wreak, Сварог Барг,
Jan 14 2021, 13:38:29 And Now The Owls Are Smiling - The Comforting Grip Of Misery (2019)


*Artist: And Now The Owls Are Smiling
*Album: The Comforting Grip Of Misery
*Year: 2019
*Genre: Atmospheric Black Metal
*Country: United Kingdom
*Format: mp3@CBR320kbps
*Size: 100MB

Tracklist:
1. Our Forest Calls Me Home 7:42
2. An Indictment 8:12
3. The Comforting Grip Of Misery 6:12
4. Winter's Elegy 3:22
5. An Empyreal Spirit Dances Before Me 8:33
6. The Hollowness Of Existence 7:30
7. Betrachtungen 2:59
******************************
Total playing time: 44:30



[more=Extended info]lame 3.93[/more]

[more=Technical info]
Input File: 01 - Our Forest Calls Me Home.mp3
Channels : 2
Sample Rate : 44100
Precision : 16-bit
Duration : 00:07:42.87 = 20412391 samples = 34715 CDDA sectors
File Size : 18.5M
Bit Rate : 320k
Sample Encoding: MPEG audio (layer I, II or III)
Comments :
Title=Our Forest Calls Me Home
Artist=And Now The Owls Are Smiling
Album=The Comforting Grip Of Misery
Tracknumber=1
Year=2019
Genre=Black Metal

[/more]

Register
(19) aleon, AlexSmith, infiltrator, kim666, Marek, metala, Olethros, Ostinato, randumbum, robertho777, Rosen, satanist666, sergsazan, Shadechaser, SilentNidhogg, VALERY, varlam4, vasiljev_sergej, wreak,
Jan 14 2021, 13:33:22 And Now The Owls Are Smiling - Desolation (2018)


*Artist: And Now The Owls Are Smiling
*Album: Desolation
*Year: 2018
*Genre: Atmospheric Black Metal
*Country: United Kingdom
*Format: mp3@CBR320kbps
*Size: 120MB

Tracklist:
1. Do Not Look Here For Hope, For Hope Has Gone 11:24
2. Desolation 7:36
3. The Silence 8:26
4. The Haunting Beauty Of Coastlines In Winter 3:37
5. Voice Of The Forest 5:29
6. I Want To Sleep 5:48
7. The Ferryman 11:03
******************************
Total playing time: 53:23



[more=Extended info]lame 3.93[/more]

[more=Technical info]
Input File: 02 - Desolation.mp3
Channels : 2
Sample Rate : 44100
Precision : 16-bit
Duration : 00:07:36.99 = 20153171 samples = 34274.1 CDDA sectors
File Size : 18.3M
Bit Rate : 320k
Sample Encoding: MPEG audio (layer I, II or III)
Comments :
Title=Desolation
Artist=And Now The Owls Are Smiling
Album=Desolation
Tracknumber=2
Year=2018
Genre=Black Metal

[/more]

Register
(16) aleon, AlexSmith, infiltrator, kim666, Olethros, Ostinato, randumbum, Rosen, satanist666, sergsazan, Shadechaser, SilentNidhogg, VALERY, varlam4, vasiljev_sergej, wreak,
Jan 14 2021, 12:27:55 Semblant - Behold The Real Semblant [demo] (2008)
ЦИТАТА(Veggr @ Jan 12 2021, 18:49:01) *
Обновите ссылки?

Обновил
(1) Veggr,
Jan 5 2021, 16:25:39 Corvidae - Rabenvolk (2019)


*Artist: Corvidae
*Album: Rabenvolk
*Year: 2019
*Genre: Medieval Folk Metal
*Country: Germany
*Format: mp3@CBR320kbps
*Size: 130MB

Tracklist:
1. Die Kammer 05:14
2. Hexenjagd 05:59
3. Tyrs Schwur 04:31
4. Samhain 04:28
5. Horizon 04:47
6. Hoffnung 02:49
7. Rabenvolk 06:17
8. Freibeuter 04:45
9. Klabautermann 05:44
10. Vampir 05:54
11. Verbotene Liebe 05:26
12. Epilog 02:21
******************************
Total playing time: 58:15



[more=Extended info]lame 3.93[/more]

[more=Technical info]
Input File: 01 - Die Kammer.mp3
Channels : 2
Sample Rate : 44100
Precision : 16-bit
Duration : 00:05:14.35 = 13862923 samples = 23576.4 CDDA sectors
File Size : 12.6M
Bit Rate : 320k
Sample Encoding: MPEG audio (layer I, II or III)
Comments :
Title=Die Kammer
Artist=Corvidae
Album=Rabenvolk
Tracknumber=1
Year=2019
Genre=Metal

[/more]

Register
(19) Bregon, Buregon, Cartman223, chipsgott, gwar, gwynnbleid, infiltrator, kimkayoung, Mogozoz, oldvarg, Olethros, Rosen, satanist666, talismanFS, VALERY, vlad74, wreak, zhol, Сварог Барг,
Jan 5 2021, 16:17:15 Galensång - X [ep] (2018)


*Artist: Galensång
*Album: X [ep]
*Year: 2018
*Genre: Modern Medieval Folk Metal
*Country: Germany
*Format: mp3@CBR320kbps
*Size: 53MB

Tracklist:
1. Fesseln Los 3:33
2. Puppenspiel 4:00
3. Mutige Wege 3:53
4. Halte den Moment 3:24
5. Unberührt 4:58
6. American Jesus (Bad Religion cover) 3:26
******************************
Total playing time: 23:14



[more=Extended info]lame 3.93[/more]

[more=Technical info]
Input File: 01 - Fesseln Los.mp3
Channels : 2
Sample Rate : 44100
Precision : 16-bit
Duration : 00:03:33.57 = 9418261 samples = 16017.5 CDDA sectors
File Size : 8.54M
Bit Rate : 320k
Sample Encoding: MPEG audio (layer I, II or III)
Comments :
Title=Fesseln Los
Artist=Galensång
Album=X
Tracknumber=1
Year=2018
Genre=Metal

[/more]

Register
(14) Cartman223, chipsgott, craP_cillA, gwar, gwynnbleid, infiltrator, Olethros, Ostinato, Rosen, talismanFS, vlad74, wreak, zhol, Сварог Барг,
Dec 30 2020, 18:20:47 Pospolite Ruszenie - Pospolite Ruszenie (2014)


*Artist: Pospolite Ruszenie
*Album: Pospolite Ruszenie
*Year: 2014
*Genre: Folk Metal/Rock
*Country: Poland
*Format: mp3@CBR320kbps
*Size: 105MB

Tracklist:
1. Nieście chwałę, mocarze (Psalm XXIX) 4:53
2. Dobranoc Ci, Anusieńku 4:30
3. Błogosławiony człowiek (Psalm I) 5:06
4. Do Kasi 4:44
5. Kleszczmy rękoma wszyscy zgodliwie (Psalm XLVII) 5:01
6. Pan Bóg Wszechmogący 5:05
7. Nie złodziejem 3:05
8. Pieśń o Narodzeniu Pańskim 4:37
9. Sławne potomstwo Lechowe 4:25
10. Żołtarz Jezusów 5:12
******************************
Total playing time: 46:38





[more=Extended info]lame 3.93[/more]

[more=Technical info]
Input File: 01 - Niescie chwale, mocarze (Psalm XXIX).mp3
Channels : 2
Sample Rate : 44100
Precision : 16-bit
Duration : 00:04:52.38 = 12894002 samples = 21928.6 CDDA sectors
File Size : 11.7M
Bit Rate : 320k
Sample Encoding: MPEG audio (layer I, II or III)
Comments :
Title=Nieście chwałę, mocarze (Psalm XXIX)
Artist=Pospolite Ruszenie
Album=Pospolite Ruszenie
Tracknumber=1
Year=2014
Genre=Metal

[/more]

Register
(8) Cartman223, gwar, infiltrator, Olethros, Rosen, varlam4, wreak, Сварог Барг,
Dec 24 2020, 18:56:58 In Autumnus - Fairweather (2020)


*Artist: In Autumnus
*Album: Fairweather
*Year: 2020
*Genre: Atmospheric Post-Black Metal/Post-Rock
*Country: United Kingdom
*Format: mp3@CBR320kbps
*Size: 95MB

Tracklist:
1. Masculine Front 16:29
2. Phasing 4:00
3. Mourn 2:44
4. Love Streams 18:52
******************************
Total playing time: 42:05



[more=Extended info]lame 3.93[/more]

[more=Technical info]
Input File: 02 - Phasing.mp3
Channels : 2
Sample Rate : 44100
Precision : 16-bit
Duration : 00:04:00.13 = 10589909 samples = 18010 CDDA sectors
File Size : 9.61M
Bit Rate : 320k
Sample Encoding: MPEG audio (layer I, II or III)
Comments :
Title=Phasing
Artist=In Autumnus
Album=Fairweather
Tracknumber=2
Year=2020
Genre=Metal

[/more]

Register
(17) aleon, AlexSmith, infiltrator, kim666, kimkayoung, Olethros, randumbum, robertho777, Rosen, sergsazan, Shadechaser, SilentNidhogg, VALERY, varlam4, vasiljev_sergej, Wail, wreak,
Dec 24 2020, 18:52:07 In Autumnus - Catharsis (2020)


*Artist: In Autumnus
*Album: Catharsis
*Year: 2020
*Genre: Atmospheric Post-Black Metal
*Country: United Kingdom
*Format: mp3@CBR320kbps
*Size: 87MB

Tracklist:
1. Quarter Life 14:03
2. February 4:20
3. Calytrix 3:33
4. Late Summer / Euphoria 8:22
5. Faded Orchid 3:45
6. Cries and Whispers 4:35
******************************
Total playing time: 38:38



[more=Extended info]lame 3.93[/more]

[more=Technical info]
Input File: 02 - February.mp3
Channels : 2
Sample Rate : 44100
Precision : 16-bit
Duration : 00:04:20.41 = 11483905 samples = 19530.5 CDDA sectors
File Size : 10.4M
Bit Rate : 320k
Sample Encoding: MPEG audio (layer I, II or III)
Comments :
Title=February
Artist=In Autumnus
Album=Catharsis
Tracknumber=2
Year=2020
Genre=Metal

[/more]

Register
(16) aleon, AlexSmith, infiltrator, kim666, kimkayoung, Olethros, randumbum, Rosen, sergsazan, Shadechaser, SilentNidhogg, VALERY, varlam4, vasiljev_sergej, Wail, wreak,
Dec 24 2020, 18:47:01 Endlose Trap - Through The Cracks (2020)


*Artist: Endlose Trap
*Album: Through The Cracks
*Year: 2020
*Genre: Post-Black Metal/Acoustic
*Country: Israel
*Format: mp3@CBR320kbps
*Size: 101MB

Tracklist:
1. Through the Cracks 4:39
2. The Prisoner 6:22
3. Forlorn Pride 6:26
4. Recollections Into Ashes 5:50
5. The Scorpion Pit 1:14
6. The Essence of Torment 6:45
7. Out of the Depths 1:08
8. Memorial 9:50
9. The End of June 2:15
******************************
Total playing time: 44:29



[more=Extended info]lame 3.93[/more]

[more=Technical info]
Input File: 01 - Through the Cracks.mp3
Channels : 2
Sample Rate : 44100
Precision : 16-bit
Duration : 00:04:39.19 = 12312235 samples = 20939.2 CDDA sectors
File Size : 11.2M
Bit Rate : 320k
Sample Encoding: MPEG audio (layer I, II or III)
Comments :
Title=Through the Cracks
Artist=Endlose Trap
Album=Through The Cracks
Tracknumber=1
Year=2020
Genre=Metal

[/more]

Register
(13) aleon, AlexSmith, as71, infiltrator, kim666, Konst, Olethros, Rosen, toto, varlam4, vasiljev_sergej, wreak, Козлотролль,
Dec 1 2020, 12:24:24 Elenium - Martyria [demo] (2001)
ЦИТАТА(Ingvar @ Jul 19 2020, 17:51:45) *
Elenium 2001 Martyria (Demo)

32 mb/VBR~197 kbps

Register
(4) kim666, kimkayoung, MelodicDeathMan, varlam4,
Nov 18 2020, 12:18:28 Felled - Bonefire Grit [demo] (2017)


*Artist: Felled
*Album: Bonefire Grit [demo]
*Year: 2017
*Genre: Atmospheric Black Metal/Neofolk
*Country: United States
*Format: mp3@CBR320kbps
*Size: 60MB

Tracklist:
1. Corvid 6:41
2. Fire Season on the Outer Rim 7:17
3. Seaward 5:23
4. The Sentinel 6:56
******************************
Total playing time: 26:17



[more=Extended info]lame 3.93[/more]

[more=Technical info]
Input File: 01 - Corvid.mp3
Channels : 2
Sample Rate : 44100
Precision : 16-bit
Duration : 00:06:41.66 = 17713118 samples = 30124.4 CDDA sectors
File Size : 16.1M
Bit Rate : 320k
Sample Encoding: MPEG audio (layer I, II or III)
Comments :
Title=Corvid
Artist=Felled
Album=Bonefire Grit
Tracknumber=1
Year=2017
Genre=Metal

[/more]

Register
(13) 1968_janeart, Cartman223, Femto, infiltrator, kim666, Olethros, robertho777, Rosen, satanist666, VALERY, varlam4, vasiljev_sergej, wreak,
Nov 18 2020, 12:08:20 Empty Inside - Rising Of The Ancient Gods [demo] (2015)


*Artist: Empty Inside
*Album: Rising Of The Ancient Gods [demo]
*Year: 2015
*Genre: Melodic Death/Operatic Metal
*Country: Slovakia
*Format: mp3@CBR320kbps
*Size: 40MB

Tracklist:
1. Red Storm 3:28
2. Slaves 5:09
3. Good Night, Darling 3:58
4. Last fight 4:50
******************************
Total playing time: 17:25



[more=Extended info]lame 3.93[/more]

[more=Technical info]
Input File: 01 - Red Storm.mp3
Channels : 2
Sample Rate : 44100
Precision : 16-bit
Duration : 00:03:28.58 = 9198202 samples = 15643.2 CDDA sectors
File Size : 8.34M
Bit Rate : 320k
Sample Encoding: MPEG audio (layer I, II or III)
Comments :
Title=Red Storm
Artist=Empty Inside
Album=Rising of the Ancient Gods
Tracknumber=1
Year=2015
Genre=Metal

[/more]

Register
(11) Cartman223, infiltrator, kimkayoung, Olethros, Rosen, satanist666, VALERY, varlam4, wreak, zhol, Сварог Барг,
Nov 18 2020, 12:02:02 Severnaja - In Dying Summer's Glow (2014)


*Artist: Severnaja
*Album: In Dying Summer's Glow
*Year: 2014
*Genre: Operatic Progressive Metal
*Country: Finland
*Format: mp3@CBR320kbps
*Size: 108MB

Tracklist:
1. Ashes Remain 4:29
2. Our Nuclear Dream 4:11
3. Euphoria 4:13
4. Fallout 5:40
5. Grievous Wounds 4:48
6. Noir 5:13
7. The Beyond Within 4:35
8. Stygian Reveries 3:50
9. Stargazer 5:43
10. The Last Sunrise 4:52
******************************
Total playing time: 47:34



[more=Extended info]lame 3.93[/more]

[more=Technical info]
Input File: 02 - Our Nuclear Dream.mp3
Channels : 2
Sample Rate : 44100
Precision : 16-bit
Duration : 00:04:11.71 = 11100235 samples = 18878 CDDA sectors
File Size : 10.1M
Bit Rate : 320k
Sample Encoding: MPEG audio (layer I, II or III)
Comments :
Title=Our Nuclear Dream
Artist=Severnaja
Album=In Dying Summer's Glow
Tracknumber=2
Year=2014
Genre=Metal

[/more]

Register
(16) Alpha_Prime, Cartman223, gwynnbleid, infiltrator, kimkayoung, Lukittaz, metala, Olethros, Rosen, satanist666, Shadechaser, StabWound, varlam4, wreak, Yngwarr, yuratroll,
Nov 18 2020, 10:54:19 Litany - Pyres Of Lamentation (2016)


*Artist: Litany
*Album: Pyres Of Lamentation
*Year: 2016
*Genre: Epic Doom Metal
*Country: Greece
*Format: mp3@CBR320kbps
*Size: 154MB

Tracklist:
1. Niobe 9:15
2. Firewaters 5:52
3. Rites of Passage 6:29
4. Psykhe 5:40
5. Abjuration 6:18
6. Bellerophon's Doom 7:41
7. The Curse 4:36
8. The Lowest Form of Evil Subtlety 6:52
9. Furies 6:21
10. Infinite 1:02
11. Spaces 7:43
******************************
Total playing time: 1:07:49



[more=Extended info]lame 3.93[/more]

[more=Technical info]
Input File: 02 - Firewaters.mp3
Channels : 2
Sample Rate : 44100
Precision : 16-bit
Duration : 00:05:52.83 = 15559891 samples = 26462.4 CDDA sectors
File Size : 14.1M
Bit Rate : 320k
Sample Encoding: MPEG audio (layer I, II or III)
Comments :
Title=Firewaters
Artist=Litany
Album=Pyres of Lamentation
Tracknumber=2
Year=2016
Genre=Metal

[/more]

Register
(16) after21allD, AHBAnep, infiltrator, Lux, marilin, metala, Mogozoz, Niknne, Olethros, Rosen, sergsazan, stumpheavyrock, VALERY, varlam4, Wail, wreak,
Nov 18 2020, 10:46:29 Forest Whispers - Zamieć (2017)


*Artist: Forest Whispers
*Album: Zamieć
*Year: 2017
*Genre: Pagan Black Metal
*Country: Poland
*Format: mp3@CBR320kbps
*Size: 85MB

Tracklist:
1. Wstąpienie 1:58
2. Gniew 5:13
3. Zamieć 11:32
4. Nocy Milcząca 5:42
5. Skazanie 4:39
6. Wieczna Ciemność 2:17
7. Popioły Marnego Istnienia 5:00
8. Spokój 1:33
******************************
Total playing time: 37:54



[more=Extended info]lame 3.93[/more]

[more=Technical info]
Input File: 02 - Gniew.mp3
Channels : 2
Sample Rate : 44100
Precision : 16-bit
Duration : 00:05:13.59 = 13829495 samples = 23519.5 CDDA sectors
File Size : 12.5M
Bit Rate : 320k
Sample Encoding: MPEG audio (layer I, II or III)
Comments :
Title=Gniew
Artist=Forest Whispers
Album=Zamieć
Tracknumber=2
Year=2017
Genre=Metal

[/more]

Register
(18) 1968_janeart, Ildjarn, infiltrator, kim666, Marek, Olethros, Olrak, randumbum, rickzammuto, Rosen, satanist666, SilentNidhogg, Storky, varlam4, vasiljev_sergej, Wail, wreak, Сварог Барг,
Nov 16 2020, 17:28:15 Pictura Poesis - Demonic Delusions [ep] (2014)


*Artist: Pictura Poesis
*Album: Demonic Delusions [ep]
*Year: 2014
*Genre: Symphonic Death Metal
*Country: Netherlands
*Format: mp3@CBR320kbps
*Size: 44MB

Tracklist:
1. Dawn 01:01
2. Wrath of Diana 03:45
3. Demonic Delusions 05:03
4. Screams of Silence 03:58
5. L'Immortalité 05:28
******************************
Total playing time: 19:15



[more=Extended info]lame 3.93[/more]

[more=Technical info]
Input File: 02 - Wrath of Diana.mp3
Channels : 2
Sample Rate : 44100
Precision : 16-bit
Duration : 00:03:45.77 = 9956237 samples = 16932.4 CDDA sectors
File Size : 9.03M
Bit Rate : 320k
Sample Encoding: MPEG audio (layer I, II or III)
Comments :
Title=Wrath of Diana
Artist=Pictura Poesis
Album=Demonic Delusions
Tracknumber=2
Year=2014
Genre=Death Metal

[/more]

Register
(13) infiltrator, kimkayoung, lldma, Ludwig Hagen, Mogozoz, Olethros, Rosen, satanist666, VALERY, varlam4, wreak, zhol, Сварог Барг,
Nov 16 2020, 17:20:12 The Chapter - Into The Abyss [ep] (2006)


*Artist: The Chapter
*Album: Into The Abyss [ep]
*Year: 2006
*Genre: Gothic/Doom/Death Metal
*Country: Portugal
*Format: mp3@CBR320kbps
*Size: 57MB

Tracklist:
1. You are who I am 4:47
2. Wolf be 5:02
3. Look at us 7:01
4. Into the Abyss 8:07
******************************
Total playing time: 24:57



[more=Extended info]lame 3.93, flac-рип релиза с ВС[/more]

[more=Technical info]
Input File: 02 - Wolf Be.mp3
Channels : 2
Sample Rate : 44100
Precision : 16-bit
Duration : 00:05:02.39 = 13335267 samples = 22679 CDDA sectors
File Size : 12.1M
Bit Rate : 320k
Sample Encoding: MPEG audio (layer I, II or III)
Comments :
Title=Wolf Be
Artist=The Chapter
Album=Into the Abyss
Tracknumber=2
Year=2006
Genre=Metal

[/more]

Register
(13) AHBAnep, Cartman223, infiltrator, kluval, lacrimoza, Olethros, Rosen, sergsazan, Shadechaser, VALERY, varlam4, Wail, wreak,
Nov 16 2020, 17:07:23 Hathen - Feuer [ep] (2017)


*Artist: Hathen
*Album: Feuer [ep]
*Year: 2017
*Genre: Post-Black Metal
*Country: Germany
*Format: mp3@CBR320kbps
*Size: 70MB

Tracklist:
1. Feuerwerk 6:08
2. Glut I 3:01
3. Die Farben der Flamme 5:28
4. Glut II 3:39
5. Funkenflug 5:30
6. Glut III 2:32
7. Lichtermeer 4:21
******************************
Total playing time: 30:39



[more=Extended info]lame 3.93[/more]

[more=Technical info]
Input File: 02 - Glut I.mp3
Channels : 2
Sample Rate : 48000
Precision : 16-bit
Duration : 00:03:01.11 = 8693136 samples ~ 13583 CDDA sectors
File Size : 7.25M
Bit Rate : 320k
Sample Encoding: MPEG audio (layer I, II or III)
Comments :
Title=Glut I
Artist=Hathen
Album=Feuer
Tracknumber=2
Year=2017
Genre=Metal

[/more]

Register
(9) 1968_janeart, infiltrator, Olethros, Ostinato, SilentNidhogg, VALERY, varlam4, vasiljev_sergej, wreak,
Nov 3 2020, 13:04:08 Eibon La Furies - The Blood Of The Realm (2010)


*Artist: Eibon La Furies
*Album: The Blood Of The Realm
*Year: 2010
*Genre: Industrial Gothic/Black Metal
*Country: United Kingdom
*Format: mp3@CBR320kbps
*Size: 123MB

Tracklist:
1. The Blood of the Realm (Intro) 1:21
2. The Devil is an Englishman 4:07
3. Tears of Angels & Dreams of Demons 3:24
4. Horse of the Invisible 3:36
5. Winter Kings, Wicker Men & Her Imperial Majesty Brigantia 3:54
6. Dominion of Will 5:41
7. A Shadow Over London (part I) 2:50
8. Yours Truly, From Hell 1:31
9. ... And by the Moonlight 5:08
10. A Shadow Over London (part II) 2:55
11. I Am Whitechapel 6:19
12. A Shadow Over London (part III) 3:03
13. ... Of Golden Dawns 4:28
14. Dark Designs 3:53
15. Infinite Man (Outro) 2:33
******************************
Total playing time: 54:43



[more=Extended info]lame 3.93[/more]

[more=Technical info]
Input File: 02 - The Devil is an Englishman.mp3
Channels : 2
Sample Rate : 44100
Precision : 16-bit
Duration : 00:04:07.15 = 10899447 samples = 18536.5 CDDA sectors
File Size : 9.89M
Bit Rate : 320k
Sample Encoding: MPEG audio (layer I, II or III)
Comments :
Title=The Devil is an Englishman
Artist=Eibon la Furies
Album=The Blood of the Realm
Tracknumber=2/15
Year=2010
Genre=Metal

[/more]

Register
(14) Cartman223, gwar, infiltrator, kimkayoung, metala, Olethros, Rosen, Svafrlami, VALERY, varlam4, vasiljev_sergej, wreak, yuratroll, Сварог Барг,
Nov 3 2020, 12:02:32 Ethereal Dawn - The Revival Of Dreams (2017)


*Artist: Ethereal Dawn
*Album: The Revival Of Dreams
*Year: 2017
*Genre: Melodic/Symphonic Power Metal
*Country: Sweden
*Format: mp3@CBR320kbps
*Size: 69MB

Tracklist:
1. My Slumber 1:28
2. The Divine 4:26
3. The Revival Of Dreams 4:11
4. The River Of Fear And Broken Tears 4:08
5. Sing In The Key Of Disharmony 4:11
6. The Chamber Of Hearts 6:22
7. In Your Theocracy 6:06
******************************
Total playing time: 30:52



[more=Extended info]lame 3.93[/more]

[more=Technical info]
Input File: 02 - The Divine.mp3
Channels : 2
Sample Rate : 44100
Precision : 16-bit
Duration : 00:04:26.38 = 11747314 samples = 19978.4 CDDA sectors
File Size : 10.7M
Bit Rate : 320k
Sample Encoding: MPEG audio (layer I, II or III)
Comments :
Title=The Divine
Artist=Ethereal Dawn
Album=The Revival of Dreams
Tracknumber=2/7
Year=2017
Genre=Metal

[/more]

Register
(22) after21allD, aviacademy, boby9052, Cartman223, gwar, gwynnbleid, Herrant, infiltrator, Lukittaz, metala, Mogozoz, Olethros, Phlebotomized, Reverend, Rosen, Rover, sergsazan, valera2010, varlam4, wreak, zhol, Сварог Барг,
Oct 26 2020, 12:53:57 Arbor Ira - Zerfall [ep] (2013)


*Artist: Arbor Ira
*Album: Zerfall [ep]
*Year: 2013
*Genre: Doom/Death Metal
*Country: Germany
*Format: mp3@CBR320kbps
*Size: 89MB

Tracklist:
1. Zerfall 8:42
2. When Dark Arises 12:32
3. #2132 9:28
4. Albatros (Karat cover) 8:57
******************************
Total playing time: 39:39



[more=Extended info]lame 3.93[/more]

[more=Technical info]
Input File: 01 - Zerfall.mp3
Channels : 2
Sample Rate : 44100
Precision : 16-bit
Duration : 00:08:42.35 = 23035635 samples = 39176.2 CDDA sectors
File Size : 20.9M
Bit Rate : 320k
Sample Encoding: MPEG audio (layer I, II or III)
Comments :
Title=Zerfall
Artist=Arbor Ira
Album=Zerfall
Tracknumber=1
Year=2013
Genre=Metal

[/more]

Register
(17) Hell_Is_Here, infiltrator, kluval, lacrimoza, libertine, Lucju, Olethros, Ostinato, Rosen, RUDACHUR, sergsazan, Shadechaser, stumpheavyrock, VALERY, varlam4, vyacheslav, wreak,
Sep 3 2020, 09:40:38 Nmlss_Vgr - Labyrinth Of Chaos [demo] (2020)


*Artist: Nmlss_Vgr
*Album: Labyrinth Of Chaos [demo]
*Year: 2020
*Genre: Instrumental Melodic Black Metal
*Country: Germany
*Format: mp3@CBR320kbps
*Size: 142MB

Tracklist:
1. 00110001 5:26
2. 00110010 8:18
3. 00110011 9:35
4. 00110100 5:59
5. 00110101 8:20
6. 00110110 5:34
7. 00110111 5:03
8. 00111000 6:57
9. 00111001 7:29
******************************
Total playing time: 1:02:41



[more=Extended info]lame 3.93
Split with Khaos Labyrinth[/more]

[more=Technical info]
Input File: 01 - 00110001.mp3
Channels : 2
Sample Rate : 44100
Precision : 16-bit
Duration : 00:05:26.37 = 14392873 samples = 24477.7 CDDA sectors
File Size : 13.1M
Bit Rate : 320k
Sample Encoding: MPEG audio (layer I, II or III)
Comments :
Title=00110001
Artist=NMLSS_VGR
Album=Labyrinth Of Chaos
Tracknumber=1
Year=2020
Genre=Metal

[/more]

Register
(13) djsema4, Hell_Is_Here, infiltrator, kim666, kimkayoung, Olethros, randumbum, Rosen, varlam4, vasiljev_sergej, wreak, zhol, Сварог Барг,
Sep 3 2020, 09:30:54 Nmlss_Vgr - 01010011011011110110001101101001011000010110110000100000010001... [ep] (2020)


*Artist: Nmlss_Vgr
*Album: 01010011011011110110001101101001011000010110110000100000010001... [ep]
*Year: 2020
*Genre: Instrumental Melodic Black Metal
*Country: Germany
*Format: mp3@CBR320kbps
*Size: 29MB

Tracklist:
1. Cold Planet Hell 8:20
2. Close The Door By Me, I'm Leaving (KINO cover) 4:05
******************************
Total playing time: 12:25



[more=Extended info]lame 3.93[/more]

[more=Technical info]
Input File: 01 - Cold Planet Hell.mp3
Channels : 2
Sample Rate : 44100
Precision : 16-bit
Duration : 00:08:21.03 = 22095555 samples = 37577.5 CDDA sectors
File Size : 20.0M
Bit Rate : 320k
Sample Encoding: MPEG audio (layer I, II or III)
Comments :
Title=Cold Planet Hell
Artist=NMLSS_VGR
Album=010100110110111101100011011010010110000101101100001000000100010101111000011100000110010101110010011010010110110101100101011011100111010000100000010011010110000101110010011100
1100100000001101010011000000110000
Tracknumber=1
Year=2020
Genre=Metal

[/more]

Register
(15) djsema4, Glioma, Hell_Is_Here, infiltrator, kim666, kimkayoung, Occultas, Olethros, randumbum, Rosen, Shadechaser, varlam4, vasiljev_sergej, wreak, Сварог Барг,

29 Pages V   1 2 3 > » 
- Lo-Fi Version Support form
Copyrights and abuse reports form
Time is now: 26th February 2021 - 14:36:01