Welcome Guest ( Log In | Register )

История благодарностей участнику BlackArrow ::: Спасибо сказали: 6072 раз(а)
Дата поста: В теме: За сообщение: Спасибо сказали:
Yesterday, 13:49:07 Anabanta - Retahíla/Oculta (2020)


*Artist: Anabanta
*Album: Retahíla/Oculta
*Year: 2020
*Genre: Gothic Metal
*Country: Mexico
*Format: mp3@CBR320kbps
*Size: 92MB

Tracklist:
1. La Sombra del Vampiro 4:34
2. Entre el Cielo y el Infierno 4:26
3. Augurio 4:45
4. El Legado 6:16
5. El Cayó 5:30
6. El Adversario 3:13
7. Frío de Octubre 3:28
8. La Bella 3:55
9. Macbeth 4:49
******************************
Total playing time: 40:56



[more=Extended info]ex-Anabantha
lame 3.93[/more]

[more=Technical info]
Input File: 01 - La Sombra del Vampiro.mp3
Channels : 2
Sample Rate : 44100
Precision : 16-bit
Duration : 00:04:34.75 = 12116387 samples = 20606.1 CDDA sectors
File Size : 11.0M
Bit Rate : 320k
Sample Encoding: MPEG audio (layer I, II or III)
Comments :
Title=La Sombra del Vampiro
Artist=Anabanta
Album=Retahíla / Oculta
Tracknumber=1
Year=2020
Genre=Metal

[/more]

Register
(4) Alpha_Prime, dagger666, Lukittaz, Olethros,
Yesterday, 13:41:45 Anabanta - Corazón De Cristal (2020)


*Artist: Anabanta
*Album: Corazón De Cristal
*Year: 2020
*Genre: Gothic Metal
*Country: Mexico
*Format: mp3@CBR320kbps
*Size: 85MB

Tracklist:
1. Corazón de Cristal 4:50
2. Noche Magica 3:49
3. Sin Princípio y Sin Fín 4:01
4. Laberinto Eterno 4:26
5. El Cielo 3:38
6. La Música del Alma 5:07
7. El Beso Inmortal 3:34
8. Brillas 3:24
9. El Destino 5:03
******************************
Total playing time: 37:52



[more=Extended info]ex-Anabantha
lame 3.93[/more]

[more=Technical info]
Input File: 01 - Corazon de Cristal.mp3
Channels : 2
Sample Rate : 44100
Precision : 16-bit
Duration : 00:04:51.94 = 12874422 samples = 21895.3 CDDA sectors
File Size : 11.7M
Bit Rate : 320k
Sample Encoding: MPEG audio (layer I, II or III)
Comments :
Title=Corazón de Cristal
Artist=Anabanta
Album=Corazón de Cristal
Tracknumber=1
Year=2020
Genre=Metal

[/more]

Register
(4) Alpha_Prime, dagger666, Lukittaz, Olethros,
Yesterday, 13:00:48 Anabantha - Ecos Del Amanecer (2018)


*Artist: Anabantha
*Album: Ecos Del Amanecer
*Year: 2018
*Genre: Gothic Metal
*Country: Mexico
*Format: mp3@CBR320kbps
*Size: 87MB

Tracklist:
1. Diente de León 5:19
2. Instantes 3:50
3. Como un Volcán 3:44
4. Estrella Fugaz 4:08
5. El Misterio del Amor 4:56
6. Más Allá de los Sueños 4:54
7. Alma Sola 3:34
8. Secretos 4:25
9. Brazos de Huracán (otra versión) 4:05
******************************
Total playing time: 38:55



[more=Extended info]lame 3.93[/more]

[more=Technical info]
Input File: 01 - Diente de Leon.mp3
Channels : 2
Sample Rate : 44100
Precision : 16-bit
Duration : 00:05:19.42 = 14086422 samples = 23956.5 CDDA sectors
File Size : 12.8M
Bit Rate : 320k
Sample Encoding: MPEG audio (layer I, II or III)
Comments :
Title=Diente de Leòn
Artist=Anabanta
Album=Ecos del Amanecer
Tracknumber=1
Year=2018
Genre=Metal

[/more]

Register
(4) Alpha_Prime, dagger666, Lukittaz, Olethros,
Yesterday, 09:00:01 Dwell In Doom - Death To Us (2020)


*Artist: Dwell In Doom
*Album: Death To Us
*Year: 2020
*Genre: Gothic Metal
*Country: Sweden
*Format: mp3@CBR320kbps
*Size: 84MB

Tracklist:
1. Gothic Girl 3:02
2. Devil's Gateway 3:11
3. In Desolation We Dwell 5:37
4. Let the Past Die 3:35
5. Our Hell 3:01
6. Eternal Winter 4:55
7. Army of Devils 4:33
8. Black Rings 3:36
9. Alone in Death 5:46
******************************
Total playing time: 37:16



[more=Extended info]lame 3.93[/more]

[more=Technical info]
Input File: 01 - Gothic Girl.mp3
Channels : 2
Sample Rate : 44100
Precision : 16-bit
Duration : 00:03:02.69 = 8056497 samples = 13701.5 CDDA sectors
File Size : 7.31M
Bit Rate : 320k
Sample Encoding: MPEG audio (layer I, II or III)
Comments :
Title=Gothic Girl
Artist=Dwell In Doom
Album=Death to Us
Tracknumber=1
Year=2020
Genre=Metal

[/more]

Register
(4) HMHamster, kluval, Lukittaz, Olethros,
Jul 9 2020, 19:29:02 Symfobia - Way Of The Queen (2015)


*Artist: Symfobia
*Album: Way Of The Queen
*Year: 2015
*Genre: Symphonic Metal
*Country: Slovakia
*Format: mp3@CBR320kbps
*Size: 126MB

Tracklist:
1. Dragon 05:20
2. Only Goodbye 06:11
3. The Castle 05:26
4. Bloody Wings 04:34
5. Way of the Queen 07:12
6. Pack of Wolves 05:16
7. Last Teardrop 07:56
8. Sun 06:37
9. Finally 07:21
******************************
Total playing time: 55:53





[more=Extended info]lame 3.93[/more]

[more=Technical info]
Input File: 02 - Only Goodbye.mp3
Channels : 2
Sample Rate : 44100
Precision : 16-bit
Duration : 00:06:13.00 = 16449300 samples = 27975 CDDA sectors
File Size : 14.9M
Bit Rate : 320k
Sample Encoding: MPEG audio (layer I, II or III)
Comments :
Title=Only Goodbye
Artist=Symfobia
Album=Way of the Queen
Tracknumber=2
Year=2015
Genre=Metal

[/more]

Register
(3) Lukittaz, Olethros, Сварог Барг,
Jul 4 2020, 17:53:49 Crave For Dawning - Red Dawn (2019)
ЦИТАТА(Sanctus @ Oct 19 2019, 04:00:07) *
Похоронная атмосфера передана на невообразимом уровне. Чего только стоят мощные тягучие риффы и утробный могильный вокал. Музыка словно вбивает в чёрное болото своей сокрушительной растянутой во времени ритм-секцией, а фьюнеральные мотивы оставляют скорбную пустоту внутри.

Дядь, а ты дверью не ошибся? Не знаю, куда ты хотел это написать, но явно не сюда: никакого фюнерала здесь нет и в помине (тем более такого вокала и мощных рифов). Реально имеем здесь приятный и лёгкий атмосферный дум с пост-роком, причём лёгкий настолько, что даже метал-архивы посчитали всё это в такой степени не дотягивающим до отнесения к металлу, что побрезговали упомянуть о данном исполнителе.
(1) Bloodn Lord,
Jun 25 2020, 12:30:53 Ruins Of Purgatory - Appetite For Self-Destruction [ep] (2019)


*Artist: Ruins Of Purgatory
*Album: Appetite For Self-Destruction [ep]
*Year: 2019
*Genre: Blackened Doom/Death Metal
*Country: Brazil
*Format: mp3@CBR320kbps
*Size: 69MB

Tracklist:
1. In The Grave (Where It All Ends) 20:15
2. Let Me Die In Winter Part II 10:09
******************************
Total playing time: 30:24




[more=Extended info]lame 3.93[/more]

[more=Technical info]
Input File: 02 - Let Me Die In Winter Part Ii.mp3
Channels : 2
Sample Rate : 44100
Precision : 16-bit
Duration : 00:10:08.17 = 26820165 samples = 45612.5 CDDA sectors
File Size : 24.3M
Bit Rate : 320k
Sample Encoding: MPEG audio (layer I, II or III)
Comments :
Title=Let Me Die In Winter Part Ii
Artist=Ruins Of Purgatory
Album=Appetite For Self-Destruction
Tracknumber=2
Year=2019
Genre=Metal

[/more]

Register
(9) Guns, infiltrator, lacrimoza, Olethros, randumbum, sergsazan, VALERY, vasiljev_sergej, vyacheslav,
Jun 11 2020, 16:27:31 Delirium - Remember [ep] (2000)
Выкладываю версию из шапки, поскольку у неё спектр на порядок лучше, чем у этих 320 - равномерный и срез почти на 20 кГц, а у 320 корявый и в районе 16 кГц, чуть выше
Register
(1) varlam4,
Jun 8 2020, 14:36:21 Bellator - Iridescence (2002)
CBR320, 136MB (incl. booklet scans)
Register
(3) Ingvar, stumpheavyrock, varlam4,
Jun 4 2020, 16:38:00 Desolate - Eventide Of The Orb And Heavens (1998)
CBR320, 111MB
Register
(3) Korpse, sperminator, Wail,
Jun 4 2020, 13:59:10 Embrace Depart - Ending Dreams (2006)


*Artist: Embrace Depart
*Album: Ending Dreams
*Year: 2006
*Genre: Gothic Metal
*Country: Greece
*Format: mp3@CBR320kbps
*Size: 112MB

Tracklist:
1. In the Flames of Destiny 5:25
2. Walking in a Dark Path 4:45
3. Melancholy Breaks 5:22
4. Soul of Shaman 6:04
5. Coming to an End 5:56
6. For Those Who Died 6:54
7. Land of the Ending Dreams 5:24
8. Unholy Creations 5:39
9. L.S.F. (Life is Stranger than Fiction) 4:48
******************************
Total playing time: 50:17



[more=Extended info]lame 3.93[/more]

[more=Technical info]
Input File: 01 - In the Flames of Destiny.mp3
Channels : 2
Sample Rate : 44100
Precision : 16-bit
Duration : 00:05:22.62 = 14227630 samples = 24196.6 CDDA sectors
File Size : 12.9M
Bit Rate : 320k
Sample Encoding: MPEG audio (layer I, II or III)
Comments :
Title=In the Flames of Destiny
Artist=Embrace Depart
Album=Ending Dreams
Tracknumber=1/9
Year=2006
Genre=Metal

[/more]

Register
(11) AHBAnep, Cartman223, chipsgott, HMHamster, infiltrator, Mogozoz, Olethros, Rosen, senecazm, sergsazan, VALERY,
Jun 1 2020, 14:33:24 Devil's'musement - Am Ende War Der Met (2015)


*Artist: Devil's'musement
*Album: Am Ende War Der Met
*Year: 2015
*Genre: Folk Metal
*Country: Germany
*Format: mp3@CBR320kbps
*Size: 139MB

Tracklist:
1. Karten 5:30
2. Der Spielmann 3:41
3. Lasst uns Feiern 3:22
4. Tanz 3:49
5. Das Feuer 3:51
6. Licht 4:39
7. Tanzt auf meinem Grab 3:19
8. Rotes Eis 3:38
9. Die Welt steht still 5:02
10. Untergang 3:54
11. Satans Waldflöte 1:12
12. Ende des Regenbogens 5:31
13. Zeig mir die Welt 3:26
14. Weg nach Haus 5:09
15. Neben dir (Piano) (bonus track) 3:18
16. Met (feat. Tempus Umbra & Viridis Lupus) (bonus track) 2:24
******************************
Total playing time: 1:01:45



[more=Extended info]lame 3.93[/more]

[more=Technical info]
Input File: 01 - Karten.mp3
Channels : 2
Sample Rate : 44100
Precision : 16-bit
Duration : 00:05:31.46 = 14617518 samples = 24859.7 CDDA sectors
File Size : 13.3M
Bit Rate : 320k
Sample Encoding: MPEG audio (layer I, II or III)
Comments :
Title=Karten
Artist=Devil's'musement
Album=Am Ende war der Met
Tracknumber=1
Year=2015
Genre=Metal

[/more]

Register
(11) Cartman223, chipsgott, gwar, infiltrator, Mogozoz, Olethros, Romanza, Rosen, talismanFS, zhol, Сварог Барг,
May 27 2020, 19:23:12 Deviated Presence - Fractured Mind (2009)


*Artist: Deviated Presence
*Album: Fractured Mind
*Year: 2009
*Genre: Progressive Melodic Death Metal
*Country: Germany
*Format: mp3@CBR320kbps
*Size: 181MB

Tracklist:
1. Fractured Mind 11:27
2. Darkness 06:29
3. Silent Hope 09:13
4. Eternal 11:14
5. Daydreaming 05:32
6. Departure 07:27
7. Static Voyage 07:00
8. Mirror Insight 10:51
9. Reflections 05:14
10. Pointless at All 05:36
******************************
Total playing time: 1:20:03



[more=Extended info]lame 3.93[/more]

[more=Technical info]
Input File: 02 - Darkness.mp3
Channels : 2
Sample Rate : 44100
Precision : 16-bit
Duration : 00:06:28.57 = 17135937 samples = 29142.8 CDDA sectors
File Size : 15.5M
Bit Rate : 320k
Sample Encoding: MPEG audio (layer I, II or III)
Comments :
Title=Darkness
Artist=Deviated Presence
Album=Fractured Mind
Tracknumber=2
Year=2009
Genre=Death Metal

[/more]

Register
(14) chipsgott, infiltrator, Mares, metala, MMMMM, Mogozoz, Olethros, Rosen, senecazm, stumpheavyrock, VALERY, varlam4, yuratroll, zhol,
May 22 2020, 14:54:22 Habitante - Desde Las Sombras (2015)


*Artist: Habitante
*Album: Desde Las Sombras
*Year: 2015
*Genre: Melodic Doom/Death Metal
*Country: Chile
*Format: mp3@CBR320kbps
*Size: 88MB

Tracklist:
1. Ayalen 1:07
2. Ancestros 6:19
3. Cristales 4:35
4. Errante 6:14
5. Viaje Fantasma 6:48
6. Huellas 7:41
7. Bajo el Ocaso 6:07
******************************
Total playing time: 38:51



[more=Extended info]2017 remastered version, lame 3.93[/more]

[more=Technical info]
Input File: 02 - Ancestros.mp3
Channels : 2
Sample Rate : 44100
Precision : 16-bit
Duration : 00:06:19.01 = 16714253 samples = 28425.6 CDDA sectors
File Size : 15.2M
Bit Rate : 320k
Sample Encoding: MPEG audio (layer I, II or III)
Comments :
Title=Ancestros
Artist=Habitante
Album=Desde las Sombras
Tracknumber=2
Year=2015
Genre=Metal

[/more]

Register
(13) chefo, infiltrator, metala, Olethros, Razorbladeswaltz, Rosen, Sanctus, senecazm, sergsazan, VALERY, varlam4, Герб, Сварог Барг,
May 12 2020, 16:07:26 Dracovallis - Dance Of Life And Death (2020)


*Artist: Dracovallis
*Album: Dance Of Life And Death
*Year: 2020
*Genre: Epic/Neoclassical/Symphonic Metal
*Country: Bulgaria
*Format: mp3@CBR320kbps
*Size: 122MB

Tracklist:
1. Through the Darkness (feat. Stela Atanasova) 4:25
2. Realm of Instanity (feat. Carolina Madariaga) 5:25
3. Armageddon (feat. Stela Atanasova) 4:52
4. Shelter (feat. Carolina Madariaga) 4:41
5. Darkness is my Power 3:05
6. Summerspell (feat. Merrigan) 3:33
7. Revenant (feat. Carolina Madariaga) 4:12
8. Dance of Life and Death 3:28
9. Circle of Stones (feat. Carolina Madariaga) 5:46
10. Siege 3:19
11. The Grand Design (feat. Liv Kristine and Marion-Lamita Peubey) 8:11
12. Beauty of November 3:07
******************************
Total playing time: 54:04



[more=Extended info]lame 3.93[/more]

[more=Technical info]
Input File: 02 - Realm of Insanity.mp3
Channels : 2
Sample Rate : 44100
Precision : 16-bit
Duration : 00:05:25.51 = 14354815 samples = 24413 CDDA sectors
File Size : 13.0M
Bit Rate : 320k
Sample Encoding: MPEG audio (layer I, II or III)
Comments :
Title=Realm of Insanity
Artist=Dracovallis
Album=Dance of Life and Death
Tracknumber=2
Year=2020
Genre=Metal

[/more]

Register
(24) ace73pq, aviacademy, Bregon, Cartman223, Dark Sage, djsema4, gwar, hate_eternal, Herrant, Hroft, infiltrator, infozahist, Lukittaz, MMMMM, oldvarg, Olethros, postal67, Rosen, senecazm, sergsazan, terron, vladavina, Луч, Сварог Барг,
May 7 2020, 19:54:29 Autumn Lethargy - Monochrome Sun (2017)
ЦИТАТА(krotovich @ May 7 2020, 21:04:25) *
From Album : Monochrome Sun (2019)

Инфа о годе выхода с официальной страницы группы, ссылка в шапке. Так-то его в некоторых местах и 2010-м годом датируют, по году окончания записи
(2) infiltrator, krotovich,
May 7 2020, 15:31:19 Autumn Lethargy - Monochrome Sun (2017)


*Artist: Autumn Lethargy
*Album: Monochrome Sun
*Year: 2017
*Genre: Symphonic Gothic/Doom/Dark Metal
*Country: Russian Federation
*Format: mp3@CBR320kbps
*Size: 107MB

Tracklist:
1. Intro 3:43
2. Turned to Endless 5:04
3. Fade to Serenity 6:08
4. Solid Mirror of Rain 5:49
5. Confession to September 5:45
6. Monochrome Sun 7:12
7. At the Light 9:39
8. Through the Dust of Time 6:42
9. Outro 3:45
******************************
Total playing time: 53:47

Preview 1

[more=Extended info]Создана в 2006 году как сайд-проект вокалиста Wine From Tears
Все треки были записаны в 2006-2010 годах[/more]

[more=Technical info]
Input File: 02 - Turned To Endless.mp3
Channels : 2
Sample Rate : 44100
Precision : 16-bit
Duration : 00:05:04.04 = 13408252 samples = 22803.1 CDDA sectors
File Size : 12.2M
Bit Rate : 320k
Sample Encoding: MPEG audio (layer I, II or III)
Comments :
Title=Turned To Endless
Artist=Autumn Lethargy
Album=Monochrome Sun
Tracknumber=2
Year=2017
Genre=Metal

[/more]

Register
(26) Cartman223, cesar, chefo, chipsgott, csgmnk, fallen, Ice Gnoll, infiltrator, infozahist, kluval, libertine, Ludwig Hagen, metala, Mogozoz, oldvarg, Olethros, Rosen, SatanicPanzer, senecazm, Shadechaser, skidnik, valera2010, VALERY, varlam4, Vranakrik, Герб,
May 3 2020, 18:11:33 Monoblock - Kinderaugenblicke (2006)


*Artist: Monoblock
*Album: Kinderaugenblicke
*Year: 2006
*Genre: Gothic/Dark Metal
*Country: Germany
*Format: mp3@CBR320kbps
*Size: 127MB

Tracklist:
1. Rattemenschenmassen 5:17
2. Ein Kindertraum 4:31
3. In der Ruinen hellem Glanz 4:51
4. Heller noch... 8:08
5. Rattenspiel 2:13
6. Kinderaugentränen 4:33
7. Kinderaugenblicke - Teil 1 2:23
8. Kinderaugenblicke - Teil 2 5:24
9. Kinderaugenblicke - Teil 3 3:43
10. Mein Freund der Traum (ist tot) 8:45
11. Hör auf zu weinen! 6:20
******************************
Total playing time: 56:08

Preview 1

[more=Extended info]lame 3.93[/more]

[more=Technical info]
Input File: 01 - Rattenmenschenmassen.mp3
Channels : 2
Sample Rate : 44100
Precision : 16-bit
Duration : 00:05:17.10 = 13983890 samples = 23782.1 CDDA sectors
File Size : 12.7M
Bit Rate : 320k
Sample Encoding: MPEG audio (layer I, II or III)
Comments :
Title=Rattenmenschenmassen
Artist=Monoblock
Album=KinderAugenBlicke
Tracknumber=1
Year=2006
Genre=Metal

[/more]

Register
(14) Buregon, Cartman223, craP_cillA, csgmnk, gwar, gwynnbleid, infiltrator, Lukittaz, metalwoman, Olethros, Rosen, senecazm, VALERY, varlam4,
Apr 26 2020, 17:47:29 Endless Solitude - Awakening Of A Despair [demo] (2003)


*Artist: Endless Solitude
*Album: Awakening Of A Despair [demo]
*Year: 2003
*Genre: Gothic/Doom Metal
*Country: Brazil
*Format: mp3@CBR320kbps
*Size: 62MB

Tracklist:
1. Men, Demons and Angels 5:09
2. Moonlight 8:35
3. Mourn for Me 6:09
4. Oration 3:30
5. Ode to Sadness 7:03
******************************
Total playing time: 30:26

[more=Technical info]
Input File: 03 - Mourn for Me.mp3
Channels : 2
Sample Rate : 48000
Precision : 16-bit
Duration : 00:06:08.55 = 17690256 samples ~ 27641 CDDA sectors
File Size : 14.7M
Bit Rate : 320k
Sample Encoding: MPEG audio (layer I, II or III)
Comments :
Title=Mourn for Me
Artist=Endless Solitude
Album=Awakening of a Despair
Tracknumber=3
Year=2003
Genre=Metal

[/more]

Register
(8) Cartman223, Corpuscul, infiltrator, Olethros, Reverend, sergsazan, thenecromancer, VALERY,
Apr 23 2020, 14:54:35 Tempory - My Dark Passenger [ep] (2010)


*Artist: Tempory
*Album: My Dark Passenger [ep]
*Year: 2010
*Genre: Melodic Death Metal
*Country: Sweden
*Format: mp3@CBR320kbps
*Size: 39MB

Tracklist:
1. My Dark Passenger 3:29
2. Darkening 3:44
3. Locked Together In Hatred 3:16
4. Manufacture Failure 3:17
5. Core 3:34
******************************
Total playing time: 17:20



[more=Technical info]
Input File: 01 - My Dark Passenger.mp3
Channels : 2
Sample Rate : 44100
Precision : 16-bit
Duration : 00:03:29.20 = 9225544 samples = 15689.7 CDDA sectors
File Size : 8.37M
Bit Rate : 320k
Sample Encoding: MPEG audio (layer I, II or III)
Comments :
Title=My Dark Passenger
Artist=Tempory
Album=My Dark Passenger
Tracknumber=1/5
Year=2010
Genre=Death Metal

[/more]

Register
(8) BugEyes, infiltrator, Olethros, Rosen, sergsazan, stumpheavyrock, VALERY, zhol,
Apr 23 2020, 10:23:05 Apocryphal - Black Dreams Of Silence (1999)


*Artist: Apocryphal
*Album: Black Dreams Of Silence
*Year: 1999
*Genre: Atmospheric Death/Doom/Gothic Metal
*Country: France
*Format: mp3@CBR320kbps
*Size: 109MB

Tracklist:
1. No More Tears 5:48
2. Black Dream of Silence 8:15
3. The Unseen Multitude 5:50
4. Leave 1:43
5. A Time Scale of Reflection 9:05
6. Soul Song 6:22
7. Hidden 5:52
8. Just a Word 3:42
******************************
Total playing time: 46:37



[more=Extended info]lame 3.93
+ booklet scans[/more]

[more=Technical info]
Input File: 01 - No More Tears.mp3
Channels : 2
Sample Rate : 44100
Precision : 16-bit
Duration : 00:05:47.60 = 15328940 samples = 26069.6 CDDA sectors
File Size : 13.9M
Bit Rate : 320k
Sample Encoding: MPEG audio (layer I, II or III)
Comments :
Title=No More Tears
Artist=Apocryphal
Album=Black Dreams Of Silence
Tracknumber=1/8
Year=1999
Genre=Metal

[/more]

Register
(14) Cartman223, chefo, infiltrator, lacrimoza, metala, Olethros, postal67, Rosen, senecazm, sergsazan, Shadechaser, Sphinx7, VALERY, varlam4,
Apr 13 2020, 14:24:57 Némesis - Shade Of A Soul's Reflection (2017)
Он же на ВС раздаётся в NYP, зачем выкладывать в VBR? 17.gif
Вот 320 kbps / 105MB, lame 3.93:
Register
(1) varlam4,
Apr 13 2020, 13:18:41 Inner Silence - Par Avion (2019)


*Artist: Inner Silence
*Album: Par Avion
*Year: 2019
*Genre: Instrumental Gothic/Doom Metal
*Country: Ukraine
*Format: mp3@CBR320kbps
*Size: 96MB

Tracklist:
1. Memories 6:22
2. Contemplation 6:11
3. Flame of the stars 6:00
4. Frozen aspirations 5:48
5. Sacramental 6:04
6. Future is encrypted 6:03
7. Waterfall 6:08
******************************
Total playing time: 42:36



[more=Extended info]lame 3.93[/more]

[more=Technical info]
Input File: 01 - Memories.mp3
Channels : 2
Sample Rate : 44100
Precision : 16-bit
Duration : 00:06:22.72 = 16877864 samples = 28703.9 CDDA sectors
File Size : 15.3M
Bit Rate : 320k
Sample Encoding: MPEG audio (layer I, II or III)
Comments :
Title=Memories
Artist=Inner Silence
Album=Par Avion
Tracknumber=1
Year=2019
Genre=Metal

[/more]

Register
(16) aleon, autumnwood, Cartman223, chipsgott, infiltrator, kimkayoung, maxapero, metala, metaljinie, oldvarg, Olethros, Shadechaser, terron, valera2010, VLADISLAV_V_K, Сварог Барг,
Apr 10 2020, 06:56:53 Winter Eternal - Winter Eternal (2013)


*Artist: Winter Eternal
*Album: Winter Eternal
*Year: 2013
*Genre: Melodic Black Metal
*Country: Greece
*Format: mp3@CBR320kbps
*Size: 67MB

Tracklist:
1. Unholy Flames 3:08
2. Palace Of Despair 3:53
3. Wolves Cries 4:00
4. Forbidden Land of Sorrow 1:42
5. The Moon Shall Rise 3:56
6. Celebrating The End 5:02
7. Winter Eternal 3:56
8. Unmask The Eternal Lie 3:37
******************************
Total playing time: 29:14



[more=Technical info]
Input File: 02 - Palace of Despair.mp3
Channels : 2
Sample Rate : 44100
Precision : 16-bit
Duration : 00:03:55.12 = 10368704 samples = 17633.9 CDDA sectors
File Size : 9.41M
Bit Rate : 320k
Sample Encoding: MPEG audio (layer I, II or III)
Comments :
Title=Palace of Despair
Artist=Winter Eternal
Album=Winter Eternal
Tracknumber=2
Year=2013
Genre=Black Metal

[/more]

Register
(26) atavist, BugEyes, Ildjarn, infiltrator, kim666, kimkayoung, maxapero, Mogozoz, morbidangelo, multizwilling, oldvarg, Olethros, Ostinato, randumbum, rickzammuto, robertho777, senecazm, sergsazan, SilentNidhogg, terron, VALERY, vasiljev_sergej, Wail, Wolftribes, zhol, Сварог Барг,
Apr 8 2020, 15:21:10 Soul's Chains - Disharmony (2013)


*Artist: Soul's Chains
*Album: Disharmony
*Year: 2013
*Genre: Experimental Symphonic/Neoclassical Gothic/Extreme Metal
*Country: Italy
*Format: mp3@CBR320kbps
*Size: 129MB

Tracklist:
1. Hourglass of Sorrow 5:10
2. DEGENERATION 7:45
3. Dead Body 4:56
4. White Addicted Doll 4:32
5. For you 5:42
6. The Human Fall part I - Humans And Demigods 7:17
7. The Human Fall part II - Wrath of the Fallen 7:53
8. Blindness 5:22
9. The Human Fall part III - Regret and Self Distruction 5:17
10. The Human Fall part IV - The End 2:25
******************************
Total playing time: 56:19



[more=Extended info]Ephesian Zap All instruments
Предыдущий и последующий альбомы были записаны в полном составе
Альбом был перевыпущен в 2016 году, издание 2013-го отличается только наличием в нём 2-го диска с ремастированной версией ЕР "Darkness Behind Humanity" (2010)
Между выпуском этого альбома и его переизданием в 2016-м поменяли название на Soul S Chains, перевыпущеный альбом вышел уже под новым именем[/more]

[more=Technical info]
Input File: 01 - Hourglass of Sorrow.mp3
Channels : 2
Sample Rate : 44100
Precision : 16-bit
Duration : 00:05:10.56 = 13695872 samples = 23292.3 CDDA sectors
File Size : 12.4M
Bit Rate : 320k
Sample Encoding: MPEG audio (layer I, II or III)
Comments :
Title=Hourglass of Sorrow
Artist=Soul's Chains
Album=Disharmony
Tracknumber=1
Year=2013
Genre=Black Metal

[/more]

Register
(13) Cartman223, chipsgott, gwar, infiltrator, Ludwig Hagen, metala, minimums, Olethros, senecazm, tamerz, yuratroll, Нигилист, Сварог Барг,

28 Pages V   1 2 3 > » 
- Lo-Fi Version Support form
Copyrights and abuse reports form
Time is now: 11th July 2020 - 03:54:31