Welcome Guest ( Log In | Register )

История благодарностей участнику sacramentary ::: Спасибо сказали: 37 раз(а)
Дата поста: В теме: За сообщение: Спасибо сказали:
Jun 20 2019, 03:37:42 Cremation Pyre - The Flame Begins - Rehearsal [demo] (2018)


*Artist: Cremation Pyre
*Album: The Flame Begins - Rehearsal [demo]
*Year: 2018
*Genre: Black/Death/Thrash
*Country: Chile
*Format: mp3@CBR320kbps
*Size: 19MB

Tracklist:
1. Look at the Eyes... The Satan's Wrath 03:13

2. Pyre 04:01

3. Electric Shock (Schizo cover) 01:26
******************************
Total playing time: 8:40

[more=Technical info]
Input File: 01 - Look at the Eyes... The Satan\'s Wrath.mp3
Channels : 2
Sample Rate : 44100
Precision : 16-bit
Duration : 00:03:12.74 = 8499702 samples = 14455.3 CDDA sectors
File Size : 7.71M
Bit Rate : 320k
Sample Encoding: MPEG audio (layer I, II or III)

[/more]

Register
(2) artscald, stumpheavyrock,
Jun 12 2019, 03:34:50 Krigere Wolf - Sacrifice To Valaskjàlf (2014)
reupload please
(1) obituarydark,
May 8 2019, 03:23:49 Heretic Execution - Contemplating The Obscurity [demo] (2013)
reupload please
(1) obituarydark,
May 23 2018, 02:54:57 Moriorr - Řev Alkoholika [best of/compilation] (2006)
reupload please
(1) dermarsoran,
May 16 2018, 01:35:08 Minotaur - Power Of Darkness (1988)
can somebody upload the vinyl original versión including the song "Fall of the Gods" please
(1) pichileon,
Jul 21 2017, 05:04:24 Hatevomit - Necrövömit [ep] (2015)
reupload please
(1) Wolftribes,
Jun 13 2017, 03:41:54 Impostor - SNS - Still Not Satisfied? [demo] (1990)
reupload please
(1) dermarsoran,
May 14 2017, 02:51:04 Goatspell - Esoterrorism [ep] (2015)
reupload please
(2) obituarydark, Wolftribes,
May 14 2017, 02:42:54 Iron Slaught - Crusading Metal Mercenaries (2015)
reupload please
(1) Wolftribes,
May 6 2017, 18:50:12 Egzekuthor - Czas Sumienia [demo] (1988)
Somebody can upload the reissue of this demo with the demo 87
(1) gamilbt,
Apr 7 2017, 01:56:31 Desecration - Dead... Yet, Not Forgotten
Hails!!

Is possible upload this compilation please!!

Desecration (us) - Dead... Yet, Not Forgotten 2015

Incredible american classic death thrash!!!

(1) Tino,
Mar 22 2017, 03:26:38 Crucifier : Coffins Through Time...a Mourning in Nazareth
Maniacs!!

I am looking for an upload of this incredible compilation!!!


Crucifier (us) : Coffins Through Time...a Mourning in Nazareth

Type:Compilation
Release date:October 1st, 2013
Catalog ID:IBP168
Version desc.:Limited edition
(1) Tino,
Jan 19 2017, 16:19:05 Exhumation - Towards The Werge [ep] (1995)
please reupload!
(1) dermarsoran,
Jan 9 2017, 04:12:57 Bode Preto - Mystic Massacre (2015)
reupload please
(1) wendigo,
Nov 18 2016, 02:05:47 Malicious - Black Fumes [ep] (2015)
320 PLEASE!!!
(2) boba, Tino,
Sep 12 2016, 03:25:14 Ogdru Jahad - I (2013)
reupload cd version please!!!
(1) wendigo,
Aug 24 2016, 04:20:34 Nifelheim - Unholy Death [demo] (1993)
reupload please
(1) PanzerDivisionMarduk,
Nov 17 2015, 01:23:53 Perpetual Demise - When Fear Becomes... [demo] (1993)
reupload please
(1) anxiety,
Nov 17 2015, 01:14:35 Armed Death - Reborn [best of/compilation] (2009)
reupload please!
(1) Wolftribes,
Nov 16 2015, 03:11:59 Restless Dead - The Fifth Sacrament [demo] (1991)
reup please
(1) Alfredoelruso,
Nov 9 2015, 03:17:59 Absu > Origin: War and Magick
Absu > Origin: War and Magick compilation 2014 !!
(1) PanzerDivisionMarduk,
Sep 23 2015, 03:13:57 Megahertz - Adrenalina Total [demo] (1986)
!!! 6.gif
(1) asgarddistro,
Aug 22 2015, 15:05:46 Megahertz - Adrenalina Total [demo] (1986)
reupload please!!
(1) asgarddistro,
Jun 8 2015, 01:44:17 Libation - Rehearsal '92 [demo] (1992)
reupload please!
(1) dermarsoran,
Mar 28 2015, 23:02:22 Vomitory - Revelation Nausea (2001)
reupload please!
(2) infiltrator, Saalingurth,

2 Pages V   1 2 >
- Lo-Fi Version Support form
Copyrights and abuse reports form
Time is now: 10th December 2019 - 08:43:32