Welcome Guest ( Log In | Register )

История благодарностей участнику Militia ::: Спасибо сказали: 2632 раз(а)
Дата поста: В теме: За сообщение: Спасибо сказали:
Jul 28 2017, 17:18:55 The Privateer - Monolith (2013)
Thanks a lot man!
(1) Samaritianin,
May 4 2015, 12:27:12 Anthares - O Caos Da Razão (2015)
QUOTE(Ufasas @ May 3 2015, 22:40:33) *
Are they still good after 18 years ? : P


Yes. Reminds me of Minotaur (Germany) when they returned in 2009 with their second full length. No change. Anthares is still thrashing like they did in the late 80's!

Thrash METAL!!! \m/\m/\m/
(1) Samaritianin,
Apr 1 2015, 17:29:59 Weresquatch - Frozen Void (2015)
pray.gif metaler.gif metaler.gif
(2) Samaritianin, slack,
Oct 14 2014, 13:27:34 Alkoholizer - Free Beer...Surf's Up!!! (2014)
10/10

Thanks, man! \m/

metaler.gif
(1) Samogon,
Oct 12 2014, 14:47:07 Burning Nitrum - Molotov (2014)
I am not dead yet. Just have been busy!

But I must thank you for this amazing album Samaritianin!!!

10/10. This is the thrash metal we need! Very good Vio-lence - Eternal Nightmare (1988) feeling and also Evildead - Annihilation of Civilization (1989).

metaler.gif metaler.gif metaler.gif metaler.gif metaler.gif metaler.gif metaler.gif
(2) Deadly1989, Samaritianin,
Feb 26 2014, 11:47:05 Fadom - Pantophobia (2014)
Highly recommended!!!

Thanks man! \m/
(1) Diflock,
Feb 20 2014, 22:51:58 Hirax - Immortal Legacy (2014)
iFolder is giving me a headache. One time, it downloads fast, the next time 2 fucking hours?!

Lately I been waiting for a blog to upload to ZippyShare cuz this stuff never works! smile2.gif
(1) Samaritianin,
Feb 16 2014, 11:25:27 Soul Collector - Thrashmageddon (2013)
Unbelievable album. Loved it! Thanks man! 10/10
(1) Samaritianin,
Feb 10 2014, 11:51:13 Primalfrost - Prosperous Visions (2014)
Register
(1) Elfrey,
Jan 27 2014, 11:07:38 Deathblow - Prognosis Negative (2014)
Register
(1) Diflock,
Dec 22 2013, 19:12:21 War Device - Whisper Of Souls (2013)
QUOTE(Samaritianin @ Dec 22 2013, 11:56:29) *
Греки в этом году назло и вопреки всем экономическим негораздам выдают превосходный треш! metaler.gif metaler.gif metaler.gif
7 января и будут своим энергетическим
зарядом в виде дебютного альбома лечить страждущие сосуды больных голов металхедов 20.gif


That song owns!!! \m/
(1) Samaritianin,
Dec 19 2013, 23:19:18 Thaurorod - Anteinferno (2013)
Register
(2) Protecto, talismanFS,
Dec 17 2013, 20:52:33 Switchblade - Heavy Weapons (2013)
Register
Dec 13 2013, 00:38:05 Crystal Viper - Possession (2013)
Register
(2) gusto24191, talismanFS,
Dec 5 2013, 21:50:59 Lightning - Raise The Sun (2013)
Register
Dec 3 2013, 17:13:57 Fire Within - On The Wings Of Revenge (2013)
Register
(3) Diflock, neoatheist, Ostinato,
Dec 2 2013, 18:35:39 Riffobia - Laws Of Devastation (2013)
Register
(3) Diflock, MEmethuselah, neoatheist,
Nov 29 2013, 11:33:32 Amok - Somewhere In The West (2013)
Register
(2) crackedbrain, Diflock,
Nov 28 2013, 15:39:50 BlackRider - The Gate To The Unknown (2013)
Register


Highly Recommended!

Samaritianin is now in the top 10!!! \m/
(4) Cristof25, metala, neoatheist, vosmidesijatye,
Nov 27 2013, 20:14:55 Irminsul - Fäder (2013)
Register
(5) arioch82, neoatheist, Ostinato, talismanFS, ZA670,
Nov 27 2013, 15:33:19 Split Heaven - The Devil's Bandit (2013)
Register
(1) lordsloth,
Nov 24 2013, 03:09:36 Beast - Infernal Hangover... Wrecked In Space (2013)
Very good old school thrash, reminds me of Eradicator - Germany! \m/\m/

metaler.gif
(2) Diflock, Genuine Thrashiac,
Nov 22 2013, 10:52:52 Torture Squad - Esquadrāo De Tortura (2013)
Register
(1) ANGELUSARCHDAEMON,
Nov 21 2013, 22:39:09 Hell - Curse And Chapter (2013)


*Artist: Hell
*Album: Curse And Chapter
*Year: 2013
*Genre: NWOBHM
*Country: United Kingdom
*Format: mp3@CBR320kbps
*Size: 139MB

Tracklist:
1. Gehennae Incendiis
2. The Age of Nefarious
3. The Disposer Supreme
4. Darkhangel
5. Harbinger of Death (Race Against Time Cover)
6. End ov Days
7. Deathsquad
8. Something Wicked This Way Comes
9. Faith Will Fall
10. Land of the Living Dead
11. Deliver Us from Evil
12. A Vespertine Legacy
******************************
Total playing time: 59:48



[more=Technical info]
Input File: 02. The Age of Nefarious.mp3
Channels : 2
Sample Rate : 44100
Precision : 16-bit
Duration : 00:03:48.57 = 10079893 samples = 17142.7 CDDA sectors
File Size : 9.37M
Bit Rate : 328k
Sample Encoding: MPEG audio (layer I, II or III)
Comments :
Title=The Age of Nefarious
Artist=Hell
Album=Curse And Chapter
Tracknumber=2
Year=2013
Genre=Heavy Metal
Discnumber=1/1

[/more]

Register
(57) aesteticvice, AHBAnep, andgrek28, andivi, aorta2, Aphotic, Barricade, Blackgod, boba, boby9052, BRUTAL06, caro, Cristof25, Deze, DrkKnight, fabriziomagno, Fess, FILDV, garretje, Gord, gretopi, grobator, gusto24191, hammer, Kasper969, killingod, LusitanianTroll, Lux, marilin, MEmethuselah, metala, Metropolis, Mogozoz, Mplast, muskatnuss, Necrokilldozer, Night, oldvarg, princeshr, randumbum, Reverend, Samaritianin, SAPOGi, satanist666, Shadowman, Spork, Terrorizer, Typhon88, VALERY, varyag, verner, watasan, wreak, Yarri, ZambuL, zamunder, zhw8tz1,
Nov 21 2013, 17:34:58 Caladmor - Of Stones And Stars (2013)
Register
(2) neoatheist, talismanFS,

17 Pages V   1 2 3 > » 
- Lo-Fi Version Support form
Copyrights and abuse reports form
Time is now: 1st April 2020 - 18:51:57