Welcome Guest ( Log In | Register )

История благодарностей участнику lestllk ::: Спасибо сказали: 37812 раз(а)
Дата поста: В теме: За сообщение: Спасибо сказали:
Today, 05:10:43 Ascheregen - Ascheregen (2012)
Register
(2) thenecromancer, wendigo,
Today, 03:02:43 Bölzer - Lese Majesty [ep] (2019)
Register
(2) Geisteswaffe, Panacea,
Nov 17 2019, 02:26:05 Csejthe & Ziel Bevrijd - Le Sang De L'Alliance [split] (2007)
Register

mp3@CBR320kbps
(2) kimkayoung, vasiljev_sergej,
Nov 17 2019, 01:13:49 Trist - Rijen Pod Mlhou [demo] (2005)
Register

mp3@CBR192kbps
(3) thenecromancer, vasiljev_sergej, wendigo,
Nov 16 2019, 23:41:23 Todesstoß - Sehnsucht [ep] (2002)
Register

mp3@CBR320kbps
(1) vosmidesijatye,
Nov 16 2019, 23:38:16 Todesstoß - Jenseitslüge [demo] (2002)
Register

mp3@CBR320kbps + scans
(1) vasiljev_sergej,
Nov 16 2019, 23:32:35 Todesstoß - Beutetrieb Schwarzer Witwen [ep] (2005)
Register

mp3@CBR320kbps + scans
(2) vasiljev_sergej, vosmidesijatye,
Nov 16 2019, 20:43:23 Ruach Raah - Submission In Absolute [ep] (2019)


*Artist: Ruach Raah
*Album: Submission In Absolute [ep]
*Year: 2019
*Genre: Black Metal
*Country: Portugal
*Format: mp3@CBR320kbps
*Size: 44MB

Tracklist:
1. The Old Serpent 03:18
2. Regressive Crucifixion 04:57
3. Great Advocator of Blood 03:34
4. Under the Influence of Lucifer 03:47
5. The Sinister Bride 03:20
******************************
Total playing time: 18:56



[more=Extended info]War Arts Productions

After a demo, two full-length records and several split releases, Ruach Raah returns in 2019 with “Submission in Absolute”, five tracks of visceral, hostile Black Metal supported by a filthy sound that flawlessly conveys the aura of dread so distinctive of the duo.
A notorious name of the Portuguese Underground throughout the last decade, this devastating force crafts a vicious abyss bursting with hate and death set to obsess whoever decides to dwell within its entrails. The guitar work is driven by destructive riffs which repeatedly capture the typical bloodthirsty atmosphere of Ruach Raah, assisted by a distinct and organic rhythmic section which produces a solid and withstanding outcome. Topping the piercing arrangements, a commanding vocal performance preaches darkness and evil with a conspicuous delivery, harsh and utterly intense.
Following the path of the unholy old serpents of the early 1990s, yet without merely sounding retro in style and delivery, this demo displays all the elements to satisfy those craving for full infernal consecration.
Released by War Arts Productions on a limited cassette tape edition, “Submission in Absolute” is a punishing experience in maniacal no-holds-barred Black Metal madness.[/more]

[more=Technical info]
Input File: 01. The Old Serpent.mp3
Channels : 2
Sample Rate : 44100
Precision : 16-bit
Duration : 00:03:18.07 = 8734931 samples = 14855.3 CDDA sectors
File Size : 7.92M
Bit Rate : 320k
Sample Encoding: MPEG audio (layer I, II or III)
Comments :
Title=The Old Serpent
Artist=Ruach Raah
Album=Submission in Absolute
Tracknumber=1
Year=2019

[/more]

Register
(15) 1968_janeart, Alexis The Best, garmonbozia, kim666, Olethros, Ostinato, Rosen, stub888, VALERY, vasiljev_sergej, Vidder242, vovenom, Wail, Абигор, Авел,
Nov 16 2019, 04:51:40 Ohtar - Emptiness (2019)


*Artist: Ohtar
*Album: Emptiness
*Year: 2019
*Genre: Black Metal
*Country: Poland
*Format: mp3@CBR320kbps
*Size: 95MB

Tracklist:
1. Zdegenerowane zmartwychwstanie 09:40
2. Pustka 09:18
3. Sen martwy alkoholika 07:47
4. Schizofrenia zdartych do krwi palców... 07:44
5. Zdradliwe węże nadziei 06:38
******************************
Total playing time: 41:07

[more=Extended info]Lineup:

Necro - Vocals, Drums (1996-1999), Vocals, Guitars, Bass (2000-2012, 2014-present)
See also: Hateful, Selbstmord, Thoth, ex-Dark Fury (live)

Diathyrron - Drums (2001-2006, 2018-present), Bass (2003-2005)
See also: Dark Fury, Selbstmord, ex-Thor's Hammer, ex-Fullmoon


Tracklist
1. Degenerated Resurrection
2. Emptiness
3. Alcoholic’s Dead Dream
4. Schizophrenia of Bloodied Torn Off Fingers...
5. Traitorous Snakes of Hope[/more]

[more=Technical info]
Input File: 05. Zdradliwe Węże Nadziei.mp3
Channels : 2
Sample Rate : 44100
Precision : 16-bit
Duration : 00:06:38.03 = 17552947 samples = 29852 CDDA sectors
File Size : 16.0M
Bit Rate : 322k
Sample Encoding: MPEG audio (layer I, II or III)
Comments :
Title=Zdradliwe Węże Nadziei
Artist=Ohtar
Album=Emptiness
Tracknumber=05/05
Year=2019
Genre=Black Metal

[/more]

Register
(33) Alexis The Best, atavist, dan22, Frozenkult, gena, judaz, kefka, kim666, Korpse, MP101M, multizwilling, nadin85, Olethros, Ostinato, peppuzzo, Premature_Devotion, Radek, Rita, Rosen, RUDACHUR, sandr666, supremo, Surt, the_cleanser, Tino, tormoz, VALERY, vasiljev_sergej, vov7609, vovenom, wolverine, Авел, дивин,
Nov 16 2019, 03:18:04 Tan Kozh - Lignages Oubliés (2019)


*Artist: Tan Kozh
*Album: Lignages Oubliés
*Year: 2019
*Genre: Pagan Black Metal
*Country: France
*Format: mp3@CBR320kbps
*Size: 104MB

Tracklist:
01. Troisième Fonction 05:20
02. De Brest à Brest-Litovsk 04:04
03. Ecce Homo 03:24
04. ...et la Haine nous sauvera tous... 03:15
05. Sacrifice 05:48
06. Équinoxe 05:05
07. Interlude 02:53
08. Viens à Moi 04:05
09. Imprécation 05:11
10. A la gloire d'Indra 05:28
******************************
Total playing time: 44:33



[more=Technical info]
Input File: 07 Interlude.mp3
Channels : 2
Sample Rate : 44100
Precision : 16-bit
Duration : 00:02:53.07 = 7632387 samples = 12980.2 CDDA sectors
File Size : 6.92M
Bit Rate : 320k
Sample Encoding: MPEG audio (layer I, II or III)
Comments :
Title=Interlude
Artist=Tan Kozh
Album=Lignages Oubliés
Tracknumber=7
Year=2019

[/more]

Register
(16) 1968_janeart, autumnwood, chickenfucker, Kehl05, kim666, Kwaad, Olethros, Ostinato, Rosen, stub888, VALERY, vasiljev_sergej, yuratroll, zhol, Авел, Сварог Барг,
Nov 16 2019, 02:41:24 Fayenne - Ancient Womb Of Mercury [demo] (2019)


*Artist: Fayenne
*Album: Ancient Womb Of Mercury [demo]
*Year: 2019
*Genre: Black Metal
*Country: Sweden
*Format: mp3@CBR320kbps
*Size: 32MB

Tracklist:
1. Mannaeta 04:10
2. Warmonger 04:26
3. Infernal Goddess 05:09
******************************
Total playing time: 13:45



[more=Extended info]Fayenne is a horde that promote female liberation and supports all kind of violent destruction of the male society[/more]

[more=Technical info]
Input File: 01 Mannaeta.mp3
Channels : 2
Sample Rate : 44100
Precision : 16-bit
Duration : 00:04:10.08 = 11028704 samples = 18756.3 CDDA sectors
File Size : 10.0M
Bit Rate : 320k
Sample Encoding: MPEG audio (layer I, II or III)
Comments :
Title=Mannaeta
Artist=Fayenne
Album=Ancient Womb of Mercury
Tracknumber=1
Year=2019

[/more]

Register
(10) 1968_janeart, kim666, Olethros, Ostinato, Rosen, Sjelekval, stub888, VALERY, vasiljev_sergej, vovenom,
Nov 16 2019, 00:31:55 Beatrik - Journey Through The End Of Life (2002)
Register


MP3@CBR 320 Kbps + Covers, 106 mb
(2) kimkayoung, vasiljev_sergej,
Nov 14 2019, 16:35:47 Marras - Where Light Comes To Die (2019)


*Artist: Marras
*Album: Where Light Comes To Die
*Year: 2019
*Genre: Black Metal
*Country: Finland
*Format: mp3@CBR320kbps
*Size: 79MB

Tracklist:
1. Prologi (Guidance) 01:02
2. Overture of the Lonely Journey 02:28
3. Lifeless Sculptures 04:20
4. Prologi (Faith) 01:37
5. Sea of Trees 06:08
6. Prologi (Damnation) 01:27
7. Transition of the Lightless Path 02:20
8. Where Light Comes to Die 04:54
9. Prologi (Desolation) 01:46
10. Chamber of Penance 07:49
******************************
Total playing time: 33:51



[more=Extended info]Rising from the depths of mid-Finland, Marras might be a new name as a band, but the forces behind it surely are not new to the scene and the Black Arts. Featuring members from known Finnish hordes Vargrav, Förgjord, Nekrokrist SS, and Mimorium, the result is undoubtedly an image of its creators: reaping, hateful, and bleak, reeking of the northern unlight and harsh coldness that's well known in Finnish black metal. Shifting from fast, raging black metal to more atmospheric parts, accompanied by samples and mid-intros to boost up the mood, this aptly titled debut album completely captivates the listener with all that you can expect from the souls of the North. Indeed, Marras show you Where Light Comes to Die...[/more]

[more=Technical info]
Input File: 10. Chamber of Penance.mp3
Channels : 2
Sample Rate : 44100
Precision : 16-bit
Duration : 00:07:49.08 = 20686428 samples = 35181 CDDA sectors
File Size : 18.8M
Bit Rate : 320k
Sample Encoding: MPEG audio (layer I, II or III)
Comments :
Title=Chamber of Penance
Artist=Marras
Album=Where Light Comes to Die
Tracknumber=10
Year=2019
Genre=Black Metal

[/more]

Register
(37) 1968_janeart, ahp, alikkon, atavist, azaghal, craP_cillA, DevilSign, Frozenkult, garmonbozia, gena, Kehl05, kim666, Korpse, Moonshtook, multizwilling, nemx, nsk2008, Occultas, Olethros, Ostinato, rimfrost, ripper33, Rita, robertho777, Rosen, sabr, Sanctus, sandr666, stub888, tim47, toly1917, VALERY, vasiljev_sergej, VECTOR, vovenom, Vraithee, Авел,
Nov 14 2019, 04:27:58 The Deathtrip - Demon Solar Totem (2019)


*Artist: The Deathtrip
*Album: Demon Solar Totem
*Year: 2019
*Genre: Black Metal
*Country: Norway
*Format: mp3@CBR320kbps
*Size: 105MB

Tracklist:
1. Demon Solar Totem 08:09
2. Angel Fossils 04:27
3. Enter Spectral Realms 05:41
4. Surrender to a Higher Power 06:10
5. Vintage Telepathy 06:47
6. Abraxas Mirrors 05:02
7. Awaiting a New Maker 09:00
******************************
Total playing time: 45:16



[more=Extended info]Profound Lore Records
Co-release with Svart Records

Drums by D. "Storm" Mullins
Bass by T. "Mork" Eriksen
Guitars recorded at E.O.T.W. Studios
Vocals recorded at The Faunus Temple
Mixed & mastered by Dan Mullins
Artwork by Luciana Lupe Vasconcelos[/more]

[more=Technical info]
Input File: 02 Angel Fossils.mp3
Channels : 2
Sample Rate : 44100
Precision : 16-bit
Duration : 00:04:27.09 = 11778669 samples = 20031.7 CDDA sectors
File Size : 10.7M
Bit Rate : 320k
Sample Encoding: MPEG audio (layer I, II or III)
Comments :
Title=Angel Fossils
Artist=The Deathtrip
Album=Demon Solar Totem
Tracknumber=2
Year=2019

[/more]

Register
(46) 1968_janeart, acerbus, ahp, alikkon, andivi, as71, atavist, Beazth, Bolitho, cancer1974, caro, dan22, dvlz, Frozenkult, garmonbozia, helvetestoner, Henmik, judaz, Kazoth, kim666, multizwilling, nadin85, NBM82855, nsk2008, Occultas, older68, Ostinato, Premature_Devotion, RADeus, ripper33, Rita, Rosen, Ruben, RUDACHUR, stub888, Tino, toly1917, tormoz, VALERY, vasiljev_sergej, vov7609, vovenom, wtk.412, xska, yuratroll, ZA670,
Nov 14 2019, 04:05:25 Vrasësinerëzve - Musickorum Tremorae Ii [demo] (2018)


*Artist: Vrasësinerëzve
*Album: Musickorum Tremorae Ii [demo]
*Year: 2018
*Genre: Dark Ambient/Experimental
*Country: Bosnia and Herzegovina
*Format: mp3@CBR320kbps
*Size: 42MB

Tracklist:
1. Musickorum Tremorae II 15:08
******************************
Total playing time: 15:08

[more=Extended info]Black Gangrene Productions

Tape-rip by toooooomb
+ Scans[/more]

[more=Technical info]
Input File: 01. Musickorum Tremorae II.mp3
Channels : 2
Sample Rate : 44100
Precision : 16-bit
Duration : 00:15:08.43 = 40061851 samples = 68132.4 CDDA sectors
File Size : 36.3M
Bit Rate : 320k
Sample Encoding: MPEG audio (layer I, II or III)
Comments :
Title=Musickorum Tremorae II
Artist=Vrasësinerëzve
Album=Musickorum Tremorae II
Tracknumber=1/1
Year=2018
Genre=Dark Ambient

[/more]

Register
(2) Forest Silence, Rosen,
Nov 14 2019, 03:56:25 Vrasësinerëzve - Musickorum Tremorae [demo] (2017)


*Artist: Vrasësinerëzve
*Album: Musickorum Tremorae [demo]
*Year: 2017
*Genre: Dark Ambient/Experimental
*Country: Bosnia and Herzegovina
*Format: mp3@CBR320kbps
*Size: 40MB

Tracklist:
1. Musickorum Tremorae 15:24
******************************
Total playing time: 15:24

[more=Extended info]Black Gangrene Productions

''Musickorum Tremorae'' which stands for ''Music of Horror'' is 16 minutes nightmarish, experimental piece that was recorded during the cold night full of hallucinations, feels of ghastly presences and turmoil...
No drugs, alcohol nor any other substances were used during this session!
Vrasësinerëzve's music is highly influenced by György Ligeti and Avdo Smailović.


Tape-rip by toooooomb
+ Scans[/more]

[more=Technical info]
Input File: 01. Musickorum Tremorae.mp3
Channels : 2
Sample Rate : 48000
Precision : 16-bit
Duration : 00:15:24.05 = 44354304 samples ~ 69303.6 CDDA sectors
File Size : 37.0M
Bit Rate : 320k
Sample Encoding: MPEG audio (layer I, II or III)
Comments :
Title=Musickorum Tremorae
Artist=Vrasësinerëzve
Album=Musickorum Tremorae
Tracknumber=1/1
Year=2017
Genre=Dark Ambient

[/more]

Register
(1) Forest Silence,
Nov 14 2019, 03:10:55 Vrasësinerëzve & Kenopsia - Vrasësinerëzve/Kenopsia [split] (2017)


*Artist: Vrasësinerëzve & Kenopsia
*Album: Vrasësinerëzve/Kenopsia [split]
*Year: 2017
*Genre: Dark Ambient | Dark Ambient/Noise
*Country: Bosnia and Herzegovina | Unknown
*Format: mp3@CBR320kbps
*Size: 36MB

Tracklist:
Vrasësinerëzve:
1. Vampyric Laments 07:49
Kenopsia:
2. Elated Blight 04:39
3. Requiem Undone 01:58
******************************
Total playing time: 14:26

[more=Extended info]Black Gangrene Productions

Tape-rip by toooooomb
+ Scans[/more]

[more=Technical info]
Input File: 03. Requiem Undone.mp3
Channels : 2
Sample Rate : 44100
Precision : 16-bit
Duration : 00:01:58.89 = 5243005 samples = 8916.68 CDDA sectors
File Size : 4.76M
Bit Rate : 320k
Sample Encoding: MPEG audio (layer I, II or III)
Comments :
Title=Requiem Undone
Artist=Kenopsia
Album=Vrasësinerëzve / Kenopsia
Tracknumber=3
Year=2017
Genre=Dark Ambient

[/more]

Register
(2) Forest Silence, Lanceatum,
Nov 14 2019, 03:08:21 Vrasësinerëzve - Demo I [demo] (2015)


*Artist: Vrasësinerëzve
*Album: Demo I [demo]
*Year: 2015
*Genre: Dark Ambient
*Country: Bosnia and Herzegovina
*Format: mp3@CBR320kbps
*Size: 41MB

Tracklist:
1. Untitled 12:09
2. Untitled 03:31
******************************
Total playing time: 15:40



[more=Extended info]Death Manifestations ‎– DM001
Reissue 2018

Tape-rip by toooooomb
+ Scans[/more]

[more=Technical info]
Input File: 02. Untitled.mp3
Channels : 2
Sample Rate : 48000
Precision : 16-bit
Duration : 00:03:31.58 = 10156032 samples ~ 15868.8 CDDA sectors
File Size : 8.47M
Bit Rate : 320k
Sample Encoding: MPEG audio (layer I, II or III)
Comments :
Title=Untitled
Artist=Vrasësinerëzve
Album=Demo I
Tracknumber=2/2
Year=2015

[/more]

Register
(1) Forest Silence,
Nov 13 2019, 04:37:03 End Of Mankind - Faciem Diaboli (2019)


*Artist: End Of Mankind
*Album: Faciem Diaboli
*Year: 2019
*Genre: Black Metal
*Country: France
*Format: mp3@CBR320kbps
*Size: 108MB

Tracklist:
1. Vision 04:19
2. Howlings and Lurid Figures 05:30
3. Drowning in Solitude 06:18
4. Seek No Grace 05:53
5. Misanthropic Urge to Expand 03:11
6. Dread Reign 05:03
7. Limbes 01:14
8. In the Throes of Displeasure 05:43
9. Faciem Diaboli 06:23
10. La sentinelle des âmes 03:18
******************************
Total playing time: 46:52



[more=Extended info]Born from the ashes of French black metal tyrants ETERNAL MAJESTY in early 2015, END OF MANKIND fits in the 90’s extreme / black metal tradition (not unlike MAYHEM, SATYRICON or DARKTHRONE) while bringing many other influences.[/more]

[more=Technical info]
Input File: 01 Vision.mp3
Channels : 2
Sample Rate : 44100
Precision : 16-bit
Duration : 00:04:19.07 = 11424987 samples = 19430.2 CDDA sectors
File Size : 10.4M
Bit Rate : 320k
Sample Encoding: MPEG audio (layer I, II or III)
Comments :
Title=Vision
Artist=End of Mankind
Album=Faciem Diaboli
Tracknumber=1
Year=2019

[/more]

Register
(20) 1968_janeart, atavist, Bekkerev, Bolitho, chickenfucker, JPV, kim666, multizwilling, older68, Olethros, Ostinato, Rita, robertho777, Rosen, stub888, VALERY, vasiljev_sergej, vov7609, vovenom, yuratroll,
Nov 13 2019, 04:33:09 Apognosis - Dominion In Polarity (2019)


*Artist: Apognosis
*Album: Dominion In Polarity
*Year: 2019
*Genre: Black Metal
*Country: Greece
*Format: mp3@CBR320kbps
*Size: 91MB

Tracklist:
1. Scum of Modernity
2. Vectors
3. Inverted Catacombs
4. Worms of Nation
5. Mental Cortex
6. NDE
7. Mydriasis
******************************
Total playing time: 39:29



[more=Extended info]The spawn for the next generation of Apognosis has been bred.
Seven spiritual crevices, oblivious divine silence, are trying to seek for the dominant, anti-social secrets of the mortal waste.

The roots of subconscious incubate within the melodic transformations, increased by forty minutes of inevitable pulse.

The lyrical part of the album is an endoscopy of the atomic hallucination engraved by the conceptually versatile essence of destruction.[/more]

[more=Technical info]
Input File: 03 Inverted Catacombs.mp3
Channels : 2
Sample Rate : 44100
Precision : 16-bit
Duration : 00:04:05.07 = 10807499 samples = 18380.1 CDDA sectors
File Size : 9.80M
Bit Rate : 320k
Sample Encoding: MPEG audio (layer I, II or III)
Comments :
Title=Inverted Catacombs
Artist=Apognosis
Album=Dominion in Polarity
Tracknumber=3
Year=2019

[/more]

Register
(15) 1968_janeart, atavist, chickenfucker, kim666, multizwilling, nsk2008, Olethros, Ostinato, Rita, robertho777, Rosen, ultimate_satanic_ass, VALERY, vasiljev_sergej, vovenom,
Nov 13 2019, 04:29:03 Vampyric Blood - Watching The Nights Rot In Eternal Melancholy [ep] (2019)


*Artist: Vampyric Blood
*Album: Watching The Nights Rot In Eternal Melancholy [ep]
*Year: 2019
*Genre: Black Metal
*Country: Finland
*Format: mp3@CBR320kbps
*Size: 42MB

Tracklist:
1. Ancient Worlds Awaken 08:08
2. Midnights in Satan's Mysteries 05:08
3. Watching the Nights Rot in Eternal Melancholy 04:54
******************************
Total playing time: 18:10

[more=Extended info]Dark Adversary Productions


The Lord of Shadows returns!
Vampyric Blood rises from the crypt!
Once again casting sonic spells that encapsulate his nightside visions and dark desires laden with sorrow in this brand new EP entitled "Watching the Nights Rot in Eternal Melancholy".
Vampyric and melancholic Medieval Black Metal from this Finnish blood fiend![/more]

[more=Technical info]
Input File: 03. Watching the Nights Rot in Eternal Melancholy.mp3
Channels : 2
Sample Rate : 44100
Precision : 16-bit
Duration : 00:04:54.08 = 12968752 samples = 22055.7 CDDA sectors
File Size : 11.8M
Bit Rate : 320k
Sample Encoding: MPEG audio (layer I, II or III)
Comments :
Title=Watching the Nights Rot in Eternal Melancholy
Artist=Vampyric Blood
Album=Watching the Nights Rot in Eternal Melancholy
Tracknumber=3
Year=2019
Genre=Black Metal

[/more]

Register
(16) 1968_janeart, andivi, ChaosArcana, kim666, murayne, Narasimha, Occultas, Olethros, Ostinato, robertho777, Rosen, stub888, supremo, VALERY, vasiljev_sergej, Vidder242,
Nov 12 2019, 03:39:18 The Rite - The Brocken Fires [ep] (2019)


*Artist: The Rite
*Album: The Brocken Fires [ep]
*Year: 2019
*Genre: Black/Doom Metal
*Country: International
*Format: mp3@CBR320kbps
*Size: 62MB

Tracklist:
1. Prayer to Satan (Intro) 02:04
2. A Pact With Hell 05:49
3. The Brocken Fires 05:58
4. Heed the Devil's Call 07:29
5. Acid Orgy (Goatlord cover) 04:51
******************************
Total playing time: 26:11



[more=Extended info]International: Italy / Denmark

IRON BONEHEAD PRODUCTIONS is proud to present THE RITE's striking debut mini-album, The Brocken Fires, on CD and 12" vinyl format.

THE RITE was brought into existence during the autumn 2017 when A.th (Black Oath) and Ustumallagam (Denial Of God) joined forces to create a band playing morbid black metal exclusively praising complete and utmost darkness. Influences range from iconic bands such as Mercyful Fate, Death SS, Celtic Frost, Samael, Goatlord, Ripper etc, and the music walks a twisted balance between slow, dreary parts and fast, merciless attacks.

The five-track mini-album The Brocken Fires was finished in August 2018 and originally released on cassette by Unholy Domain Records in October 2018. Now, on August 2nd, 2019 will the mini-album be released by IRON BONEHEAD on CD and 12" vinyl formats. Both a summation of THE RITE's aesthetic so far and also pointing the way forward, The Brocken Fires is a commanding introduction to this international entity.

In July 2019, THE RITE will perform their debut show at Denmark’s own Metal Magic Festival. For that occasion, the band will release the very limited promo tape The First Sin that will only be available at that event and feature two good-sounding rehearsal tracks from the upcoming, as-yet-untitled debut album. The recording for said album is scheduled for autumn 2019.

THE RITE lineup:

Ustumallagam – vocals
See also: Denial of God, 30 Silver Coins, ex-Astro Zombies, ex-Gigim Xul

A.th – bass
See also: Black Oath, ex-Gosforth, ex-Arvind (live), ex-Morbus Grave, ex-Sepulcral (live)

Gabriel – guitar

Priest G – drums
See also: Krossburst, Necro, Zona D'Ombra, ex-Into Darkness, ex-Morbus Grave, ex-Terrorsaw, ex-Fuoco Fatuo (live)[/more]

[more=Technical info]
Input File: 01 Prayer to Satan (Intro).mp3
Channels : 2
Sample Rate : 44100
Precision : 16-bit
Duration : 00:02:04.06 = 5471134 samples = 9304.65 CDDA sectors
File Size : 4.96M
Bit Rate : 320k
Sample Encoding: MPEG audio (layer I, II or III)
Comments :
Title=Prayer to Satan (Intro)
Artist=The Rite
Album=The Brocken Fires
Tracknumber=1
Year=2019

[/more]

Register
(26) 1968_janeart, ahp, artscald, Beazth, craP_cillA, FlammenTod666, gongshow, marilin, metala, morbidangelo, multizwilling, Olethros, Ostinato, pedrohell, robertho777, Rosen, Sanctus, sergsazan, stumpheavyrock, thenecromancer, ThornyAlex, VALERY, vasiljev_sergej, vov7609, Wail, wtk.412,
Nov 11 2019, 00:13:27 Sulphuric Night - Forever Cursed (2019)


*Artist: Sulphuric Night
*Album: Forever Cursed
*Year: 2019
*Genre: Black Metal
*Country: Bosnia and Herzegovina
*Format: mp3@CBR320kbps
*Size: 93MB

Tracklist:
1. I 06:42
2. II 08:16
3. III 06:43
4. IV 06:56
5. V 05:40
6. VI 05:15
******************************
Total playing time: 39:32




[more=Extended info]Altare Productions.
Released together with Black Gangrene Productions.


"FOREVER CURSED" was written and performed by O., 2015-2019, era mors.
Session bass recorded by A., 2019.
Lyrics for "I" by V., "V" by Sataere.[/more]

[more=Technical info]
Input File: 06 VI.mp3
Channels : 2
Sample Rate : 44100
Precision : 16-bit
Duration : 00:05:15.11 = 13896175 samples = 23633 CDDA sectors
File Size : 12.6M
Bit Rate : 321k
Sample Encoding: MPEG audio (layer I, II or III)
Comments :
Title=VI
Artist=Sulphuric Night
Album=Forever Cursed
Tracknumber=06/6
Year=2019
Discnumber=1/1

[/more]

Register
(35) 1968_janeart, acerbus, Alexis The Best, alikkon, atavist, ChaosArcana, cist, Forest Silence, garmonbozia, Hefir, judaz, kefka, Kehl05, kim666, Krosis, LVXXVL, multizwilling, murian, Olethros, Olguard, Ostinato, robertho777, Rosen, Sanctus, sethurius, skeletron215, squall8fr, stub888, tim47, toly1917, VALERY, vasiljev_sergej, vovenom, Абигор, Авел,
Nov 10 2019, 23:58:22 Tergum Ambulare - Sanguinis Obscurum [demo] (2019)


*Artist: Tergum Ambulare
*Album: Sanguinis Obscurum [demo]
*Year: 2019
*Genre: Raw Black Metal
*Country: Bosnia and Herzegovina
*Format: mp3@VBR236kbps
*Size: 26MB

Tracklist:
1. Infestation of the Howling Shadows 02:03
2. Taint Black Horizon 05:45
3. Departure to the Plains Unknown 05:29
4. Haunted Murals 02:05
******************************
Total playing time: 15:22

[more=Extended info]Black Gangrene Productions


"Sanguinis Obscurum" is the debut demo by enigmatic Black Metal entity Tergum Ambulare. Within four tracks, the band delivers a strikingly dark and ominous sound manifested by dissonant, piercing riffs, a diverse rhythmic section - particularly memorable on slower parts - and an obscure and overtly rabid vocal performance. Sonically oppressive and somber, "Sanguinis Obscurum" carries a negative energy throughout, a hypnotic aura of torment and death.
Black Gangrene is proud to unleash this haunting piece of darkness, a release which shall appeal to any devotee of genuinely sinister Black Metal.


Tape-rip by Zero[/more]

[more=Technical info]
Input File: 01 Infestation Of The Howling Shadows.mp3
Channels : 2
Sample Rate : 44100
Precision : 16-bit
Duration : 00:01:59.95 = 5289971 samples = 8996.55 CDDA sectors
File Size : 3.60M
Bit Rate : 240k
Sample Encoding: MPEG audio (layer I, II or III)
Comments :
Title=Infestation Of The Howling Shadows
Artist=Tergum Ambulare
Album=Sanguinis Obscurum
Tracknumber=1/4
Year=2019
Discnumber=1/1

[/more]

Register
(13) 1968_janeart, Alexis The Best, kim666, Krosis, lopuh21, Olethros, Ostinato, Rosen, stub888, thenecromancer, VALERY, vasiljev_sergej, Авел,
Nov 10 2019, 23:53:29 Tropic Of Damned Spirits - Demo I [demo] (2019)


*Artist: Tropic Of Damned Spirits
*Album: Demo I [demo]
*Year: 2019
*Genre: Raw Black Metal
*Country: United States
*Format: mp3@VBR243kbps
*Size: 20MB

Tracklist:
1. Untitled 01:18
2. Untitled 02:57
3. Untitled 03:12
4. Untitled 03:28
******************************
Total playing time: 10:55

[more=Extended info]Harvest of Death

Four tracks of uncompromising and claustrophobic raw black metal!

Recorded May MMXIV, Anno Luciferi.

Tape-rip by Zero[/more]

[more=Technical info]
Input File: 01 Untitled.mp3
Channels : 2
Sample Rate : 44100
Precision : 16-bit
Duration : 00:01:18.94 = 3481342 samples = 5920.65 CDDA sectors
File Size : 2.56M
Bit Rate : 259k
Sample Encoding: MPEG audio (layer I, II or III)
Comments :
Title=Untitled I
Artist=Tropic Of Damned Spirits
Album=Demo I
Tracknumber=1/4
Year=2019
Discnumber=1/1

[/more]

Register
(10) 1968_janeart, Alexis The Best, Borderline1991, kim666, Krosis, Olethros, Rosen, stub888, thenecromancer, vasiljev_sergej,

145 Pages V   1 2 3 > » 
- Lo-Fi Version Support form
Copyrights and abuse reports form
Time is now: 20th November 2019 - 20:04:52