Welcome Guest ( Log In | Register )

История благодарностей участнику lestllk ::: Спасибо сказали: 53031 раз(а)
Дата поста: В теме: За сообщение: Спасибо сказали:
Nov 30 2020, 01:35:00 Stiriah - Into The Depths (2020)


*Artist: Stiriah
*Album: Into The Depths
*Year: 2020
*Genre: Black Metal
*Country: Germany
*Format: mp3@CBR320kbps
*Size: 98MB

Tracklist:
1. The Water 08:51
2. The Sun 09:14
3. The Light Bearer 06:45
4. The Darkness 08:12
5. The Flesh 09:36
******************************
Total playing time: 42:38



[more=Technical info]
Input File: 01 The Water.mp3
Channels : 2
Sample Rate : 44100
Precision : 16-bit
Duration : 00:08:52.09 = 23465213 samples = 39906.8 CDDA sectors
File Size : 21.5M
Bit Rate : 324k
Sample Encoding: MPEG audio (layer I, II or III)
Comments :
Title=The Water
Artist=Stiriah
Album=Into the Dephts
Tracknumber=1
Year=2020

[/more]

Register
(18) 1968_janeart, deadterror, infiltrator, kim666, Marek, Morgoth, multizwilling, Olethros, Ostinato, randumbum, robertho777, Rosen, SilentNidhogg, stub888, VALERY, varlam4, vasiljev_sergej, wreak,
Nov 30 2020, 01:29:05 Old Growth - Mossweaver (2020)


*Artist: Old Growth
*Album: Mossweaver
*Year: 2020
*Genre: Atmospheric Post-Black Metal
*Country: Germany
*Format: mp3@CBR320kbps
*Size: 125MB

Tracklist:
1.Old Growth
2.Oakenheart
3.Red Clouds video
4.The Seedling
5.Queen Of The Woodland Realm
6.Call Of The Night Spirit
7.Altar Of Wisdom
******************************
Total playing time: 53:40

Preview 1

[more=Extended info]Supreme Chaos Records

Shaman Animist creates a nature-inspired musical scenery of atmospheric black metal guiding you into wilderness and primal landscape. A breath taking, overwhelming piece of art.[/more]

[more=Technical info]
Input File: 3. Red Clouds.mp3
Channels : 2
Sample Rate : 44100
Precision : 16-bit
Duration : 00:07:02.08 = 18613860 samples = 31656.2 CDDA sectors
File Size : 17.2M
Bit Rate : 326k
Sample Encoding: MPEG audio (layer I, II or III)
Comments :
Title=Red Clouds
Artist=Old Growth
Album=Mossweaver
Tracknumber=3
Year=2020

[/more]

Register
(27) 1968_janeart, Buregon, ctulhudagon, infiltrator, Kayo_Erased, kim666, Kwaad, MeatWolf, Morgoth, multizwilling, murayne, Olethros, Ostinato, pahail, randumbum, robertho777, Rosen, sergsazan, serjred, SilentNidhogg, sludge666, The_Hound, VALERY, varlam4, vasiljev_sergej, vikt11, wreak,
Nov 21 2020, 21:17:23 Sargeras - Return Of The Dancing Whores (2020)
Register

mp3@CBR320kbps
(2) MortSathynr, thenecromancer,
Nov 15 2020, 20:36:37 Akantha - Gnothi Seauton (2020)


*Artist: Akantha
*Album: Gnothi Seauton
*Year: 2020
*Genre: Black Metal
*Country: Greece
*Format: mp3@CBR320kbps
*Size: 75MB

Tracklist:
1. My Throne Is The Epicenter 05:16
2. Synergies (Skepsis, Logos, Praxis) 05:28
3. The Mystical Nyx 04:58
4. Anaclisis of a Threnody 05:18
5. Chasm 04:35
6. Spiralling Up the Cosmos 07:00
******************************
Total playing time: 32:35




[more=Extended info]His Wounds - NAIL018

Akantha are back with their 3rd Lp and we can say for sure that it is their best work so far.
90's Black Metal worship reminiscing the glory days of Judas Iscariot and Clandestine Blaze

33 minutes spread over 6 songs in a limited edition of 97copies on Gold vinyl exclusive to the band and His Wounds and 150 copies on Black vinyl
including a double sided insert

Cd and tape versions are available as well through New Era Productions[/more]

[more=Technical info]
Input File: 01 My Throne Is The Epicenter.mp3
Channels : 2
Sample Rate : 44100
Precision : 16-bit
Duration : 00:05:16.07 = 13938819 samples = 23705.5 CDDA sectors
File Size : 13.1M
Bit Rate : 331k
Sample Encoding: MPEG audio (layer I, II or III)
Comments :
Title=My Throne Is The Epicenter
Artist=Akantha
Album=Gnothi Seauton
Tracknumber=1
Year=2020

[/more]

Register
(42) AlexSmith, Azumin1234, Bloodn Lord, Constantinus I, El_Chibo, EvilPiet, garmonbozia, Hell_Is_Here, Ildjarn, infiltrator, judaz, kim666, Korpse, Lucju, Marek, Maximvs, metaljosue, MMMMM, Morgoth, multizwilling, nsk2008, Occultas, oldvarg, Olethros, Ostinato, rammmirez, randumbum, rickzammuto, rimfrost, robertho777, Rosen, RUSP73, sarcophagus, SilentNidhogg, squall8fr, toly1917, VALERY, varlam4, vasiljev_sergej, VVR, Wail, wreak,
Nov 15 2020, 11:40:11 Belzebuth - MVII - MVIII [compilation] (2020)


*Artist: Belzebuth
*Album: MVII - MVIII [compilation]
*Year: 2020
*Genre: Black Metal
*Country: Australia
*Format: mp3@VBR263kbps
*Size: 134MB

Tracklist:
1. Untitled 20:26
2. Untitled 17:49
3. Konaste Belastorn 6:47
4, Liturges Eternal 8:49
5. Maleign Transipheral 16:00
******************************
Total playing time: 1:09:51

[more=Extended info]Death Hymns ‎– DH-010
2 × Vinyl, LP, Compilation, Limited Edition

Sides A and B were originally released as the self-titled demo cassette in 2007.
Sides C and D were originally released as the Konaste Belastorn demo cassette in 2008 .

Vinyl-rip by Zero[/more]

[more=Technical info]
Input File: C1. Konaste Belastorn.mp3
Channels : 2
Sample Rate : 44100
Precision : 16-bit
Duration : 00:06:49.81 = 18072533 samples = 30735.6 CDDA sectors
File Size : 12.3M
Bit Rate : 241k
Sample Encoding: MPEG audio (layer I, II or III)
Comments :
Title=Konaste Belastorn
Artist=Belzebuth
Album=MVII - MVIII
Tracknumber=3
Year=2020
Genre=Black Metal, Dark Ambient
Discnumber=2/2

[/more]

Register
(22) 1968_janeart, andivi, Cramloth, FUDEDOR, Hell_Is_Here, Ildjarn, infiltrator, kim666, Necromag, Olethros, randumbum, Reverend, Rosen, SilentNidhogg, stub888, supremo, thenecromancer, VALERY, varlam4, vasiljev_sergej, Wail, wreak,
Nov 15 2020, 11:34:14 Tomhet - Purpureargotamiceps/Unreleased Works [compilation] (2017)


*Artist: Tomhet
*Album: Purpureargotamiceps/Unreleased Works [compilation]
*Year: 2017
*Genre: Black Metal
*Country: Sweden
*Format: mp3@VBR260kbps
*Size: 67MB

Tracklist:
1. Kockatris värulv 05:45
2. Pulsatilla 01:17
3. Förskudda 07:26
4. Akonitum 01:58
5. Whilst the Trident Spawn and Spectre (Furze cover) 03:06
6. Gorse 01:58
7. The Hordes of Nebulah 05:04
8. Resa 08:36
******************************
Total playing time: 35:10

[more=Extended info]GoatowaRex - WAXGOAT 053

All material remastered specially for this vinyl release

Purpureargotamiceps Demo 2007
Unreleased Works

Vinyl-rip by Zero[/more]

[more=Technical info]
Input File: 08 Resa.mp3
Channels : 2
Sample Rate : 44100
Precision : 16-bit
Duration : 00:08:36.44 = 22775004 samples = 38733 CDDA sectors
File Size : 16.7M
Bit Rate : 259k
Sample Encoding: MPEG audio (layer I, II or III)
Comments :
Title=Resa
Artist=Tomhet
Album=Purpureargotamiceps / Unreleased Works
Tracknumber=08/8
Year=2017
Discnumber=1/1

[/more]

Register
(23) 1968_janeart, acerbus, craP_cillA, El_Chibo, FUDEDOR, fuoco, Hell_Is_Here, Ildjarn, infiltrator, kim666, Mist13Signifier, Olethros, Ostinato, Rosen, sethurius, SilentNidhogg, Sjelekval, smes, stub888, varlam4, vasiljev_sergej, Wail, wreak,
Nov 15 2020, 11:29:57 Tomhet - Eklipsens Hord Och Karavan/Apokalypsimz Legend [compilation] (2017)


*Artist: Tomhet
*Album: Eklipsens Hord Och Karavan/Apokalypsimz Legend [compilation]
*Year: 2017
*Genre: Black Metal
*Country: Sweden
*Format: mp3@VBR270kbps
*Size: 87MB

Tracklist:
1. Brandbann 05:03
2. Orden, Månen och Natten 03:36
3. Kulthämmad Jordafärd 04:02
4. Hänsoven och Förgäten 01:00
5. Storm 06:24
6. Luguber Klärvoajans 07:01
7. Falka Dyäfwlsens Sannind 02:30
8. Logihvolfdak 05:02
9. Nornaskassmadur 01:49
10. Djärve Häls Kvav 05:23
11. Låt Iordene Rökas till Svavl 01:44
******************************
Total playing time: 43:34

[more=Extended info]GoatowaRex - WAXGOAT 053

All material remastered specially for this vinyl release

Eklipsens Hord Och Karavan Demo 2005
Apokalypsimz Legend Demo 2009

Vinyl-rip by Zero[/more]

[more=Technical info]
Input File: 02 Orden, Månen Och Natten.mp3
Channels : 2
Sample Rate : 44100
Precision : 16-bit
Duration : 00:03:36.48 = 9546592 samples = 16235.7 CDDA sectors
File Size : 7.52M
Bit Rate : 278k
Sample Encoding: MPEG audio (layer I, II or III)
Comments :
Title=Orden, Månen Och Natten
Artist=Tomhet
Album=Eklipsens Hord och Karavan / Apokalypsimz Legend
Tracknumber=02/11
Year=2017
Genre=Black Metal
Discnumber=1/1

[/more]

Register
(20) 1968_janeart, acerbus, El_Chibo, FUDEDOR, fuoco, Hell_Is_Here, Ildjarn, infiltrator, kim666, Olethros, Ostinato, plugawy, Rosen, sethurius, SilentNidhogg, stub888, varlam4, vasiljev_sergej, Wail, wreak,
Nov 15 2020, 11:24:13 Tomhet - Tomhet/Strid/Brandbann'r [compilation] (2017)


*Artist: Tomhet
*Album: Tomhet/Strid/Brandbann'r [compilation]
*Year: 2017
*Genre: Black Metal
*Country: Sweden
*Format: mp3@VBR270kbps
*Size: 79MB

Tracklist:
1. I 06:32
2. II 06:09
3. III 05:14
4. Dvaldes I Transcendent Urtid 07:16
5. Orden, Månen och Natten 02:10
6. Brandbann 06:14
7. Brandbann 05:27
8. Hänsoven och Förgäten 01:04
******************************
Total playing time: 40:06

[more=Extended info]GoatowaRex ‎– WAXGOAT 052

Tomhet Demo 2001
Strid Demo 2002
Brandbann’r Demo 2004

All material remastered specially for this vinyl release

Vinyl-rip by Zero[/more]

[more=Technical info]
Input File: 08 Hänsoven Och Förgäten.mp3
Channels : 2
Sample Rate : 44100
Precision : 16-bit
Duration : 00:01:05.02 = 2867294 samples = 4876.35 CDDA sectors
File Size : 2.07M
Bit Rate : 254k
Sample Encoding: MPEG audio (layer I, II or III)
Comments :
Title=Hänsoven Och Förgäten
Artist=Tomhet
Album=Tomhet / Strid / Brandbann'r
Tracknumber=08/8
Year=2017
Genre=Black Metal
Discnumber=1/1

[/more]

Register
(23) 1968_janeart, acerbus, El_Chibo, FUDEDOR, fuoco, Hell_Is_Here, Ildjarn, infiltrator, kim666, Mist13Signifier, Olethros, Ostinato, plugawy, Rosen, sethurius, SilentNidhogg, Sjelekval, smes, stub888, varlam4, vasiljev_sergej, Wail, wreak,
Nov 15 2020, 11:17:09 Candlewolf Disciple - Rehearsal Mmxix [demo] (2020)


*Artist: Candlewolf Disciple
*Album: Rehearsal Mmxix [demo]
*Year: 2020
*Genre: Raw Black Metal
*Country: United States
*Format: mp3@VBR260kbps
*Size: 35MB

Tracklist:
1. Intro
2. Funeral of Christian Will
3. Hex
4. Servant of the Black Flame
5. Blasphemous Hordes (2018 Demo)
******************************
Total playing time: 18:15

[more=Extended info]Live rehearsal recorded on January 21st, 2019 at the Temple of Skies.

Tape-rip by Zero[/more]

[more=Technical info]
Input File: 02 Funeral Of Christian Will.mp3
Channels : 2
Sample Rate : 44100
Precision : 16-bit
Duration : 00:05:48.53 = 15369953 samples = 26139.4 CDDA sectors
File Size : 13.3M
Bit Rate : 305k
Sample Encoding: MPEG audio (layer I, II or III)
Comments :
Title=Funeral Of Christian Will
Artist=Candlewolf Disciple
Album=Rehearsal MMXIX
Tracknumber=02/5
Year=2020
Genre=Black Metal
Discnumber=1/1

[/more]

Register
(13) 1968_janeart, Hell_Is_Here, infiltrator, kim666, nemx, Olethros, Ostinato, Rosen, stub888, varlam4, vasiljev_sergej, Wail, wreak,
Nov 15 2020, 11:13:29 Eternal Octagon - Mysteries [compilation] (2019)


*Artist: Eternal Octagon
*Album: Mysteries [compilation]
*Year: 2019
*Genre: Raw Black Metal
*Country: United States
*Format: mp3@VBR303kbps
*Size: 88MB

Tracklist:
1. The Vision and the Voice
2. Opening of the Red Veil
3. Third Gnosis
4. Hidden House of Florescence
5. Manifestation of the Eternal Shape
6. Cube-Head Vision
7. Speak Not the Mystery of the Circumference
8. Elevated Shadow
9. Blackened Ziggurat
10. Carved Signs
11. Eternal Octagon
12. Hallucination
13. Symbol Omitter
******************************
Total playing time: 40:06

[more=Extended info]Side A was originally released as the Demo II cassette.
Side B was originally released as the Demo I cassette.

Vinyl-rip by Zero[/more]

[more=Technical info]
Input File: 04 Hidden House Of Florescence.mp3
Channels : 2
Sample Rate : 44100
Precision : 16-bit
Duration : 00:04:02.39 = 10689399 samples = 18179.2 CDDA sectors
File Size : 9.69M
Bit Rate : 320k
Sample Encoding: MPEG audio (layer I, II or III)
Comments :
Title=Hidden House Of Florescence
Artist=Eternal Octagon
Album=Mysteries
Tracknumber=04/13
Year=2019
Genre=Black Metal
Discnumber=1/1

[/more]

Register
(15) 1968_janeart, Cramloth, Ildjarn, infiltrator, kim666, Olethros, Ostinato, Rosen, SilentNidhogg, stub888, supremo, varlam4, vasiljev_sergej, Wail, wreak,
Nov 15 2020, 11:08:22 Fallen Forest & Black Imperial Blood - Black Imperial Blood/Fallen Forest [split] (2020)


*Artist: Fallen Forest & Black Imperial Blood
*Album: Black Imperial Blood/Fallen Forest [split]
*Year: 2020
*Genre: Raw Black Metal | Raw Black Metal
*Country: Finland | Australia
*Format: mp3@VBR260kbps
*Size: 34MB

Tracklist:
Fallen Forest:
1. Twilight Towers 03:30
2. Citadels of Lament 04:54
Black Imperial Blood:
3. Interlude 02:20
4. Woodland Spirit 07:02
******************************
Total playing time: 17:46

[more=Extended info]Atrocity Altar-31

Tape-rip by Zero[/more]

[more=Technical info]
Input File: 01 Twilit Towers.mp3
Channels : 2
Sample Rate : 44100
Precision : 16-bit
Duration : 00:03:28.22 = 9182590 samples = 15616.6 CDDA sectors
File Size : 6.84M
Bit Rate : 263k
Sample Encoding: MPEG audio (layer I, II or III)
Comments :
Title=Twilit Towers
Artist=Fallen Forest
Album=Fallen Forest / Black Imperial Blood
Tracknumber=01/4
Year=2020
Genre=Black Metal
Discnumber=1/1

[/more]

Register
(16) 1968_janeart, Alexis The Best, grimoir, Hell_Is_Here, Ildjarn, infiltrator, kim666, nemx, Rosen, SilentNidhogg, stub888, VALERY, varlam4, vasiljev_sergej, Wail, wreak,
Nov 15 2020, 11:04:48 Mistcavern - Winds Of Misery [ep] (2019)


*Artist: Mistcavern
*Album: Winds Of Misery [ep]
*Year: 2019
*Genre: Black Metal
*Country: Hungary
*Format: mp3@VBR270kbps
*Size: 30MB

Tracklist:
1. Winds of Misery 05:08
2. Dominion for Eternity 05:29
3. Crystalline Gate of Destruction 04:56
******************************
Total playing time: 15:33



[more=Extended info]Iron Bonehead Productions

Tape-rip by Zero[/more]

[more=Technical info]
Input File: 03 Crystalline Gate Of Destruction.mp3
Channels : 2
Sample Rate : 44100
Precision : 16-bit
Duration : 00:04:50.43 = 12807919 samples = 21782.2 CDDA sectors
File Size : 9.82M
Bit Rate : 271k
Sample Encoding: MPEG audio (layer I, II or III)
Comments :
Title=Crystalline Gate Of Destruction
Artist=Mistcavern
Album=Winds Of Misery
Tracknumber=3/3
Year=2020
Genre=Black Metal
Discnumber=1/1

[/more]

Register
(16) 1968_janeart, Bekkerev, grimoir, Ildjarn, infiltrator, kim666, Olethros, rammmirez, robertho777, Rosen, SilentNidhogg, VALERY, varlam4, vasiljev_sergej, Wail, wreak,
Nov 15 2020, 11:02:22 Blinding Sun - Life's Joke [demo] (2020)


*Artist: Blinding Sun
*Album: Life's Joke [demo]
*Year: 2020
*Genre: Raw Black Metal
*Country: United States
*Format: mp3@CBR320kbps
*Size: 38MB

Tracklist:
1. Intro (Life's Joke)
2. The Hanged Arrange Themselves by Weight
3. A Slide Down Pitiful Peak
4. Setting the Table for Ghost's Meals
******************************
Total playing time: 16:22



[more=Extended info]Death Shadow Records[/more]

[more=Technical info]
Input File: 02 The Hanged Arrange Themselves by Weight.mp3
Channels : 2
Sample Rate : 44100
Precision : 16-bit
Duration : 00:04:46.29 = 12625565 samples = 21472 CDDA sectors
File Size : 11.6M
Bit Rate : 325k
Sample Encoding: MPEG audio (layer I, II or III)
Comments :
Title=The Hanged Arrange Themselves by Weight
Artist=Blinding Sun
Album=Life's Joke
Tracknumber=2
Year=2020
Genre=Black Metal

[/more]

Register
(13) 1968_janeart, grimoir, infiltrator, kim666, Olethros, Ostinato, Rosen, SilentNidhogg, stub888, varlam4, vasiljev_sergej, Wail, wreak,
Nov 15 2020, 10:56:36 Sceptre Of The Fading Dawn - Wandering In Lands Unseen (2020)


*Artist: Sceptre Of The Fading Dawn
*Album: Wandering In Lands Unseen
*Year: 2020
*Genre: Dark Ambient/Dungeon Synth
*Country: Australia
*Format: mp3@CBR320kbps
*Size: 77MB

Tracklist:
1. Visions Of The Twilight Lands 16:05
2. These Timeless Shores... 16:50
******************************
Total playing time: 32:55

[more=Extended info]Atrocity Altar[/more]

[more=Technical info]
Input File: 01 Visions Of The Twilight Lands.mp3
Channels : 2
Sample Rate : 44100
Precision : 16-bit
Duration : 00:16:05.91 = 42596543 samples = 72443.1 CDDA sectors
File Size : 38.7M
Bit Rate : 321k
Sample Encoding: MPEG audio (layer I, II or III)
Comments :
Title=Visions Of The Twilight Lands
Artist=Sceptre Of The Fading Dawn
Album=Wandering In Lands Unseen
Tracknumber=1
Year=2020
Genre=Dungeon Synth

[/more]

Register
(3) infiltrator, Olethros, Wail,
Nov 15 2020, 10:50:40 Catacombs Enshadowed - Curse Of Dark Centuries (2019)


*Artist: Catacombs Enshadowed
*Album: Curse Of Dark Centuries
*Year: 2019
*Genre: Dark Ambient/Dungeon Synth
*Country: United States
*Format: mp3@CBR320kbps
*Size: 74MB

Tracklist:
1. Hymne An Den Schrecken Der Nacht 02:35
2. Darkness Stirs The Windswept Woodland 07:03
3. Spawned In Verminous Crypts 02:53
4. Summoned By Lunar Spells 04:29
5. The Baleful Keep, Enwreathed By Mournmists 03:29
6. Wampyric Awakening (Beneath the Bloodmoon) 07:59
7. A Specter Wanders The Blighted Forest 02:48
******************************
Total playing time: 31:16



[more=Technical info]
Input File: 01 Hymne An Den Schrecken Der Nacht.mp3
Channels : 2
Sample Rate : 44100
Precision : 16-bit
Duration : 00:02:35.10 = 6839910 samples = 11632.5 CDDA sectors
File Size : 6.41M
Bit Rate : 330k
Sample Encoding: MPEG audio (layer I, II or III)
Comments :
Title=Hymne An Den Schrecken Der Nacht
Artist=Catacombs Enshadowed
Album=Curse Of Dark Centuries
Tracknumber=1
Year=2017
Genre=Dungeon Synth

[/more]

Register
(5) A.L.Rapsod, grimoir, infiltrator, Olethros, Wail,
Nov 15 2020, 10:43:57 Corrupted Temple Of Moss - Corrupted Temple Of Moss [compilation] (2020)


*Artist: Corrupted Temple Of Moss
*Album: Corrupted Temple Of Moss [compilation]
*Year: 2020
*Genre: Dark Ambient/Dungeon Synth
*Country: Australia
*Format: mp3@CBR320kbps
*Size: 66MB

Tracklist:
A1. Shrine To A Forgotten Deity 03:26
A2. Priest Ensnarled By Its Curse 02:01
A3. Unfolding Soul 02:15
A4. A Foreboding Prophecy 01:16
A5. The Spectre Of Autumn Gazes Over The Canopy 02:04
A6. Ancient Magicks Uttered By The Winds And Streams 03:21
A7. The Meadows Remember... 01:09
A8. Spells Written In The Moss 02:28
A9. Dreams Of My Realms Beneath The Stars 06:32
A10. What Lies Beyond The Dismal Horizon 03:35
******************************
Total playing time: 28:07

[more=Extended info]Atrocity Altar-25

Tracks A1 to A3 were originally released as the Demo I cassette.
Tracks A4 to A8 were originally released as the ...Ancient Magicks Uttered By The Winds And Streams cassette.
Tracks A9 and A10 were originally released on the split cassette with Etchings Wound.

Tape-rip by Zero[/more]

[more=Technical info]
Input File: 01 Shrine To A Forgotten Deity.mp3
Channels : 2
Sample Rate : 44100
Precision : 16-bit
Duration : 00:03:23.95 = 8994283 samples = 15296.4 CDDA sectors
File Size : 8.26M
Bit Rate : 324k
Sample Encoding: MPEG audio (layer I, II or III)
Comments :
Title=Shrine To A Forgotten Deity
Artist=Corrupted Temple Of Moss
Album=Corrupted Temple Of Moss
Tracknumber=01/10
Year=2020
Genre=Dungeon Synth
Discnumber=1/1

[/more]

Register
(4) A.L.Rapsod, infiltrator, Olethros, Wail,
Nov 15 2020, 10:39:50 Kaznaxtheh - Xempyrre Eklipse [demo] (2018)


*Artist: Kaznaxtheh
*Album: Xempyrre Eklipse [demo]
*Year: 2018
*Genre: Dark Ambient
*Country: Finland
*Format: mp3@VBR284kbps
*Size: 43MB

Tracklist:
1. Part I: The Draining... 11:07
2. Part II: Lustful Reawakening 10:03
******************************
Total playing time: 21:10



[more=Extended info]Livor Mortis

Tape-rip by Zero[/more]

[more=Technical info]
Input File: 01 Part I The Draining....mp3
Channels : 2
Sample Rate : 44100
Precision : 16-bit
Duration : 00:11:07.79 = 29449715 samples = 50084.5 CDDA sectors
File Size : 22.9M
Bit Rate : 275k
Sample Encoding: MPEG audio (layer I, II or III)
Comments :
Title=Part I: The Draining...
Artist=Kaznaxtheh
Album=Xempyrre Eklipse
Tracknumber=01/2
Year=2018
Discnumber=1/1

[/more]

Register
(2) infiltrator, Olethros,
Nov 15 2020, 10:37:17 Mental Decay - The Lure Of Evil [demo] (2018)


*Artist: Mental Decay
*Album: The Lure Of Evil [demo]
*Year: 2018
*Genre: Dark Ambient/Dungeon Synth
*Country: Australia
*Format: mp3@VBR260kbps
*Size: 81MB

Tracklist:
1. Untitled 21:19
2. Untitled 21:06
******************************
Total playing time: 42:25



[more=Extended info]Perverse Homage ‎– 043

Tape-rip by Zero[/more]

[more=Technical info]
Input File: 02 Untitled.mp3
Channels : 2
Sample Rate : 44100
Precision : 16-bit
Duration : 00:22:06.55 = 58500855 samples = 99491.2 CDDA sectors
File Size : 44.0M
Bit Rate : 265k
Sample Encoding: MPEG audio (layer I, II or III)
Comments :
Title=Untitled
Artist=Mental Decay
Album=The Lure Of Evil
Tracknumber=02/2
Year=2018
Discnumber=1/1

[/more]

Register
(2) infiltrator, Olethros,
Nov 15 2020, 10:31:00 Mental Decay - What Gnawed On The Fate Of Our Souls [demo] (2020)


*Artist: Mental Decay
*Album: What Gnawed On The Fate Of Our Souls [demo]
*Year: 2020
*Genre: Dark Ambient/Dungeon Synth
*Country: Australia
*Format: mp3@VBR240kbps
*Size: 64MB

Tracklist:
A1. Condemned To Follow 06:39
A2. Reaching For More 11:11
B1. He Presented Himself As A Saviour 07:17
B2. Rejection Of Higher Power 10:56
******************************
Total playing time: 36:03



[more=Extended info]Atrocity Altar-28

Tape-rip by Zero[/more]

[more=Technical info]
Input File: 01 Condemned To Follow.mp3
Channels : 2
Sample Rate : 44100
Precision : 16-bit
Duration : 00:06:38.03 = 17552991 samples = 29852 CDDA sectors
File Size : 12.6M
Bit Rate : 254k
Sample Encoding: MPEG audio (layer I, II or III)
Comments :
Title=Condemned To Follow
Artist=Mental Decay
Album=What Gnawed On The Fate Of Our Souls
Tracknumber=01/4
Year=2020
Genre=Dark Ambient
Discnumber=1/1

[/more]

Register
(3) A.L.Rapsod, infiltrator, Olethros,
Nov 15 2020, 08:10:18 Seges Findere - Warmastered By Deathkorps (2015)
Register

mp3@CBR320kbps
with tags
(1) Occultas,
Nov 15 2020, 08:06:51 Seges Findere - Mortal Grinder (2016)
Register

mp3@CBR320kbps
with tags
(1) Occultas,
Nov 15 2020, 08:02:28 Seges Findere - Totenkopf Worship (2018)
Register

mp3@CBR320kbps
with tags
(1) Occultas,
Nov 15 2020, 00:37:15 Sleep White Winter - Degeneracy Of Nostalgia (2017)
Register

mp3@CBR320kbps
(3) Corpuscul, kim666, MortSathynr,
Nov 15 2020, 00:28:33 Aeba - Nemesis, Decay Of God's Grandeur (2012)
Register

mp3@CBR320kbps
(1) kimkayoung,
Nov 13 2020, 23:41:20 Todestriebe - In The Vortex Of Destructive Creations (2020)


*Artist: Todestriebe
*Album: In The Vortex Of Destructive Creations
*Year: 2020
*Genre: Black Metal
*Country: Russian Federation
*Format: mp3@CBR320kbps
*Size: 85MB

Tracklist:
1. Lifting the Veil 01:02
2. The Impossibility of Atonement 03:10
3. Lord of the Fathomless Sea 04:06
4. Cathedral of Pain 03:08
5. Deadborn Initiation-Along the Serpents Trails (Part One) 04:35
6. Sitra Ahra-Along the Serpents Trails (Part Two) 03:02
7. Supreme Dark Coronation 03:32
8. Blacklight Bringer 03:24
9. Power Came from the Void 04:36
10. Bestial Obscurantism 04:42
11. 11 01:27
******************************
Total playing time: 36:44



[more=Extended info]Obscurant Visions

After 5 years of silence Russian TODESTRIEBE are returning with their long-awaited album! Prepare for 11 new hymns about underworld and its blasphemous emanations.[/more]

[more=Technical info]
Input File: 02 The Impossibility of Atonement.mp3
Channels : 2
Sample Rate : 44100
Precision : 16-bit
Duration : 00:03:10.08 = 8382396 samples = 14255.8 CDDA sectors
File Size : 7.60M
Bit Rate : 320k
Sample Encoding: MPEG audio (layer I, II or III)
Comments :
Title=The Impossibility of Atonement
Artist=Todestriebe
Album=In the Vortex of Destructive Creations
Tracknumber=2
Year=2020

[/more]

Register
(41) 1968_janeart, AlexSmith, alikkon, CRUNCH, Daale, El_Chibo, Femto, Golodomor, Hell_Is_Here, Ildjarn, IncendiaryMight, infiltrator, judaz, kim666, Korpse, legion01, Leshiy666, Lucju, MMMMM, Moonshtook, multizwilling, oldvarg, Olethros, Ostinato, pahail, Penetralia, randumbum, ripper33, robertho777, Rosen, SaintVitus, samokot, sandr666, SilentNidhogg, squall8fr, VALERY, varlam4, vasiljev_sergej, Victim of fate, Wail, wreak,

174 Pages V   1 2 3 > » 
- Lo-Fi Version Support form
Copyrights and abuse reports form
Time is now: 4th December 2020 - 17:57:52