Welcome Guest ( Log In | Register )

История благодарностей участнику lestllk ::: Спасибо сказали: 46238 раз(а)
Дата поста: В теме: За сообщение: Спасибо сказали:
May 26 2020, 21:56:40 Likferd - Ancient Frost (2020)


*Artist: Likferd
*Album: Ancient Frost
*Year: 2020
*Genre: Black Metal
*Country: Russian Federation
*Format: mp3@CBR320kbps
*Size: 92MB

Tracklist:
1. The Cleansing Fire 04:59
2. Fenrir 05:37
3. Flaming Winds of Múspellsheimr 05:38
4. Death of the Worlds 06:44
5. The World of Eternal Mist 04:30
6. Blazing Abyss 05:30
7. The Devil's Poet 05:35
8. Ragnarokkr 01:13
******************************
Total playing time: 39:46




[more=Extended info]Cold Breath of Silence


Lineup

D. Nox - Unknown
See also: Blazing Rust, Portfire, Pyre, Teitanfyre, ex-Drama, ex-Blasphererion (live), ex-Internal Damage, ex-Ragor, ex-Septory, ex-Ulvdalir

Void WHRT - Unknown
See also: Black Flux, Khashm, The Initiation, Ulvdalir, Морок, ex-Vinterkrig

M.K. - Unknown
See also: Khashm, Sternatis, Ulvdalir, Bestial Deform (live), ex-Blasphererion, ex-Septory, ex-Teitanfyre, ex-Einfall, ex-Tophet[/more]

[more=Technical info]
Input File: 05 The World of Eternal Mist.mp3
Channels : 2
Sample Rate : 44100
Precision : 16-bit
Duration : 00:04:30.07 = 11909999 samples = 20255.1 CDDA sectors
File Size : 10.8M
Bit Rate : 320k
Sample Encoding: MPEG audio (layer I, II or III)
Comments :
Title=The World of Eternal Mist
Artist=Likferd
Album=Ancient Frost
Tracknumber=5
Year=2020

[/more]

Register
(34) 1968_janeart, AlexSmith, alikkon, atavist, autumnwood, Boozer, Daale, Golodomor, Ildjarn, infiltrator, judaz, kim666, Korpse, Mares, Moonshtook, multizwilling, nadin85, nsk2008, Olethros, pahail, randumbum, ripper33, robertho777, senecazm, Shadechaser, SilentNidhogg, smysl, supremo, Surt, toly1917, tOmV, troll_swamp, VALERY, Wail,
May 17 2020, 04:51:13 I Am The Void - I Am The Void (2020)


*Artist: I Am The Void
*Album: I Am The Void
*Year: 2020
*Genre: Black Metal
*Country: Germany
*Format: mp3@CBR320kbps
*Size: 87MB

Tracklist:
1. Awaken 02:28
2. I Am the Void 07:11
3. Among Them... 02:21
4. One with Time & Dust 06:15
5. Night of Falling Stars 11:19
6. Stille 07:44
******************************
Total playing time: 37:18



[more=Extended info]Darkness Shall Rise Productions[/more]

[more=Technical info]
Input File: 05 Night of Falling Stars.mp3
Channels : 2
Sample Rate : 44100
Precision : 16-bit
Duration : 00:11:18.10 = 29904078 samples = 50857.3 CDDA sectors
File Size : 27.1M
Bit Rate : 320k
Sample Encoding: MPEG audio (layer I, II or III)
Comments :
Title=Night of Falling Stars
Artist=I am the Void
Album=I am the Void
Tracknumber=5
Year=2020
Genre=Black Metal

[/more]

Register
(44) 1968_janeart, AlexSmith, alikkon, atavist, cesar, cist, craP_cillA, egortitov, exorcist1969, GorAtheist, Indamage, infiltrator, judaz, kim666, Korpse, Krosis, Lukittaz, Maximvs, MMMMM, multizwilling, murian, nadin85, oldvarg, Olethros, Ostinato, pahail, randumbum, robertho777, sabr, sagratan, Sanctus, SilentNidhogg, supremo, terron, thenecromancer, Tino, VALERY, vasiljev_sergej, vovenom, V_H_H_V, Wail, yuratroll, zbysio, zhol,
May 16 2020, 20:42:22 Forest Mysticism & Runespell - Wandering Forlorn [split] (2020)


*Artist: Forest Mysticism & Runespell
*Album: Wandering Forlorn [split]
*Year: 2020
*Genre: Black Metal | Black Metal
*Country: Australia | Australia
*Format: mp3@CBR320kbps
*Size: 86MB

Tracklist:
Runespell:
1. Wolf Woods 10:11
2. Streams of Sorrow 02:51
3. Fated in Blood 07:21
Forest Mysticism:
4. Summon 05:03
5. Rivers of Silver (II) 03:51
6. Ancient Tides of War 07:52
******************************
Total playing time: 37:09



[more=Extended info]IRON BONEHEAD PRODUCTIONS is proud to present Wandering Forlorn, a special split album between RUNESPELL and FOREST MYSTICISM, on CD and vinyl LP formats.

A cross-generational meeting of two very old souls, Wandering Forlorn brings together two Australian hordes who've been following the voice of blood longer than most have been alive. RUNESPELL mainman Nightwolf has been forging steel in the glare of burning churches since 2017. In feverish succession, his three albums for IRON BONEHEAD have poignantly presented pagan black metal in an authentically old yet refreshingly new hue, and with his three equally epic tracks here, RUNESPELL shows that the fire is far from extinguished - in fact, its flames soar ever higher like spears hunting heaven. By comparison, FOREST MYSTICISM put Down Under paganism on the map nearly 15 years ago and then retreated into the shadows in 2011, honor intact. Come 2018, the Hearken EP indeed hearkened the band's rebirth, and the three stout-yet-sumptuous tracks here continue that noble trajectory. And aside from a single-track split last year, Wandering Forlorn marks the most extended FOREST MYSTICISM recording since the no-less-considerable Hearken, a true fire of awakening.

Past, present, and future...the ancients roam free across all. Wandering Forlorn are RUNESPELL and FOREST MYSTICISM, their creed of iron resilient and resounding.[/more]

[more=Technical info]
Input File: 04. Forest Mysticism - Summon.mp3
Channels : 2
Sample Rate : 44100
Precision : 16-bit
Duration : 00:05:02.07 = 13321287 samples = 22655.2 CDDA sectors
File Size : 12.1M
Bit Rate : 320k
Sample Encoding: MPEG audio (layer I, II or III)
Comments :
Title=Summon
Artist=Forest Mysticism
Album=Wandering Forlorn
Tracknumber=4
Year=2020

[/more]

Register
(45) 1968_janeart, ahp, alikkon, andivi, autumnwood, Boozer, Brann, craP_cillA, dagger666, Dmitry1977, doomTemplar, Fryz, Hell_Is_Here, Ildjarn, infiltrator, Kalnasra, kim666, Korpse, Lamby90, Lanceatum, legion01, lordbathor, Malzus, Maximvs, Moonshtook, Mortuusinfernus, morve, multizwilling, murian, nemx, nnnmmm, Ostinato, rammmirez, randumbum, robertho777, sagratan, satanist666, SilentNidhogg, thenecromancer, the_cleanser, VALERY, vasiljev_sergej, Vidder242, Wail, Авел,
May 14 2020, 20:09:52 Uprising - II (2020)


*Artist: Uprising
*Album: II
*Year: 2020
*Genre: Black Metal
*Country: Germany
*Format: mp3@CBR320kbps
*Size: 101MB

Tracklist:
1. Introduction
2. There's No Such Thing as Hope
3. Uprise Part II
4. A Lesson in Basic Human Empathy
5. Monuments
6. The Iron Eagles Still Fly
7. Radical Decency
******************************
Total playing time: 43:08



[more=Extended info]W - All instruments, Vocals (2014-present)
See also: Waldgeflüster, Scarcross[/more]

[more=Technical info]
Input File: 03 Uprise Part II.mp3
Channels : 2
Sample Rate : 44100
Precision : 16-bit
Duration : 00:08:17.09 = 21921449 samples = 37281.4 CDDA sectors
File Size : 19.9M
Bit Rate : 320k
Sample Encoding: MPEG audio (layer I, II or III)
Comments :
Title=Uprise Part II
Artist=Uprising
Album=II
Tracknumber=3
Year=2020

[/more]

Register
(33) 1968_janeart, alikkon, andivi, atavist, Bloodn Lord, Boozer, deadpyhto, egortitov, Ildjarn, infiltrator, kim666, Korpse, Lukittaz, MMMMM, multizwilling, nadin85, nsk2008, Olethros, Phlebotomized, randumbum, rimfrost, robertho777, RUDACHUR, SaintVitus, sandr666, SilentNidhogg, stub888, system36, toly1917, VALERY, vasiljev_sergej, V_H_H_V, Wail,
May 13 2020, 08:49:16 Mystagos - Pvrvsha [ep] (2018)
QUOTE(azaghal @ May 11 2020, 17:39:31) *
Eсть шанс оживить ссылку?


Register

mp3@CBR320kbps
(1) nadin85,
May 12 2020, 15:39:28 Malist - In The Catacombs Of Time (2019)
Register

mp3@CBR320kbps
(1) Ludwig Hagen,
May 5 2020, 17:14:53 Armnatt - Dense Fog (2020)


*Artist: Armnatt
*Album: Dense Fog
*Year: 2020
*Genre: Raw Black Metal
*Country: Portugal
*Format: mp3@CBR320kbps
*Size: 60MB

Tracklist:
1. The Flame of Purification 01:37
2. Dense Fog 04:07
3. Black Devotion 03:00
4. Circumscribing the Circle 02:59
5. Eternal Night 03:21
6. As the Dark Moon Rises 00:12
7. Vultfigures 04:27
8. Obscure 03:02
9. In the Catacombs 02:35
10. Echoes from the Distant Past 00:48
******************************
Total playing time: 26:08



[more=Extended info]SIGNAL REX is proud to present ARMNATT's highly anticipated second album, Dense Fog, on CD/CS/LP format.

Formed in days and times too clandestine to recall, ARMNATT quickly became a touchstone for Portugal's still-ascendant/descendent raw black metal scene. With their first split coming courtesy of the well-respected Black Gangrene in 2013 and then their debut album, Darkness Times, arriving a year later courtesy of the equally respected Altare, ARMNATT's cachet was confirmed. And for good reason: the misty-yet-hateful surge the trio conjure speaks of a deeply held (and authentically created) understanding of black metal's epochal second wave.

Years have been spent in misery and comfort, and now arrives ARMNATT's second album, Dense Fog. As aptly titled as the first full-length, Dense Fog takes wastes no time in establishing its righteous agenda: like the spectres of 1994 rising from the grave once again, harshly hammering into a hypnotic spell of destruction, the glare of burning churches lighting the way to the pagan megalith. Its familiarity is almost deceptive, as if in fact a lost relic unearthed from a Bergen bunker decades later; this literally searing simplicity of design can be replicated endlessly, but never faked. Rats will come to roost if the stench of pose lingers too long, and ARMNATT surely eradicate any and all doubts with these ten tracks in a cruelly swift 27 minutes.

In conjunction with the release of Dense Fog shall SIGNAL REX release Darkness Times on vinyl for the first time. You have been warned...embrace your own end.

ARMNATT will be performing at this year's Invicta Reqviem Mass VI, curated by SIGNAL REX and set to take place on December 4th and 5th in Porto, Portugal.[/more]

[more=Technical info]
Input File: 08 Obscure.mp3
Channels : 2
Sample Rate : 44100
Precision : 16-bit
Duration : 00:03:02.08 = 8029860 samples = 13656.2 CDDA sectors
File Size : 7.28M
Bit Rate : 320k
Sample Encoding: MPEG audio (layer I, II or III)
Comments :
Title=Obscure
Artist=Armnatt
Album=Dense Fog
Tracknumber=8
Year=2020

[/more]

Register
(26) 1968_janeart, atavist, blackwerwolf, Boozer, egortitov, Fryz, Ildjarn, infiltrator, Kazoth, kim666, Lamby90, mondblut, multizwilling, nadin85, Necromag, nsk2008, Olethros, randumbum, SilentNidhogg, stub888, supremo, VALERY, varlam4, vasiljev_sergej, Wail, wgs73,
May 5 2020, 16:28:51 ...And Oceans - Cosmic World Mother (2020)


*Artist: ...And Oceans
*Album: Cosmic World Mother
*Year: 2020
*Genre: Symphonic Black Metal
*Country: Finland
*Format: mp3@CBR320kbps
*Size: 111MB

Tracklist:
1. The Dissolution of Mind and Matter 04:09
2. Vigilance and Atrophy 04:38
3. Five of Swords 05:02
4. As the After Becomes the Before 05:13
5. Cosmic World Mother 04:37
6. Helminthiasis 04:26
7. Oscillator Epitaph 03:54
8. In Abhorrence upon Meadows 02:29
9. Apokatastasis 04:21
10. One of Light, One of Soil 03:17
11. The Flickering Lights 05:24
******************************
Total playing time: 47:30



[more=Extended info]Shape-shifting Finnish metallians ...AND OCEANS return with 'Cosmic World Mother,' their first new full album in 18 years. The unconventional unit side-steps expectation yet again, and herein deliver a searing assault of orthodox symphonic black metal. Their soaring harmonies and high-speed attack possess all the hallmarks the genre's elite works, and with 'Cosmic World Mother' the veteran quintet deliver a most auspicious return to form.

releases May 1, 2020

Vocals: Mathias Lillmåns
Guitar: Timo Kontio
Guitar: Teemu Saari
Bass: Petri Seikkula
Drums: Kauko Kuusisalo
Synth: Antti Simonen

Recorded at:
Wolfthrone Studios (guitars, mixing and mastering)
SoundSpiral Audio (vocals)
Mobile SoundSpiral Audio (drums and bass)[/more]

[more=Technical info]
Input File: 8. In Abhorrence upon Meadows.mp3
Channels : 2
Sample Rate : 44100
Precision : 16-bit
Duration : 00:02:26.08 = 6442304 samples = 10956.3 CDDA sectors
File Size : 5.84M
Bit Rate : 320k
Sample Encoding: MPEG audio (layer I, II or III)
Comments :
Title=In Abhorrence upon Meadows
Artist=...and Oceans
Album=Cosmic World Mother
Tracknumber=8
Year=2020

[/more]

Register
(124) 1968_janeart, 666days, Adskij, ahp, Antkh, Aresson, as71, atavist, bka, BleedingSun, Bloodn Lord, Borya_Tvorogov, Bzth, Cartman223, chipsgott, cist, craP_cillA, d0zer, DarkHorde, demonosz, DenisKov, disney666, djsema4, doomTemplar, dromord, dulak, egortitov, Evjenne, Femto, Fess, ForzaMinardi1977, fuoco, fylopaloma, garml2, gwar, gwynnbleid, Hell_Is_Here, HMHamster, Ildjarn, Indamage, Infidel, infiltrator, Jackyl, jesterfiend, kim666, Kodel, kostja, Krosis, Kwaad, Lamby90, Lanceatum, legion01, LEGION69, Lukittaz, mart2203, MaXL, metala, milosdjor, MMMMM, Mogozoz, Moonshtook, multizwilling, nadin85, nemx, nikolay81, nsk2008, Oath19, Occultas, Old Vyaine, oldvarg, Olethros, Orgasmik, Ostinato, Paradayz, Perdition, Phlebotomized, pouya, pulotto, rammstein888, randumbum, recber, ripper33, robertho777, rocesid, russ777, SadistikSlayer, SaintVitus, SatanicPanzer, satanist666, Satyr, senecazm, smes, stone88, supremo, symphonicadiction, SyncestrA, talismanFS, Taragorm, TeamatSE, THROWER666, Thunderbird, Tino, toly1917, VALERY, varg-38ru, varlam4, vasiljev_sergej, Vidder242, vir2al, vov7609, wgs73, WND, Wolftribes, wtk.412, Xor, xska, Xutun, yuratroll, ZambuL, zargonath, zhol, Zoloft, zyklon, Сварог Барг,
May 3 2020, 22:56:50 Thaw - Grains (2017)
Register

mp3@CBR320kbps
(1) varlam4,
May 3 2020, 22:50:12 Förgjord - Laulu Kuolemasta (2020)
Register

mp3@CBR320kbps
(3) kryptor, nemx, zargonath,
May 3 2020, 20:10:15 Hexenfluch - Aradia (2020)


*Artist: Hexenfluch
*Album: Aradia
*Year: 2020
*Genre: Black Metal
*Country: Germany
*Format: mp3@CBR320kbps
*Size: 100MB

Tracklist:
1. Hexensabbath 06:12
2. Hekate 06:07
3. Hexenfluch 10:24
4. Beschworen 08:52
5. Dornen des Todes 05:01
6. Schattenwelten 06:45
******************************
Total playing time: 43:21



[more=Extended info]Soon to be released by Astral Nightmare Productions (CD) and Dominance of Darkness Records (LP). The Tape was released by Narbentage Produktionen and is sold out.

Lineup

Fafnir - Bass (2017-present)
See also: Gjaldur, Goatkolonne, Krÿs, Aaskereia, ex-Geweih, ex-Kolosseum, ex-Mähdrescher, ex-Brocken Moon, ex-Irrlycht, ex-Todesweihe, ex-Vorga

Pestmeister Tairach - Guitars (2017-present)
See also: Pestnebel, Winterreich, Schrat (live), ex-Eclipse, ex-Sorcerer, Aphelium Eternal, ex-Ungod, ex-Fiend, ex-Morke

Krámpn - Vocals (2017-present)
See also: Alpgeist, Drudensang, Winterreich, ex-Ravnsvart, ex-Schrat (live)

Athanassius - Drums (2018-present)
See also: Nebelwald, Silberbach, ex-Dunkelgrafen, ex-Reign in Blood[/more]

[more=Technical info]
Input File: 1. Hexensabbath.mp3
Channels : 2
Sample Rate : 44100
Precision : 16-bit
Duration : 00:06:12.08 = 16408816 samples = 27906.1 CDDA sectors
File Size : 14.9M
Bit Rate : 320k
Sample Encoding: MPEG audio (layer I, II or III)
Comments :
Title=Hexensabbath
Artist=Hexenfluch
Album=Aradia
Tracknumber=1
Year=2020
Genre=Black Metal

[/more]

Register
(44) 1968_janeart, ahp, AlexSmith, arkaik, atavist, Boozer, cist, craP_cillA, dvlz, egortitov, ErikGoth, Evilded, gena, Ildjarn, INDARKNESS, infiltrator, kim666, Krosis, Kwaad, Lukittaz, maxxxy, multizwilling, murian, nomadgg1, NOMIDIMON, Occultas, Olethros, Ostinato, raaf, randumbum, robertho777, sandr666, SilentNidhogg, Skog1349, smysl, stub888, VALERY, varg-38ru, varlam4, vasiljev_sergej, Vidder242, vovenom, V_H_H_V, Wolftribes,
May 2 2020, 22:38:30 Niteris - Our Death, His Monument [demo] (2020)


*Artist: Niteris
*Album: Our Death, His Monument [demo]
*Year: 2020
*Genre: Black Metal
*Country: Bosnia and Herzegovina
*Format: mp3@CBR320kbps
*Size: 48MB

Tracklist:
1. Heed the Call of Darkness
2. Voices from Beyond
3. Flesh-made Hell
4. Memento Mori
******************************
Total playing time: 20:44




[more=Extended info]The link between Niteris and Black Gangrene Productions goes back to the year 2014 when the label put out the band's first demo “Our Body, His Temple”. Six years later, the Bosnian horde returns with yet another emanation of vicious Black Metal. Visceral and oppressive, “Our Death, His Monument” stands as an assault to the senses through its hostile performance and raw rehearsal like sound. From the first moments of this demo, one finds itself perturbed by the cruel maniacal vocals, the superb guitar work - equally arrangement and sounding wise - and the fast, caustic drumming which is intriguingly interlaced with brilliant slower, utterly suffocating sections, elements that unite on a ghastly deathlike atmosphere likewise well represented by the ominous artwork.
Out on Cassette Tape, “Our Death, His Monument” is a testament to one of the upmost conclaves of raw Black Metal of the present-day, the intensity and spite of the Bosnian Black Plague Circle and its allegiance with Black Gangrene Productions.


Tape-rip by Zero[/more]

[more=Technical info]
Input File: 01 Heed the Call of Darkness.mp3
Channels : 2
Sample Rate : 44100
Precision : 16-bit
Duration : 00:04:46.34 = 12627770 samples = 21475.8 CDDA sectors
File Size : 11.6M
Bit Rate : 323k
Sample Encoding: MPEG audio (layer I, II or III)
Comments :
Title=Heed the Call of Darkness
Artist=Niteris
Album=Our Death, His Monument
Tracknumber=01/4
Year=2020
Discnumber=1/1

[/more]

Register
(21) 1968_janeart, Alexis The Best, ChaosArcana, heinz88, Ildjarn, infiltrator, kim666, multizwilling, murian, Olethros, Ostinato, randumbum, robertho777, seadog, SilentNidhogg, sksxxx, stub888, VALERY, varg-38ru, varlam4, vasiljev_sergej,
May 2 2020, 21:53:01 Odour Of Death - Satanic Devotion [ep] (2020)


*Artist: Odour Of Death
*Album: Satanic Devotion [ep]
*Year: 2020
*Genre: Black Metal
*Country: United Kingdom
*Format: mp3@CBR320kbps
*Size: 56MB

Tracklist:
1. Devotion 05:34
2. Influenced by Satan 03:51
3. Silesian Satanist Pride 03:28
4. Tonight 04:30
5. Enter the Eternal Fire (Bathory cover) 06:52
******************************
Total playing time: 24:15



[more=Extended info]CD limited to 300 copies

Released by Lower Silesian Stronghold and Doomsday Elite[/more]

[more=Technical info]
Input File: 01 Devotion.mp3
Channels : 2
Sample Rate : 44100
Precision : 16-bit
Duration : 00:05:34.07 = 14732575 samples = 25055.4 CDDA sectors
File Size : 13.4M
Bit Rate : 320k
Sample Encoding: MPEG audio (layer I, II or III)
Comments :
Title=Devotion
Artist=Odour of Death
Album=Satanic Devotion
Tracknumber=1
Year=2020

[/more]

Register
(18) 1968_janeart, Ildjarn, infiltrator, kim666, Lukittaz, multizwilling, Olethros, Ostinato, robertho777, SilentNidhogg, stub888, Styx, VALERY, varg-38ru, varlam4, vasiljev_sergej, Wolftribes, wolverine,
Apr 29 2020, 18:52:10 Evilfeast & Uuntar - Odes To Lands Of Past Traditions [split] (2020)


*Artist: Evilfeast & Uuntar
*Album: Odes To Lands Of Past Traditions [split]
*Year: 2020
*Genre: Atmospheric Black Metal | Pagan Black Metal
*Country: Poland | Netherlands
*Format: mp3@CBR320kbps
*Size: 85MB

Tracklist:
Evilfeast:
1. A Castle Enfolded in Crimson Twilight 13:12
2. In Umbra Refugiis Luminem Exsecrari 05:02
Uuntar:
3. Zon op de boer 10:48
4. De man van Mander 07:15
******************************
Total playing time: 36:17



[more=Extended info]Heidens Hart Records is proud to add another masterpiece of traditional pagan black metal to their already rich catalogue. This split album with Evilfeast (Poland) and Uuntar (The Netherlands) features new material from both projects, which has been highly anticipated for some while, to put it mildly. The Slavonic and Germanic hordes joined forces in worship of ancestral blood and soil and 30 april 2020 finally sees the call answered with arguably both bands' strongest material yet.

Evilfeast presents two lengthy tracks, two years after the epic “Elegies of the stellar wind” album. The project is one of those rare phenomena that improves with each release and their contribution to this split is no exception. Evilfeast should be known by now since they sold thousands of records and discs as their material is kept in print due to high demand. Expect two tracks of grim pagan black metal with bombastic parts with their well-known sound and melodies.

Uuntar is a band of two veterans in the Dutch metal scene: Herjann (Cultus, Heimdalls Wacht, ex-Countess, ex-Mordaehoth) and Nortfalke (Kjeld, ex-Lugubre, Tarnkappe, Standvast). Their debut demo hit the underground out of nowhere in 2018 and sold hundreds of copies without even one single line of promotion. This is now only the second
release and the bands' own sound of both melancholic and aggressive hymns is truly coming to life here.

These two bands make a perfect pairing of truly sincere and honest traditional and folkish themed black metal. Both bands are great examples of skillful song writing, using lengthy compositions and their own unique kind of melodies. This split is easily among the best pagan black metal genre has to offer right now.

"Odes to lands of past traditions" is released worldwide on LP, CD and digitally and is a release of Heidens Hart (Europa) with worldwide distribution through distributors New Era Productions, Amor Fati Productions and Werewolf Promotion. The LP includes an inlay sheet and the CD includes a 16-page booklet, with lyrics, photos, paintings, etc.[/more]

[more=Technical info]
Input File: 01 Evilfeast - A castle enfolded in crimson twilight.mp3
Channels : 2
Sample Rate : 44100
Precision : 16-bit
Duration : 00:13:12.10 = 34931698 samples = 59407.6 CDDA sectors
File Size : 32.1M
Bit Rate : 324k
Sample Encoding: MPEG audio (layer I, II or III)
Comments :
Title=A castle enfolded in crimson twilight
Artist=Evilfeast
Album=Odes to Lands of Past Traditions
Tracknumber=1
Year=2020

[/more]

Register
(49) alikkon, Angeldemon617, autumnwood, Bzth, comradEnemy, doomTemplar, DrStan, Evilded, featb, garml2, garmonbozia, gena, Golodomor, HA7tur, Ildjarn, Infidel, infiltrator, Kazoth, kim666, Lamby90, Lanceatum, LEGION69, lordbathor, Lucju, Ludwig Hagen, Maximvs, Moonshtook, multizwilling, nemx, Occultas, randumbum, robertho777, senecazm, SilentNidhogg, Slavas, system36, Torolv, VALERY, varlam4, vasiljev_sergej, VECTOR, Vidder242, vovenom, wolverine, wtk.412, ZA670, zargonath, Абигор, Авел,
Apr 28 2020, 20:37:57 Drakonhail - La Nuit De Drakonhail [demo] (2008)
For those interested, an update here, a version with a bonus track
Drakonhail - Vieille Forêt [best of/compilation] (2006)
(8) Alexis The Best, ChaosArcana, infiltrator, kim666, KKK1488, satanist666, sethurius, thenecromancer,
Apr 28 2020, 20:35:59 Drakonhail - Vieille Forêt [best of/compilation] (2006)
CD Reissue in 2017
Eleven years after the first tape edition released by D.U.K.E, here the CD version with one bonus track from the same recording session (April 2006).

Register

mp3@CBR320kbps + scans [CD-rip]

Tracklist:
1 Les Morts Se Montrent 7:38
2 Grimm 8:45
3 Instant Nihiliste 6:02 *
4 Face Au Vide 10:49
5 Le Triomphe D'Une Nuit De Décembre 20:45
6 La Forêt D'Un Autre Lieu 9:26
******************************
Total playing time:
01:03:24
(12) Alexis The Best, ChaosArcana, INDARKNESS, kim666, Reverend, satanist666, sethurius, stub888, thenecromancer, varlam4, vasiljev_sergej, Абигор,
Apr 28 2020, 05:24:15 Drakonhail - La Nuit De Drakonhail [demo] (2008)


*Artist: Drakonhail
*Album: La Nuit De Drakonhail [demo]
*Year: 2008
*Genre: Black Metal
*Country: France
*Format: mp3@CBR320kbps
*Size: 184MB

Tracklist:
1. Derniers battements d'ailes 19:26
2. Éclats d'étoiles 12:01
3. Illuminé dans l'obscurité 10:18
4. Un sentier dans le vide 09:15
5. La nuit de Drakonhail 10:54
6. L'ombre du néant 17:12
******************************
Total playing time: 1:19:06

[more=Extended info]CD-rip + Scans

Recorded in 2006 and 2007.
Reissue on CD in 2014 limited to 500 copies.[/more]

[more=Technical info]
Input File: 03. Illuminé Dans L'obscurité.mp3
Channels : 2
Sample Rate : 44100
Precision : 16-bit
Duration : 00:10:19.11 = 27302883 samples = 46433.5 CDDA sectors
File Size : 24.8M
Bit Rate : 320k
Sample Encoding: MPEG audio (layer I, II or III)
Comments :
Title=Illuminé Dans L'obscurité
Artist=Drakonhail
Album=La Nuit De Drakonhail
Tracknumber=3/6
Year=2011
Genre=Black Metal

[/more]

Register
(31) 1968_janeart, Alexis The Best, cairn, ChaosArcana, Corpuscul, craP_cillA, Fryz, heinz88, INDARKNESS, infiltrator, kim666, KKK1488, krotovich, Moonshtook, multizwilling, Olethros, Ostinato, randumbum, satanist666, sethurius, SilentNidhogg, smysl, stub888, thenecromancer, the_cleanser, VALERY, varlam4, vasiljev_sergej, vovenom, Wolftribes, Абигор,
Apr 26 2020, 18:44:46 Drakonhail

I also have these on CDs, I'll rip them today, flac + mp3 soon
(3) ChaosArcana, gnosiis, thenecromancer,
Apr 25 2020, 20:26:02 Ofermod - Pentagrammaton (2020)
QUOTE(craP_cillA @ Apr 25 2020, 20:01:37) *
probably a youtube rip.. smile3.gif


I received this in my email earlier today, I don't think it's a youtube rip, by the way, is it possible to extract audios from youtube with this spectrum? I didn't know that hmm.gif d

Interesting that the album was already on youtube 2 months ago (Mastema), but it was deleted
(2) babanguida, infiltrator,
Apr 25 2020, 19:25:37 Count Shannäth & Waste Of Life & Pain Is A Narcotic & Necrosadik - Four Slits To Freedom [split] (2012)
Register

same properties
(2) dermarsoran, varg-38ru,
Apr 25 2020, 19:09:03 Ofermod - Pentagrammaton (2020)


*Artist: Ofermod
*Album: Pentagrammaton
*Year: 2020
*Genre: Black Metal
*Country: Sweden
*Format: mp3@CBR320kbps
*Size: 103MB

Tracklist:
1. Persisting to Die in Thee 07:13
2. Tiamtü 06:45
3. Unfolding Paradow in Final Redemption 05:19
4. The Becoming of Pentagrammaton 05:23
5. The Birth of a Man God 07:20
6. Foamborn Kytheria 04:28
7. A Likeness to Yah 08:11
******************************
Total playing time: 44:39



[more=Extended info]Pentagrammaton was recorded under miserable conditions in genuine affliction, torment and chaos above all in Necromorbus Studio anno 2005. Mixed and mastered originally & remixed and remastered in 2020 by Tore Stjerna. Track 3 written by Atum. Track 7 written by Chivah. All other tracks written by Belfagor. All lyrics written by Belfagor, except “Unfolding Paradox in Final Redemption” which was written by Moloch.

On this recording session Ofermod was:
Belfagor: Guitars
Moloch: Vocals
Tehom: Bass
Chivah: Drums

Pentagrammaton is released in honor of Belial as a product of Shadow Records in 2020, 15 years after it was recorded. All rights reserved.


SHADOW RECORDS (distributed & marketed by REGAIN RECORDS) is proud to present OFERMOD’s long-rumored Pentagrammaton on double-CD and double-LP vinyl formats.

By now, OFERMOD should require no introduction. Formed back in the dark days of 1996, the band released their debut EP, Mystérion Tés Anomias, in 1998. Although a mere two songs, OFERMOD’s opening salvo sowed the seeds for the orthodox black metal movement that would begin to blossom in the new millennium, alongside fellow SHADOW RECORDS alumni FUNERAL MIST and MALIGN. Crime and chaos followed mainman Belfagor everywhere he went, and the band’s momentum remained halted. But that EP was reissued in 2005, just as Belfagor was putting together a new lineup to at last record OFERMOD’s long-awaited debut album, the news of which he revealed in a couple interviews during that time. Mind you, this was back when information about black metal on the internet was sparse at best, and rumors and mysticism still ruled the scene…

Although the lineup Belfagor had assembled featured a number of luminaries in their early stages – Moloch of Teitanblood and also then of Proclamation on vocals, and Atum of Dödfödd and Reverorum ib Malacht also on guitar – misfortune struck OFERMOD again as Belfagor went to prison in 2006 despite work on that long-rumored debut album having been done. That lineup dissolved, and when Belfagor eventually become a free man again, he recorded 2008’s Tiamtü almost entirely himself, save for the vocals, which were handled by MALIGN’s Nord. From there, OFERMOD would continue to release equally mighty works, but the tantalizing fruits of what was intended to be the band’s full-length debut were never to be tasted…

Until now, as SHADOW RECORDS has the esteemed privilege of releasing that album, Pentagrammaton, in a suitably deluxe edition: the original recording featuring Moloch on vocals, and then a second recording feature Belfagor on vocals. Momentous to say the very least, Pentagrammaton contains all the gnarly-yet-graceful black metal glory OFERMOD perfected so early on, here distilled to arguably its most potent essence. It’s everything you’d expect from the band’s long-rumored long-form debut, and yet so much more…the obsidian gleam is almost too much to behold. Then and now, OFERMOD are eternal.

And as tempting/interesting as it’d be to speculate how the black metal scene would’ve been affected had OFERMOD released Pentagrammaton when they originally intended, allow these words from Belfagor to be the final punctuation on the matter:

"I have nothing to teach my fellow man which he cannot learn by himself. I can but smile welcomingly for each decision made by man to plunge into the depths of the infernal regions where my mind feels most at home. About the recording session of Pentagrammaton could be written stories about initiation into the ugly reality of black metal taken to the extremes where it belongs, about naive eyes being opened, about how a creative process is indeed able to take place under the most destructive of conditions. This is a recording spawned through real pain and misery, magic and mystery, and now, many years later, results in victory, as a version that pleases the participants of the recording session is finally released. I choose to stay silent about the details surrounding Pentagrammaton, and let the recording speak for itself. Fortunately, Necromorbus Studios had already decided to change their location when the shit hit the fan in the classic dungeon that Ofermod in a way so fitting for black metal took farewell from in the most Dionysian of ways. Welcome to the dungeon of darkness that is the sonic side of the recording session from Hell."[/more]

[more=Technical info]
Input File: 01 Persisting to Die in Thee.mp3
Channels : 2
Sample Rate : 44100
Precision : 16-bit
Duration : 00:07:13.08 = 19098872 samples = 32481.1 CDDA sectors
File Size : 17.3M
Bit Rate : 320k
Sample Encoding: MPEG audio (layer I, II or III)
Comments :
Title=Persisting to Die in Thee
Artist=Ofermod
Album=Pentagrammaton
Tracknumber=1
Year=2020

[/more]

Register
(76) alikkon, andivi, atavist, BERZERK, Black Cat, Brann, Bzth, cist, craP_cillA, Cyrci, Dirt_ORFEY, dvlz, El_Chibo, exorcist1969, Femto, Fess, fishish, frostdomain, fuoco, gena, hellfired, Hell_Is_Here, Henmik, HviteGuden, Ildjarn, Infidel, infiltrator, judaz, kauyumari, kim666, Lamby90, LEGION69, marilin, milosdjor, Mortuusinfernus, multizwilling, murian, nadin85, nsk2008, older68, Olethros, Ostinato, peppuzzo, randumbum, rimfrost, ripper33, robertho777, sandr666, satanist666, senecazm, SilentNidhogg, Sjelekval, smes, smysl, soulskinner681, SSWolf88, stub888, supremo, Surt, thenecromancer, tim47, Tino, VALERY, varg-38ru, varlam4, vasiljev_sergej, Vidder242, vov7609, vovenom, Wolftribes, wolverine, wtk.412, yuratroll, ZambuL, zhol, Варяг,
Apr 24 2020, 09:14:58 Blaze Of Sorrow - Absentia (2020)
Register

mp3@CBR320kbps
(7) 6666666, AlexSmith, Old Vyaine, Olethros, RUDACHUR, senecazm, Shadechaser,
Apr 21 2020, 08:09:00 Trhä - Nvenlanëg (2020)
Register

mp3@CBR320kbps
(1) 1968_janeart,
Apr 21 2020, 07:47:33 Mortuarial Avshy - Preludio A La Diabólica Frialdad Mística (2019)
Register

mp3@CBR320kbps
(1) 1968_janeart,
Apr 21 2020, 07:18:05 Pessimista - Sanidade? [ep] (2020)
Register

mp3@CBR320kbps
(1) Wolftribes,

160 Pages V   1 2 3 > » 
- Lo-Fi Version Support form
Copyrights and abuse reports form
Time is now: 2nd June 2020 - 18:07:36