Welcome Guest ( Log In | Register )

История благодарностей участнику lestllk ::: Спасибо сказали: 35105 раз(а)
Дата поста: В теме: За сообщение: Спасибо сказали:
Today, 09:15:45 Black Turmoil & Occelensbrigg - Storming The Katatonik Transgression [split] (2019)


*Artist: Black Turmoil & Occelensbrigg
*Album: Storming The Katatonik Transgression [split]
*Year: 2019
*Genre: Raw Black Metal | Black Metal
*Country: Bosnia and Herzegovina | Portugal
*Format: mp3@VBR269kbps
*Size: 55MB

Tracklist:
Occelensbrigg:
1. Blood for the Winter Soil 05:32
2. Stormming the Spear of Frost 09:10
Black Turmoil:
3. Katatonik Transgression 13:52
******************************
Total playing time: 28:34



[more=Extended info]Harvest of Death

Tape-rip by Zero[/more]

[more=Technical info]
Input File: 01 Blood For The Winter Soil.mp3
Channels : 2
Sample Rate : 44100
Precision : 16-bit
Duration : 00:05:32.46 = 14661486 samples = 24934.5 CDDA sectors
File Size : 11.8M
Bit Rate : 284k
Sample Encoding: MPEG audio (layer I, II or III)
Comments :
Title=Blood For The Winter Soil
Artist=Occelensbrigg
Album=Storming The Katatonik Transgression
Tracknumber=01/3
Year=2019
Discnumber=1/1

[/more]

Register
(1) infiltrator,
Today, 06:35:05 Monarque - Fier Hérétique (2007)
Register

mp3@CBR320kbps + scans
(1) kimkayoung,
Today, 05:57:18 Nascentum & The Proprietor - A Pact Of Initiation [split] (2019)


*Artist: Nascentum & The Proprietor
*Album: A Pact Of Initiation [split]
*Year: 2019
*Genre: Atmospheric Black Metal | Black Metal
*Country: United States | United States
*Format: mp3@CBR320kbps
*Size: 43MB

Tracklist:
Nascentum:
1. A Pale Recollection of What Once Was 04:32
2. Irreverence of the Pleurants 03:08
The Proprietor:
3. Model Prisoner in the Cloak Room 04:57
4. Remote Viewer 05:35
******************************
Total playing time: 18:12



[more=Technical info]
Input File: Nascentum - Irreverence of the Pleurants.mp3
Channels : 2
Sample Rate : 44100
Precision : 16-bit
Duration : 00:03:08.22 = 8300590 samples = 14116.6 CDDA sectors
File Size : 7.53M
Bit Rate : 320k
Sample Encoding: MPEG audio (layer I, II or III)
Comments :
Title=Irreverence of the Pleurants
Artist=Nascentum
Album=A Pact of Initiation
Tracknumber=2
Year=2019
Genre=Black metal

[/more]

Register
(1) infiltrator,
Today, 04:46:41 In Lingua Mortua - Salon Des Refusés (2010)
Register

FLAC + scans
(1) dma-09,
Today, 04:44:54 In Lingua Mortua - Bellowing Sea - Racked By Tempest (2007)
Register

mp3@CBR320kbps + scans
(1) dma-09,
Sep 19 2019, 03:17:03 Selbsttötung - Daseinsschmerz (2011)
Register

mp3@CBR320kbps
(1) 1968_janeart,
Sep 17 2019, 01:09:29 Drowning The Light - A Gleam In The Eye Of Set [ep] (2019)


*Artist: Drowning The Light
*Album: A Gleam In The Eye Of Set [ep]
*Year: 2019
*Genre: Black Metal
*Country: Australia
*Format: mp3@CBR320kbps
*Size: 48MB

Tracklist:
1. From the Waters of Primeval Chaos 01:49
2. Kharebutu the Fourfold Fiend 10:54
3. Storms of Set 02:29
4. The Abyssic Coils of Saatet-ta (Darkener of Earth) 05:23
******************************
Total playing time: 20:35



[more=Extended info]Released on CD by Dark Adversary Productions.

Drowning the Light once again returns to the tenth region of the night, ancient Egyptian darkness, and Sets mastery over the primal unrestrained shadow serpent of the night that is Apep, in this EP of Majestic, Melancholic, Vampyric & Serpentine Black Metal!

Apep/Apophis the serpent of chaos, disorder & the abyss has existed before conceptualized time, ancient and immortal having risen up from the waters of primeval chaos which preceded the creation of the cosmos.
Apophis attacks the Solar boat of Ra nightly and beholds a terrible roar which threatens to bring chaos to the cosmological prison of time and order. Apep is the Vampyric hunger and predatory instincts inherent in living beings, including to an extent the Neteru (Gods) of the Ennead. Apophis has long been identified with Set, the God of Chaos, Darkness, Storms and War, yet is the Neter which brings balance and maintains Ra by holding back the unrestrained disorder of Apep. It was only Set who could withstand the magical powers of Apophis, who nightly would attack Ra and the gods who sailed on the solar barge through the tenth region of the night. Set mastered and conquered Apep, channeling his darkness and primal chaos into temporary Order by his spear of war... Yet this cycle is eternal![/more]

[more=Technical info]
Input File: 03 Storms of Set.mp3
Channels : 2
Sample Rate : 44100
Precision : 16-bit
Duration : 00:02:31.07 = 6662363 samples = 11330.5 CDDA sectors
File Size : 6.04M
Bit Rate : 320k
Sample Encoding: MPEG audio (layer I, II or III)
Comments :
Title=Storms of Set
Artist=Drowning the Light
Album=A Gleam in the Eye of Set
Tracknumber=3
Year=2019
Genre=Black Metal

[/more]

Register
(40) 1968_janeart, ahp, Ainar, Alexis The Best, andivi, Andr, artscald, Boozer, ChaosArcana, Evgen79, gena, giger13, kim666, kkrrizzzzz, Lamby90, Ludwig Hagen, Narasimha, nemx, nikolay81, Olethros, Ostinato, peppuzzo, recber, Reverend, robertho777, Rosen, RUSP73, satanist666, SilentNidhogg, spiritualdecay666, SSWolf88, stub888, supremo, the_cleanser, VALERY, vasiljev_sergej, Vidder242, Vraithee, wolverine, Zaephar,
Sep 16 2019, 03:07:04 Antigone's Fate - Zum Horizont​.​.​. (2019)


*Artist: Antigone's Fate
*Album: Zum Horizont​.​.​.
*Year: 2019
*Genre: Atmospheric Black Metal
*Country: Germany
*Format: mp3@CBR320kbps
*Size: 123MB

Tracklist:
1. Abendstern 13:41
2. Morgengrauen 09:02
3. Herbstnacht 09:02
4. Der graue Block 21:11
******************************
Total playing time: 52:56




[more=Extended info]Northern Silence Productions

Antigone's Fate is a German solo project playing melancholic, sometimes even mournful Atmospheric Black Metal that is rich in variety, both in terms of musical expression as well as emotions it evokes.

Continuing where the debut album "Insomnia" left off, yet easily topping its already very good predecessor, the second album "Zum Horizont..." is a brilliantly captivating work, deeply emotional and masterfully executed.

releases September 20, 2019[/more]

[more=Technical info]
Input File: 02 Morgengrauen.mp3
Channels : 2
Sample Rate : 44100
Precision : 16-bit
Duration : 00:09:03.09 = 23950225 samples = 40731.7 CDDA sectors
File Size : 21.7M
Bit Rate : 320k
Sample Encoding: MPEG audio (layer I, II or III)
Comments :
Title=Morgengrauen
Artist=Antigone's Fate
Album=Zum Horizont​.​.​.
Tracknumber=2
Year=2019

[/more]

Register
(23) 1968_janeart, ahp, alikkon, artscald, fallen, infiltrator, kalmametallinen, Kalnasra, kim666, Ludwig Hagen, nemx, Olethros, Ostinato, randumbum, robertho777, Rosen, Rover, senecazm, SilentNidhogg, stub888, tOmV, VALERY, vasiljev_sergej,
Sep 16 2019, 00:31:51 Pagan Moon - Arcane Solitude [demo] (2019)


*Artist: Pagan Moon
*Album: Arcane Solitude [demo]
*Year: 2019
*Genre: Black Metal
*Country: United States
*Format: mp3@VBR269kbps
*Size: 40MB

Tracklist:
1. Arcane Solitude 06:36
2. To Cast a Pagan Spell 05:27
3. A Mountain, a Throne / Outro 08:09
******************************
Total playing time: 20:12



[more=Extended info]KNIFE VISION

Tape-rip by Zero[/more]

[more=Technical info]
Input File: 02 To Cast A Pagan Spell.mp3
Channels : 2
Sample Rate : 44100
Precision : 16-bit
Duration : 00:05:24.28 = 14300924 samples = 24321.3 CDDA sectors
File Size : 11.0M
Bit Rate : 272k
Sample Encoding: MPEG audio (layer I, II or III)
Comments :
Title=To Cast A Pagan Spell
Artist=Pagan Moon
Album=Arcane Solitude
Tracknumber=2/3
Year=2019
Discnumber=1/1

[/more]

Register
(14) 1968_janeart, artscald, infiltrator, Kalnasra, kim666, LVXXVL, Olethros, Ostinato, randumbum, Rosen, SilentNidhogg, stub888, thenecromancer, vasiljev_sergej,
Sep 16 2019, 00:12:14 Avgrunn - Demo 1 : Offer Til Den Urgamle [demo] (2019)


*Artist: Avgrunn
*Album: Demo 1 : Offer Til Den Urgamle [demo]
*Year: 2019
*Genre: Black Metal
*Country: Unknown
*Format: mp3@VBR256kbps
*Size: 48MB

Tracklist:
1. Fordervet 08:35
2. Oppstandelse 06:21
3. Selvmord 05:51
4. Untitled 05:19
******************************
Total playing time: 26:06



[more=Extended info]KNIFE VISION

Tape-rip by Zero[/more]

[more=Technical info]
Input File: 04 Untitled.mp3
Channels : 2
Sample Rate : 44100
Precision : 16-bit
Duration : 00:05:19.61 = 14094713 samples = 23970.6 CDDA sectors
File Size : 10.8M
Bit Rate : 269k
Sample Encoding: MPEG audio (layer I, II or III)
Comments :
Title=Untitled
Artist=Avgrunn
Album=Demo 1 : Offer Til Den Urgamle
Tracknumber=04/4
Year=2019
Discnumber=1/1

[/more]

Register
(15) 1968_janeart, ahp, artscald, infiltrator, Kalnasra, kim666, Ludwig Hagen, Olethros, Ostinato, Rosen, satanist666, SilentNidhogg, stub888, SyncestrA, vasiljev_sergej,
Sep 15 2019, 23:58:43 Acousmatic Hate - United Under Antipathy (A Flag Drenched In Blood) [demo] (2019)


*Artist: Acousmatic Hate
*Album: United Under Antipathy (A Flag Drenched In Blood) [demo]
*Year: 2019
*Genre: Black Metal/Punk
*Country: United States
*Format: mp3@CBR320kbps
*Size: 37MB

Tracklist:
1. A Flag Drenched in Blood 01:16
2. In Battlefields of Hunger... 02:14
3. Heavy Metal Head Split 01:50
4. United Under Antipathy 04:44
5. Darkness Falls upon Our Lands 05:36
******************************
Total playing time: 15:40



[more=Extended info]Knife Vision[/more]

[more=Technical info]
Input File: 03 Heavy Metal Head Split.mp3
Channels : 2
Sample Rate : 44100
Precision : 16-bit
Duration : 00:01:50.46 = 4871066 samples = 8284.13 CDDA sectors
File Size : 4.57M
Bit Rate : 331k
Sample Encoding: MPEG audio (layer I, II or III)
Comments :
Title=Heavy Metal Head Split
Artist=Acousmatic Hate
Album=United Under Antipathy (A Flag Drenched In Blood)
Tracknumber=03
Year=2019
Genre=Black Metal/Punk

[/more]

Register
(9) 1968_janeart, artscald, infiltrator, Ludwig Hagen, Olethros, Ostinato, Rosen, stub888, vasiljev_sergej,
Sep 15 2019, 23:48:39 Gower - Manifestations 2005-2009 [compilation] (2019)


*Artist: Gower
*Album: Manifestations 2005-2009 [compilation]
*Year: 2019
*Genre: Black Metal
*Country: United States
*Format: mp3@VBR260kbps
*Size: 60MB

Tracklist:
1. Blaze of the Elder Race 03:36
2. Intro 02:15
3. Wolves upon Aryan Lands 06:16
4. Battle Rites of the Black Age 04:53
5. Shores of Bloodshed 06:48
6. Outro 02:08
7. The Shamble of Epitomes 05:44
******************************
Total playing time: 31:40



[more=Extended info]KNIFE VISION

Tape-rip by Zero[/more]

[more=Technical info]
Input File: 01 Blaze Of The Elder Race.mp3
Channels : 2
Sample Rate : 44100
Precision : 16-bit
Duration : 00:03:33.39 = 9410675 samples = 16004.5 CDDA sectors
File Size : 7.65M
Bit Rate : 287k
Sample Encoding: MPEG audio (layer I, II or III)
Comments :
Title=Blaze Of The Elder Race
Artist=Gower
Album=Manifestations 2005-2009
Tracknumber=01/7
Year=2019
Discnumber=1/1

[/more]

Register
(14) 1968_janeart, ahp, artscald, epica93, infiltrator, Kalnasra, kim666, Olethros, Ostinato, robertho777, Rosen, stub888, VALERY, vasiljev_sergej,
Sep 15 2019, 08:35:39 Black Cilice - Transfixion Of Spirits (2019)


*Artist: Black Cilice
*Album: Transfixion Of Spirits
*Year: 2019
*Genre: Raw Black Metal
*Country: Portugal
*Format: mp3@CBR320kbps
*Size: 85MB

Tracklist:
1. Darkness and Fog 10:07
2. Maze of Spirits 07:26
3. Outerbody Incarnation 07:56
4. Revelations 11:01
******************************
Total playing time: 36:30



[more=Extended info]IRON BONEHEAD PRODUCTIONS is proud to present BLACK CILICE's highly anticipated fifth album, Transfixion of Spirits, on CD, vinyl LP, and cassette tape formats.

By now, BLACK CILICE should need no introduction. For at least a decade (or perhaps longer), this ever-shadowy Portuguese enigma has built a monolithic body of work that has come to define and also defy the modern raw black metal idiom. And while he's gained a surprising amount of traction with a wide variety of listeners thanks to his most recent two albums with IRON BONEHEAD, 2015's Mysteries and 2017's Banished From Time, BLACK CILICE's vision has remained forever resolute.

In 2019, that vision - idiosyncratic, insatiable, intractable - is more resolute than ever. Witness the aptly titled Transfixion of Spirits. Once again, BLACK CILICE wields sound as its own weapon, but in a daresay elegant manner seemingly at odds with the stratifying frequencies that bombard and blanket the listener. Indeed, this is in-the-red rawness to a superlative degree, surging second-wave black metal to the bone, but underneath those layers of filth 'n' fatalism lies a melancholic majesty that's truly a splendor to behold. And whereas the preceding Banished From Time (intentionally) broke from the mold and portrayed a thicker, more strident violence, here on Transfixion of Spirits does BLACK CILICE fittingly find a more spectral expression: no less hysteric or harrowing, its melodic misery springs forth like a geyser of grey, oppressive in its omnipresence and older than many generations of black metal itself.

Above all, BLACK CILICE proves once again that "purism" need not be shorthand for a dearth of ideas: he twists the anachronisms of classic black metal into ageless, endlessly spellbinding forms, each undulating wave lapping back against the other to utterly hypnotizing effect. Entrance thyself to this Transifixion of Spirits.[/more]

[more=Technical info]
Input File: 02 Maze of Spirits.mp3
Channels : 2
Sample Rate : 44100
Precision : 16-bit
Duration : 00:07:25.10 = 19628822 samples = 33382.4 CDDA sectors
File Size : 17.8M
Bit Rate : 320k
Sample Encoding: MPEG audio (layer I, II or III)
Comments :
Title=Maze of Spirits
Artist=Black Cilice
Album=Transfixion of Spirits
Tracknumber=2
Year=2019

[/more]

Register
(42) -=Hass=-, 1968_janeart, acerbus, Alexis The Best, ambre, artscald, atavist, Beazth, bloodwind, Boozer, cielakk, comradEnemy, DarkHorde, El_Chibo, FlammenTod666, FUDEDOR, gena, infiltrator, Kalnasra, kim666, kkrrizzzzz, LEGION69, LVXXVL, mondblut, nadin85, nemx, Ostinato, Pinhead666, Rosen, Rover, satanist666, sethurius, SilentNidhogg, stub888, the_cleanser, Tino, VALERY, vasiljev_sergej, Velmi, Winter Funeral, wtk.412, Авел,
Sep 15 2019, 01:09:57 Ifernach - Skin Stone Blood Bone (2019)
A reader wrote on my blog, where I shared this release. ''Haha, this is the rip that i did with my boombox plugged into the back of my computer with an Aux cable. I have since then made a much better copy, with louder volume and clearer audio...''

Here is the upload link for the better version that he made,
Register

sounds much better indeed
(3) garmonbozia, nemx, Razorbladeswaltz,
Sep 14 2019, 23:55:08 Belenos - Argoat (2019)


*Artist: Belenos
*Album: Argoat
*Year: 2019
*Genre: Black Metal
*Country: France
*Format: mp3@CBR320kbps
*Size: 123MB

Tracklist:
1. Karvden 05:42
2. Bleizken 05:35
3. Argoat 05:09
4. Nozweler 06:12
5. Huelgoat 07:00
6. Dishualder 06:40
7. Duadenn 06:45
8. Steuziadur 07:20
9. Arvestal 02:36
******************************
Total playing time: 52:59



[more=Extended info]Three years after "Kornog", an album dealing with the water element of Breton's sea legends, "Argoat", which means something like "land of the woods", continues where its predecessor left off and focuses on the earth element - mainly local mystic forests, wild animals and Celtic gods. It is again sung in Breton. "Arvestal" is a metal interpretation of a John Barry song (The Persuaders - 1971).

releases September 20, 2019

Argoat was recorded between November 2018 and May 2019, as usual in an old school home studio[/more]

[more=Technical info]
Input File: 06 Dishualder.mp3
Channels : 2
Sample Rate : 44100
Precision : 16-bit
Duration : 00:06:39.09 = 17600045 samples = 29932 CDDA sectors
File Size : 16.0M
Bit Rate : 320k
Sample Encoding: MPEG audio (layer I, II or III)
Comments :
Title=Dishualder
Artist=Belenos
Album=Argoat
Tracknumber=6
Year=2019

[/more]

Register
(66) 1968_janeart, ahp, alikkon, arkaik, artscald, atavist, Beazth, BERZERK, Black Cat, cancer1974, DarkHorde, dasreichss, demonosz, Dmitry1977, Druidir, Fess, igore2911, Indamage, infiltrator, judaz, Kazoth, kim666, kimkayoung, Korpse, LEGION69, lucifix, metaljosue, MikkeFFF, MMMMM, NachtWulf, nadin85, nat, nemx, neoatheist, Nerevar, older68, Olethros, Ostinato, Paradayz, Radek, randumbum, Reverend, ripper33, robertho777, Rosen, Rover, sethurius, SilentNidhogg, skogtroll, squall8fr, stub888, supremo, suseka, Taragorm, thenecromancer, tim47, toly1917, tOmV, undeadlich, VALERY, vasiljev_sergej, yuratroll, ZA670, ZambuL, zotyo1975, Авел,
Sep 14 2019, 23:11:23 Regnans - Disdain For Humanity (2019)


*Artist: Regnans
*Album: Disdain For Humanity
*Year: 2019
*Genre: Raw Black Metal
*Country: Australia
*Format: mp3@CBR320kbps
*Size: 81MB

Tracklist:
1. Disdain for Humanity 08:01
2. Existence has come to an End 04:46
3. Internal Hatred 05:28
4. Mountain Ash 04:47
5. Slay thy Enemy 03:28
6. There goes My World 03:27
7. You're not welcome here 04:36
******************************
Total playing time: 34:33

[more=Extended info]Dark Adversary Productions

"Disdain for Humanity" is the second full length album from the Australian underground entity known as Regnans, the solo work of the dark mind who is also known for his vocals in Moon Labyrinth.
For many years this album lay dormant, only now unfurling its darkness upon the earth.
Melancholic & Apocalyptic Raw Black Metal against the modern world.

Raw melancholic Black Metal majesty![/more]

[more=Technical info]
Input File: 06 There goes My World.mp3
Channels : 2
Sample Rate : 44100
Precision : 16-bit
Duration : 00:03:27.08 = 9132404 samples = 15531.3 CDDA sectors
File Size : 8.28M
Bit Rate : 320k
Sample Encoding: MPEG audio (layer I, II or III)
Comments :
Title=There goes My World
Artist=Regnans
Album=Disdain for Humanity
Tracknumber=6
Year=2019

[/more]

Register
(13) 1968_janeart, artscald, atavist, infiltrator, Kalnasra, kim666, Olethros, Ostinato, Rosen, SilentNidhogg, stub888, VALERY, vasiljev_sergej,
Sep 14 2019, 22:17:09 Arctos - Beyond The Grasp Of Mortal Hands (2019)


*Artist: Arctos
*Album: Beyond The Grasp Of Mortal Hands
*Year: 2019
*Genre: Melodic Black Metal
*Country: Canada
*Format: mp3@CBR320kbps
*Size: 112MB

Tracklist:
1. The Ancestor’s Path 10:43
2. Shattered Tomb 06:33
3. Somnos Aeternus 07:43
4. The Spectre 01:17
5. Autumn’s Herald… Interitus 08:24
6. A Realm Beyond 05:44
7. The Light Beyond the Sky (The Passage II) 07:32
******************************
Total playing time: 47:56



[more=Extended info]Northern Silence Productions


Arctos is the voice of the mountains, the call of the rising wild.

Inspired by the Godless wastelands of Northern Alberta as well as the jagged monoliths of the Canadian Rockies, Arctos brings together a unique blend of sounds to craft a form of Black Metal rife with atmosphere and melody. Formed in 2014 by a group of veteran musicians, Arctos is well steeped in musical tradition.

With the 2017 release of their debut EP “A Spire Silent”, Arctos stepped into the light after almost three years of writing in secret. Arctos was finally unleashed upon the public and laid waste with their brand of savage Northern Black Metal

In September 2019, after years of successful shows and touring across Western Canada, Arctos finally release their debut full length “Beyond the Grasp of Mortal Hands” and continue to set their sights ever higher.

releases September 20, 2019[/more]

[more=Technical info]
Input File: 06 A Realm Beyond.mp3
Channels : 2
Sample Rate : 44100
Precision : 16-bit
Duration : 00:05:44.08 = 15173796 samples = 25805.8 CDDA sectors
File Size : 13.8M
Bit Rate : 320k
Sample Encoding: MPEG audio (layer I, II or III)
Comments :
Title=A Realm Beyond
Artist=Arctos
Album=Beyond the Grasp of Mortal Hands
Tracknumber=6
Year=2019

[/more]

Register
(40) 1968_janeart, ahp, alikkon, artscald, BugEyes, dulak, fallen, infiltrator, ironyserg, Kalnasra, kim666, kiol1, Korpse, LordOvDarkness, metala, metalwoman, MMMMM, Moonshtook, Olethros, Olrak, orgondnor, Ostinato, postal67, Reverend, robertho777, Rosen, Rover, russ777, Sanctus, sergsazan, Shadechaser, suseka, talismanFS, TeamatSE, tOmV, VALERY, vasiljev_sergej, zhol, Луч, Сварог Барг,
Sep 14 2019, 04:20:03 Kostnatění - Konec Je Všude [demo] (2018)
Kostnatění - Konec Je Všude [demo] (2018)

this has been posted here before
(3) luxxul, Olethros, thenecromancer,
Sep 14 2019, 01:03:02 Goatmoon & Bizarre Uproar - Vaskivittu [split] (2019)
Register
(3) Alexis The Best, rimfrost, supremo,
Sep 11 2019, 00:09:32 Haunter - Sacramental Death Qualia (2019)


*Artist: Haunter
*Album: Sacramental Death Qualia
*Year: 2019
*Genre: Black Metal
*Country: United States
*Format: mp3@CBR320kbps
*Size: 107MB

Tracklist:
1. Dispossessed Phrenic Antiquity 09:28
2. Spoils Vultured upon Sole Deletion 09:52
3. Abdication 07:43
4. Subversion of a Heathen Tongue 07:09
5. Sacramental Death Qualia 12:02
******************************
Total playing time: 46:14



[more=Extended info]I, Voidhanger Records

Based in Texas and active since 2013, HAUNTER have diligently permeated their way into the metal underground due to their intense live activity and body of work. Their releases include the acclaimed full-length debut, “Thrinodίa” (2016) and splits with Crawl, Sovereign and Black Vice. Indomitable with a maturity, aggression and complexity, “Sacramental Death Qualia” is the expected step forward in terms of both expressivity and personality. This release is going to impose them on the same audience of bands like Gorguts, Immolation and early Opeth: bands that become reminiscent throughout the album.

Mastered by Brendan Sloan (Convulsing), “Sacramental Death Qualia” is a true experience of conscience's awakening; a progressive album where the unrelenting violence of death metal and the obscurity of black metal are sewn together by mind-bending, complex arrangements that are the epitome of change. HAUNTER's compositions constantly morph and evolve with never ending creativity, chasing forms at the same time ferocious and elegant, destructive and gentle. Acoustic passages of ethereal beauty, where delicate guitars draw melancholic and autumnal melodies counterbalance the band's untamable fury during the most frenetic moments.

Elijah Tamu's (Abyssal, Temple Nightside, Panegyrist) visionary cover painting enriches an album of great emotional power that impacts the eyes with the same intensity as “Sacramental Death Qualia.”


Bradley Tiffin - Guitar, Bass, Keys, Vocals
Enrique Bonilla - Guitar
Mark Cruz - Drums

Enrique Bonilla and Bradley Tiffin - Lyrics

Wesley Powers - Drum Production
Bradley Tiffin - Producer, Mixing
Brendan Sloan - Mastering
Elijah Tamu - Cover Artwork
Oscar Moreno - Photography
Simon Santana - Artwork
Clutching Sanity - Artwork
Abriel Carpio - Artwork
Francesco Gemelli - Art Direction and Layout[/more]

[more=Technical info]
Input File: 04 Subversion of a Heathen Tongue.mp3
Channels : 2
Sample Rate : 44100
Precision : 16-bit
Duration : 00:07:09.09 = 18922649 samples = 32181.4 CDDA sectors
File Size : 17.2M
Bit Rate : 320k
Sample Encoding: MPEG audio (layer I, II or III)
Comments :
Title=Subversion of a Heathen Tongue
Artist=Haunter
Album=Sacramental Death Qualia
Tracknumber=4
Year=2019

[/more]

Register
(23) artscald, atavist, BandR75, Doooomed, El_Chibo, Evgen79, fuoco, infiltrator, Kehl05, LordOvDarkness, metaljosue, Olethros, Ostinato, robertho777, Rosen, sagamore_BR, SilentNidhogg, suseka, tim47, toly1917, VALERY, vasiljev_sergej, yuratroll,
Sep 8 2019, 22:54:19 Molog - Tri (2019)
Register
(4) 1968_janeart, Evgen79, infiltrator, smysl,
Sep 4 2019, 23:47:13 Reign In Blood - Missa Pro Defunctis (2019)


*Artist: Reign In Blood
*Album: Missa Pro Defunctis
*Year: 2019
*Genre: Black Metal
*Country: Germany
*Format: mp3@CBR320kbps
*Size: 98MB

Tracklist:
1. Invoke the Shapeless Ones 01:12
2. Dawn of a Dying Soul 04:30
3. Black Hole 04:46
4. Metamorphose with the Universe 06:52
5. Missa pro Defunctis 05:58
6. Domus Mortuorum 05:52
7. Anima 05:29
8. Wolfhour 06:06
9. Into Nothingness 01:25
******************************
Total playing time: 42:10



[more=Extended info]IRON BONEHEAD PRODUCTIONS is proud to present REIGN IN BLOOD's long-awaited comeback album, Missa Pro Defunctis, on CD and vinyl LP format.

Staunchly German, REIGN IN BLOOD formed in Saxony in the dark days of 2004. Largely steered by founding vocalist/guitarist Demon Raise and drummer Athanasius, the band soon assaulted the black metal underground with a demo, a split, and an EP, all between 2006-2007. Then, in 2009, came REIGN IN BLOOD's cult debut album, Diabolical Katharsis, and they then seemingly receded into the shadows, as violently as they originally burst forth from them.

Athanassius and bassist Asuras left REIGN IN BLOOD to focus on their own projects, and Demon Raise was unable to celebrate the band like in the early days because of personality reasons. Demon Raise and fellow guitarist Deus made a decision to put the band on ice for an indefinite time - but the impulse to create music again never died. And so, at the end of 2016, REIGN IN BLOOD began rehearsing again. In short time, it was clear that a new album must be made.

Alas, longtime fans IRON BONEHEAD are honored to hoist the banners of REIGN IN BLOOD's surprise comeback with the LONG-awaited second album, Missa Pro Defunctis. Truly "old-soul black metal," there is nothing trendy nor nice about REIGN IN BLOOD's attack here: featuring both ultraviolence and melody, hammering primitivism and fleet-footed complexity, haunting atmospheres and dizzying delirium, Missa Pro Defunctis is an album of stark contrasts that somehow is threaded together with the most elusive 'n' sulfurous magick.

Fittingly recorded at Old Spirit Studio with mixing & mastering courtesy of the esteemed Patrick Engel at Temple of Disharmony, REIGN IN BLOOD's return also elusively locates a soundfield that's both rudely raw and clear, cutting, and nuanced in a disarmingly professional manner - again, further underlining how elusive and sulfurous these Germans' magick is. Indeed, this is defiant German black metal that could've been released at the dawn of the new millennium, when the BM underground was still a dangerous entity, and here are REIGN IN BLOOD to regain their rightful throne. All hail!

current REIGN IN BLOOD lineup
Demon Raise - vocals / strings
Malus Deus - lead strings / bass[/more]

[more=Technical info]
Input File: 02 Dawn of a Dying Soul.mp3
Channels : 2
Sample Rate : 44100
Precision : 16-bit
Duration : 00:04:30.07 = 11909999 samples = 20255.1 CDDA sectors
File Size : 10.8M
Bit Rate : 320k
Sample Encoding: MPEG audio (layer I, II or III)
Comments :
Title=Dawn of a Dying Soul
Artist=Reign In Blood
Album=Missa Pro Defunctis
Tracknumber=2
Year=2019

[/more]

Register
(19) 1968_janeart, artscald, atavist, Beazth, BladeOvDarkness, Boozer, FlammenTod666, Hell_Is_Here, Indamage, Olethros, Ostinato, robertho777, Rosen, sandr666, SilentNidhogg, stub888, VALERY, vasiljev_sergej, vov7609,
Sep 4 2019, 22:58:11 Nocturnes Mist - Marquis Of Hell (2019)


*Artist: Nocturnes Mist
*Album: Marquis Of Hell
*Year: 2019
*Genre: Black Metal
*Country: Australia
*Format: mp3@CBR320kbps
*Size: 88MB

Tracklist:
1. Abyssus 01:48
2. Eyes in Fear 05:40
3. Cursed 04:07
4. War Machine 03:10
5. Wolves of Satan 06:33
6. Marquis of Hell 04:42
7. Summoning 04:42
8. Treacherous Ways 06:47
******************************
Total playing time: 37:29



[more=Extended info]Séance Records[/more]

[more=Technical info]
Input File: 07 Summoning.mp3
Channels : 2
Sample Rate : 44100
Precision : 16-bit
Duration : 00:04:43.08 = 12483740 samples = 21230.9 CDDA sectors
File Size : 11.3M
Bit Rate : 320k
Sample Encoding: MPEG audio (layer I, II or III)
Comments :
Title=Summoning
Artist=Nocturnes Mist
Album=Marquis of Hell
Tracknumber=7
Year=2019
Genre=Black Metal

[/more]

Register
(17) 1968_janeart, andivi, artscald, atavist, Boozer, DarkHorde, Hell_Is_Here, kim666, LEGION69, Olethros, robertho777, Rosen, SilentNidhogg, stub888, suseka, VALERY, vasiljev_sergej,
Sep 4 2019, 16:56:12 The Intercrural Rigor Mortis - Demo Mmxix [demo] (2019)


*Artist: The Intercrural Rigor Mortis
*Album: Demo Mmxix [demo]
*Year: 2019
*Genre: Raw Black Metal
*Country: Unknown
*Format: mp3@CBR320kbps
*Size: 31MB

Tracklist:
1. Forgotten Desires Come Alive Once Again
2. Night Of His Ultimate Prowess
******************************
Total playing time: 9:18

[more=Extended info]Tape-rip + Scans

by toooooomb[/more]

[more=Technical info]
Input File: 02. Night of His Ultimate Prowess.mp3
Channels : 1
Sample Rate : 48000
Precision : 16-bit
Duration : 00:04:10.73 = 12034944 samples ~ 18804.6 CDDA sectors
File Size : 10.0M
Bit Rate : 320k
Sample Encoding: MPEG audio (layer I, II or III)
Comments :
Title=Night of His Ultimate Prowess
Artist=The Intercrural Rigor Mortis
Album=Demo MMXIX
Tracknumber=2/2
Year=2019
Genre=Black Metal

[/more]

Register
(8) 1968_janeart, artscald, FUDEDOR, Hell_Is_Here, Olethros, Rosen, stub888, vasiljev_sergej,
Sep 4 2019, 16:45:22 Alpgeist - Woid Mythen [demo] (2019)


*Artist: Alpgeist
*Album: Woid Mythen [demo]
*Year: 2019
*Genre: Atmospheric Black Metal
*Country: Germany
*Format: mp3@CBR320kbps
*Size: 37MB

Tracklist:
1. Teufelsfelsen der Donau 05:13
2. Moor in der Todtenau 05:17
3. Im Woid dahoam 05:24
******************************
Total playing time: 15:54

[more=Extended info]Black Blood Records

Lineup
Grond Drums
See also: Amystery, Lost Life, Oscult, Thorngoth, ex-Schrat (live)

Grant Guitars, Bass, Keyboards

Krámpn Vocals
See also: Drudensang, Winterreich, ex-Ravnsvart, ex-Schrat (live)[/more]

[more=Technical info]
Input File: 01. Teufelsfelsen der Donau.mp3
Channels : 2
Sample Rate : 44100
Precision : 16-bit
Duration : 00:05:12.08 = 13762552 samples = 23405.7 CDDA sectors
File Size : 12.5M
Bit Rate : 320k
Sample Encoding: MPEG audio (layer I, II or III)
Comments :
Title=Teufelsfelsen der Donau
Artist=Alpgeist
Album=Woid Mythen
Tracknumber=1
Year=2019

[/more]

Register
(13) 1968_janeart, artscald, craP_cillA, kim666, krotovich, Olethros, Ostinato, robertho777, Rosen, SilentNidhogg, stub888, vasiljev_sergej, zargonath,

140 Pages V   1 2 3 > » 
- Lo-Fi Version Support form
Copyrights and abuse reports form
Time is now: 21st September 2019 - 16:05:03