Welcome Guest ( Log In | Register )

История благодарностей участнику lestllk ::: Спасибо сказали: 41310 раз(а)
Дата поста: В теме: За сообщение: Спасибо сказали:
Today, 01:01:13 T.O.M.B. - Thin The Veil (2020)
Register

mp3@CBR320kbps
(1) 1968_janeart,
Yesterday, 23:10:07 Snorlax - II [ep] (2020)
Register

mp3@CBR320kbps
(1) Sanctus,
Yesterday, 00:46:28 Sad & Domos - Guided By The Chants From The Other Side [split] (2017)


*Artist: Sad & Domos
*Album: Guided By The Chants From The Other Side [split]
*Year: 2017
*Genre: Black Metal | Black Metal
*Country: Greece | Colombia
*Format: mp3@CBR320kbps
*Size: 116MB

Tracklist:
Sad:
1. The Rape of Innocence 07:58
2. To Flee from Mundane Thoughts 06:57
3. Impious 06:52
4. Old Wounds 06:25
Domos:
5. A Prophecy, A Mystical Road 04:38
6. Portal of Etherial Whispers 04:13
7. Eternal Damnation 05:49
8. Blood Sacrifice 07:46
******************************
Total playing time: 50:38

[more=Extended info]Metal Throne Productions


Sad : All music, arrangements, and instruments by Ungod. All lyrics and vocals by Nadir.

Domos : All music composed by Domos Aidaou. All lyrics by Abdul, except track 7 by Domos Aidaou.

Recording information:

Sad : Recorded at Unholy studio during June-July 2017. Mixed and mastered by Nekys.

Domos : Recorded in April 2017 at rocka studio.[/more]

[more=Technical info]
Input File: 05. Domos - A Prophecy, A Mystical Road.mp3
Channels : 2
Sample Rate : 44100
Precision : 16-bit
Duration : 00:04:38.09 = 12263681 samples = 20856.6 CDDA sectors
File Size : 11.1M
Bit Rate : 320k
Sample Encoding: MPEG audio (layer I, II or III)
Comments :
Title=A Prophecy, A Mystical Road
Artist=Domos
Album=Guided by the Chants from the Other Side
Tracknumber=5
Year=2017

[/more]

Register
(25) -=Hass=-, 1968_janeart, andeimon, andivi, ASkyThatBurns, dasreichss, Evgen79, Frozenkult, Grev, igore2911, Ildjarn, infiltrator, ji_indur, Maximvs, Moonshtook, Ostinato, rammmirez, rickzammuto, Rita, Rosen, RUSP73, SaintVitus, satanist666, vasiljev_sergej, vovenom,
Jan 25 2020, 22:26:34 Grógaldr - Illness Unto The Womb Of Spirit (2020)


*Artist: Grógaldr
*Album: Illness Unto The Womb Of Spirit
*Year: 2020
*Genre: Black Metal
*Country: United States
*Format: mp3@CBR320kbps
*Size: 95MB

Tracklist:
1. - 01:42
2. Morning Star Possession 09:00
3. Ein Sof - Beheading the Highest Order 09:18
4. Osseous Rapture 05:49
5. Ritus Tabernaculum 06:40
6. Weeping Fog of Vengeance 07:18
******************************
Total playing time: 39:47



[more=Extended info]Debut full length album from Grógaldr, "Illness Unto the Womb of Spirit".

Released on Cassette through Perverse Homage.
Coming soon on LP and CD from GoatowaRex.[/more]

[more=Technical info]
Input File: Grógaldr - Illness Unto the Womb of Spirit - 04 Osseous Rapture.mp3
Channels : 2
Sample Rate : 44100
Precision : 16-bit
Duration : 00:05:49.88 = 15429576 samples = 26240.8 CDDA sectors
File Size : 14.1M
Bit Rate : 323k
Sample Encoding: MPEG audio (layer I, II or III)
Comments :
Title=Osseous Rapture
Artist=Grógaldr
Album=Illness Unto the Womb of Spirit
Tracknumber=4
Year=2020

[/more]

Register
(24) 1968_janeart, AlexSmith, alikkon, ASkyThatBurns, atavist, garmonbozia, Grev, infiltrator, judaz, murian, nemx, NOMIDIMON, Occultas, Olethros, Ostinato, Rosen, satanist666, stub888, suseka, VALERY, vasiljev_sergej, Velmi, Vidder242, vovenom,
Jan 23 2020, 16:28:19 Apokryphon - Subterra (2020)


*Artist: Apokryphon
*Album: Subterra
*Year: 2020
*Genre: Progressive Black Metal
*Country: Switzerland
*Format: mp3@CBR320kbps
*Size: 140MB

Tracklist:
1. Evangelion of the Serpent
2. The Naasene Psalm
3. Sand Ghosts
4. The Great Ignorance
5. Anthropos
6. Nag Hammadi
7. Taxidermia
8. Subterra (bonus track)
******************************
Total playing time: 1:00:28



[more=Extended info]Apokryphon is the new project by Zorgh, Darkspace founding member and bassist. This new band has nothing to do with Darkspace, hence it would be inappropriate to make any kind of comparison between the two. Quite the opposite, after twenty years crafting a certain kind of music (and a certain kind of black metal), the Bern-based musician wanted to explore something different, and this is why you should expect a totally distant approach to both themes and sounds. The multi-instrumentalist even chose a new alias for herself, here going by the name of Ophis.

We asked Ophis herself to express her thoughts about this new adventure she embarked on, which you can read hereunder: Apokryphon literally means "hidden" or "dark" and refers to the apocrypha, old esoteric scriptures written by a variety of people that were either actively hidden or controversial and therefore excluded from public viewing or biblical content, for example. Many of them were found to be heretical, some were related to gnosticism. Many of them were written in the geographical area of the Middle East about 2000 years ago. ”Subterra" thematically relates to themes treated in the apocrypha. Musically, it is rooted in black metal, decorated with oriental spices. It is an expression of my own personal and musical identity and themes that touch me generally. I have chosen to liberally interpret both apocryphal texts and black metal in my very own way. And with "Djinn" I have found the perfect voice to interpret most of the vocal aspects.

After more than a decade of cooperation, at Avantgarde Music we have the utmost respect for the Swiss trio, and when one of the few women in the black metal world expressed her wish to produce an (almost) solo album we knew we wanted to give her our full support before even hearing a single note. Once we had Subterra in our hands, we were but proven right.

We hope you’ll find Apokryphon as interesteing as fascinating as we did. Subterra is scheduled for release on the 14th of February, 2020.[/more]

[more=Technical info]
Input File: 03 Sand Ghosts.mp3
Channels : 2
Sample Rate : 44100
Precision : 16-bit
Duration : 00:04:54.08 = 12968752 samples = 22055.7 CDDA sectors
File Size : 11.8M
Bit Rate : 320k
Sample Encoding: MPEG audio (layer I, II or III)
Comments :
Title=Sand Ghosts
Artist=Apokryphon
Album=Subterra
Tracknumber=3
Year=2020

[/more]

Register
(33) 1968_janeart, atavist, BERZERK, cesar, craP_cillA, Evilded, Foneg, Fryz, fuoco, gena, infiltrator, Korpse, LEGION69, metala, Moonlover, morbidangelo, Morgoth, multizwilling, Occultas, Olethros, Ostinato, peppuzzo, ripper33, robertho777, Rosen, satanist666, SilentNidhogg, tim47, tOmV, varlam4, vasiljev_sergej, yuratroll, дивин,
Jan 20 2020, 16:44:06 Dzö-nga - Thunder In The Mountains (2020)


*Artist: Dzö-nga
*Album: Thunder In The Mountains
*Year: 2020
*Genre: Atmospheric Black Metal
*Country: United States
*Format: mp3@CBR320kbps
*Size: 108MB

Tracklist:
1. The Song of Hiawatha 10:49
2. Heart of Coal 07:26
3. Flames in the Sky 05:03
4. A Soul to Burn 07:46
5. Starlight, Moonlight Firelight 04:15
6. The Death of Minnehaha 11:24
******************************
Total playing time: 46:43



[more=Extended info]Avantgarde Music

After the successful Avantgarde Music debut with their sophomore album The Sachem’s Tales (2017) and the subsequent repress of the debut Five Treasures Of Snow (2016), Dzö-nga is now back from the native lands with a new full-length studio album.
Thunder In The Mountains has been in the making for almost three long years, a time during which mastermind and multi-instrumentalist Cryvas focused on songcrafting and adapting literature into music. When asked to disclose some relevant details about Dzö-nga new opus, Cryvas explained: “Thunder In The Mountains is based on H. W. Longfellow’s epic poem The Song of Hiawatha, a landmark literary work which collected much of the folklore of the Ojibwe peoples. We sincerely hope that our music helps to illustrate these classic stories with respect and admiration, and perhaps brings them to new audiences who may follow them back to their sources. Thunder In The Mountains serves as a tribute to legends of the past and an authentic document of us in Dzö-nga as we strive to create something of our own that will stand the test of time.”
And indeed it does: Dzö-nga new album is a huge step forward from The Sachem’s Tales under every aspect, be it musically, conceptually and in terms of production. Now a three piece with the adding of bassist Ray King, the Boston-based band crafted haunting, fascinating melodies where keyboards and female voices enrich the black metal pillars upon which the whole music is built. The result is a dynamic, thoughtful blend of melodic black metal and folk hints, in the vein of other past Avantgarde Music bands such as Saor and Sojourner but with a unique native-american focus and a very personal approach.

releases February 14, 2020

Thunder In The Mountains was recorded in an 18th century farm in the forest of Connecticut, then mixed by Øystein G. Brun at Crosound Studio
and mastered by Dan Swanö at Unisound. The album also features session guitars by Þórir Nyss of Nyss and both a front and back cover art, the former by Cory Nesci and the latter by Frank Victoria (author of The Sachem’s Tales cover art). Last but not least, Raphael Weinroth-Browne of Leprous and Musk Ox is featured on cello in “Starlight, Moonlight, Firelight”

Cryvas - guitars, vocals
Grushenka Ødegård - vocals
Ray King - bass[/more]

[more=Technical info]
Input File: 06 The Death of Minnehaha.mp3
Channels : 2
Sample Rate : 44100
Precision : 16-bit
Duration : 00:11:24.11 = 30169075 samples = 51308 CDDA sectors
File Size : 27.4M
Bit Rate : 320k
Sample Encoding: MPEG audio (layer I, II or III)
Comments :
Title=The Death of Minnehaha
Artist=Dzö-nga
Album=Thunder in the Mountains
Tracknumber=6
Year=2020

[/more]

Register
(36) 1968_janeart, ahp, alikkon, Battaleon, fallen, Grev, helvetesrike, horridavultum, infiltrator, judaz, kim666, kimkayoung, LEGION69, metala, morbidangelo, multizwilling, Niknne, nsk2008, Old Vyaine, Olethros, Ostinato, Radek, robertho777, Rosen, sabr, SaintVitus, sandr666, satanist666, Shadechaser, SilentNidhogg, stub888, terron, Thunderbird, VALERY, vasiljev_sergej, Victim of fate,
Jan 20 2020, 04:12:07 Nocturnal - The Greater Emptiness (2019)


*Artist: Nocturnal
*Album: The Greater Emptiness
*Year: 2019
*Genre: Black/Doom Metal
*Country: Australia
*Format: mp3@CBR320kbps
*Size: 73MB

Tracklist:
1. My Temple 05:46
2. My Flesh Is but Rot 05:22
3. The Greater Emptiness 07:04
4. Nail 04:12
5. Song of Death 04:21
6. Shadows in Euclidean Spaces 05:06
******************************
Total playing time: 31:51



[more=Extended info]Séance Records

Séance records are proud to announce the release of Nocturnal’s new album, ‘The Greater Emptiness’ to be released on the 29th of October. With the first new album in 19 years this highly underrated pioneer of 90's Australian underground Black Metal returns with ‘The Greater Emptiness’, a deftly woven tapestry of doom, depressive and atmospheric black metal. Each musical thread is an elegiac culmination of shadows laden with sublime melancholia to create an evocative enigma of powerful emotion. Nocturnal awakens to the endless night once again to traverse the great abyss, stare into the darkness and revel in the greatest of mysteries; a myriad of poetic pain and the nature of life, death and beyond.[/more]

[more=Technical info]
Input File: 05 Song of Death.mp3
Channels : 2
Sample Rate : 44100
Precision : 16-bit
Duration : 00:04:21.08 = 11513716 samples = 19581.1 CDDA sectors
File Size : 10.4M
Bit Rate : 320k
Sample Encoding: MPEG audio (layer I, II or III)
Comments :
Title=Song of Death
Artist=Nocturnal
Album=The Greater Emptiness
Tracknumber=5
Year=2019

[/more]

Register
(34) cen0byte666, Doooomed, eternald, fallen, infiltrator, isvili, Kehl05, kim666, krotovich, LazarShadow, madster, marilin, metala, multizwilling, nadin85, nikolay81, nsk2008, Olethros, Ostinato, Qliphoth, rauhnacht, Rosen, satanist666, sergsazan, Shadechaser, SilentNidhogg, stub888, supremo, tim47, tOmV, VALERY, vasiljev_sergej, Wail, wtk.412,
Jan 20 2020, 04:08:48 Baphomancia - Agonized In Belial's Land [demo] (2019)


*Artist: Baphomancia
*Album: Agonized In Belial's Land [demo]
*Year: 2019
*Genre: Black Metal
*Country: United States
*Format: mp3@CBR320kbps
*Size: 35MB

Tracklist:
1. Into the Abyss (Intromancy)
2. Kneeling Before Horned God
3. Anointed by Black Torch
4. The Denunciation (Intercurse)
5. Omens from the Dark Past
6. In His Offertory (For You My Flesh)
7. Belialian Sabbat (Outrocide)
******************************
Total playing time: 15:00




[more=Extended info]Medieval Prophecy Records

Baphomancia's first demo, "Agonized in Belial's Land" is finally ready to torment the underground! 15 minutes of Abyssian Necrometal in the vein of Crematory (BRA), Beherit, Nebiros, and Bestial Summoning.[/more]

[more=Technical info]
Input File: 3. Anointed by Black Torch.mp3
Channels : 2
Sample Rate : 44100
Precision : 16-bit
Duration : 00:02:47.06 = 7367434 samples = 12529.6 CDDA sectors
File Size : 6.68M
Bit Rate : 320k
Sample Encoding: MPEG audio (layer I, II or III)
Comments :
Title=Anointed by Black Torch
Artist=Baphomancia
Album=Agonized in Belial's Land
Tracknumber=3
Year=2019

[/more]

Register
(14) 1968_janeart, FUDEDOR, infiltrator, kim666, marilin, Olethros, Ostinato, Rosen, satanist666, SilentNidhogg, stub888, thenecromancer, vasiljev_sergej, Wail,
Jan 20 2020, 04:05:50 Etoile Filante - Magnum Opus Caelestis (2020)


*Artist: Etoile Filante
*Album: Magnum Opus Caelestis
*Year: 2020
*Genre: Ambient Black Metal
*Country: France
*Format: mp3@CBR320kbps
*Size: 101MB

Tracklist:
1. Magnum Opus Calestis 22:00
2. Feu Prométhée 10:19
3. Icare ou la chute des corps célestes 08:09
4. Koyaanisqatsi 03:25
******************************
Total playing time: 43:53



[more=Extended info]Northern Silence Productions

Etoile Filante play Cosmic Black Metal. Founded in 2013, "Magnum Opus Caelestis" is the band's debut full length, written and recorded a few years after their first EP "Traité sur le Monde et la Lumière" in 2014. It comes highly recommended for fans of the Cosmic Black Metal sub genre and bands such as Midnight Odyssey, Mesarthim or Mare Cognitum.[/more]

[more=Technical info]
Input File: 02 Feu Prométhée.mp3
Channels : 2
Sample Rate : 44100
Precision : 16-bit
Duration : 00:10:18.09 = 27257813 samples = 46356.8 CDDA sectors
File Size : 24.7M
Bit Rate : 320k
Sample Encoding: MPEG audio (layer I, II or III)
Comments :
Title=Feu Prométhée
Artist=Etoile Filante
Album=Magnum Opus Caelestis
Tracknumber=2
Year=2020

[/more]

Register
(20) 1968_janeart, autumnwood, demonosz, DevilSign, infiltrator, kim666, murian, nemx, Olethros, Ostinato, robertho777, Rosen, satanist666, Shadechaser, SilentNidhogg, singrad, stub888, tOmV, VALERY, vasiljev_sergej,
Jan 20 2020, 04:01:41 Forlorn Citadel - Ashen Dirge Of Kingslain (2020)


*Artist: Forlorn Citadel
*Album: Ashen Dirge Of Kingslain
*Year: 2020
*Genre: Epic/Atmospheric Black Metal
*Country: Australia
*Format: mp3@CBR320kbps
*Size: 96MB

Tracklist:
1. Glimmering Hearth to Ages Rekindled
2. Forthwith Thine Guildhelm Strong
3. Ancient Keepers of Unending Entombment
4. Ashen Dirge of Kingslain
5. Below the Grey Mist, Above the Forgotten
6. Blade Pried Whom’st Grasp Unyielding
7. Bedridden to Griefborn and Veinroot
8. Conquering the Gate of Kazuth-Dol (Bonus Track)
******************************
Total playing time: 41:37



[more=Extended info]Northern Silence Productions

The solo-project Forlorn Citadel plays Epic Black Metal in the vein of Summoning. This is done so remarkably well that at times fans might find it quite hard to differentiate between these two bands. Nonetheless there are enough own elements in the music to distinguish Forlorn Citadel from the inventors of Epic Black Metal.

So despite the considerable number of bands playing this style that appeared on the scene in the years following Caladan Brood's immensely successful debut album, Forlorn Citadel is another very welcome addition and we highly recommend "Ashen Dirge of Kingslain" to all fans of Summoning, Caladan Brood, Emyn Muil and similar projects!

The album is a collection of songs written late-2018 to mid-2019 and is dedicated to all warriors who fight their battles, only to return home to a kingdom that is not as it was.[/more]

[more=Technical info]
Input File: 06 Blade Pried Whom’st Grasp Unyielding.mp3
Channels : 2
Sample Rate : 44100
Precision : 16-bit
Duration : 00:04:52.09 = 12881213 samples = 21906.8 CDDA sectors
File Size : 11.7M
Bit Rate : 320k
Sample Encoding: MPEG audio (layer I, II or III)
Comments :
Title=Blade Pried Whom’st Grasp Unyielding
Artist=Forlorn Citadel
Album=Ashen Dirge of Kingslain
Tracknumber=6
Year=2020

[/more]

Register
(39) 1968_janeart, ALBIGON, Andr, autumnwood, Cosmic_Sorcerer, demonosz, DevilSign, djsema4, eternald, infiltrator, kim666, kimkayoung, kostja, Lamby90, Ludwig Hagen, metala, multizwilling, nameless_one, Narasimha, nemx, Olethros, Ostinato, popen13, robertho777, Rosen, SaintVitus, satanist666, Sathana, sergsazan, Shadechaser, stone88, stub888, talismanFS, tOmV, VALERY, vasiljev_sergej, Xutun, ZA670, Сварог Барг,
Jan 20 2020, 03:56:48 Obscure Lupine Quietus & Ynkleudherhenavogyon - Obscure Lupine Quietus/Ynkleudherhenavogyon [split] (2019)


*Artist: Obscure Lupine Quietus & Ynkleudherhenavogyon
*Album: Obscure Lupine Quietus/Ynkleudherhenavogyon [split]
*Year: 2019
*Genre: Raw Black Metal | Raw Black Metal
*Country: United Kingdom | United Kingdom
*Format: mp3@CBR320kbps
*Size: 49MB

Tracklist:
Obscure Lupine Quietus:
1. Possessed as the Fires Burn 06:33
2. The Tides of Awakening 04:42
Ynkleudherhenavogyon:
3. A-barth an Koth Arlodh 07:15
4. Howldrevelyow Gordhyans 02:42
******************************
Total playing time: 21:12




[more=Extended info]Inverse Solar Reqvriem

A great split from these two british acts, both with a wintery and ritualistic ambient track and a Raw Black Metal one.[/more]

[more=Technical info]
Input File: 1. Obscure Lupine Quietus - Possessed as the Fires Burn.mp3
Channels : 2
Sample Rate : 44100
Precision : 16-bit
Duration : 00:06:33.09 = 17335093 samples = 29481.5 CDDA sectors
File Size : 15.7M
Bit Rate : 320k
Sample Encoding: MPEG audio (layer I, II or III)
Comments :
Title=Possessed as the Fires Burn
Artist=Obscure Lupine Quietus
Album=Obscure Lupine Quietus / Ynkleudherhenavogyon
Tracknumber=1
Year=2019

[/more]

Register
(11) 1968_janeart, craP_cillA, infiltrator, kim666, LazarShadow, Ludwig Hagen, Ostinato, Rosen, satanist666, stub888, vasiljev_sergej,
Jan 12 2020, 19:03:58 Vltor - Odi [ep] (2019)


*Artist: Vltor
*Album: Odi [ep]
*Year: 2019
*Genre: Pagan Black Metal
*Country: Italy
*Format: mp3@CBR320kbps
*Size: 69MB

Tracklist:
1. Avspice mvsa 02:39
2. Lupi di marte 05:16
3. Vltor 07:19
4. La runa, il fulmine, il guerriero 07:31
5. Mos maiorvm 05:56
6. Spes 01:18
******************************
Total playing time: 29:59



[more=Extended info]Darker than Black Records[/more]

[more=Technical info]
Input File: 05 Mos Maiorvm.mp3
Channels : 2
Sample Rate : 44100
Precision : 16-bit
Duration : 00:05:55.70 = 15686458 samples = 26677.6 CDDA sectors
File Size : 14.3M
Bit Rate : 322k
Sample Encoding: MPEG audio (layer I, II or III)
Comments :
Title=Mos Maiorvm
Artist=Vltor
Album=Odi
Tracknumber=5/6
Year=2019

[/more]

Register
(17) ASkyThatBurns, infiltrator, kim666, Moonshtook, morbidangelo, Olethros, Ostinato, Rosen, satanist666, SilentNidhogg, stone88, stub888, VALERY, varlam4, vasiljev_sergej, vovenom, Сварог Барг,
Jan 12 2020, 19:00:26 Geheimnisvoll & Borda's Rope - Geheimnisvoll/Borda's Rope [split] (2019)


*Artist: Geheimnisvoll & Borda's Rope
*Album: Geheimnisvoll/Borda's Rope [split]
*Year: 2019
*Genre: Raw Black Metal | Raw Black Metal
*Country: United States | United States
*Format: mp3@CBR320kbps
*Size: 79MB

Tracklist:
Geheimnisvoll:
1. Burning Spectre of the Sacrilegious Ode 05:27
2. Mutilated in a Fog of Anguish 05:27
3. Romancing the Forthcoming Blood Harvest 06:07
Borda's Rope:
4. Shining Moon over Their Watery Graves 05:12
5. The Revelation at Cha-Puor 07:34
6. A Solitary Vessel in the Brine of Ta Lohm 04:04
******************************
Total playing time: 33:50




[more=Extended info]Behold! Two unruly entities from the Black Metal underground, GEHEIMNISVOLL and BORDA’S ROPE, have made an alliance under the cold gaze of PERISHED SOIL to disgorge a split release of complete loathing.

The label was so impressed with the might of this particular alliance that it was decided to make this release unique by limiting it to a one time pressing of 100 lashes, each hand numbered. The revered Black Gangrene Productions, however, will be releasing a much more widely available LP edition in MMXX which Found Remains will also distribute.[/more]

[more=Technical info]
Input File: 3. Geheimnisvoll - Romancing the Forthcoming Blood Harvest.mp3
Channels : 2
Sample Rate : 44100
Precision : 16-bit
Duration : 00:11:34.11 = 30610295 samples = 52058.3 CDDA sectors
File Size : 27.8M
Bit Rate : 320k
Sample Encoding: MPEG audio (layer I, II or III)
Comments :
Title=Romancing the Forthcoming Blood Harvest
Artist=Geheimnisvoll
Album=Geheimnisvoll / Borda's Rope
Tracknumber=3
Year=2019

[/more]

Register
(19) 1968_janeart, Alexis The Best, ASkyThatBurns, dad, FUDEDOR, infiltrator, kim666, Ludwig Hagen, morbidangelo, nemx, Ostinato, Rosen, satanist666, SilentNidhogg, stub888, VALERY, varlam4, vasiljev_sergej, vovenom,
Jan 12 2020, 18:50:54 Trajeto De Cabra - Supreme Command Of Satanic Will (2019)


*Artist: Trajeto De Cabra
*Album: Supreme Command Of Satanic Will
*Year: 2019
*Genre: Black/Death Metal
*Country: Canada
*Format: mp3@CBR320kbps
*Size: 73MB

Tracklist:
1. In Fear of Saturn 03:44
2. The Final Gate 07:33
3. Cursed Graves of the Unanointed 05:28
4. Scythe of Pestillence 03:50
5. Supreme Command of Satanic Will 03:59
6. Blackened Hands of the Impure 03:25
7. Heretic Terrorist 03:21
******************************
Total playing time: 31:20



[more=Extended info]Hailing from the Canadian province of British Columbia, with psychic connections to the legendary Ross Bay Cult and featuring members of labelmates NECROHOLOCAUST, TRAJETO DE CABRA are verily a vortex of warring black/death energies, disgusting blackgrind given violently hypnotic flight through sheer Satanic will. Indeed, not for nothing is their long-brewing debut album titled as such: Supreme Command of Satanic Will says everything it needs to, no more but certainly no less.

TRAJETO DE CABRA's first cacophonous rumblings came in 2013, with the Antichrist Dominum demo and then a split album with now-labelmates SACROCURSE. Then, a five-year silence followed while the lineup was expanded to a quartet for a fuller and fouler sound. At last, that full foulness arrives with Supreme Command of Satanic Will, a seven-song/32-minute torrent of militant-yet-loose explosions of utterly unrelenting WAR METAL. But, let it be known that the nomenclature of "war metal" here is rooted in the far-less-populous and more nebulous days of the mid/late '90s, when lone wolves seeking the secrets of chaos began clandestine explorations of the frayed ends of (in)sanity that linked black metal, death metal, and grindcore together - or torn apart, as TRAJETO DE CABRA vulgarly display here. Nearly everything across the rusted barbed-wire landscape of Supreme Command of Satanic Will spells a slipstream like no other: red-eyed and heaving violence ripped inside out, tension and terror bazooka-blown into the ether with cruel disregard for comfort or even comprehension, slashing seasickness shot out into the coldest reaches of the cosmos. The end here is infinite.

"In Fear of Saturn" begins the album, with "Heretic Terrorist" as its finale. Between these two iron-fisted poles resides the overwhelming totality of TRAJETO DE CABRA's Supreme Command of Satanic Will.[/more]

[more=Technical info]
Input File: 05 Supreme Command of Satanic Will.mp3
Channels : 2
Sample Rate : 44100
Precision : 16-bit
Duration : 00:03:42.08 = 9793684 samples = 16655.9 CDDA sectors
File Size : 8.88M
Bit Rate : 320k
Sample Encoding: MPEG audio (layer I, II or III)
Comments :
Title=Supreme Command of Satanic Will
Artist=Trajeto de Cabra
Album=Supreme Command of Satanic Will
Tracknumber=5
Year=2019

[/more]

Register
(27) AlexSmith, ASkyThatBurns, atavist, CRUNCH, FlammenTod666, FUDEDOR, fuoco, infiltrator, Kehl05, kim666, lunaraurora, marilin, morbidangelo, multizwilling, Occultas, Olethros, Ostinato, Rosen, satanist666, Shadechaser, SilentNidhogg, stub888, VALERY, varlam4, vasiljev_sergej, wanderer73, wolverine,
Jan 12 2020, 18:45:59 Borda's Rope - The Lavronic Stone Beneath [demo] (2019)


*Artist: Borda's Rope
*Album: The Lavronic Stone Beneath [demo]
*Year: 2019
*Genre: Raw Black Metal
*Country: United States
*Format: mp3@VBR260kbps
*Size: 36MB

Tracklist:
1. Uproar Of Hearts Screaming And Waves Crashing 04:53
2. A Sinking Tomb In The Oceans Of Wrath 06:00
3. Storming Might Of Traah Lei's Halberd 07:09
******************************
Total playing time: 18:02



[more=Extended info]Black Gangrene Productions


Tape-rip by Zero[/more]

[more=Technical info]
Input File: 02 A Sinking Tomb In The Oceans Of Wrath.mp3
Channels : 2
Sample Rate : 44100
Precision : 16-bit
Duration : 00:06:22.90 = 16885978 samples = 28717.6 CDDA sectors
File Size : 13.0M
Bit Rate : 271k
Sample Encoding: MPEG audio (layer I, II or III)
Comments :
Title=A Sinking Tomb In The Oceans Of Wrath
Artist=Borda's Rope
Album=The Lavronic Stone Beneath
Tracknumber=2/3
Year=2019
Discnumber=1/1

[/more]

Register
(18) 1968_janeart, Alexis The Best, ASkyThatBurns, Beazth, FUDEDOR, infiltrator, kim666, morbidangelo, Olethros, Ostinato, Rosen, satanist666, Shagarth21, SilentNidhogg, stub888, varlam4, vasiljev_sergej, vovenom,
Jan 11 2020, 23:01:38 Hellehond - Verslonden (2019)


*Artist: Hellehond
*Album: Verslonden
*Year: 2019
*Genre: Black Metal
*Country: Netherlands
*Format: mp3@CBR320kbps
*Size: 68MB

Tracklist:
1. Kardoes 04:31
2. Verslonden 03:49
3. Rattenmantel 04:35
4. Onbegraafbaar 04:00
5. Hamerslagen 04:12
6. Over De Kling 04:53
7. Kerkerlust 03:28
******************************
Total playing time: 29:28



[more=Extended info]Hailing from the Netherlands, HELLEHOND formed in 2017. Although an otherwise-new entity, the band members actually hail from such cult hordes as Asphyx, Wederganger, and Rectal Smega. As such, Verslonden is HELLEHOND's first public recording.

With HELLEHOND's primary influences being Hellhammer, early Celtic Frost, and Bathory, it's no surprise that Verslonden is a gutted 'n' grimy experience. Raw and primitive black metal without any compromises is what you'll find here: no more, but certainly no less! As perhaps expected, the members' erstwhile activities can be felt in HELLEHOND's antagonizing attack - the ominous gallop of Asphyx, the feverish rocking of Wederganger, even the bloody viscera of Rectal Smegma - but the quartet keep that attack securely on their own terms, with songwriting that squarely splits the difference between old-fashioned memorability and cold 'n' distant atmosphere.

Put more directly, HELLEHOND's Verslonden is caveman black metal - by cavemen, for cavemen. Music lovers...stay away![/more]

[more=Technical info]
Input File: 01 Kardoes.mp3
Channels : 2
Sample Rate : 44100
Precision : 16-bit
Duration : 00:04:31.09 = 11954937 samples = 20331.5 CDDA sectors
File Size : 10.8M
Bit Rate : 320k
Sample Encoding: MPEG audio (layer I, II or III)
Comments :
Title=Kardoes
Artist=Hellehond
Album=Verslonden
Tracknumber=1
Year=2019

[/more]

Register
(39) 1968_janeart, ASkyThatBurns, atavist, berserkr, craP_cillA, desekrator, Frozenkult, FuneralWolf, GorAtheist, Indamage, infiltrator, isvili, kim666, legion01, LEGION69, Moonshtook, morbidangelo, nemx, nsk2008, Occultas, Olethros, Ostinato, rimfrost, ripper33, robertho777, Rosen, RUDACHUR, SaintVitus, satanist666, SilentNidhogg, stub888, tim47, toly1917, VALERY, varlam4, vasiljev_sergej, vovenom, wreak, zhol,
Jan 11 2020, 22:59:48 Brånd & Häxenzijrkell - Seis Wies Sei/Der Totenrijtt [split] (2020)


*Artist: Brånd & Häxenzijrkell
*Album: Seis Wies Sei/Der Totenrijtt [split]
*Year: 2020
*Genre: Raw Black Metal | Black Metal
*Country: Austria | Germany
*Format: mp3@CBR320kbps
*Size: 33MB

Tracklist:
Brånd:
1. Seis wies Sei 06:56
Häxenzijrkell:
2. Der Totenrijtt 07:06
******************************
Total playing time: 14:02




[more=Technical info]
Input File: 02. Häxenzijrkell - Der Totenrijtt.mp3
Channels : 2
Sample Rate : 44100
Precision : 16-bit
Duration : 00:07:08.09 = 18878857 samples = 32106.9 CDDA sectors
File Size : 17.1M
Bit Rate : 320k
Sample Encoding: MPEG audio (layer I, II or III)
Comments :
Title=Der Totenrijtt
Artist=Häxenzijrkell
Album=Seis wies Sei / Der Totenrijtt
Tracknumber=2
Year=2020

[/more]

Register
(22) 1968_janeart, Alexis The Best, ASkyThatBurns, Cosmic_Sorcerer, craP_cillA, Fryz, gena, infiltrator, kim666, morbidangelo, Ostinato, Rosen, RunningWild_AT, satanist666, Sergei78, SilentNidhogg, stub888, thenecromancer, VALERY, varlam4, vasiljev_sergej, wreak,
Jan 11 2020, 22:56:27 Witchbones - The Seas Of Draugen (2019)


*Artist: Witchbones
*Album: The Seas Of Draugen
*Year: 2019
*Genre: Black/Death Metal
*Country: United States
*Format: mp3@CBR320kbps
*Size: 62MB

Tracklist:
1. The Nun Collector 04:45
2. Whispering Martyr 03:06
3. The Seas of Draugen 03:57
4. Nebulous Ghost Ship 04:38
5. The Ritual Continues (We Haunt Ourselves) 02:58
6. At the Shores (Draugen's Revenge) 03:43
7. The Candle Burns Alone (Dead Sailors) 03:33
******************************
Total playing time: 26:40



[more=Technical info]
Input File: 02 Whispering Martyr.mp3
Channels : 2
Sample Rate : 44100
Precision : 16-bit
Duration : 00:03:05.09 = 8162337 samples = 13881.5 CDDA sectors
File Size : 7.40M
Bit Rate : 320k
Sample Encoding: MPEG audio (layer I, II or III)
Comments :
Title=Whispering Martyr
Artist=Witchbones
Album=The Seas of Draugen
Tracknumber=2
Year=2019

[/more]

Register
(22) alikkon, ASkyThatBurns, atavist, Daale, Doooomed, Fryz, infiltrator, kim666, morbidangelo, multizwilling, Olethros, Ostinato, Rosen, satanist666, SilentNidhogg, stub888, Thrashold, VALERY, varlam4, vasiljev_sergej, wanderer73, wreak,
Jan 11 2020, 02:48:50 Kawir - Adrasteia (2020)


*Artist: Kawir
*Album: Adrasteia
*Year: 2020
*Genre: Pagan Black Metal
*Country: Greece
*Format: mp3@CBR320kbps
*Size: 95MB

Tracklist:
1. Tydeus 06:48
2. Atalanti 06:48
3. Danaides 05:52
4. Limniades 06:58
5. Colchis 05:48
6. Medea 08:48
******************************
Total playing time: 41:02



[more=Extended info]IRON BONEHEAD PRODUCTIONS is proud to present KAWIR's highly anticipated eighth album, Adrasteia, on CD, vinyl LP, and cassette tape formats.

For over 25 years now, KAWIR have been one of the unsung pillars of the classic Greek black metal sound. While the names Rotting Christ, Varathron, and Necromantia are incredibly important to that style's foundation, it was KAWIR who kept the faith during the '90s and into the new millennium. In 1994, the then-young band released two pivotal 7"s, Eumenides and a split with Japan's Sigh - on the pivotal Cacophonous Records, no less - and then followed those up in 1996 with the To Cavirs MLP, which is the first truly pagan-oriented record to hail from the Greek black metal scene. With that mini-album, KAWIR set about on a Hellenistic crusade to celebrate their native gods and mythology in their lyrics and sartorial presentation. From the late '90s onward, the band continued to remain prolific, perpetually committed to fine-tuning their idiosyncratic craft, culminating in underground classics Arai (2005) and Ophiolatreia (2008). Although 2012's Ισόθεος featured a cross-continental lineup, the album further solidified KAWIR's status as unique icons in the black metal underground.

Come 2016, however, KAWIR aligned with longtime fans IRON BONEHEAD and released their first album through the label, the massively acclaimed Father Sun Mother Moon. That album saw KAWIR return to an all-Greek lineup and recast their classic sound in a whole new light, and continued that forward momentum the next year with the fiery Exilasmos. If the 64-minute Father Sun Mother Moon was the sound of KAWIR indulging their most epic expanses - always with power and poignancy, it must be said - then the 42-minute Exilasmos was its punchier and more restless counterpart. Taken together, both these albums for IRON BONEHEAD formed an exciting new chapter in the ongoing KAWIR saga, and suitably saw the band reach a whole new generation of fans, their fire seemingly inexhaustible and a veritable fountain of youth.

Perhaps not surprisingly, that fountain overfloweth with KAWIR's eighth album, Adrasteia. Although three years separate this and its full-length predecessor, Adrasteia amazingly brims with an urgency that's simply startling for a band of such veteran status. Upon its first few resounding notes, Adrasteia is immediately and engagingly KAWIR - and as the ceremonial slow-burn of opening track "Tydeus" builds, anticipation is set exceedingly high, these Greeks working a simmering spell of sumptuous splendor. The track segues into a heroic march by its latter third, with that ever-so-enticing Hellenic mysticism taking root, before the fury fully begins with the following "Atalanti." Indeed, that fury doesn't relent for the remainder of Adrasteia, but KAWIR carefully keep their pacing nuanced and dynamic, with each of these six characteristically cascading tracks unveiling a breathtaking landscape of sonic peaks and valleys.

But, as ever with KAWIR, the sonic portrait they paint is imbued with a deep lyricism hailing the Greek pantheon. In the case of Adrasteia, its namesake is the goddess of female revenge, and honorably does the album's lyrical concept focus on heroic women and the cruelty around them. For this unique and tasteful exploration, KAWIR here have gathered together a whole host of incredible guests, including Macabre Omen mainman Alexandros on all clean vocals, the ethereal Norwegian voice of Lindy-Fay Hella on the stark 'n' haunting "Colchis," and Melechesh's Ashmedi giving a guitar solo on "Danaides."

Altogether, Adrasteia makes for KAWIR's most quintessentially Greek album in many years - ever longer may their pantheon reign![/more]

[more=Technical info]
Input File: 04 Limniades.mp3
Channels : 2
Sample Rate : 44100
Precision : 16-bit
Duration : 00:06:57.09 = 18393845 samples = 31282 CDDA sectors
File Size : 16.7M
Bit Rate : 320k
Sample Encoding: MPEG audio (layer I, II or III)
Comments :
Title=Limniades
Artist=Kawir
Album=Adrasteia
Tracknumber=4
Year=2020

[/more]

Register
(90) 1968_janeart, acerbus, AHAB99, alikkon, Andr, Angeldemon617, as71, ASkyThatBurns, atavist, auneddu, autumnwood, avather, Beazth, berserkr, Black Cat, BlackPanda, cancer1974, DarkHorde, dead4, doomTemplar, dromord, Druidir, Frozenkult, Fryz, FUDEDOR, garmonbozia, gena, Golodomor, GorAtheist, igore2911, Ildjarn, Indamage, infiltrator, isvili, judaz, kim666, kostja, Lamby90, LazarShadow, legion01, LEGION69, lucifix, metala, MetalAreola, milosdjor, Mist13Signifier, multizwilling, nadin85, NappyRob, Narasimha, Necromayhem, nemx, nsk2008, older68, oldvarg, Olethros, Orkkh, Ostinato, rammmirez, Reverend, ripper33, robertho777, Rosen, RUDACHUR, RUSP73, satanist666, Shadechaser, SilentNidhogg, smes, smysl, stone88, supremo, talismanFS, Thunderbird, Tino, tOmV, Torlof, VALERY, varlam4, vasiljev_sergej, volostakoeto, vovenom, VTX, wreak, wtk.412, xska, ZambuL, zhol, Авел, Сварог Барг,
Jan 11 2020, 02:47:04 Empire Of The Moon - Εκλειψις (2020)


*Artist: Empire Of The Moon
*Album: Εκλειψις
*Year: 2020
*Genre: Black Metal
*Country: Greece
*Format: mp3@CBR320kbps
*Size: 90MB

Tracklist:
1. Arrival 02:27
2. Imperium Tridentis 05:04
3. Per Aspera Ad Lunae – I. The Resonance Within 04:42
4. Per Aspera Ad Lunae – II. Two Queens Appear 03:54
5. Per Aspera Ad Lunae – III. Descending 06:13
6. Devi Maha Devi 06:24
7. Per Aspera Ad Lunae – IV. Son of Fire 09:58
******************************
Total playing time: 38:42



[more=Extended info]IRON BONEHEAD PRODUCTIONS is proud to present EMPIRE OF THE MOON's highly anticipated second album, ΕΚΛΕΙΨΙΣ, on CD, vinyl LP, and cassette tape formats.

Ancient and forever, EMPIRE OF THE MOON have been lingering ominously within the pantheon of classic Greek black metal since 1996. The band's first demo, 1997's For the Ancient Light of Sinn, is a short-length spectre of splendorous mysticism revered by fervent worshippers of the traditional Hellenic form. But, as with many matters concerning Greek classicism, EMPIRE OF THE MOON soon became a study of patience and perseverance, as it took nearly two decades for the band's next according to arrive. During the interim, naturally, its members were busy with other well-respected cults like Chaosbaphomet and Wampyrinacht.

When that recording did arrive, in 2014, it was EMPIRE OF THE MOON's first full-length, and what a statement it was: titled Πανσέληνος (or "Full Moon" in English), it transcended all the powerful promise of that first demo, its distant lunar shores a breathtaking landscape of timeless black metal majesty. It was a sound firmly rooted in ancient times, and so authentically antiquated was its push 'n' pull that it was actually far fresher than most "black metal" around it.

While six years is still a considerable amount of time for most bands, EMPIRE OF THE MOON aren't like most bands; they will their creations into being when inspiration strikes, when the stars are aligned. Alas, a total solar eclipse occurs as the moon completely covers the sun's disk, and thus does the time approach for a new chapter in the ongoing saga of EMPIRE OF THE MOON: their long-awaited second album, ΕΚΛΕΙΨΙΣ.

Tellingly translated to "Eclipse" in English, ΕΚΛΕΙΨΙΣ indeed eclipses anything the band has done to date - which is considerable, to say the least, with their axiom being quality over quantity. Utterly expansive despite its fairly compact runtime of 40 minutes, here do EMPIRE OF THE MOON unfurl a regal, stargazing statement of interstellar black metal. Atmosphere and aggression find the perfect balance across ΕΚΛΕΙΨΙΣ, symbiotically in harmony much in the way an eclipse complements a full moon. Its seven, interlinked songs create a canvas of mystery and mysticism, breathing the same ancient air EMPIRE OF THE MOON always have, but here rendered in remarkably gleaming form, with a production that's polished yet powerful, fully befitting their grand visions. As always, the spectral synths of S.V. Mantus imbue ΕΚΛΕΙΨΙΣ with an otherworldly aspect that's uniquely their own.

Hark! For the stars of the unlight sounds, interstellar clouds of occult lyrical concept, and fiery traditional emblems are now channeled in order! To manifest their esoteric visions to those with eyes to see, EMPIRE OF THE MOON hereby present their grandest statement yet with ΕΚΛΕΙΨΙΣ - the imperial moonlight will shine again![/more]

[more=Technical info]
Input File: 03 Per Aspera Ad Lunae – I. The Resonance Within.mp3
Channels : 2
Sample Rate : 44100
Precision : 16-bit
Duration : 00:04:42.09 = 12439949 samples = 21156.4 CDDA sectors
File Size : 11.3M
Bit Rate : 320k
Sample Encoding: MPEG audio (layer I, II or III)
Comments :
Title=Per Aspera Ad Lunae – I. The Resonance Within
Artist=Empire of the Moon
Album=Εκλειψις
Tracknumber=3
Year=2020

[/more]

Register
(57) 1968_janeart, acerbus, alikkon, andivi, ASkyThatBurns, atavist, auneddu, avather, cryptal, Cyrci, dead4, Doooomed, Frozenkult, Fryz, garmonbozia, gena, GorAtheist, helvetesrike, igore2911, Ildjarn, Indamage, infiltrator, judaz, kim666, kostja, Lamby90, LEGION69, Mist13Signifier, Moonshtook, morbidangelo, multizwilling, Narasimha, nemx, nsk2008, Olethros, Ostinato, rammmirez, robertho777, Rosen, RUDACHUR, RUSP73, SaintVitus, sandr666, satanist666, SilentNidhogg, smes, tim47, Torlof, VALERY, varlam4, vasiljev_sergej, Vitner, vovenom, Wail, wolverine, wreak, Нигилист,
Jan 11 2020, 02:43:10 Fjord - Midvinterblotets Skaldersånger (2020)


*Artist: Fjord
*Album: Midvinterblotets Skaldersånger
*Year: 2020
*Genre: Melodic Folk/Black Metal
*Country: Sweden
*Format: mp3@CBR320kbps
*Size: 107MB

Tracklist:
1. Den Svarta Skogen 04:19
2. Vintersol 05:51
3. Elin i Horsnäs 07:12
4. Óðinn, Take My Soul! 04:07
5. Dit De Ändlösa Fjordarna Tar Oss 08:59
6. Iskalla Hem 08:32
7. Trolltunga 07:18
******************************
Total playing time: 46:18



[more=Technical info]
Input File: 01 Den Svarta Skogen.mp3
Channels : 2
Sample Rate : 44100
Precision : 16-bit
Duration : 00:04:19.07 = 11424987 samples = 19430.2 CDDA sectors
File Size : 10.4M
Bit Rate : 320k
Sample Encoding: MPEG audio (layer I, II or III)
Comments :
Title=Den Svarta Skogen
Artist=Fjord
Album=Midvinterblotets Skaldersånger
Tracknumber=1
Year=2020

[/more]

Register
(52) 0x13, 1968_janeart, alikkon, Andr, ASkyThatBurns, Battaleon, Branis, carla667, Cartman223, cesar, craP_cillA, cryptal, csgmnk, DenisKov, DevilSign, Eisbar, Fess, gena, GorAtheist, Ildjarn, infiltrator, Korpse, LEGION69, metalwoman, Moonshtook, multizwilling, Niknne, nsk2008, oldvarg, Olethros, Ostinato, Rakkot, Rosen, RUDACHUR, Rudolfo_Metal, satanist666, senecazm, Shadechaser, Sjelekval, smysl, talismanFS, uncolored, VALERY, varlam4, vasiljev_sergej, wn129aa, wreak, ZA670, zhol, Герб, дивин, Сварог Барг,
Jan 9 2020, 16:17:29 Oculus - Relinquishment Of Existence [ep] (2020)


*Artist: Oculus
*Album: Relinquishment Of Existence [ep]
*Year: 2020
*Genre: Black/Death Metal
*Country: International
*Format: mp3@CBR320kbps
*Size: 40MB

Tracklist:
1. Nothingness 09:50
2. Relinquishment of Existence 07:16
******************************
Total playing time: 17:06



[more=Technical info]
Input File: 01 Nothingness.mp3
Channels : 2
Sample Rate : 44100
Precision : 16-bit
Duration : 00:09:50.09 = 26022793 samples = 44256.5 CDDA sectors
File Size : 23.6M
Bit Rate : 320k
Sample Encoding: MPEG audio (layer I, II or III)
Comments :
Title=Nothingness
Artist=Oculus
Album=Relinquishment of Existence
Tracknumber=1
Year=2020

[/more]

Register
(17) ASkyThatBurns, infiltrator, kim666, morbidangelo, Occultas, Olethros, Ostinato, robertho777, Rosen, satanist666, Shadechaser, SilentNidhogg, VALERY, varlam4, vasiljev_sergej, wreak, yuratroll,
Jan 7 2020, 09:38:02 Darchon - Οἰωνός (2019)
Register

mp3@CBR320kbps
(2) BritySpear, varlam4,
Jan 5 2020, 05:56:49 Aesculeta - Restless Souls (2019)
Register

mp3@CBR320kbps
(1) kimkayoung,
Jan 5 2020, 05:23:44 Hail Conjurer - Erotic Hell (2019)


*Artist: Hail Conjurer
*Album: Erotic Hell
*Year: 2019
*Genre: Black Metal
*Country: Finland
*Format: mp3@CBR320kbps
*Size: 74MB

Tracklist:
1. Heathen 01:44
2. Mocking the Threat of Hell 04:32
3. Serpent Sword Flame 02:46
4. Trancing 02:20
5. Under Her 05:04
6. Apocalyptic 09:45
7. Upside Down 02:19
8. Final Vision 03:27
******************************
Total playing time: 31:57



[more=Extended info]Bestial Burst

CD-rip

Laughing at the threat of Hell, Hail Conjurer delivers His second album, out late September 2019. Obscure, raw and deep Finnish black metal. With a very unique character too rare in today's watered down version of this "genre" that was always meant to be more than a technical classification of rock music, this is for those who want more and are not afraid to dig deeper.[/more]

[more=Technical info]
Input File: 02 Mocking The Threat Of Hell.mp3
Channels : 2
Sample Rate : 44100
Precision : 16-bit
Duration : 00:04:32.31 = 12008695 samples = 20423 CDDA sectors
File Size : 11.0M
Bit Rate : 324k
Sample Encoding: MPEG audio (layer I, II or III)
Comments :
Title=Mocking The Threat Of Hell
Artist=Hail Conjurer
Album=Erotic Hell
Tracknumber=02/8
Year=2019
Discnumber=1/1

[/more]

Register
(33) 1968_janeart, acerbus, ahp, AlexSmith, ASkyThatBurns, atavist, Beazth, Boozer, gena, infiltrator, Kehl05, kim666, LEGION69, Ludwig Hagen, marilin, multizwilling, Olethros, Ostinato, robertho777, Rosen, satanist666, scorpionmk, SilentNidhogg, stub888, VALERY, varg-38ru, varlam4, vasiljev_sergej, Wail, wgs73, wreak, xska, ZA670,

152 Pages V   1 2 3 > » 
- Lo-Fi Version Support form
Copyrights and abuse reports form
Time is now: 27th January 2020 - 09:42:22