Welcome Guest ( Log In | Register )

История благодарностей участнику lestllk ::: Спасибо сказали: 48481 раз(а)
Дата поста: В теме: За сообщение: Спасибо сказали:
Aug 6 2020, 10:38:54 Kriegsmaschine - Deathdriven: Archive 2006-2010 [compilation] (2020)


*Artist: Kriegsmaschine
*Album: Deathdriven: Archive 2006-2010 [compilation]
*Year: 2020
*Genre: Black Metal
*Country: Poland
*Format: mp3@CBR320kbps
*Size: 73MB

Tracklist:
1. Onward destrudo 06:35
2. Fear and loathing in Gethsemane 08:01
3. Annihilate prime factor 04:39
4. E. 04:21
5. The fall, in all its glory 08:14
******************************
Total playing time: 31:50

[more=Extended info]No Solace

Compilation of Kriegsmaschine material originally issued as split releases with Szron (2006) and Infernal War (2010).
5 tracks, 32 minutes. No new or unreleased material.[/more]

[more=Technical info]
Input File: 1. Onward destrudo.mp3
Channels : 2
Sample Rate : 44100
Precision : 16-bit
Duration : 00:06:35.10 = 17423778 samples = 29632.3 CDDA sectors
File Size : 15.8M
Bit Rate : 321k
Sample Encoding: MPEG audio (layer I, II or III)
Comments :
Title=Onward destrudo
Artist=Kriegsmaschine
Album=Deathdriven: Archive 2006-2010
Tracknumber=1
Year=2020
Genre=Black Metal

[/more]

Register
(30) ahp, borg666, Cyrci, dermarsoran, Femto, gena, helvetestoner, infiltrator, kim666, LEGION69, milosdjor, Moonshtook, Mortuusinfernus, Occultas, Olethros, Ostinato, randumbum, robertho777, Rosen, sabr, scorpionmk, smes, supremo, Tino, VALERY, vasiljev_sergej, V_H_H_V, Wail, wolverine, wtk.412,
Aug 5 2020, 01:39:02 Sovereign - Dimension Of Torment (2003)
Register

mp3@CBR160kbps
(1) Wail,
Aug 5 2020, 01:37:30 Sovereign - The Wolf (2002)
Register

mp3@CBR320kbps

Register

FLAC
(2) Rudolfo_Metal, Wail,
Aug 4 2020, 03:46:27 Apokalupsis - Lupus Lunaticus [demo] (2020)


*Artist: Apokalupsis
*Album: Lupus Lunaticus [demo]
*Year: 2020
*Genre: Black Metal
*Country: France
*Format: mp3@CBR320kbps
*Size: 72MB

Tracklist:
1. Nocturne
2. L’Ombre Et Le Marbre
3. Lycanthrope
4. Lune Écarlace
******************************
Total playing time: 31:01

[more=Extended info]Les Fleurs du Mal Productions

Highly anticipated second demo. True French black metal influenced by Les Légions Noires. Limited to 100 hand numbered copies.

Garde Noire collective.[/more]

[more=Technical info]
Input File: 1. Nocturne.mp3
Channels : 2
Sample Rate : 44100
Precision : 16-bit
Duration : 00:06:58.09 = 18437593 samples = 31356.5 CDDA sectors
File Size : 16.8M
Bit Rate : 322k
Sample Encoding: MPEG audio (layer I, II or III)
Comments :
Title=Nocturne
Artist=Apokalupsis
Album=Lupus Lunaticus
Tracknumber=1
Year=2020

[/more]

Register
(22) 1968_janeart, andivi, Boozer, garmonbozia, grimoir, infiltrator, kim666, lunaraurora, murian, Occultas, Olethros, Ostinato, randumbum, robertho777, Rosen, Rudolfo_Metal, sethurius, SilentNidhogg, stub888, VALERY, vasiljev_sergej, Wail,
Aug 4 2020, 03:41:15 Heresiarch & Antediluvian - Defleshing The Serpent Infinity [split] (2020)


*Artist: Heresiarch & Antediluvian
*Album: Defleshing The Serpent Infinity [split]
*Year: 2020
*Genre: Black/Death Metal | Black/Death Metal
*Country: New Zealand | Canada
*Format: mp3@CBR320kbps
*Size: 50MB

Tracklist:
Heresiarch:
1. Lupine Epoch 02:03
2. Excarnation 04:17
3. No Sanctuary 05:23
Antediluvian:
4. Slipstream of Leviathan's Wake 04:04
5. Prelude 05:59
******************************
Total playing time: 21:46



[more=Extended info]IRON BONEHEAD PRODUCTIONS is proud to present Defleshing the Serpent Infinity, a special split mini-album between HERESIARCH and ANTEDILUVIAN, on CD and 12" vinyl formats.

True underground devotees should already be more than familiar with New Zealand's HERESIARCH and Canada's ANTEDILUVIAN; between them, both cults have built challenging canons of uncompromising gnarliness. Here on Defleshing the Serpent Infinity, HERESIARCH deliver two crushers of rusted-tank-tread horror, with an eerily quiet ambient track to close out - the aftermath on the battlefield, if you will. Although comparatively quiet for the past five years, ANTEDILUVIAN rupture the silence with an utterly demented maw of magickal chaos on one track and then an unsettling ambient track of their own, completing the Ouroboros of this unified split.

Forever devouring the listener, together HERESIARCH and ANTEDILUVIAN are Defleshing the Serpent Infinity![/more]

[more=Technical info]
Input File: 4. Antediluvian - Slipstream of Leviathan\'s Wake.mp3
Channels : 2
Sample Rate : 44100
Precision : 16-bit
Duration : 00:04:05.07 = 10807499 samples = 18380.1 CDDA sectors
File Size : 9.99M
Bit Rate : 326k
Sample Encoding: MPEG audio (layer I, II or III)
Comments :
Title=Slipstream of Leviathan's Wake
Artist=Antediluvian
Album=Defleshing the Serpent Infinity
Tracknumber=4
Year=2020

[/more]

Register
(38) abob, babanguida, BERZERK, Bitchkiller, Boozer, Bzth, caro, Chasm, Daale, desekrator, Dirt_ORFEY, El_Chibo, Evgundel, FUDEDOR, gongshow, grimoir, INDARKNESS, infiltrator, kim666, marilin, mirotvorets, Mist13Signifier, Moonshtook, multizwilling, Occultas, randumbum, Rosen, sacrut, SilentNidhogg, skeletron215, smes, Tyrone, vasiljev_sergej, Wail, wanderer73, wolverine, wtk.412, ZambuL,
Aug 4 2020, 03:37:55 Andracca - A Sermon In The Universal Language Of Suffering [ep] (2020)


*Artist: Andracca
*Album: A Sermon In The Universal Language Of Suffering [ep]
*Year: 2020
*Genre: Black Metal
*Country: United Kingdom
*Format: mp3@CBR320kbps
*Size: 41MB

Tracklist:
1. A Sermon in the Universal Language of Suffering 03:37
2. Dissolution of Apathy 04:27
3. Life Through Death 03:39
4. Bleak Final 05:45
******************************
Total playing time: 17:28



[more=Extended info]Wulfhere Productions[/more]

[more=Technical info]
Input File: 2. Dissolution of Apathy.mp3
Channels : 2
Sample Rate : 44100
Precision : 16-bit
Duration : 00:04:27.09 = 11778669 samples = 20031.7 CDDA sectors
File Size : 10.9M
Bit Rate : 325k
Sample Encoding: MPEG audio (layer I, II or III)
Comments :
Title=Dissolution of Apathy
Artist=Andracca
Album=A Sermon in the Universal Language of Suffering
Tracknumber=2
Year=2020

[/more]

Register
(20) 1968_janeart, caro, gena, grimoir, infiltrator, kim666, legion01, multizwilling, Olethros, Ostinato, randumbum, robertho777, Rosen, Sanctus, SilentNidhogg, stub888, thenecromancer, VALERY, vasiljev_sergej, Wail,
Aug 4 2020, 03:34:57 Adversarius - In Nomine Draconis Inferni (2020)


*Artist: Adversarius
*Album: In Nomine Draconis Inferni
*Year: 2020
*Genre: Black Metal
*Country: Netherlands
*Format: mp3@CBR320kbps
*Size: 82MB

Tracklist:
1. Into the Aether of Zax
2. The Dragon of Da'at
3. In Nomine Draconis Leviathan
4. Belial
5. Scorched Earth
6. Keeper of the Third Eye
7. Musmahhu
8. Ad Majorem Chorozon Gloriam
******************************
Total playing time: 35:25



[more=Extended info]War Productions
Co-released with Void Wanderer Productions.[/more]

[more=Technical info]
Input File: 2. The Dragon of Da\'at.mp3
Channels : 2
Sample Rate : 44100
Precision : 16-bit
Duration : 00:04:43.08 = 12483740 samples = 21230.9 CDDA sectors
File Size : 11.6M
Bit Rate : 328k
Sample Encoding: MPEG audio (layer I, II or III)
Comments :
Title=The Dragon of Da'at
Artist=Adversarius
Album=In Nomine Draconis Inferni
Tracknumber=2
Year=2020

[/more]

Register
(20) 1968_janeart, atavist, infiltrator, kim666, legion01, multizwilling, Olethros, Ostinato, randumbum, robertho777, Rosen, sacrut, sethurius, SilentNidhogg, stub888, supremo, thenecromancer, VALERY, vasiljev_sergej, Wail,
Aug 4 2020, 03:29:21 Great Cold Emptiness - Death Gifted A Bouquet (2020)


*Artist: Great Cold Emptiness
*Album: Death Gifted A Bouquet
*Year: 2020
*Genre: Atmospheric Black/Funeral Doom Metal
*Country: United States
*Format: mp3@CBR320kbps
*Size: 157MB

Tracklist:
1. The Erotic Waltz 15:02
2. The Breadmaker's Daughter 12:40
3. The Little Deer 18:06
4. The Withering Pyre 22:07
******************************
Total playing time: 1:07:55


Preview 2

[more=Extended info]Flowing Downward


Album art "A Cottage on Fire" by Joseph Wright (1734-1797)
Recorded in Montreal, Quebec between Autumn 2018 and Spring 2020.[/more]

[more=Technical info]
Input File: 2. The Breadmaker\'s Daughter.mp3
Channels : 2
Sample Rate : 44100
Precision : 16-bit
Duration : 00:12:41.12 = 33565348 samples = 57083.9 CDDA sectors
File Size : 30.8M
Bit Rate : 323k
Sample Encoding: MPEG audio (layer I, II or III)
Comments :
Title=The Breadmaker's Daughter
Artist=Great Cold Emptiness
Album=Death Gifted a Bouquet
Tracknumber=2
Year=2020

[/more]

Register
(24) 1968_janeart, 555, ahp, AlexSmith, Fallen Soul, gena, grimoir, infiltrator, Irimias, Jorn777, Olethros, Ostinato, randumbum, robertho777, Rosen, Sanctus, SAPOGi, sergsazan, SilentNidhogg, stub888, supremo, tOmV, VALERY, vasiljev_sergej,
Aug 3 2020, 00:09:21 Sovereign - In The Influence Of Mars (2001)
Register

mp3@CBR320kbps
Vinyl-rip
(4) abob, Rudolfo_Metal, vasiljev_sergej, Wail,
Aug 2 2020, 23:53:10 Astrophobos - Malice Of Antiquity (2019)
Register

mp3@CBR320kbps
(1) Wail,
Jul 31 2020, 22:43:36 Tsjuder - Atum Nocturnem [demo] (1999)
Register

mp3@CBR192kbps
(1) Wail,
Jul 31 2020, 22:35:45 Tsjuder - Throne Of The Goat [ep] (1997)
Tsjuder - Throne Of The Goat (Reissue 2018)

Register

mp3@CBR320kbps + scans (153 MB)

Tracklist:
1. Intro (2017 Re-recording) 00:53
2. Throne of the Goat (2017 Re-recording) 03:58
3. Dying Spirits (2017 Re-recording) 05:41
4. Outro (2017 Re-recording) 01:19
5. Intro 00:45
6. Throne of the Goat 04:34
7. Dying Spirits 05:29
8. Outro 01:08
******************************
Total playing time:
11:47
(1) Wail,
Jul 31 2020, 22:29:06 Tsjuder - Ved Ferdens Ende [demo] (1995)
Register

mp3@CBR192kbps
(2) vasiljev_sergej, Wail,
Jul 31 2020, 05:31:52 Häresie & Nächtlich - Häresie/Nächtlich [split] (2020)


*Artist: Häresie & Nächtlich
*Album: Häresie/Nächtlich [split]
*Year: 2020
*Genre: Black Metal | Black Metal
*Country: Unknown | Canada
*Format: mp3@CBR320kbps
*Size: 92MB

Tracklist:
Häresie:
1. Kulde 05:14
2. Das Moor 05:07
3. Transmission to the Realm of Unknown Sources of Residual Evilness 04:54
Nächtlich:
4. Out of Their Coffins... Grinning 07:26
5. Leaping Through Rows of the Rotting Impaled 02:52
6. An Endless March to the Innermost Cavern in Hells Reach 05:14
******************************
Total playing time: 30:47

[more=Extended info]Sick split between two terrific Raw Black Metal hordes from recent years.
Häresie's side is an incredibly layered mix of Raw Black Metal and post-punk in the vein of Enshroud, Obsidian Forest and Nekrodrone, while Nächtlich's side, as usual, is great punk-ish, epic but ferocious Raw Black Metal with amazing keyboard work, definitely a band to highlight amongst the incredibly rich canadian scene.

Release on LP via Livor Mortis.

Vinyl-rip by toooooomb
+ Scans[/more]

[more=Technical info]
Input File: 02. Häresie - Das Moor.mp3
Channels : 2
Sample Rate : 44100
Precision : 16-bit
Duration : 00:05:07.87 = 13577067 samples = 23090.2 CDDA sectors
File Size : 12.3M
Bit Rate : 320k
Sample Encoding: MPEG audio (layer I, II or III)
Comments :
Title=Das Moor
Artist=Häresie
Album=Häresie / Nächtlich
Tracknumber=2/6
Year=2020
Genre=Black Metal

[/more]

Register
(20) 1968_janeart, aleon, Alexis The Best, alikkon, FUDEDOR, garmonbozia, grimoir, infiltrator, kim666, MortSathynr, Ostinato, randumbum, robertho777, Rosen, SilentNidhogg, stub888, supremo, VALERY, vasiljev_sergej, Wail,
Jul 31 2020, 05:25:34 Carved Cross & Torrid Death's Fire - Carved Cross/Torrid Death's Fire [split] (2020)


*Artist: Carved Cross & Torrid Death's Fire
*Album: Carved Cross/Torrid Death's Fire [split]
*Year: 2020
*Genre: Raw Black Metal | Raw Black Metal
*Country: Australia | United States
*Format: mp3@VBR260kbps
*Size: 31MB

Tracklist:
Carved Cross:
1. Intrusion 03:33
2. Remarkable Evolution 04:54
Torrid Death's Fire:
3. Profound Revelation From The Self 07:30
******************************
Total playing time: 15:57



[more=Extended info]Perverse Homage

Tape-rip by Zero[/more]

[more=Technical info]
Input File: 01 Intrusion.mp3
Channels : 2
Sample Rate : 44100
Precision : 16-bit
Duration : 00:03:33.08 = 9396828 samples = 15981 CDDA sectors
File Size : 6.94M
Bit Rate : 261k
Sample Encoding: MPEG audio (layer I, II or III)
Comments :
Title=Intrusion
Artist=Carved Cross
Album=Carved Cross / Torrid Death's Fire
Tracknumber=01/3
Year=2020
Genre=Black Metal
Discnumber=1/1

[/more]

Register
(17) 1968_janeart, Alexis The Best, grimoir, horss, infiltrator, kim666, nemx, randumbum, Raw1488, Rosen, SilentNidhogg, stub888, supremo, the_cleanser, VALERY, vasiljev_sergej, Wail,
Jul 31 2020, 05:20:34 Ûkcheânsâlâwit - Tekipuk [demo] (2020)


*Artist: Ûkcheânsâlâwit
*Album: Tekipuk [demo]
*Year: 2020
*Genre: Black Metal
*Country: Canada
*Format: mp3@VBR270kbps
*Size: 45MB

Tracklist:
1. Piskiaq: And The Night Will Reveal Magic 06:31
2. Kloqowej: Whispering Stars In The Winter Blizzard 05:18
3. Aluamkwiaq: Observing Gloomy Horizons From The Ancient Watch Tower 05:33
4. Ginujin: Enraptured By Pride And Ecstatic Chills 05:29
******************************
Total playing time: 22:51



[more=Extended info]Corde Raide Productions

native
depressive
black
metal

Tape-rip by Zero[/more]

[more=Technical info]
Input File: 02 Kloqowej Whispering Stars In The Winter Blizzard.mp3
Channels : 2
Sample Rate : 44100
Precision : 16-bit
Duration : 00:05:18.67 = 14053215 samples = 23900 CDDA sectors
File Size : 10.8M
Bit Rate : 271k
Sample Encoding: MPEG audio (layer I, II or III)
Comments :
Title=Kloqowej: Whispering Stars In The Winter Blizzard
Artist=Ûkcheânsâlâwit
Album=Tekipuk
Tracknumber=02/4
Year=2020
Genre=Black Metal
Discnumber=1/1

[/more]

Register
(24) 1968_janeart, ahp, aleon, Boozer, garmonbozia, grimoir, infiltrator, kim666, Kodel, Moonshtook, nadin85, Olethros, Ostinato, randumbum, Raw1488, robertho777, Rosen, SilentNidhogg, stub888, tormoz, Tyrone, VALERY, vasiljev_sergej, Wail,
Jul 31 2020, 05:14:59 Skrawl - Brother Butchers Brother [demo] (2018)


*Artist: Skrawl
*Album: Brother Butchers Brother [demo]
*Year: 2018
*Genre: Black Metal/Punk
*Country: United States
*Format: mp3@VBR260kbps
*Size: 17MB

Tracklist:
1. That Which Kills 03:09
2. North / Black Sun Bloody Moon (Current 93 Cover) 01:38
3. Blind In Both Eyes 02:40
4. Invocation of the Killing Frost 01:32
******************************
Total playing time: 8:59

[more=Extended info]Primitive Propaganda

Tape-rip by Zero[/more]

[more=Technical info]
Input File: 04 Invocation of the Killing Frost.mp3
Channels : 2
Sample Rate : 44100
Precision : 16-bit
Duration : 00:01:26.49 = 3814253 samples = 6486.82 CDDA sectors
File Size : 3.07M
Bit Rate : 284k
Sample Encoding: MPEG audio (layer I, II or III)
Comments :
Title=Invocation of the Killing Frost
Artist=Skrawl
Album=Brother Butchers Brother
Tracknumber=04/4
Year=2018
Genre=Black/Punk
Discnumber=1/1

[/more]

Register
(11) 1968_janeart, grimoir, infiltrator, Olethros, Ostinato, randumbum, Rosen, stub888, VALERY, vasiljev_sergej, Wail,
Jul 31 2020, 04:52:51 Niden Div. 187 - Impergium/Towards Judgement [best of/compilation] (2004)
Register

mp3@CBR320kbps
(4) CelticSPB, rickzammuto, varlam4, Wail,
Jul 31 2020, 04:48:11 Nahemoth - Novum Testamentum: Evangelium Morti (2013)
Register

mp3@CBR320kbps + scans
(1) kim666,
Jul 31 2020, 04:41:51 Aka Funeral - The Endless Eye (2019)
Register

mp3@CBR320kbps
(1) varlam4,
Jul 21 2020, 19:01:14 Blackline - From The Chalice Of Invokation Spells Will Curse Timeless Echoes (2011)
Register

FLAC
(3) ambre, infiltrator, Olethros,
Jul 21 2020, 19:00:46 Ascendency - Birth Of An Eternal Empire [ep] (2020)
Register

FLAC
(5) Amsterdam, desekrator, infiltrator, Olethros, Rudolfo_Metal,
Jul 21 2020, 02:44:46 Sombre Chemin & Eole Noir - Hétérodoxie: Opus II (Fierté)/Errance [split] (2010)
QUOTE(sacramentary @ Jul 20 2020, 23:17:28) *
reupload please


Register

mp3@VBR207kbps + scans
(1) Wail,
Jul 20 2020, 05:02:37 1914 - The Blind Leading The Blind (2018)
Register

mp3@CBR320kbps + scans

Register

FLAC (image+.cue)
(1) RENыч,
Jul 20 2020, 04:52:03 Tortura - Psychopompos (2018)
Register

mp3@CBR320kbps
(1) Razorbladeswaltz,

166 Pages V   1 2 3 > » 
- Lo-Fi Version Support form
Copyrights and abuse reports form
Time is now: 11th August 2020 - 10:39:23