Welcome Guest ( Log In | Register )

История благодарностей участнику An225 ::: Спасибо сказали: 366 раз(а)
Дата поста: В теме: За сообщение: Спасибо сказали:
Apr 12 2020, 18:20:39 Eskhaton - Omegalitheos (2018)
Absolutely great Metal! The Band is good!!!
Yeh! This is hell. dwarf-1.gif
(1) Leshiy666,
Jan 25 2020, 10:01:50 Apokryphon - Subterra (2020)
Project by Zorgh from Darkspace
(1) Occultas,
Dec 5 2019, 19:44:04 Wallfahrer - Rattenritual (2019)
Good Black Metal. But the album: "Anthologie Der Abkehr" is better!
true_black.gif true_black.gif true_black.gif
(1) Verhasst,
Dec 3 2019, 08:49:48 Múspellzheimr - Raukn (2018)
Not good sound quality of this record.

Register
(3) Andr, sabr, varlam4,
May 22 2019, 19:29:47 Abyssic Hate - The Source Of Suffering [compilation] (2017)
From the web:
Register
(7) dimmannius, juand, kim666, morbidangelo, Mortuusinfernus, sethurius, thenecromancer,
May 3 2019, 19:21:00 Metalriser - Demise (2017)
banana.gif banana.gif
(1) Samaritianin,
Mar 21 2019, 20:17:49 Pagan Eternal - Goatlord Devastation [demo] (2001)
QUOTE(SyncestrA @ Feb 2 2018, 17:32:03) *
Borderline1991
Thanks a lot for quality! I had only 128 kbps before. Great demo!


Funny.
With this tape, it does not matter if it's 128 or 320.
The quality of the tape is not big.
(1) Borderline1991,
Feb 8 2019, 21:10:09 Funeral Winds - Sinister Creed (2018)
dwarf-1.gif Great massacre! true_black.gif true_black.gif
(1) wolverine,
Jan 6 2019, 16:23:53 Harakiri For The Sky - Arson (2018)
One of the best Post-Black Metal Bands!
pray.gif
(1) MeatWolf,
Nov 12 2018, 20:12:59 Kreator - Gods Of Violence (2017)
Not realy good. It´s too modern, too commercial. 16.gif
(2) babanguida, vosmidesijatye,
Nov 5 2018, 20:04:42 Domestikwom - A Peace That Destroys (2017)
I can not do anything with it. Strange art.
(1) babanguida,
Oct 26 2018, 17:22:18 Ekpyrosis - Deathtrips [ep] (2018)
FLAC
Register


You have to hear it often and loud it's hypnotic.
(4) helvetesrike, Olethros, Shagarth21, vasiljev_sergej,
Oct 26 2018, 16:43:45 Ekpyrosis - Deathtrips [ep] (2018)


*Artist: Ekpyrosis
*Album: Deathtrips [ep]
*Year: 2018
*Genre: Instrumental Avant-Garde Black Metal
*Country: Germany
*Format: mp3@CBR320kbps
*Size: 41MB

Tracklist:
1. Forest of Destruction I 03:13
2. Death by Darkness 03:02
3. Tower of Life 02:48
4. Killing Shadow 02:22
5. First Star 02:49
6. Forest of Destruction II 03:53
******************************
Total playing time: 18:07

[more=Technical info]
Input File: 01 - Forest of Destruction I.mp3
Channels : 2
Sample Rate : 44100
Precision : 16-bit
Duration : 00:03:13.08 = 8515004 samples = 14481.3 CDDA sectors
File Size : 7.91M
Bit Rate : 328k
Sample Encoding: MPEG audio (layer I, II or III)
Comments :
Title=Forest of Destruction I
Artist=Ekpyrosis
Album=Deathtrips
Tracknumber=1
Year=2018

[/more]

Register
(15) 1968_janeart, artscald, dvlz, helvetesrike, legion01, metala, r1348, rammmirez, Rosen, satanist666, stub888, Stutthof, varg-38ru, vov7609, yuratroll,
Sep 22 2018, 18:55:15 Summoning - With Doom We Come (2018)
QUOTE(babanguida @ Sep 22 2018, 12:31:56) *
that's what this band is about bye.gif

Yes! And they are good!
(2) babanguida, wolverine,
Sep 21 2018, 20:25:32 Summoning - With Doom We Come (2018)
Very much programming and keys 16.gif
(1) MeatWolf,
Sep 1 2018, 20:32:42 Blaze Of Perdition - Conscious Darkness (2017)
Great Black Metal!
true_black.gif true_black.gif
(1) wolverine,
Aug 29 2018, 15:59:33 Scour - Red [ep] (2017)
Very good Black Metal! A black pearl. true_black.gif true_black.gif
(1) smes,
Aug 20 2018, 20:34:51 Watain - Nuclear Alchemy [single] (2017)
QUOTE(babanguida @ Oct 31 2017, 20:37:30) *
Doesn't sound as bad and mainstream as their last album.

Disappointing sound.
(1) babanguida,
Jul 16 2018, 17:36:19 Blut Aus Nord - Deus Salutis Meæ (2017)
Very occult, mystic Black Metal! Wonderful. true_black.gif true_black.gif true_black.gif
(2) babanguida, infiltrator,
Jun 25 2018, 18:18:26 Vassafor - Malediction (2017)
Very occult, ritual. Good!
true_black.gif true_black.gif
(4) babanguida, infiltrator, Occultas, wolverine,
May 12 2018, 22:13:16 Hazzerd - Misleading Evil (2017)
QUOTE(Jahmephisto @ Sep 18 2017, 19:50:55) *
Копия Destruction 2017

No not copy. They are also good!
(1) Samaritianin,
Feb 9 2018, 22:13:29 Misanthrope Monarch - Regress To The Saturnine Chapter (2017)
This guys should be satisfied so that they become known!
(2) Samaritianin, samokot,
Jan 18 2018, 21:16:09 Duskmourn - Of Shadow And Flame (2017)
Each song the same scheme.

(1) MeatWolf,
Jan 7 2018, 19:22:17 Ungeziefer - Trauerbunker [demo] (2015)
Noise - Raw Black
(1) rickzammuto,
Jan 7 2018, 19:21:43 Necrot - Blood Offerings (2017)
Very good. Like it.
(1) Samaritianin,

7 Pages V   1 2 3 > » 
- Lo-Fi Version Support form
Copyrights and abuse reports form
Time is now: 19th October 2020 - 16:24:38