Welcome Guest ( Log In | Register )

История благодарностей участнику Samaritianin ::: Спасибо сказали: 452835 раз(а)
Дата поста: В теме: За сообщение: Спасибо сказали:
Yesterday, 19:49:36 Resacrum - Ascending (2022)


*Artist: Resacrum
*Album: Ascending
*Year: 2022
*Genre: Experimental Black Metal
*Country: Poland
*Format: mp3@CBR320kbps
*Size: 103MB

Tracklist:
01. Ascending 04:52
02. Daemon that Tempts 04:42
03. Seeking 04:02
04. Longing Nights 03:38
05. Before the Clouds Fulfill the Sky 03:54
06. Pneumonia 06:14
07. Therefore Chaos 03:56
08. Burning 03:36
09. Before it Ends 04:06
10. Dying 05:38
******************************
Total playing time: 44:38



[more=Technical info]
Input File: 09 - Before it Ends.mp3
Channels : 2
Sample Rate : 44100
Precision : 16-bit
Duration : 00:04:05.00 = 10804500 samples = 18375 CDDA sectors
File Size : 9.99M
Bit Rate : 326k
Sample Encoding: MPEG audio (layer I, II or III)
Comments :
Title=Before it Ends
Artist=Resacrum
Album=Ascending
Tracknumber=9
Year=2022-07-05
Genre=Metal
Discnumber=1

[/more]

Register
(8) AlexSmith, artscald, Dante_D, Mencae77, metala, robertho777, suseka, vasiljev_sergej,
Yesterday, 19:24:34 Korveld - Deep Woods Tales (2022)


*Artist: Korveld
*Album: Deep Woods Tales
*Year: 2022
*Genre: Melodic Black Metal
*Country: Ukraine
*Format: mp3@CBR320kbps
*Size: 114MB

Tracklist:
1. The Horde 04:48
2. Legend of the Seas 04:14
3. Haunter of the Dark 05:25
4. Trolls of Hedal 05:49
5. Plague Grove 03:56
6. Overthrow the Witch 05:08
7. Dragonheads (Ensiferum cover) 05:18
8. Ode to Winter 04:28
9. La Fin Absolue Du Monde 05:29
10. Vessel for Purification 04:51
******************************
Total playing time: 49:26




[more=Extended info]Korveld Everything
See also: ex-Despondence, ex-Utburd, ex-The Infestation (live), ex-Veritas, ex-Тирания, ex-Шквал
[youtube]ffyJ5tvOSdI[/youtube][/more]

[more=Technical info]
Input File: 07 - Dragonheads.mp3
Channels : 2
Sample Rate : 44100
Precision : 16-bit
Duration : 00:05:17.00 = 13979700 samples = 23775 CDDA sectors
File Size : 12.8M
Bit Rate : 324k
Sample Encoding: MPEG audio (layer I, II or III)
Comments :
Title=Dragonheads
Artist=嘀愀爀椀攀琀攀猀
Album=Deep Woods Tales
Tracknumber=7
Year=2022-07-01
Genre=Metal
Discnumber=1

[/more]

Register
(11) aleon, AlexSmith, Altkiller, artscald, isvili, krotovich, metala, robertho777, sergsazan, terron, vasiljev_sergej,
Yesterday, 17:39:47 Natura Aeternum - Reminiscencia (2022)


*Artist: Natura Aeternum
*Album: Reminiscencia
*Year: 2022
*Genre: Epic/Atmospheric Black Metal/Ambient
*Country: Colombia
*Format: mp3@CBR320kbps
*Size: 104MB

Tracklist:
1. Melodias 02:04 instrumental
2. La nieve es fantasía 06:27
3. Atrapado en la nieve 09:07
4. Ermitaño 04:12
5. Alfa 07:12
6. Alientos de seguir 10:42
7. Lobo 04:56 instrumental
******************************
Total playing time: 44:40




[more=Extended info]Alexis Salazar All instruments, Vocals (2019-present)
See also: Killer Klown, The Mystic Forest, Urban Nightmare, ex-Colourless Room, ex-Spectrum of Eternity
Fernanda Tabares Vocals (2020-present)[/more]

[more=Technical info]
Input File: Natura Aeternum - Reminiscencia - 05 Alfa.mp3
Channels : 2
Sample Rate : 44100
Precision : 16-bit
Duration : 00:07:12.09 = 19055125 samples = 32406.7 CDDA sectors
File Size : 17.5M
Bit Rate : 324k
Sample Encoding: MPEG audio (layer I, II or III)
Comments :
Title=Alfa
Artist=Natura Aeternum
Album=Reminiscencia
Tracknumber=5
Year=2022

[/more]

Register
(10) aleon, AlexSmith, Altkiller, artscald, Dante_D, kim666, robertho777, sergsazan, suseka, vasiljev_sergej,
Yesterday, 13:06:23 Golgata - Ur Eld Och Aska (2022)


*Artist: Golgata
*Album: Ur Eld Och Aska
*Year: 2022
*Genre: Melodic Black Metal
*Country: Sweden
*Format: mp3@CBR320kbps
*Size: 77MB

Tracklist:
01. Ur Eld Och Aska 04:33
02. Undersåtar 04:15
03. Liv För En Gud 04:14
04. Vagabond 06:22
05. Återkomst 03:44
06. En Sista Synd Innan Fallet 04:31
07. Marvatten 04:24
08. Vagabond II 01:27
******************************
Total playing time: 33:30




[more=Extended info]Spokesman 2 Bass, Vocals, Guitars (2014-present)
See also: Katapultium, Vandöd, ex-The Gardnerz
Spokesman 1 Guitars (2014-present)
[youtube]fcAgzvNfcoo[/youtube]
[youtube]fjUvqBS6JOA[/youtube][/more]

[more=Technical info]
Input File: 07 - Marvatten.mp3
Channels : 2
Sample Rate : 44100
Precision : 16-bit
Duration : 00:04:24.00 = 11642400 samples = 19800 CDDA sectors
File Size : 10.7M
Bit Rate : 325k
Sample Encoding: MPEG audio (layer I, II or III)
Comments :
Title=Marvatten
Artist=Golgata
Album=Ur eld och aska
Tracknumber=7
Year=2022-07-07
Genre=Metal
Discnumber=1

[/more]

Register
(14) aleon, AlexSmith, Altkiller, artscald, legion01, Marek, metala, metalwoman, robertho777, sergsazan, suseka, vasiljev_sergej, zhol, Сварог Барг,
Yesterday, 03:02:29 Entrapped - Pohřebiště Popela (2022)
FLAC (Tracks) 254 mb
Register
(2) Marek, suseka,
Yesterday, 03:00:10 Vomit Forth - Seething Malevolence (2022)
FLAC (Tracks) 226 mb
Register
(3) Ignativs, Marek, suseka,
Yesterday, 00:00:22 Entrapped - Pohřebiště Popela (2022)


*Artist: Entrapped
*Album: Pohřebiště Popela
*Year: 2022
*Genre: Old School Death Metal
*Country: Czech Republic
*Format: mp3@CBR320kbps
*Size: 77MB

Tracklist:
1. Intro 02:34
2. Víc Satan než Satan 02:07
3. Krysy 02:39
4. Pohřebiště popela 04:28
5. Surfování na vlnách chaosu 03:24
6. Hnijící větev 03:07
7. Paměť 02:49
8. Poslední člověk 04:05
9. Žádné odpuštění 02:27
10. Smrtí to nekončí 04:50
******************************
Total playing time: 32:30




[more=Extended info]Růžena Bass, Vocals
See also: ex-Kuzimu Mabaya, ex-Mineral Collaps
Lukáš Drums
Mirža Guitars
See also: ex-Kuzimu Mabaya, Lucky Star, ex-Poslední slovo
Víťan Guitars
See also: ex-Kuzimu Mabaya
[youtube]37m7kHWCzsk[/youtube][/more]

[more=Technical info]
Input File: 10 Smrtí to nekončí.mp3
Channels : 2
Sample Rate : 44100
Precision : 16-bit
Duration : 00:04:50.42 = 12807610 samples = 21781.6 CDDA sectors
File Size : 11.8M
Bit Rate : 326k
Sample Encoding: MPEG audio (layer I, II or III)
Comments :
Title=Smrtí to nekončí
Artist=Entrapped
Album=Pohřebiště Popela
Tracknumber=10
Year=2022
Genre=Death Metal

[/more]

Register
(9) alikkon, andreikun, artscald, Bzth, canco994, Sarin, stumpheavyrock, suseka, zhol,
Jul 5 2022, 23:42:26 Vomit Forth - Seething Malevolence (2022)


*Artist: Vomit Forth
*Album: Seething Malevolence
*Year: 2022
*Genre: Brutal Death Metal
*Country: United States
*Format: mp3@CBR320kbps
*Size: 71MB

Tracklist:
1. Intro
2. Eucharist Intact
3. Pain Tolerance
4. Tortured Sacrament
5. Unrecognizable
6. Seething Malevolence
7. Severely Wounded
8. Carnivorous Incantation
9. I Feel Nothing
10. Predatory Savior
11. Pious Killing Floor
******************************
Total playing time: 29:18




[more=Extended info]Tyler Bidwell Bass
Nick Herrmann Drums
See also: Detriment, Living Weapon, Separated
Ricky Brayall Guitars
Kane Gelaznik Vocals
See also: ex-The Stillborn Extraction, Bleed, DiLatE
[youtube]2g_C6rct98o[/youtube]
[youtube]Ggc41OvRLDw[/youtube][/more]

[more=Technical info]
Input File: 11. Pious Killing Floor.mp3
Channels : 2
Sample Rate : 44100
Precision : 16-bit
Duration : 00:05:04.19 = 13414735 samples = 22814.2 CDDA sectors
File Size : 12.6M
Bit Rate : 331k
Sample Encoding: MPEG audio (layer I, II or III)
Comments :
Title=Pious Killing Floor
Artist=Vomit Forth
Album=Seething Malevolence
Tracknumber=11
Year=2022
Genre=Metal

[/more]

Register
(8) Adskij, artscald, BandR75, infozahist, maochen, older68, suseka, yinchanghanhuang,
Jul 5 2022, 18:33:36 Trendkill - Colors Of Self (2022)


*Artist: Trendkill
*Album: Colors Of Self
*Year: 2022
*Genre: Thrash Metal/Hardcore
*Country: Macedonia
*Format: mp3@CBR320kbps
*Size: 91MB

Tracklist:
01. Dolina 03:22
02. Agent na Smrtta 05:23
03. Nikogas Poveke 02:50
04. Otvori Oci 03:38
05. Confront the Pain 05:41
06. These Chains 03:20
07. Punishment 05:13
08. Enemies 03:34
09. We Will Rise 02:28
10. Power to Decay 03:27
******************************
Total playing time: 38:56




[more=Technical info]
Input File: 07 - Punishment.mp3
Channels : 2
Sample Rate : 44100
Precision : 16-bit
Duration : 00:05:13.00 = 13803300 samples = 23475 CDDA sectors
File Size : 12.7M
Bit Rate : 324k
Sample Encoding: MPEG audio (layer I, II or III)
Comments :
Title=Punishment
Artist=Trendkill HC
Album=Colors of Self
Tracknumber=7
Year=2022-07-04
Discnumber=1

[/more]

Register
(9) artscald, boby9052, infozahist, Marek, metala, metaljosue, stumpheavyrock, suseka, thrashiac55,
Jul 5 2022, 13:48:53 The Deniers - Corona Avant​-​garde [ep] (2022)


*Artist: The Deniers
*Album: Corona Avant​-​garde [ep]
*Year: 2022
*Genre: Thrash Metal
*Country: United States
*Format: mp3@CBR320kbps
*Size: 50MB

Tracklist:
1. Corona Deniers 02:04
2. The Pfizer Ghetto Uprising 03:12
3. Corona Avant-garde 02:36
4. I.M.F 03:52
5. Vaccines and Blue Pills 02:28
6. We Shall Prevail 05:21
7. Love the Virus (Manny Fingerz cover) 01:38
******************************
Total playing time: 21:11




[more=Extended info]Paul Denier Drums
Kevin Denier Guitars, Bass, Vocals
[youtube]xvNhd0Yy7d4[/youtube]
[youtube]nW8_JkbXrvo[/youtube][/more]

[more=Technical info]
Input File: The Deniers - Corona Avant-garde - 06 We Shall Prevail.mp3
Channels : 2
Sample Rate : 44100
Precision : 16-bit
Duration : 00:05:21.56 = 14180752 samples = 24116.9 CDDA sectors
File Size : 13.1M
Bit Rate : 325k
Sample Encoding: MPEG audio (layer I, II or III)
Comments :
Title=We Shall Prevail
Artist=The Deniers
Album=Corona Avant-garde
Tracknumber=6
Year=2022

[/more]

Register
(12) artscald, boby9052, chipsgott, GorAtheist, Marek, metala, metaljosue, older68, sergsazan, stumpheavyrock, thrashiac55, Vitald,
Jul 5 2022, 12:30:53 Schizophrenia - The Unknown Legacy [compilation] (2018)


*Artist: Schizophrenia
*Album: The Unknown Legacy [compilation]
*Year: 2018
*Genre: Thrash Metal
*Country: Argentina
*Format: mp3@CBR320kbps
*Size: 128MB

Tracklist:
1. Obsession for the Dominion 04:14
2. Torture for Them 03:36
3. Macabre Work 03:28
4. Autodestruction 04:04
5. Toxic of Death 03:26
6. Ideology 03:29
7. Autodestruction (Live) 03:28
8. Torture for Them (Live) 03:36
9. Toxic of Death (Live) 03:37
10. Screams Behind the Shadows (Sepultura cover) (Live) 04:33
******************************
Total playing time: 37:31



[more=Extended info]CD-Rip+Scans
Sergio Nacach Bass
See also: ex-Mayhem
Blacky Drums
Eduardo Robledo Vocals, Guitars
See also: ex-Necrophiliac
[youtube]1iUlJc73bzA[/youtube][/more]

[more=Technical info]
Input File: 07 - Autodestruction .mp3
Channels : 2
Sample Rate : 44100
Precision : 16-bit
Duration : 00:03:27.95 = 9170551 samples = 15596.2 CDDA sectors
File Size : 8.32M
Bit Rate : 320k
Sample Encoding: MPEG audio (layer I, II or III)
Comments :
Title=Autodestruction
Artist=Schizophrenia
Album=The Unknown Legacy
Tracknumber=7
Year=2018
Genre=Thrash Metal

[/more]

Register
(7) artscald, infozahist, Moonshtook, stumpheavyrock, thrashiac55, Thrashman, wgs73,
Jul 5 2022, 11:16:34 Vetehin - Neutron (2022)


*Artist: Vetehin
*Album: Neutron
*Year: 2022
*Genre: Doom Metal
*Country: Finland
*Format: mp3@CBR320kbps
*Size: 105MB

Tracklist:
1. Terminal 07:15
2. Monochrome 06:59
3. Ensnared by the Divine 06:01
4. Vetehin 05:42
5. Wizards 06:15
6. Binary 01:13
7. Final Tale 05:24
8. Brethren 06:49
******************************
Total playing time: 45:38




[more=Technical info]
Input File: VETEHIN - Neutron - 07 Final Tale.mp3
Channels : 2
Sample Rate : 44100
Precision : 16-bit
Duration : 00:05:24.43 = 14307451 samples = 24332.4 CDDA sectors
File Size : 13.1M
Bit Rate : 323k
Sample Encoding: MPEG audio (layer I, II or III)
Comments :
Title=Final Tale
Artist=VETEHIN
Album=Neutron
Tracknumber=7
Year=2022

[/more]

Register
(9) artscald, infozahist, Marek, metala, sergsazan, stumpheavyrock, suseka, VALERY, zhol,
Jul 4 2022, 18:25:51 Ornæmental Shine - Deima Panikon (2022)


*Artist: Ornæmental Shine
*Album: Deima Panikon
*Year: 2022
*Genre: Black Metal
*Country: Mexico
*Format: mp3@CBR320kbps
*Size: 68MB

Tracklist:
1. Numinous Presence 08:15
2. Mysterium Tremendum et Fascinans 13:05
3. Apokathastasis 07:56
******************************
Total playing time: 29:16




[more=Extended info]Alberto Allende Drums
See also: Mordskog, Repvblika, Strike Master, ex-Nemesis Ocvlta, ex-Blackthorn, ex-Hacavitz, ex-Toxic Hate, ex-Vital Remains (live)
Ikanunna Bg Guitars, Bass
See also: Andramelech, Black Hate, Nostalgie, Repvblika, Tiradero de Cadaveres, Venenum Serpentis, Dead, ex-78424325, ex-Secretly in Pain, ex-(((o))), Cold Wind, ex-E.O.R., ex-Infernal Hate, ex-Lifeless Within, ex-Lupus Nocturnus, ex-Deep-pression
Faust Lyrics, Concept
Marcos Barba Vocals
See also: ex-Under Moonlight Sadness, ex-Asgard, ex-Repvblika
Jake Superchi Vocals
See also: Ceremonial Castings, MotörThrone, Thy Emptiness, Uada, ex-Serpent Lord, ex-The Dead, ex-Mysticism Black (live), ex-Detrusion[/more]

[more=Technical info]
Input File: 03 - Apokathastasis.mp3
Channels : 2
Sample Rate : 44100
Precision : 16-bit
Duration : 00:07:56.00 = 20991600 samples = 35700 CDDA sectors
File Size : 19.2M
Bit Rate : 323k
Sample Encoding: MPEG audio (layer I, II or III)
Comments :
Title=Apokathastasis
Artist=Ornæmental Shine
Album=Deima Panikon
Tracknumber=3
Year=2022-06-16
Genre=Metal
Discnumber=1

[/more]

Register
(14) AlexSmith, alikkon, artscald, kim666, Mencae77, nemx, robertho777, satanist666, stormhatt, suseka, VALERY, vasiljev_sergej, yinchanghanhuang, yuratroll,
Jul 4 2022, 17:56:01 Deer Blood - Slaves Of Liberty (2022)


*Artist: Deer Blood
*Album: Slaves Of Liberty
*Year: 2022
*Genre: Groove/Thrash Metal
*Country: France
*Format: mp3@CBR320kbps
*Size: 108MB

Tracklist:
1. Perpetual Lies 02:11
2. Slaves of Liberty 03:37
3. Into My Eyes 05:15
4. Scapegod 04:03
5. Scissors of Anastasia 05:22
6. Garden of Eve 04:13
7. Seven 04:57
8. Down with the Horns 05:38
9. Escape 03:34
10. Repentance 08:06
******************************
Total playing time: 46:56



[more=Extended info]Julien Prost Bass
See also: Exanimis
Fabien Petit Drums
Julien Doucin Guitars
Alexandre Bourret Vocals, Guitars (2011-present)
[youtube]6LPc-xh0B7I[/youtube][/more]

[more=Technical info]
Input File: 05 - Scissors of Anastasia.mp3
Channels : 2
Sample Rate : 44100
Precision : 16-bit
Duration : 00:05:22.00 = 14200200 samples = 24150 CDDA sectors
File Size : 13.0M
Bit Rate : 322k
Sample Encoding: MPEG audio (layer I, II or III)
Comments :
Title=Scissors of Anastasia
Artist=Deer Blood
Album=Slaves of Liberty
Tracknumber=5
Year=2022-07-01
Genre=Metal
Discnumber=1

[/more]

Register
(9) artscald, boby9052, Buregon, chipsgott, Marek, metala, stumpheavyrock, suseka, tschunioronbeer,
Jul 4 2022, 17:22:00 Befoul - The Foulest Of The Foul [ep] (2022)


*Artist: Befoul
*Album: The Foulest Of The Foul [ep]
*Year: 2022
*Genre: Death Metal
*Country: United States
*Format: mp3@CBR320kbps
*Size: 32MB

Tracklist:
1. Chummed 02:32
2. Head on a Pike 03:04
3. Stabbed to Death 03:50
4. Buried in Cement 03:31
5. The Foulest of the Foul 00:43
******************************
Total playing time: 13:40




[more=Technical info]
Input File: 04 - Buried in Cement.mp3
Channels : 2
Sample Rate : 44100
Precision : 16-bit
Duration : 00:03:31.00 = 9305100 samples = 15825 CDDA sectors
File Size : 8.58M
Bit Rate : 325k
Sample Encoding: MPEG audio (layer I, II or III)
Comments :
Title=Buried in Cement
Artist=Befoul
Album=The Foulest of the Foul
Tracknumber=4
Year=2022-07-01
Genre=Alternative
Discnumber=1

[/more]

Register
(8) artscald, chipsgott, desekrator, GorAtheist, Ignativs, Marek, VALERY, vyacheslav,
Jul 4 2022, 12:33:53 Citizen Vicious - Headbanger Assault (2018)


*Artist: Citizen Vicious
*Album: Headbanger Assault
*Year: 2018
*Genre: Thrash 'n' Roll
*Country: Canada
*Format: mp3@CBR320kbps
*Size: 60MB

Tracklist:
1. Hellride 03:22
2. Hold My Beer 02:43
3. Better than You 02:29
4. Power Insane 03:44
5. Thrash n' Roll 03:06
6. Dirty Pussy 03:17
7. Sunday Driver 02:40
8. Drunken Disorder 04:31
******************************
Total playing time: 25:52




[more=Extended info]Olivier (OliShit) Guy Vocals
Pierre-Yves (Pete) Bourgie Guitars (lead)
Guillaume Breton Bass
Pascal Langevin Drums
[youtube]g6EN6WF2VwQ[/youtube]
[youtube]xgPPaUIiK7E[/youtube][/more]

[more=Technical info]
Input File: 08 - Drunken Disorder.mp3
Channels : 2
Sample Rate : 44100
Precision : 16-bit
Duration : 00:04:30.33 = 11921553 samples = 20274.8 CDDA sectors
File Size : 10.9M
Bit Rate : 322k
Sample Encoding: MPEG audio (layer I, II or III)
Comments :
Title=Drunken Disorder
Artist=Citizen Vicious
Album=Headbanger Assault
Tracknumber=8/8
Year=2018

[/more]

Register
(9) Alextoner, artscald, boby9052, chipsgott, metala, sergsazan, stumpheavyrock, suseka, Vitald,
Jul 4 2022, 12:24:32 Citizen Vicious - Loud Mean Fast Dirty (2014)


*Artist: Citizen Vicious
*Album: Loud Mean Fast Dirty
*Year: 2014
*Genre: Thrash 'n' Roll
*Country: Canada
*Format: mp3@CBR320kbps
*Size: 68MB

Tracklist:
1. Tonight 03:28
2. Shit-Faced 03:57
3. Thunder-Cunt 03:02
4. The Reaper 03:12
5. Payback 02:18
6. Welcome to Hell 02:11
7. Loud Mean Fast Dirty 03:49
8. Evil Eyes 02:43
******************************
Total playing time: 24:40




[more=Extended info]Olivier (OliShit) Guy Vocals
Pierre-Yves (Pete) Bourgie Guitars (lead)
Guillaume Breton Bass
Pascal Langevin Drums
[youtube]7FuqzMcyUa8[/youtube][/more]

[more=Technical info]
Input File: 07 - Loud Mean Fast Dirty.mp3
Channels : 2
Sample Rate : 44100
Precision : 16-bit
Duration : 00:03:49.55 = 10123155 samples = 17216.2 CDDA sectors
File Size : 9.35M
Bit Rate : 326k
Sample Encoding: MPEG audio (layer I, II or III)
Comments :
Title=Loud Mean Fast Dirty
Artist=Citizen Vicious
Album=Loud Mean Fast Dirty
Tracknumber=7/1

[/more]

Register
(7) artscald, boby9052, chipsgott, sergsazan, stumpheavyrock, suseka, thrashiac55,
Jul 4 2022, 11:20:57 Wülfskol - Hellshock (2017)


*Artist: Wülfskol
*Album: Hellshock
*Year: 2017
*Genre: Black/Speed/Thrash Metal/Punk
*Country: United States
*Format: mp3@CBR320kbps
*Size: 54MB

Tracklist:
1. I Am the Devils Blood 02:07
2. Age of Fire 02:26
3. Violator 01:29
4. Screamin Cheetah Roll 03:52
5. Lucifer's Spell 05:04
6. Deliver Us 01:40
7. Succubus 02:24
8. Hellshock 04:09
******************************
Total playing time: 23:11




[more=Extended info]Shane Wilson Bass, Vocals (2018-present)
See also: To Scale the Throne, Splinters of Death (live)
Hector Tenorio Drums
See also: Zike, ex-The Takes
Zike Lee Guitars
See also: Zike, ex-Designated Bozos
David Herrera Vocals
See also: Imprecation, ex-Bahimiron, ex-Christ Dismembered, ex-Black Boned Angel, ex-Morbus
[youtube]CRFXdBw878I[/youtube]
[youtube]IL6t6GnCxHA[/youtube][/more]

[more=Technical info]
Input File: 05 - Lucifer\'s Spell.mp3
Channels : 2
Sample Rate : 44100
Precision : 16-bit
Duration : 00:05:04.00 = 13406400 samples = 22800 CDDA sectors
File Size : 12.3M
Bit Rate : 324k
Sample Encoding: MPEG audio (layer I, II or III)
Comments :
Title=Lucifer's Spell
Artist=Wulfskol
Album=Hellshock
Tracknumber=5
Year=2017-05-28
Genre=Metal
Discnumber=1

[/more]

Register
(7) artscald, boby9052, sergsazan, stormhatt, stumpheavyrock, suseka, wgs73,
Jul 4 2022, 11:07:56 Wülfskol - Satanik Death Militia [ep] (2021)


*Artist: Wülfskol
*Album: Satanik Death Militia [ep]
*Year: 2021
*Genre: Black/Speed/Thrash Metal/Punk
*Country: United States
*Format: mp3@CBR320kbps
*Size: 39MB

Tracklist:
1. Mortuus Cult 03:18
2. Nuklear Wülfmacht 02:37
3. Radiation Vortex 03:15
4. Dogs of the Inverted Cross 02:19
5. Reaktor 4 02:24
6. Theme for Lamashtu 02:44
******************************
Total playing time: 16:37




[more=Extended info]Shane Wilson Bass, Vocals (2018-present)
See also: To Scale the Throne, Splinters of Death (live)
Hector Tenorio Drums
See also: Zike, ex-The Takes
Zike Lee Guitars
See also: Zike, ex-Designated Bozos
David Herrera Vocals
See also: Imprecation, ex-Bahimiron, ex-Christ Dismembered, ex-Black Boned Angel, ex-Morbus 666
[youtube]_PTS5ZKgUd0[/youtube][/more]

[more=Technical info]
Input File: 01 - Mortuus Cult.mp3
Channels : 2
Sample Rate : 44100
Precision : 16-bit
Duration : 00:03:18.00 = 8731800 samples = 14850 CDDA sectors
File Size : 8.15M
Bit Rate : 329k
Sample Encoding: MPEG audio (layer I, II or III)
Comments :
Title=Mortuus Cult
Artist=Wulfskol
Album=Satanik Death Militia
Tracknumber=1
Year=2021-08-01
Genre=Metal
Discnumber=1

[/more]

Register
(9) artscald, boby9052, sergsazan, sludge666, stormhatt, stumpheavyrock, thrashiac55, Vitald, wgs73,
Jul 4 2022, 09:43:42 Ironflame - Where Madness Dwells (2022)


*Artist: Ironflame
*Album: Where Madness Dwells
*Year: 2022
*Genre: Heavy/Power Metal
*Country: United States
*Format: mp3@CBR320kbps
*Size: 91MB

Tracklist:
1. Everlasting Fire 04:38
2. Under the Spell 04:45
3. Kingdom of Lies 04:52
4. A Funeral Within 05:33
5. Ready to Strike 03:50
6. The Phantom Flame 04:28
7. A Curse Upon Mankind 05:03
8. Where Madness Dwells 06:06
******************************
Total playing time: 39:15




[more=Extended info]Andrew D'Cagna Everything
See also: Coldfells, Icarus Witch, Infirmary, Nechochwen, Unwilling Flesh, ex-Angelrust, ex-Moonthrone, ex-Silverblood, Brimstone Coven, Forest of the Soul, ZOM, ex-Dofka, ex-Obsequiae, ex-Dethroned, ex-Harvist
[youtube]5-hhx_S6sM8[/youtube]
[youtube]5aO5O3fbRPQ[/youtube][/more]

[more=Technical info]
Input File: 07 - A Curse Upon Mankind.mp3
Channels : 2
Sample Rate : 44100
Precision : 16-bit
Duration : 00:05:03.00 = 13362300 samples = 22725 CDDA sectors
File Size : 12.3M
Bit Rate : 324k
Sample Encoding: MPEG audio (layer I, II or III)
Comments :
Title=A Curse Upon Mankind
Artist=IRONFLAME
Album=Where Madness Dwells
Tracknumber=7
Year=2022-07-01
Genre=Metal
Discnumber=1

[/more]

Register
(12) ace73pq, artscald, boby9052, guidanner, Herrant, Ignativs, Marek, metala, metalwoman, Olrak, wgs73, Сварог Барг,
Jul 3 2022, 23:07:09 Goatblood - Blooddawn​/​annihilation Of This World (2021)


*Artist: Goatblood
*Album: Blooddawn​/​annihilation Of This World
*Year: 2021
*Genre: Black/Death Metal
*Country: Germany
*Format: mp3@CBR320kbps
*Size: 121MB

Tracklist:
01. Intro 03:13
02. Brutal Colonized 03:26
03. Planet Gut 03:08
04. Heinous Runs Out Anus 02:50
05. Swept Away By Flood 03:00
06. Scum Abortion 02:53
07. Entrails Harvester 03:03
08. Bombing Blood 02:22
09. Outro 02:28
10. Intro 01:46
11. Filthy Fetus 02:40
12. Hog House 03:12
13. Höhlenspalter 02:41
14. Defloration Ax 03:07
15. Perverted Brute 02:54
16. Traitors Inside 03:29
17. The Knights Have Risen 03:31
18. Outro 01:41
******************************
Total playing time: 51:24




[more=Extended info]Satanic Death Vulva Bass, Vocals, Guitars
Reverend Slayer Drums, Vocals[/more]

[more=Technical info]
Input File: 07 - Entrails Harvester.mp3
Channels : 2
Sample Rate : 44100
Precision : 16-bit
Duration : 00:03:03.00 = 8070300 samples = 13725 CDDA sectors
File Size : 7.56M
Bit Rate : 330k
Sample Encoding: MPEG audio (layer I, II or III)
Comments :
Title=Entrails Harvester
Artist=Goatblood
Album=Blooddawn/Annihilation Of This World
Tracknumber=7
Year=2021-12-27
Genre=Metal
Discnumber=1

[/more]

Register
(15) AlexSmith, artscald, gena, kim666, Mencae77, pwoods, rominow, RUSP73, Sarin, Slammingmoji, supremo, suseka, VALERY, vasiljev_sergej, wreak,
Jul 3 2022, 19:05:12 Beehn - Beehn (2022)


*Artist: Beehn
*Album: Beehn
*Year: 2022
*Genre: Post-Black Metal
*Country: Unknown
*Format: mp3@CBR320kbps
*Size: 119MB

Tracklist:
01. Anguish 05:38
02. Anger 03:01
03. Corruption 09:07
04. Composure 03:59
05. Defiance 03:44
06. Valor 05:15
07. Perseverance 03:38
08. Vitality 12:10
09. Reflection 05:40
******************************
Total playing time: 52:12




[more=Technical info]
Input File: 07 - Perseverance.mp3
Channels : 2
Sample Rate : 44100
Precision : 16-bit
Duration : 00:03:38.00 = 9613800 samples = 16350 CDDA sectors
File Size : 8.78M
Bit Rate : 322k
Sample Encoding: MPEG audio (layer I, II or III)
Comments :
Title=Perseverance
Artist=Beehn
Album=Beehn
Tracknumber=7
Year=2022-07-02
Genre=Metal
Discnumber=1

[/more]

Register
(12) aleon, artscald, Dante_D, kim666, Mencae77, robertho777, stormhatt, supremo, suseka, VALERY, vasiljev_sergej, wreak,
Jul 3 2022, 18:38:20 Lord Vigo - We Shall Overcome (2022)


*Artist: Lord Vigo
*Album: We Shall Overcome
*Year: 2022
*Genre: Epic Doom Metal
*Country: Germany
*Format: mp3@CBR320kbps
*Size: 119MB

Tracklist:
1. Blessed Are the Meek 01:02
2. The Heart of Eternal Night 06:54
3. Natural Habitat 04:36
4. Since the Sun Was Young 05:33
5. From Our Ashes We Will Rise 05:10
6. A Journey to Eternity 01:49
7. We Shall Overcome 07:53
8. A Gathering of Clouds 04:46
9. A Necessary Evil 05:08
10. 1986 (Book 1: The Vision) 01:36
11. A New Dark Age 07:10
******************************
Total playing time: 51:37




[more=Extended info]Vinz Clortho Drums, Vocals
See also: ex-Roadrash/Skellington, ex-Oblivion
Tony Scoleri Guitars, Bass
See also: Hammer King, ex-Ivory Night, ex-Bad Mean Tone, The Beautiful Dead, ex-Ross the Boss, ex-Men of War
Volguus Zildrohar Guitars, Bass
See also: ex-Roadrash/Skellington, The Beautiful Dead
[youtube]l6StGmoYBU4[/youtube][/more]

[more=Technical info]
Input File: 07 - Lord Vigo - We Shall Overcome.mp3
Channels : 2
Sample Rate : 44100
Precision : 16-bit
Duration : 00:07:53.26 = 20870898 samples = 35494.7 CDDA sectors
File Size : 19.0M
Bit Rate : 321k
Sample Encoding: MPEG audio (layer I, II or III)
Comments :
Title=We Shall Overcome
Artist=Lord Vigo
Album=We Shall Overcome
Tracknumber=7
Year=2022
Genre=

[/more]

Register
(24) Anatol, artscald, BladeOvDarkness, boby9052, Buregon, chipsgott, doomTemplar, LaBombonera, Lux, Mannard, metala, Mihalik, Olrak, postal67, Rover, SatanicPanzer, sergsazan, smes, supremo, suseka, Uriel, VALERY, wreak, zhol,
Jul 3 2022, 18:05:31 Asterean - Cosmorama (2022)


*Artist: Asterean
*Album: Cosmorama
*Year: 2022
*Genre: Melodic Black/Death Metal
*Country: Brazil
*Format: mp3@CBR320kbps
*Size: 78MB

Tracklist:
1. Rite to the Sun (Intro)
2. Perseus
3. Coral Reef
4. Once in a Dream
5. Poseidonis
6. Cosmorama
******************************
Total playing time: 33:21




[more=Extended info]Eduardo Ayres Bass (2020-present)
See also: ex-Spreading Hate, ex-Espera XIII (live)
Fernando Henrique Ribeiro Drums (2020-present)
See also: ex-Hugin Munin
Renan Brito Guitars, Vocals, Keyboards (2020-present)
See also: ex-Espera XIII, ex-Spreading Hate
Rubstein Wilker Vocals (2020-present)
See also: ex-Espera XIII (live)[/more]

[more=Technical info]
Input File: 05 - Poseidonis.mp3
Channels : 2
Sample Rate : 44100
Precision : 16-bit
Duration : 00:05:03.82 = 13398462 samples = 22786.5 CDDA sectors
File Size : 12.2M
Bit Rate : 322k
Sample Encoding: MPEG audio (layer I, II or III)
Comments :
Title=Poseidonis
Artist=Asterean
Album=Cosmorama
Tracknumber=5/6
Year=2022

[/more]

Register
(11) AlexSmith, artscald, Druidir, SatanicPanzer, SatanMy_Master, sergsazan, supremo, TeamatSE, VALERY, wreak, Сварог Барг,
Jul 3 2022, 17:37:01 Gozer - An Endless Static (2022)


*Artist: Gozer
*Album: An Endless Static
*Year: 2022
*Genre: Atmospheric/Post-Metal
*Country: United Kingdom
*Format: mp3@CBR320kbps
*Size: 108MB

Tracklist:
1. Into The Grey 10:02
2. Augur 07:53 video
3. A Fading Light 08:51
4. Desiderium 09:31
5. Wintercearig 10:56
******************************
Total playing time: 47:13



[more=Extended info]TJ Fairfax
Keiran Sockett
Craig Paul[/more]

[more=Technical info]
Input File: 03 - A Fading Light.mp3
Channels : 2
Sample Rate : 44100
Precision : 16-bit
Duration : 00:08:51.00 = 23417100 samples = 39825 CDDA sectors
File Size : 21.3M
Bit Rate : 321k
Sample Encoding: MPEG audio (layer I, II or III)
Comments :
Title=A Fading Light
Artist=Gozer
Album=An Endless Static
Tracknumber=3
Year=2022-06-17
Genre=Rock
Discnumber=1

[/more]

Register
(11) aleon, artscald, Dante_D, kim666, robertho777, sergsazan, sludge666, supremo, suseka, VALERY, wreak,

1075 Pages V   1 2 3 > » 
- Lo-Fi Version Support form
Copyrights and abuse reports form
Time is now: 7th July 2022 - 13:48:22