Welcome Guest ( Log In | Register )

История благодарностей участнику Samaritianin ::: Спасибо сказали: 150111 раз(а)
Дата поста: В теме: За сообщение: Спасибо сказали:
Yesterday, 09:17:53 Abythic - Beneath Ancient Portals (2018)
Register
(2) BERZERK, SymbyoticEntity,
Yesterday, 09:00:45 Mass Execution - The Day Before The Execution (2017)


*Artist: Mass Execution
*Album: The Day Before The Execution
*Year: 2017
*Genre: Old School Thrash Metal
*Country: Italy
*Format: mp3@CBR256kbps
*Size: 55MB

Tracklist:
1. Mass Execution
2. Black Clouds
3. Strange Faith
4. Parasite
5. Lesson In Violence (Exodus) C
6. The Day Before The Execution
7. Illusion + Outro
******************************
Total playing time: 30:31



[more=Extended info]Davide Montinaro - guitars - Mass execution div../ Tyrannizer Örder
Nico Lassandro - guitars - Tales of DeliriÄ / Mass execution div/ Dark Sight
Donato Colacicco - Mass execution div.
Max Marzocca - drums - Natron / Tyrannizer Order / The Ossuary
Dario De Falco - bass - BACKJUMPER / The Ossuary / Natron
Mimmo Frioli - drums - Heart Failure
[youtube]Q8po9coYvTo[/youtube][/more]

[more=Technical info]
Input File: 01 - Mass Execution.mp3
Channels : 2
Sample Rate : 44100
Precision : 16-bit
Duration : 00:04:46.45 = 12632621 samples = 21484 CDDA sectors
File Size : 9.17M
Bit Rate : 256k
Sample Encoding: MPEG audio (layer I, II or III)
Comments :
Title=Mass Execution
Artist=Mass Execution
Album=The Day Before The Execution
Tracknumber=1
Year=2017
Genre=Thrash Metal

[/more]

Register
(8) andreikun, lyukon, metala, pichileon, Rover, SymbyoticEntity, Visitor, wgs73,
Yesterday, 06:45:00 Abythic - Beneath Ancient Portals (2018)


*Artist: Abythic
*Album: Beneath Ancient Portals
*Year: 2018
*Genre: Old School Death Metal
*Country: Germany
*Format: mp3@VBR278kbps
*Size: 81MB

Tracklist:
1. Prelude to Obscurity 02:30
2. Purulent Phantasm 05:04
3. Abandoned Tombs on Ungodly Grounds 05:34
4. Beneath Ancient Portals (The Gate of Ganzir) 05:59
5. Redemption Through Soul Transfusion 03:58
6. T.H.O.N. 05:54
7. Afterwards Behind Beyond 06:00
8. Depths of Oblivion 05:19
******************************
Total playing time: 40:18





[more=Extended info]CD-Rip
MDB Drums (2015-present)
See also: ex-Soulside, ex-Pestnebel, ex-Fiend, ex-Impure, ex-Tairach
Diego Bass (2016-present)
See also: Asphixation, Hatred Inherit, Orphalis, ex-Addicted to Carnage
Max Werner Guitars (2016-present)
See also: Erazor, Witching Hour, Luzifer (live), ex-Blood Atonement
Leimy Vocals (2016-present)
See also: Reckless Manslaughter[/more]

[more=Technical info]
Input File: 02-abythic-purulent_phantasm.mp3
Channels : 2
Sample Rate : 44100
Precision : 16-bit
Duration : 00:05:03.52 = 13385056 samples = 22763.7 CDDA sectors
File Size : 10.5M
Bit Rate : 277k
Sample Encoding: MPEG audio (layer I, II or III)
Comments :
Title=Purulent Phantasm
Artist=Abythic
Album=Beneath Ancient Portals
Tracknumber=2/8
Year=2018-05-11
Genre=Death Metal

[/more]

Register
(12) andreikun, jollo, judaz, MeathookSeed, metala, Sabbathian, suseka, SymbyoticEntity, THROWER666, Tino, VALERY, vyacheslav,
Yesterday, 06:26:32 Sobernot - Silent Conspiracy (2018)
Register
(5) boby9052, Diflock, kimkayoung, SymbyoticEntity, SyncestrA,
Yesterday, 06:24:55 Necros Christos - Domedon Doxomedon (2018)
Register
(23) AHBAnep, Anhra Mainyu, BERZERK, Demonologist, El_Chibo, erozijauma, FUDEDOR, helvetestoner, iteration666, kauyumari, marilin, mazoy, michelver, Narasimha, Ostinato, skeletron215, soulskinner681, StrixPT, SymbyoticEntity, vov7609, Wolftribes, wtk.412, Zaephar,
May 21 2018, 18:42:40 Sobernot - Silent Conspiracy (2018)


*Artist: Sobernot
*Album: Silent Conspiracy
*Year: 2018
*Genre: Thrash/Groove Metal
*Country: Chile
*Format: mp3@CBR320kbps
*Size: 96MB

Tracklist:
1. Vermis 03:53
2. Nowhere to Run 04:47
3. Cold Bitch 03:48
4. Dead Space 03:00
5. I Still Let You Linger 05:04
6. Cowards 04:59
7. Jump Off the Stage 03:50
8. Nothing at All 04:21
9. Ferrell's Trip 03:20 instrumental
10. Silent Conspiracy 04:00
11. Let Them Starve 04:16
******************************
Total playing time: 45:18




[more=Extended info]Pablo La'Ronde Guitars & Vocals
César Vigouroux Vocals
Joaquin Quezada Bass
Felipe Sobarzo Drums
[youtube]IO1iWMFEo48[/youtube][/more]

[more=Technical info]
Input File: 2 Nowhere to Run.mp3
Channels : 2
Sample Rate : 44100
Precision : 16-bit
Duration : 00:04:47.35 = 12672135 samples = 21551.3 CDDA sectors
File Size : 11.6M
Bit Rate : 322k
Sample Encoding: MPEG audio (layer I, II or III)
Comments :
Title=Nowhere to Run
Artist=Sobernot
Album=Silent Conspiracy
Tracknumber=2/11
Year=2018
Genre=9
Discnumber=1/1

[/more]

Register
(5) Diflock, lyukon, metala, SymbyoticEntity, SyncestrA,
May 21 2018, 17:35:57 Sickness - Human Race Decay (2018)
Register
(2) Diflock, kimkayoung,
May 21 2018, 17:10:13 Necros Christos - Domedon Doxomedon (2018)


*Artist: Necros Christos
*Album: Domedon Doxomedon
*Year: 2018
*Genre: Black/Death Metal
*Country: Germany
*Format: mp3@CBR320kbps
*Size: 264MB

Tracklist:
01. Temple I : The Enlightened Will Shine Like the Zohar of the Sky
02. I Am Christ
03. Gate of Sooun
04. Temple II : Who Will Get Me a Drink of Water From the Cistern of Bethlehem?
05. Tombstone Chapel
06. Gate of Damihyron
07. Temple III : Unless YHVH Had Been My Help, My Soul Would Soon Have Dwelt With Dumah
08. He Doth Mourn in Hell
09. Gate of Aion Tsevaoth
10. Temple IV : Oracle of the Man Whose Eye Is Open
11. Seven Altars Burn in Sin
12. Gate of Arba-Hemon
13. Temple V: בראשית
14. Exiled in Transformation
15. Gate of Behet-Myron
16. Temple VI : The Weight of Gold That Came to Solomon in One Year Was 666 Talents of Gold
17. The Heart of King Solomon in Sorcery
18. Gate of Sulam
19. Temple VII : They and All That Belonged to Them Went Down Alive Into Sheol
20. The Guilt They Bore
21. Gate of Jehudmijron
22. Temple VIII : Mount Sinai Was All in Smoke, For YHVH Had Descended Upon It in Fire
23. Exodos
24. Gate of Dimitrijon
25. Temple IX : A Redeemer Will Come to Zion
26. In Meditation on the Death of Christ
27. Gate of Ea-On
******************************
Total playing time: 1:53:05



[more=Extended info]The Evil Reverend N. Guitars
Iván Hernández Drums
Peter Habura Bass
Mors Dalos Ra Vocals, Guitars[/more]

[more=Technical info]
Input File: 05 Tombstone Chapel.mp3
Channels : 2
Sample Rate : 44100
Precision : 16-bit
Duration : 00:06:01.12 = 15925568 samples = 27084.3 CDDA sectors
File Size : 14.6M
Bit Rate : 325k
Sample Encoding: MPEG audio (layer I, II or III)
Comments :
Title=Tombstone Chapel
Artist=Necros Christos
Album=Domedon Doxomedon
Tracknumber=5
Year=2018
Genre=22

[/more]

Register
(26) acerbus, andreikun, Black Cat, Blut aus Nord, El_Chibo, Fryz, Incantatore, Infidel, judaz, kim666, Korpse, marilin, metala, Narasimha, sacrut, satanist666, Shadechaser, smysl, suseka, Tino, tOmV, VALERY, vasiljev_sergej, vov7609, vyacheslav, Zaephar,
May 21 2018, 16:43:55 Evil Attack - Demoneyzed (2017)


*Artist: Evil Attack
*Album: Demoneyzed
*Year: 2017
*Genre: Old School Thrash/Speed Metal
*Country: Chile
*Format: mp3@CBR320kbps
*Size: 98MB

Tracklist:
1. Killer Switch
2. Death Bringer
3. Ajeno al Proceso
4. Invasion to the Unknown
5. Ascending to Power
6. Podrido Esplendor
7. Murderous Brotherhood
8. Broken Promises
9. Without Choise
******************************
Total playing time: 43:54



[more=Extended info]CD-Rip
Jose Gutierrez Bass
Cesar Pulpeiro Drums
See also: ex-Battlerage
Alvaro Neira Drums
Jose Luis Fernandez Guitars, Vocals
[youtube]zxS9L9PEz_E[/youtube][/more]

[more=Technical info]
Input File: 02 - Death Bringer.mp3
Channels : 2
Sample Rate : 44100
Precision : 16-bit
Duration : 00:05:17.32 = 13993944 samples = 23799.2 CDDA sectors
File Size : 12.7M
Bit Rate : 320k
Sample Encoding: MPEG audio (layer I, II or III)
Comments :
Title=Death Bringer
Artist=Evil Attack
Album=Demoneyzed
Tracknumber=2
Year=2017
Genre=Thrash Metal

[/more]

Register
(19) andreikun, Asketto, bifford, boby9052, Corpuscul, DarkHorde, lyukon, marilin, metala, pichileon, Rover, scorn33, sergsazan, SymbyoticEntity, Tino, vinnivova, Visitor, wgs73, Wolftribes,
May 21 2018, 11:02:39 Sickness - Human Race Decay (2018)


*Artist: Sickness
*Album: Human Race Decay
*Year: 2018
*Genre: Thrash Metal
*Country: Chile
*Format: mp3@CBR320kbps
*Size: 122MB

Tracklist:
01. Burning Wingst 04:21
02. Don't Escape 04:33
03. Throught the Gates of Hell 04:52
04. Everything Goes to Hell 06:03
05. Become a God 07:06
06. Silent Cry 04:47
07. Owner of the World 06:13
08. Welcome the End 06:08
09. The Forgoten Way 03:51
10. The Call 06:24
******************************
Total playing time: 54:18



[more=Extended info]Daniel Perez, vocals - Cosme Muñoz, guitars - Juan Andres Araya, Guitars - Francisco Negrete, bass - Carlos Araya, drums.
[youtube]dZPQvY8Ui7c[/youtube][/more]

[more=Technical info]
Input File: 02 - Don\'t Escape.mp3
Channels : 2
Sample Rate : 44100
Precision : 16-bit
Duration : 00:04:33.52 = 12062276 samples = 20514.1 CDDA sectors
File Size : 10.9M
Bit Rate : 320k
Sample Encoding: MPEG audio (layer I, II or III)
Comments :
Title=Don't Escape
Artist=Sickness
Album=Human Race Decay
Tracknumber=2
Year=2018
Genre=Thrash Metal

[/more]

Register
(11) Balusina, Diflock, gwar, infiltrator, Kehl05, lyukon, metala, pichileon, Rover, SymbyoticEntity, wgs73,
May 21 2018, 08:34:03 In Eternum - The Forgotten Ones (2018)
Register
(3) gerb, sergsazan, thenecromancer,
May 21 2018, 08:31:36 Abusive - Sequences Of Fear (2017)
Register
(3) boby9052, Diflock, SymbyoticEntity,
May 21 2018, 08:29:44 The Beast Of Nod - Vampira: Disciple Of Chaos (2018)
Register
(1) Ostinato,
May 21 2018, 07:55:13 Addendum - Blacknoise (2018)
Register
(3) kimkayoung, lary_veel, SymbyoticEntity,
May 21 2018, 07:52:33 Encéfalo - Deathrone (2018)
Register
(1) Diflock,
May 21 2018, 07:50:49 Behavior - Morbid Obsession (2018)
Register
(1) SymbyoticEntity,
May 21 2018, 05:40:51 Abusive - Sequences Of Fear (2017)


*Artist: Abusive
*Album: Sequences Of Fear
*Year: 2017
*Genre: Thrash Metal
*Country: Greece
*Format: mp3@CBR320kbps
*Size: 79MB

Tracklist:
1. You Only Die Once 01:23
2. My Worst Enemy 02:39
3. Insecure Days 03:36
4. Deeper in the Wound 03:08
5. Living Dead 05:06
6. Insanity of War 03:32
7. Organic 04:30
8. Rejected 03:22
9. Sequences of Fear 03:29
10. Mind Control 04:32
******************************
Total playing time: 35:17




[more=Extended info]John Doe Bass
See also: Necrorgasm
Nick T. Drums
See also: ex-Drunkard, ex-Γέννα από Κώλο, ex-Scarified Vein
Andreas K. Guitars
See also: Erectus, ex-Into the Gore
Aristotelis G. Guitars, Vocals
See also: ex-Scarified Vein, ex-Speed Devil[/more]

[more=Technical info]
Input File: 05 - Living Dead.mp3
Channels : 2
Sample Rate : 44100
Precision : 16-bit
Duration : 00:05:06.67 = 13523927 samples = 22999.9 CDDA sectors
File Size : 12.3M
Bit Rate : 320k
Sample Encoding: MPEG audio (layer I, II or III)
Comments :
Title=Living Dead
Artist=Abusive
Album=Sequences of Fear
Tracknumber=5
Year=2017
Genre=Thrash Metal

[/more]

Register
(8) andreikun, CRUNCH, Diflock, Hellraiser, lyukon, Rover, SymbyoticEntity, wgs73,
May 21 2018, 02:35:07 In Eternum - The Forgotten Ones (2018)


*Artist: In Eternum
*Album: The Forgotten Ones
*Year: 2018
*Genre: Gothic/Doom Metal
*Country: Argentina
*Format: mp3@CBR320kbps
*Size: 150MB

Tracklist:
01. My Epitaph
02. Succubus
03. Ghost Song
04. Once
05. The Day Of The End
06. Horny Vamp
07. Riding The Graveyard
08. As Your Beauty Decays
09. The Forgotten Ones
10. Phantom Of The Opera
******************************
Total playing time: 1:12:22



[more=Extended info]Adrian Masenzzana: Guitarras
Gustavo Tupone: Guitarras
Lord Glitter: Bajo y Voces
Silvia Alonso : Voz Lyrica
Ariel Viera: Violin
Claudio Carranza: Teclados
Kuko Garcia: Bateria
[youtube]Nb2dR1VjCds[/youtube]
[youtube]MycBPycvXx0[/youtube][/more]

[more=Technical info]
Input File: 02. Succubus.mp3
Channels : 2
Sample Rate : 44100
Precision : 16-bit
Duration : 00:06:51.60 = 18151560 samples = 30870 CDDA sectors
File Size : 16.5M
Bit Rate : 321k
Sample Encoding: MPEG audio (layer I, II or III)
Comments :
Title=Succubus
Artist=In Eternum
Album=The Forgotten Ones
Tracknumber=02/10
Year=2018
Genre=Metal
Discnumber=1/1

[/more]

Register
(9) csgmnk, Hellraiser, Kalnasra, metala, satanist666, sergsazan, Shadechaser, thenecromancer, woldemort,
May 21 2018, 01:51:28 The Beast Of Nod - Vampira: Disciple Of Chaos (2018)


*Artist: The Beast Of Nod
*Album: Vampira: Disciple Of Chaos
*Year: 2018
*Genre: Progressive Death Metal
*Country: United States
*Format: mp3@CBR320kbps
*Size: 86MB

Tracklist:
01. A Prison of Ice
02. The Vanishing Commutator
03. Potroast the Rhinoman
04. Ripped off Face II: The Cape of Faces
05. Behold! . . . but Beware the Celestial Cetaceans!
06. T.C.T.W.A.D.M.L.C. (The Cybernetic Tiger with a Dorsal-Mounted Laser Cannon)
07. Vampira Infernalis
08. The Phoenix Nebula
******************************
Total playing time: 40:37




[more=Extended info]Brendan Burdick Bass
Nate MacMillen Drums
Görebläster Körpse-härvest Lunden Guitars, Programming
Paul Buckley Vocals[/more]

[more=Technical info]
Input File: 03. Potroast the Rhinoman.mp3
Channels : 2
Sample Rate : 44100
Precision : 16-bit
Duration : 00:04:38.52 = 12282732 samples = 20889 CDDA sectors
File Size : 11.2M
Bit Rate : 322k
Sample Encoding: MPEG audio (layer I, II or III)
Comments :
Title=Potroast the Rhinoman
Artist=The Beast of Nod
Album=Vampira: Disciple of Chaos
Tracknumber=3/8
Year=2018
Genre=9
Discnumber=1/1

[/more]

Register
(8) csgmnk, Foneg, Hellraiser, metala, realexxx75, VALERY, vyacheslav, yuratroll,
May 21 2018, 01:06:54 Dead Sleep - In The Belly Of The Beast (2018)


*Artist: Dead Sleep
*Album: In The Belly Of The Beast
*Year: 2018
*Genre: Thrash Metal/Crossover
*Country: Sweden
*Format: mp3@CBR320kbps
*Size: 90MB

Tracklist:
1. Back to Black
2. Godhead
3. Into the Grave
4. Walk with Me
5. Aleppo
6. Sleepwalkers
7. Rage
8. Conquer
9. Hatchet Eye
10. Bring the Knife
******************************
Total playing time: 39:49




[more=Extended info]A. Wagner Bass, Vocals
P. Olofsson Drums
See also: Blastrock
J. Salo Guitars, Vocals (backing)
M. Bader Guitars, Vocals (backing)[/more]

[more=Technical info]
Input File: 03 - Into the Grave.mp3
Channels : 2
Sample Rate : 44100
Precision : 16-bit
Duration : 00:04:48.73 = 12733125 samples = 21655 CDDA sectors
File Size : 11.6M
Bit Rate : 320k
Sample Encoding: MPEG audio (layer I, II or III)
Comments :
Title=Into The Grave
Artist=Dead Sleep
Album=In The Belly Of The Beast
Tracknumber=3
Year=2018
Genre=Thrash Metal

[/more]

Register
(7) Diflock, gwar, Hellraiser, lyukon, metala, Rover, wgs73,
May 20 2018, 18:04:03 Addendum - Blacknoise (2018)


*Artist: Addendum
*Album: Blacknoise
*Year: 2018
*Genre: Melodic Death Metal
*Country: Norway
*Format: mp3@CBR320kbps
*Size: 110MB

Tracklist:
1. Manifest 02:07
2. Apathy for the Masses 05:24
3. Shemhamphorash 03:58
4. Vendetta 06:10
5. The Old Man 03:13
6. Violet 05:00
7. Bringing Hell 03:07
8. Obsidian 03:09
9. Razorgrin 04:34
10. Sweet Archangel 05:17
11. The Fall of Sun 02:08
12. Eden's Demise 03:46
******************************
Total playing time: 47:53




[more=Technical info]
Input File: 02 Apathy For The Masses.mp3
Channels : 2
Sample Rate : 44100
Precision : 16-bit
Duration : 00:05:24.45 = 14308157 samples = 24333.6 CDDA sectors
File Size : 13.0M
Bit Rate : 320k
Sample Encoding: MPEG audio (layer I, II or III)
Comments :
Title=Apathy For The Masses
Artist=Addendum
Album=Blacknoise
Tracknumber=2/12
Year=2018
Genre=Death Metal
Discnumber=1/1

[/more]

Register
(4) Ostinato, satanist666, SymbyoticEntity, VALERY,
May 20 2018, 17:47:04 Encéfalo - Deathrone (2018)


*Artist: Encéfalo
*Album: Deathrone
*Year: 2018
*Genre: Death/Thrash Metal
*Country: Brazil
*Format: mp3@CBR320kbps
*Size: 97MB

Tracklist:
1. Intro 01:25 instrumental
2. Echoes from the Past 04:23
3. Visceral Sadism 04:37
4. Annihilation Contempt to the Majesty 04:16
5. Blessed by the Wrong Choice 04:50
6. Hell 02:40 instrumental
7. These Final Rotten Days 05:09
8. Food for Tyranny 04:32
9. Retaliation 03:03
10. A Hollow Body 06:33
******************************
Total playing time: 41:28



[more=Extended info]Rodrigo Falconieri Drums
Lailton Sousa Guitars
Luiz Henrique Muniz Bass, Vocals
[youtube]R65sZHp8d50[/youtube][/more]

[more=Technical info]
Input File: 03 - Visceral Sadism.mp3
Channels : 2
Sample Rate : 44100
Precision : 16-bit
Duration : 00:04:37.66 = 12244586 samples = 20824.1 CDDA sectors
File Size : 11.3M
Bit Rate : 326k
Sample Encoding: MPEG audio (layer I, II or III)
Comments :
Title=Visceral Sadism
Artist=EncГ©falo
Album=Deathrone
Tracknumber=3/10
Year=2018

[/more]

Register
(5) andreikun, Diflock, metala, vyacheslav, wgs73,
May 20 2018, 17:27:50 Behavior - Morbid Obsession (2018)


*Artist: Behavior
*Album: Morbid Obsession
*Year: 2018
*Genre: Death Metal
*Country: Brazil
*Format: mp3@CBR320kbps
*Size: 100MB

Tracklist:
1. Within the Gloomy Pandemonium 01:07 instrumental
2. Death Metal Force 04:53
3. Morbid Obsession 04:59
4. Ancient Cult of the Obscene 05:26
5. Corpses on the Road 04:13
6. Devourer of Purity 06:07
7. Asphyxiated 04:31
8. Our Flesh Shall Feed the Earth 05:40
9. Ars Goetia 06:33
******************************
Total playing time: 43:29



[more=Extended info]Ricardo Agatte Drums
Fabricio Pazelli Vocals
Marcelo Almeida Bass
Alexandre Vitorino Guitars
Alisson R. Costa Guitars
[youtube]YeI_m0x9cHo[/youtube][/more]

[more=Technical info]
Input File: 03 - Morbid Obsession.mp3
Channels : 2
Sample Rate : 44100
Precision : 16-bit
Duration : 00:04:59.10 = 13190442 samples = 22432.7 CDDA sectors
File Size : 12.2M
Bit Rate : 325k
Sample Encoding: MPEG audio (layer I, II or III)
Comments :
Title=Morbid Obsession
Artist=Behavior
Album=Morbid Obsession
Tracknumber=3/9
Year=2018

[/more]

Register
(10) andreikun, DTGB, jollo, metala, Razorbladeswaltz, satanist666, SymbyoticEntity, THROWER666, VALERY, vyacheslav,
May 20 2018, 16:35:01 Ciudad Infierno - Ciudad De Infierno (2017)


*Artist: Ciudad Infierno
*Album: Ciudad De Infierno
*Year: 2017
*Genre: Heavy Metal
*Country: Ecuador
*Format: mp3@CBR320kbps
*Size: 102MB

Tracklist:
1. Preludio 00:49
2. Libertad 03:05
3. El Amor de mi Muerte 05:04
4. Calles de Sangre 04:17
5. Violencia 03:02
6. Sin Ti 05:24
7. El Origen del Dolor 04:50
8. Esta Vez 04:16
9. Sigo Igual 06:24
10. Ciudad de Infierno 03:54
11. Miénteme 03:55
******************************
Total playing time: 45:00




[more=Extended info]GooglePlay Rip
Gabriel Logacho Bass
David Morales Guitars (lead)
Danilo Castellano Guitars (rhythm)
Diego Chiliquinga Vocals (lead)
Blasphemer Nocturnal Drums
[youtube]yLD_vThPehM[/youtube][/more]

[more=Technical info]
Input File: 03 - El Amor de Mi Muerte.mp3
Channels : 2
Sample Rate : 44100
Precision : 16-bit
Duration : 00:05:04.74 = 13438946 samples = 22855.4 CDDA sectors
File Size : 12.2M
Bit Rate : 320k
Sample Encoding: MPEG audio (layer I, II or III)
Comments :
Title=El Amor de Mi Muerte
Artist=Ciudad Infierno
Album=Ciudad De Infierno
Tracknumber=3
Year=2017
Genre=Heavy Metal

[/more]

Register
(2) Rover, wgs73,
May 20 2018, 14:39:39 Innersphere - Amnesia (2018)
Register
(4) infiltrator, Korpse, Rover, SymbyoticEntity,

444 Pages V   1 2 3 > » 
- Lo-Fi Version Support form
Copyrights and abuse reports form
Time is now: 23rd May 2018 - 02:34:28