Welcome Guest ( Log In | Register )

История благодарностей участнику Samaritianin ::: Спасибо сказали: 207281 раз(а)
Дата поста: В теме: За сообщение: Спасибо сказали:
Yesterday, 12:16:53 Concrete Winds - Primitive Force (2019)
FLAC (Tracks) 173mb
Register
(1) fffrost,
Yesterday, 10:38:58 Stone Brigade - Madman's Paradise (2019)


*Artist: Stone Brigade
*Album: Madman's Paradise
*Year: 2019
*Genre: Heavy/Thrash Metal
*Country: Sweden
*Format: mp3@CBR320kbps
*Size: 75MB

Tracklist:
01. Intro
02. Forsaken
03. Starvation
04. Dead & Silent
05. Phantomize
06. Homeland
07. Beast
08. Evasion
******************************
Total playing time: 32:21



[more=Extended info]Jörgen Svegårdh | Lead Singer
Magnus Adolfsson | Guitar / Vocals
Tomas Forslund | Guitar
Roberth Gurnell | Bass
Bosse Lundström | Battery
[youtube]q1-2KT1szsI[/youtube][/more]

[more=Technical info]
Input File: 03 - Starvation.mp3
Channels : 2
Sample Rate : 44100
Precision : 16-bit
Duration : 00:04:22.71 = 11585291 samples = 19702.9 CDDA sectors
File Size : 10.7M
Bit Rate : 327k
Sample Encoding: MPEG audio (layer I, II or III)
Comments :
Title=Starvation
Artist=Stone Brigade
Album=Madman's Paradise
Tracknumber=3
Year=2019
Genre=Thrash Metal
Discnumber=1

[/more]

Register
(12) AHBAnep, artscald, infiltrator, metala, metalboll, metalwoman, Olethros, Olrak, Peikko, Rover, wgs73, Сварог Барг,
Aug 21 2019, 23:07:07 Keepers Of Death - Path Of Blood (2018)


*Artist: Keepers Of Death
*Album: Path Of Blood
*Year: 2018
*Genre: Epic Death/Thrash Metal
*Country: Russian Federation
*Format: mp3@CBR320kbps
*Size: 106MB

Tracklist:
1. Red Signature 01:28
2. Warriors of Eternal Battles 03:46
3. Skalathrax 05:40
4. Berserker's Creed 02:59
5. Blood Pact 04:00
6. Khorne. The Taker of Skulls 06:04
7. When the Nails Are Singing 03:46
8. Legion of Wrath 03:24
9. Path of Blood 04:35
10. Warfields 03:33
11. Flame and Blood 05:56
******************************
Total playing time: 45:11

Preview 1

[more=Extended info]Leo Grimwind All instruments, Vocals
See also: Grimwind, Наполненное Пустотой, Leo Grimwind, ex-Gmork, ex-Drauggard (live), ex-Lost in November
Alexander Pogorelov Lyrics
See also: The Broken Soul, ex-Мутаген
Ivan Lysenoy Vocals (2009-present)
See also: ex-Мутаген, ex-Оскал, ex-Серп и Молот
[youtube]TwXzJff_RLA[/youtube][/more]

[more=Technical info]
Input File: 05 - Blood Pact.mp3
Channels : 2
Sample Rate : 44100
Precision : 16-bit
Duration : 00:04:00.84 = 10620868 samples = 18062.7 CDDA sectors
File Size : 9.85M
Bit Rate : 327k
Sample Encoding: MPEG audio (layer I, II or III)
Comments :
Title=Blood Pact
Artist=Keepers Of Death
Album=Path of Blood
Tracknumber=5
Year=2018-07-04
Genre=Metal
Discnumber=1

[/more]

Register
(13) artscald, BugEyes, chipsgott, DarkHorde, fffrost, kimkayoung, metala, Olethros, Ostinato, Rosen, sergsazan, stumpheavyrock, TAKATAEL,
Aug 21 2019, 22:08:58 Thrasher Wolf - Blood Moon [ep] (2018)


*Artist: Thrasher Wolf
*Album: Blood Moon [ep]
*Year: 2018
*Genre: Thrash Metal
*Country: United Kingdom
*Format: mp3@CBR320kbps
*Size: 64MB

Tracklist:
1. The Vortex 06:20
2. The Pack 02:31
3. Vermillion Steel 03:59
4. Ruins 06:06
5. Blood Moon 08:54
******************************
Total playing time: 27:50



[more=Extended info]Daniel Lucas Vocals, Guitar
Billy Lucas Drums
Andrew Hughes Bass
Jack Saunders Guitars
[youtube]Ljf7aXHXtgA[/youtube]
[youtube]dWnlsnYDuU4[/youtube][/more]

[more=Technical info]
Input File: 03 - Vermillion Steel.mp3
Channels : 2
Sample Rate : 44100
Precision : 16-bit
Duration : 00:03:59.43 = 10558643 samples = 17956.9 CDDA sectors
File Size : 9.73M
Bit Rate : 325k
Sample Encoding: MPEG audio (layer I, II or III)
Comments :
Title=Vermillion Steel
Artist=Thrasherwolf
Album=Blood Moon
Tracknumber=3
Year=2018-04-16
Genre=Metal
Discnumber=1

[/more]

Register
(7) artscald, boby9052, metala, Olethros, Rosen, sergsazan, stumpheavyrock,
Aug 21 2019, 21:43:30 Day Of Doom - Descent Of Humanity (2017)


*Artist: Day Of Doom
*Album: Descent Of Humanity
*Year: 2017
*Genre: Death Metal
*Country: United States
*Format: mp3@CBR320kbps
*Size: 112MB

Tracklist:
1. Descent of Humanity 03:07
2. Blood Soaked Vengeance 02:27
3. Enslavement Sorcery 02:46
4. Watching the World Burn 02:57
5. Malevolence 06:20
6. The Wicked Will Prevail 02:24
7. The Beguiled Ones 21:12
8. Gods Prey 02:47
9. Final Judgement 04:28
******************************
Total playing time: 48:28




[more=Extended info]Без Бонусов.На диске и на бандкампе есть три трека в инструментальной версии
Doug Randazzo Guitars (?-2006), Guitars, Bass, Vocals (2010-present)
See also: ex-Butchery, ex-Exuviate, ex-Sanguinary Carnage, ex-Grotesqueuphoria, ex-Perpetual Suffering
Rich Hervey Drums, Keyboards, Vocals (2000-present)
See also: ex-Sanguinary Carnage, ex-Butchery, ex-Exuviate
Sam Lara Bass, Vocals (2013-present)
See also: Grotesqueuphoria, ex-Butchery, ex-Exuviate, ex-Sanguinary Carnage[/more]

[more=Technical info]
Input File: 5 - Malevolence.mp3
Channels : 2
Sample Rate : 44100
Precision : 16-bit
Duration : 00:06:20.18 = 16765982 samples = 28513.6 CDDA sectors
File Size : 15.3M
Bit Rate : 323k
Sample Encoding: MPEG audio (layer I, II or III)
Comments :
Title=Malevolence
Artist=Day Of Doom
Album=Descent of Humanity
Tracknumber=5
Year=2017
Genre=Metal
Discnumber=1

[/more]

Register
(11) artscald, infiltrator, jollo, metala, Occultas, older68, Olethros, Rosen, VALERY, wanderer73, Герб,
Aug 21 2019, 20:48:08 Sadotank - Alcoholic Hellnoise (2007)


*Artist: Sadotank
*Album: Alcoholic Hellnoise
*Year: 2007
*Genre: Black/Thrash Metal
*Country: Netherlands
*Format: mp3@CBR320kbps
*Size: 74MB

Tracklist:
1. Scumfuck 00:58
2. Hellfiresex 01:03
3. Possession 01:52
4. Killdozer 01:35
5. Cannibal Vampire 02:57
6. Cocktenser 02:47
7. Jesus Killer 01:13
8. Six Shots 01:15
9. Nymphoslave 02:10
10. Fistfucking Beast from Hell 01:25
11. Toxic Bitch 01:19
12. Route 666 02:16
13. Slutmachine.. 11:34
******************************
Total playing time: 32:24




[more=Extended info]Striid Bass
Lee Hell Guitars
Joey Sado Vocals
Paria Drums
Rooth666 Guitars
[youtube]EiThG7u_JSo[/youtube]
[youtube]MNG-IVVbPwE[/youtube]
[youtube]48qilXnrJdA[/youtube][/more]

[more=Technical info]
Input File: 05 - Canibal Vampire.mp3
Channels : 2
Sample Rate : 44100
Precision : 16-bit
Duration : 00:02:57.17 = 7813285 samples = 13287.9 CDDA sectors
File Size : 7.16M
Bit Rate : 323k
Sample Encoding: MPEG audio (layer I, II or III)
Comments :
Title=Canibal Vampire
Artist=Sadotank
Album=Alcoholic Hellnoise
Tracknumber=5
Year=2007-06-03
Discnumber=1

[/more]

Register
(7) artscald, boby9052, Olethros, Rosen, stumpheavyrock, vasiljev_sergej, Wail,
Aug 21 2019, 19:24:27 Metalliance - Brood Of Vipers (2019)


*Artist: Metalliance
*Album: Brood Of Vipers
*Year: 2019
*Genre: Heavy/Thrash Metal
*Country: Brazil
*Format: mp3@CBR320kbps
*Size: 153MB

Tracklist:
01. All That Remains Now
02. The End Is Near
03. Mechanical Minds
04. Brood Of Vipers
05. Not To Be Dead
06. Ready to Hell
07. Kill You Twice
08. Upside Down
09. Soldiers of Death
10. Blindfold
11. Ordem e Progresso
12. Avoid The Herd
13. Sowers of Discord
******************************
Total playing time: 1:06:32



[more=Extended info]Willians Lino - Vocal Guitars
Wendom Dos Santos Ramos - Lead Guitar
Alexandre Filipi - Bass
Gregory Raphael - Drums
[youtube]uqT06GhicFI[/youtube]
[youtube]uJ3kwK9mZdw[/youtube][/more]

[more=Technical info]
Input File: 06 - Ready to Hell.mp3
Channels : 2
Sample Rate : 44100
Precision : 16-bit
Duration : 00:05:48.39 = 15363911 samples = 26129.1 CDDA sectors
File Size : 14.0M
Bit Rate : 322k
Sample Encoding: MPEG audio (layer I, II or III)
Comments :
Title=Ready to Hell
Artist=Metalliance
Album=Brood of Vipers
Tracknumber=6
Year=2019-08-05
Genre=Alternative; Rock
Discnumber=1

[/more]

Register
(9) artscald, aviacademy, metala, Olethros, Rosen, Rover, sergsazan, vir2al, Сварог Барг,
Aug 21 2019, 18:53:51 Fire For Effect - Artillery Unleashed [ep] (2019)


*Artist: Fire For Effect
*Album: Artillery Unleashed [ep]
*Year: 2019
*Genre: Death Metal
*Country: United States
*Format: mp3@CBR320kbps
*Size: 49MB

Tracklist:
1. Fire for Effect 05:18
2. Into the Breech 05:50
3. Engineered for Destruction 04:18
4. Watch Your Six 03:42
5. Objective Is Achieved 04:03
******************************
Total playing time: 23:11



[more=Extended info]Gio Geraca Guitars (2016-present)
See also: Evil Amidst, Upon Infliction, ex-Crucifeast, ex-Malevolent Creation, ex-Wykked Wytch, ex-Ashes of Ares (live), ex-Murder Suicide
Tony Choy Bass (2017-present)
See also: Synkronizity, ex-C-187, Area 305, Neuromorph, ex-Atheist, ex-Cynic, ex-Pestilence, ex-Strike Master (live)
Eric Bukowski Guitars (2017-present)
See also: ex-Ebony Sorrow
Derek Roddy Drums (2018-present)
See also: Menace, Serpents Rise, The Deboning Method, The Great Die, Nader Sadek (live), ex-Aurora Borealis, ex-Blotted Science, ex-Gothic Outcasts, ex-Hate Eternal, ex-Malevolent Creation, ex-Council of the Fallen, ex-Internecine, ex-Divine Empire, ex-Today Is the Day
[youtube]dxn1emFbSwE[/youtube]
[youtube]QPEGt6E6Lpk[/youtube][/more]

[more=Technical info]
Input File: 02. Into the Breech.mp3
Channels : 2
Sample Rate : 44100
Precision : 16-bit
Duration : 00:05:49.91 = 15430855 samples = 26243 CDDA sectors
File Size : 14.1M
Bit Rate : 322k
Sample Encoding: MPEG audio (layer I, II or III)
Comments :
Title=Into the Breech
Artist=Fire for Effect
Album=Artillery Unleashed
Tracknumber=2/5
Year=2019
Genre=9
Discnumber=1/1

[/more]

Register
(9) artscald, chipsgott, doomdick71, older68, Olethros, Ostinato, Rosen, VALERY, Герб,
Aug 21 2019, 17:50:12 Eminent Slaughter - Stench [ep] (2016)


*Artist: Eminent Slaughter
*Album: Stench [ep]
*Year: 2016
*Genre: Death Metal
*Country: United States
*Format: mp3@CBR320kbps
*Size: 47MB

Tracklist:
1. Endless 03:11
2. Stench 03:27
3. Human Prey 02:28
4. Hang the Rope 02:48
5. Forever Trapped 04:13
6. Your Death Eternal 03:43
******************************
Total playing time: 19:50




[more=Extended info]Andrew Russell Drums
James Basham Guitars (lead)
Chris Hanners Vocals (backing), Guitars, Bass
Jason Harvard Guitars, Bass
Adam Grubb Vocals[/more]

[more=Technical info]
Input File: 05 - Forever Trapped.mp3
Channels : 2
Sample Rate : 44100
Precision : 16-bit
Duration : 00:04:13.14 = 11163474 samples = 18985.5 CDDA sectors
File Size : 10.4M
Bit Rate : 327k
Sample Encoding: MPEG audio (layer I, II or III)
Comments :
Title=Forever Trapped
Artist=Eminent Slaughter
Album=Stench
Tracknumber=5
Year=2016-08-21
Discnumber=1

[/more]

Register
(4) artscald, Olethros, Rosen, Герб,
Aug 21 2019, 17:21:01 Archaios - Out Of The Shadows (2005)


*Artist: Archaios
*Album: Out Of The Shadows
*Year: 2005
*Genre: Melodic Death Metal
*Country: Dominican Republic
*Format: mp3@CBR320kbps
*Size: 106MB

Tracklist:
1. Silent Killer 04:50
2. In Times.... 05:18
3. Life Deceiver 05:42
4. Gothic Belief 05:24
5. Eternal Bleeding 05:20
6. Into the Light 05:07
7. The Traveler (At the Necropolis) Part.I 04:28
8. Escape from Insanity 04:16
9. Agonizing Soul 05:21
******************************
Total playing time: 45:46



[more=Extended info]Eric Cruz (Guitars
JC Castillo (Guitars)
Ramsey Delarge (Vocals)
David Masalles (Bass)
Johandy Ureña (Drums)
[youtube]RrpEJ3Supb4[/youtube][/more]

[more=Technical info]
Input File: 03 - Life Deceiver.mp3
Channels : 2
Sample Rate : 44100
Precision : 16-bit
Duration : 00:05:42.54 = 15105838 samples = 25690.2 CDDA sectors
File Size : 13.9M
Bit Rate : 324k
Sample Encoding: MPEG audio (layer I, II or III)
Comments :
Title=Life Deceiver
Artist=Archaios
Album=Out of the Shadows...
Tracknumber=3
Year=2005-11-17
Genre=Metal
Discnumber=1

[/more]

Register
(13) AHBAnep, artscald, BugEyes, DiegoMassakre, metalwoman, Olethros, Ostinato, Rosen, sergsazan, sta1081, VALERY, zhol, Сварог Барг,
Aug 21 2019, 15:57:23 Signs Of Reign - Awaken From Disguise (2019)
Cloud Mail 320
Register
(2) AHBAnep, fffrost,
Aug 21 2019, 15:56:17 Lunarscathe - Radiance (2019)


*Artist: Lunarscathe
*Album: Radiance
*Year: 2019
*Genre: Melodic Death/Black Metal
*Country: United States
*Format: mp3@CBR320kbps
*Size: 116MB

Tracklist:
1. Radiant Moons 06:10
2. Formication 05:17
3. Palliative Care 05:37
4. Cacophony 04:00
5. Beneath Hope 03:46
6. Malice 03:43
7. Feral 05:22
8. Red Eminence 05:33
9. Pioneer 04:57
10. Radiance 06:30
******************************
Total playing time: 50:55




[more=Extended info]Jon Michels Bass
Taylor Hix Drums
Mike Kisly Guitars (lead)
Royce Hix Vocals, Guitars (rhythm)[/more]

[more=Technical info]
Input File: 3. Palliative Care.mp3
Channels : 2
Sample Rate : 44100
Precision : 16-bit
Duration : 00:05:37.08 = 14865184 samples = 25280.9 CDDA sectors
File Size : 13.5M
Bit Rate : 320k
Sample Encoding: MPEG audio (layer I, II or III)
Comments :
Title=Palliative Care
Artist=Lunarscathe
Album=Radiance
Tracknumber=3
Year=2019
Genre=Death Metal

[/more]

Register
(10) artscald, BugEyes, kimkayoung, metala, Olethros, Rosen, VALERY, vasiljev_sergej, zhol, Сварог Барг,
Aug 21 2019, 13:53:04 Decortication - Traits Of Gore [ep] (2019)


*Artist: Decortication
*Album: Traits Of Gore [ep]
*Year: 2019
*Genre: Death Metal
*Country: Mexico
*Format: mp3@CBR320kbps
*Size: 52MB

Tracklist:
1. Rest In Piss 04:56
2. Acid Bath 03:51
3. Human Taxidermy 03:45
4. Let Me See Your Guts 04:45
5. The Watcher 04:41
******************************
Total playing time: 21:58




[more=Extended info]Lalo Diaz Bass
Berith Kallpell Drums
Pepe Emeritus Guitars, Vocals
Yemayel Hdz Guitars, Vocals
[youtube]ZQUGE9rVfzk[/youtube][/more]

[more=Technical info]
Input File: 02 - Acid Bath.mp3
Channels : 2
Sample Rate : 44100
Precision : 16-bit
Duration : 00:03:50.96 = 10185380 samples = 17322.1 CDDA sectors
File Size : 9.46M
Bit Rate : 328k
Sample Encoding: MPEG audio (layer I, II or III)
Comments :
Title=Acid Bath
Artist=Decortication
Album=Traits of Gore
Tracknumber=2
Year=2019-08-19
Genre=Metal
Discnumber=1

[/more]

Register
(4) artscald, Olethros, Rosen, VALERY,
Aug 21 2019, 13:13:15 Ulgoroth - Herbstlaub (2019)


*Artist: Ulgoroth
*Album: Herbstlaub
*Year: 2019
*Genre: Depressive Black Metal
*Country: Germany
*Format: mp3@CBR320kbps
*Size: 90MB

Tracklist:
1. Thraal I (Getauft in Tränen) 04:47
2. Die alte Aster 04:02
3. Nordwind und Nachtschatten 05:20
4. Thraal II (Ein Hauch von Trägheit) 04:45
5. Der Mystiker 04:38
6. Norrth 03:07
7. Herbstlaub 06:39
8. Mondmaschine 05:11
******************************
Total playing time: 38:29




[more=Extended info]Njól Everything (2012-present)[/more]

[more=Technical info]
Input File: 03 Nordwind und Nachtschatten.mp3
Channels : 2
Sample Rate : 44100
Precision : 16-bit
Duration : 00:05:20.38 = 14128890 samples = 24028.7 CDDA sectors
File Size : 12.9M
Bit Rate : 323k
Sample Encoding: MPEG audio (layer I, II or III)
Comments :
Title=Nordwind und Nachtschatten
Artist=Ulgoroth
Album=Herbstlaub
Tracknumber=3
Year=2019

[/more]

Register
(16) 1968_janeart, aleon, artscald, autumnwood, kim666, Korpse, krotovich, metala, Olethros, robertho777, Rosen, stub888, tOmV, VALERY, vasiljev_sergej, zotyo1975,
Aug 21 2019, 12:33:41 Signs Of Reign - Awaken From Disguise (2019)


*Artist: Signs Of Reign
*Album: Awaken From Disguise
*Year: 2019
*Genre: Progressive Power Metal
*Country: United States
*Format: mp3@CBR320kbps
*Size: 126MB

Tracklist:
1. Purge 05:44
2. Fear Awaits 05:29
3. Jester 05:41
4. Let It Reign 04:49
5. When Fire Breathes 05:55
6. Prelude To The Underground 02:51
7. Tethered 05:52
8. Journey's End 05:03
9. Dream State 06:41
10. The Dying 07:53
******************************
Total playing time: 55:58




[more=Extended info]Jason Santa Lucia Drums
John Poggione Guitars
See also: ex-A-Frame
Matt Johnson Guitars
See also: Grief Collector, ex-Scream at the Sun
Denny Anthony Vocals (lead)
See also: Abandoned Fate, Pyramid, Veritas, ex-Turbulence, Hour of Ashes, ex-A-Frame, ex-Pale Frame, ex-Solace
[youtube]uVkmwwwVJS8[/youtube][/more]

[more=Technical info]
Input File: 04. Let It Reign.mp3
Channels : 2
Sample Rate : 44100
Precision : 16-bit
Duration : 00:04:49.81 = 12780621 samples = 21735.8 CDDA sectors
File Size : 12.0M
Bit Rate : 330k
Sample Encoding: MPEG audio (layer I, II or III)
Comments :
Title=Let It Reign
Artist=Signs of Reign
Album=Awaken from Disguise
Tracknumber=4/10
Year=2019
Discnumber=1/1

[/more]

Register
(11) artscald, eyes0re, fffrost, Herrant, metala, Olethros, Rosen, Rover, stumpheavyrock, zhol, Сварог Барг,
Aug 21 2019, 12:16:00 Exinfernum - The Sadist Temple (2019)


*Artist: Exinfernum
*Album: The Sadist Temple
*Year: 2019
*Genre: Blackened Death Metal
*Country: United States
*Format: mp3@CBR320kbps
*Size: 77MB

Tracklist:
01. Upon Ruin
02. Nail Gun Massacre
03. Locked in Torment
04. Desolation Chamber
05. That Which Lies Below
06. Call of the Blood Moon
07. Burn Your Casket
08. Ceremonial Devourment
09. Staring Down the Blade
10. Victor Among the Ashes
******************************
Total playing time: 33:46




[more=Extended info]Cerberus Drums, Keyboards
See also: ex-Gorematory, Kingdom Ov Cerberus
James Cascao Guitars
See also: ex-Gorematory
Vincent Lepore Vocals, Guitars
See also: ex-Gorematory[/more]

[more=Technical info]
Input File: 03 - Locked in Torment.mp3
Channels : 2
Sample Rate : 44100
Precision : 16-bit
Duration : 00:04:27.30 = 11787886 samples = 20047.4 CDDA sectors
File Size : 10.8M
Bit Rate : 324k
Sample Encoding: MPEG audio (layer I, II or III)
Comments :
Title=Locked in Torment
Artist=Exinfernum
Album=The Sadist Temple
Tracknumber=3
Year=2019-07-31
Genre=Alternative; Indie Rock; Metal
Discnumber=1

[/more]

Register
(9) andreikun, artscald, obituarydark, Olethros, Rosen, suseka, tim47, VALERY, Сварог Барг,
Aug 21 2019, 02:03:03 Mayhemic - No Life [demo] (2018)


*Artist: Mayhemic
*Album: No Life [demo]
*Year: 2018
*Genre: Blackened Thrash Metal
*Country: Chile
*Format: mp3@CBR320kbps
*Size: 24MB

Tracklist:
1. Beyond Hell 03:51
2. Burn the Cross 03:58
3. Mayhemic 02:35
******************************
Total playing time: 10:24




[more=Extended info]Parabellum Bass
Noctumbra Drums
Doom Guitars
Demian Vocals, Guitars
[youtube]NaUtQOAHimQ[/youtube][/more]

[more=Technical info]
Input File: 02 - Burn the Cross.mp3
Channels : 2
Sample Rate : 44100
Precision : 16-bit
Duration : 00:03:18.07 = 8734931 samples = 14855.3 CDDA sectors
File Size : 8.05M
Bit Rate : 325k
Sample Encoding: MPEG audio (layer I, II or III)
Comments :
Title=Burn the Cross
Artist=Mayhemic
Album=No Life
Tracknumber=2
Year=2018-09-11
Genre=Metal
Discnumber=1

[/more]

Register
(6) artscald, Asketto, Olethros, Rosen, stumpheavyrock, wgs73,
Aug 21 2019, 01:47:34 Mayhemic - Mortuary Feast Of Skeletons [ep] (2019)


*Artist: Mayhemic
*Album: Mortuary Feast Of Skeletons [ep]
*Year: 2019
*Genre: Blackened Thrash Metal
*Country: Chile
*Format: mp3@CBR320kbps
*Size: 40MB

Tracklist:
1. Shaking Ground 03:29
2. Mortuary Feast of Skeletons 02:21
3. Death Spawm 03:23
4. Mayhemic 03:16
******************************
Total playing time: 12:29




[more=Extended info]CD-Rip+Scans
Parabellum Bass
Noctumbra Drums
Doom Guitars
Demian Vocals, Guitars
[youtube]pAR_l4UpEMA[/youtube][/more]

[more=Technical info]
Input File: 03 - Death Spawm.mp3
Channels : 2
Sample Rate : 44100
Precision : 16-bit
Duration : 00:03:23.27 = 8964339 samples = 15245.5 CDDA sectors
File Size : 8.13M
Bit Rate : 320k
Sample Encoding: MPEG audio (layer I, II or III)
Comments :
Title= Death Spawm
Artist=Mayhemic
Album=Mortuary Feast of Skeletons
Tracknumber=3
Year=2019
Genre=Blackened Thrash Metal

[/more]

Register
(8) artscald, Asketto, boby9052, Olethros, Rosen, stumpheavyrock, Wail, wgs73,
Aug 20 2019, 19:57:30 Madhour - Hell Hotel (2019)


*Artist: Madhour
*Album: Hell Hotel
*Year: 2019
*Genre: Heavy/Thrash Metal
*Country: Italy
*Format: mp3@CBR320kbps
*Size: 82MB

Tracklist:
1. Voice of Destruction
2. Nameless
3. Ghost Town
4. Condamned to Reality
5. From My Ashes
6. King of the Night
7. Way of the Damned
8. Mother of All Lies
9. Buy Your Glory
10. Drink from the Skull
******************************
Total playing time: 35:19



[more=Extended info]Ul Teo Bass
Mike Ercolano Drums
Paul Tanasi Guitars (lead)
Albe Guitars
Francesca Tosi Vocals
[youtube]Xb8PvejdLeM[/youtube]
[youtube]11ZvyBfDY1U[/youtube][/more]

[more=Technical info]
Input File: 03 - Ghost Town.mp3
Channels : 2
Sample Rate : 44100
Precision : 16-bit
Duration : 00:04:05.98 = 10847806 samples = 18448.6 CDDA sectors
File Size : 9.96M
Bit Rate : 324k
Sample Encoding: MPEG audio (layer I, II or III)
Comments :
Title=Ghost Town
Artist=Madhour
Album=Hell Hotel
Tracknumber=3
Year=2019-07-20
Genre=Metal
Discnumber=1

[/more]

Register
(8) metala, Olethros, Rosen, Rover, sayfut, sergsazan, wgs73, Сварог Барг,
Aug 20 2019, 19:23:56 Talion - Damocles [ep] (2019)


*Artist: Talion
*Album: Damocles [ep]
*Year: 2019
*Genre: Thrash Metal
*Country: Bolivia
*Format: mp3@CBR320kbps
*Size: 76MB

Tracklist:
01. Retribución 06:08
02. Inquebrantable 05:08
03. Entre Tinieblas 04:33
04. Sangre Sagrada 05:12
05. El Último Deseo 06:58
06. Hijo Del Fuego 04:50
******************************
Total playing time: 32:49



[more=Technical info]
Input File: 02 - Inquebrantable.mp3
Channels : 2
Sample Rate : 44100
Precision : 16-bit
Duration : 00:05:08.11 = 13587431 samples = 23107.9 CDDA sectors
File Size : 12.6M
Bit Rate : 326k
Sample Encoding: MPEG audio (layer I, II or III)
Comments :
Title=Inquebrantable
Artist=Talion
Album=Damocles
Tracknumber=2
Year=2019-08-20
Genre=Metal
Discnumber=1

[/more]

Register
(6) artscald, boby9052, Olethros, Rosen, thrashiac, tschunioronbeer,
Aug 20 2019, 19:01:23 Vastum - Carnal Law (2011)
ЦИТАТА(deatholocaust @ 20th August 2019 - 17:12:51) *
lossless please

FLAC (Tracks) Re-master 2017 253mb
Register
(1) deatholocaust,
Aug 20 2019, 18:34:43 Freedom Call - M.E.T.A.L. (2019)
Cloud Mail 320
Register
(6) AHBAnep, boby9052, Devourer, Militia, mysteryman1969, Olethros,
Aug 20 2019, 18:22:05 Magma Dragon - Total Party Kill (2019)


*Artist: Magma Dragon
*Album: Total Party Kill
*Year: 2019
*Genre: Symphonic Power Metal
*Country: United States
*Format: mp3@CBR320kbps
*Size: 89MB

Tracklist:
1. Lovelorn and Traitorous 04:29
2. Kai Kyrrosh, Demon-Slayer 04:24
3. Nurianna Dragon-kin, Justice of Sarenrae 04:52
4. Kerhin vs. The Burning Peninsula 04:45
5. Dragons Bore Me Hence 04:49
6. Minathiel Aellethwin, Princess of Tuatha 04:26
7. Bardas the Goremian 04:39
8. Kerhin of Stormwind 05:15
******************************
Total playing time: 37:39




[more=Extended info]Dan Clark Guitars, Vocals
Mercy Skye Keyboards, Vocals
Kara Phillips Vocals
Zakk DuPuis Bass
Fabian Beets Drums[/more]

[more=Technical info]
Input File: 03 Nurianna Dragon-kin, Justice of Sarenrae.mp3
Channels : 2
Sample Rate : 44100
Precision : 16-bit
Duration : 00:04:52.12 = 12882360 samples = 21908.8 CDDA sectors
File Size : 12.0M
Bit Rate : 327k
Sample Encoding: MPEG audio (layer I, II or III)
Comments :
Title=Nurianna Dragon-kin, Justice of Sarenrae
Artist=Magma Dragon
Album=Total Party Kill
Tracknumber=3
Year=2019

[/more]

Register
(12) artscald, aviacademy, gwar, metala, metalwoman, Olethros, Rosen, Rover, sergsazan, wn129aa, zhol, Сварог Барг,
Aug 20 2019, 17:03:21 Isole - Dystopia (2019)


*Artist: Isole
*Album: Dystopia
*Year: 2019
*Genre: Epic Doom Metal
*Country: Sweden
*Format: mp3@CBR320kbps
*Size: 112MB

Tracklist:
1. Beyond the Horizon 07:13
2. Written in the Sand 06:08
3. The Beholder 06:06
4. You Went Away 06:48
5. Forged by Fear 06:46
6. Galenskapens land 08:01
7. Nothingness 07:27
******************************
Total playing time: 48:29




[more=Extended info]Crister Olsson Guitars, Vocals
Daniel Bryntse Guitars, Vocals
Jimmy Mattsson Bass
Victor Parri Drums
[youtube]rCalQO4xHe4[/youtube]
[youtube]OhzIR_iuvws[/youtube][/more]

[more=Technical info]
Input File: 03 The Beholder.mp3
Channels : 2
Sample Rate : 44100
Precision : 16-bit
Duration : 00:06:06.07 = 16143863 samples = 27455.5 CDDA sectors
File Size : 14.9M
Bit Rate : 327k
Sample Encoding: MPEG audio (layer I, II or III)
Comments :
Title=The Beholder
Artist=Isole
Album=Dystopia
Tracknumber=03
Year=2019
Genre=Doom Metal

[/more]

Register
(49) acerbus, autumnwood, BandR75, BERZERK, Black Cat, boby9052, chipsgott, dalek, doomTemplar, EpicDoomLord, fabriziomagno, Femto, fffrost, Helldorado, Hey_You, infozahist, kauyumari, KVRT, LEGION69, lucifix, Lux, Lyrch, maochen, menzoberanzan, metala, nadin85, nikolay81, Old Vyaine, Olethros, recber, ripper33, robertho777, Rosen, RUDACHUR, russ777, SAPOGi, stone88, stub888, stumpheavyrock, terron, tOmV, Trian, Unkle Jonny, VALERY, Wolfera, zerger, zhol, Герб, Луч,
Aug 20 2019, 16:44:35 Freedom Call - M.E.T.A.L. (2019)


*Artist: Freedom Call
*Album: M.E.T.A.L.
*Year: 2019
*Genre: Power Metal
*Country: Germany
*Format: mp3@CBR320kbps
*Size: 122MB

Tracklist:
01. 111
02. Spirit Of Daedalus
03. M.E.T.A.L.
04. Ace Of The Unicorn
05. Sail Away
06. Fly With Us
07. One Step Into Wonderland
08. Days Of Glory
09. Wheel Of Time
10. Ronin
11. Sole Survivor
12. Warriors (Acoustic Version) (Japan Bonus Track)
13. Emerald Skies (Acoustic Version) (Japan Bonus Track)
******************************
Total playing time: 52:01



[more=Extended info]Japanese Edition
Chris Bay Vocals, Guitars, Keyboards
Lars Rettkowitz Guitars
Francesco Ferraro Bass
Tim Breideband Drums
[youtube]tO-i8eF-cyQ[/youtube][/more]

[more=Technical info]
Input File: 03. M.E.T.A.L.mp3
Channels : 2
Sample Rate : 44100
Precision : 16-bit
Duration : 00:04:20.25 = 11476981 samples = 19518.7 CDDA sectors
File Size : 10.6M
Bit Rate : 327k
Sample Encoding: MPEG audio (layer I, II or III)
Comments :
Title=M.E.T.A.L.
Artist=Freedom Call
Album=M.E.T.A.L. [Japan Edition]
Tracknumber=3/13
Year=2019
Discnumber=1/1

[/more]

Register
(27) ace73pq, Aresson, artscald, djsema4, DTGB, dulak, EVENGAR, fabriziomagno, gwar, Herrant, infozahist, JD666Hellion, LEGION69, metala, metalboll, Militia, mysteryman1969, rabindranad, Rosen, Rover, terron, VALERY, vir2al, warrr, wn129aa, zhol, Сварог Барг,

630 Pages V   1 2 3 > » 
- Lo-Fi Version Support form
Copyrights and abuse reports form
Time is now: 23rd August 2019 - 07:25:25