Welcome Guest ( Log In | Register )

История благодарностей участнику Samaritianin ::: Спасибо сказали: 337694 раз(а)
Дата поста: В теме: За сообщение: Спасибо сказали:
Today, 04:10:27 Mortal Terror - Bite Of The Underdog (2020)
FLAC (Tracks) 320 mb
Register
(6) caro, infiltrator, isvili, Marek, Olethros, suseka,
Today, 03:51:36 Accept - Too Mean To Die (2021)
Cloud Mail 320
Register
(8) acundof, boby9052, cenzored, dafya328, infiltrator, lucifix, METALHUNTER, Zhelezjaka,
Today, 01:35:30 Death Crusader - Death Crusader (2021)
sadmannn,
ЦИТАТА
ну.........наверное, такое кто-то ещё слушает

Некоторые еще и комментируют 1488.gif
(1) vosmidesijatye,
Today, 01:24:52 Van Diemen - Van Diemen (2021)


*Artist: Van Diemen
*Album: Van Diemen
*Year: 2021
*Genre: Epic Melodic Death Metal
*Country: Germany
*Format: mp3@CBR320kbps
*Size: 123MB

Tracklist:
1. Van Diemen's Land 08:25
2. Crystal Tide 08:15
3. The Walking Gallows 07:59
4. Crossroads 06:55
5. Run Rabbit Run 10:05
6. Last of My Kind 10:33
******************************
Total playing time: 52:12




[more=Technical info]
Input File: 04 Crossroads.mp3
Channels : 2
Sample Rate : 44100
Precision : 16-bit
Duration : 00:06:55.08 = 18305116 samples = 31131.1 CDDA sectors
File Size : 17.2M
Bit Rate : 331k
Sample Encoding: MPEG audio (layer I, II or III)
Comments :
Title=Crossroads
Artist=Van Diemen
Album=Van Diemen
Tracknumber=4/6
Year=2021-21-20
Genre=Metal
Discnumber=1/1

[/more]

Register
(15) BlazonStone, chipsgott, Fater_Hu, GorAtheist, infiltrator, Marek, MeatWolf, Olethros, randumbum, Rosen, sergsazan, suseka, Taakeferd, VALERY, zhol,
Today, 00:49:04 Accept - Too Mean To Die (2021)


*Artist: Accept
*Album: Too Mean To Die
*Year: 2021
*Genre: Heavy Metal
*Country: Germany
*Format: mp3@CBR320kbps
*Size: 121MB

Tracklist:
1. Zombie Apocalypse 05:31
2. Too Mean to Die 04:21
3. Overnight Sensation 04:24
4. No Ones Master 04:10
5. The Undertaker 05:37
6. Sucks to Be You 04:05
7. Symphony of Pain 04:39
8. The Best Is Yet to Come 04:47
9. How Do We Sleep 05:41
10. Not My Problem 04:21
11. Samson and Delilah 04:31 instrumental
******************************
Total playing time: 52:07



[more=Extended info]Wolf Hoffmann Guitars
Mark Tornillo Vocals
Christopher Williams Drums
Uwe Lulis Guitars
Martin Motnik Bass
Philip Shouse Guitars
[youtube]eSS10DNhI0c[/youtube]
[youtube]DQy6npwdwsY[/youtube]
[youtube]tHwCTnH5_Z8[/youtube]
[youtube]uiGmlISwPZ0[/youtube][/more]

[more=Technical info]
Input File: 07. Symphony Of Pain.mp3
Channels : 2
Sample Rate : 44100
Precision : 16-bit
Duration : 00:04:39.50 = 12326038 samples = 20962.6 CDDA sectors
File Size : 11.4M
Bit Rate : 325k
Sample Encoding: MPEG audio (layer I, II or III)
Comments :
Title=Symphony Of Pain
Artist=Accept
Album=Too Mean to Die
Tracknumber=07
Year=2021

[/more]

Register
(49) ace73pq, acundof, akym, ALEXSATHANAS, andreikun, Bzth, cancer1974, caro, cenzored, cesar, chipsgott, Femto, GorAtheist, infiltrator, JD666Hellion, karpenka, LightWizard, Luka, Lukittaz, Lunaris, Mannard, Marek, metala, metalboll, METALHUNTER, Necroeire, Olethros, Phlebotomized, princeshr, quicksand, randumbum, recber, Rhoads, ripper33, Rosen, Rover, sadmannn, sepultura39, stone88, suseka, Taakeferd, Thrashman, v.v.m, VALERY, varlam4, vir2al, wgs73, Z28517, zaqxsw,
Today, 00:33:19 Certera - Sin Filtro (2020)


*Artist: Certera
*Album: Sin Filtro
*Year: 2020
*Genre: Thrash Metal
*Country: Argentina
*Format: mp3@CBR320kbps
*Size: 72MB

Tracklist:
1. Ensueños 01:19 instrumental
2. No escaparé 04:51
3. Futuro cierto 02:24
4. Invisibles 03:52
5. Plaga 02:58
6. Montaña de la muerte (Yala) 03:48
7. La bestia 01:59
8. Decisión 05:24
9. Criminal de profesión 01:42
10. Futuro cierto (portuguese versión) 02:24
******************************
Total playing time: 30:41

[more=Extended info]Katto Drums
Pipa Vocals, Guitars (rhythm)
Nacho Espejo Guitars
Lío Tabares Bass
[youtube]EnasaN82jkc[/youtube]
[youtube]YM_OhUGg_ZA[/youtube]
[youtube]LB--Z4GEKXU[/youtube][/more]

[more=Technical info]
Input File: 08 Decisión.mp3
Channels : 2
Sample Rate : 44100
Precision : 16-bit
Duration : 00:05:25.69 = 14362753 samples = 24426.5 CDDA sectors
File Size : 13.3M
Bit Rate : 326k
Sample Encoding: MPEG audio (layer I, II or III)
Comments :
Title=Decisión
Artist=CERTERA
Album=Sin Filtro
Tracknumber=8/10
Year=2020-20-20
Genre=Metal
Discnumber=1/1

[/more]

Register
(11) after21allD, andreikun, boby9052, infiltrator, Olethros, Rosen, sergsazan, stumpheavyrock, suseka, thrashiac55, wgs73,
Yesterday, 19:55:05 Winter Dynasty - The East Hell (2021)


*Artist: Winter Dynasty
*Album: The East Hell
*Year: 2021
*Genre: Atmospheric Black Metal/Ambient
*Country: China
*Format: mp3@CBR320kbps
*Size: 133MB

Tracklist:
1. Chamber of Tongue Ripping 08:01
2. Chamber of Scissors 05:48
3. Chamber of Iron Cycads 06:50
4. Chamber of Mirrors of Retribution 06:25
5. Chamber of Steamer 05:41
6. Forest of Copper Column 05:11
7. Mountain of Knives 07:06
8. Hill of Ice 06:33
9. Cauldron of Boiling Oil 06:08
******************************
Total playing time: 57:43




[more=Extended info]Leo Everything
See also: Star Devourer, Starving for Death[/more]

[more=Technical info]
Input File: Winter Dynasty - The East Hell - 07 Mountain of Knives.mp3
Channels : 2
Sample Rate : 44100
Precision : 16-bit
Duration : 00:07:07.00 = 18830480 samples = 32024.6 CDDA sectors
File Size : 17.2M
Bit Rate : 323k
Sample Encoding: MPEG audio (layer I, II or III)
Comments :
Title=Mountain of Knives
Artist=Winter Dynasty
Album=The East Hell
Tracknumber=7
Year=2021

[/more]

Register
(17) aleon, AlexSmith, Bregon, Hefir, infiltrator, kim666, Korpse, Olethros, Ostinato, randumbum, Rosen, sergsazan, suseka, Taakeferd, VALERY, varlam4, vasiljev_sergej,
Yesterday, 18:28:31 Aspar - Maifrost (2021)


*Artist: Aspar
*Album: Maifrost
*Year: 2021
*Genre: Melodic Death Metal
*Country: Germany
*Format: mp3@CBR320kbps
*Size: 143MB

Tracklist:
01. Das Biest
02. Rost
03. Kraft
04. Tochter der Sterne
05. Die Hatz
06. Rom
07. Der Aufstieg
08. Maifrost
09. Strand der Zeit
10. Lawine
11. Inferno
12. Fluch
13. Mond
******************************
Total playing time: 1:03:12



[more=Extended info]Sebastian Panzer – vocals
Christian Simmerl – bass
Stephan „Schaffer“ Schafferhans – guitar
Werner Riedl – drums
[youtube]an3ndsZJzRE[/youtube]
[youtube]NR62duSwYBs[/youtube][/more]

[more=Technical info]
Input File: 09 - Strand der Zeit.mp3
Channels : 2
Sample Rate : 44100
Precision : 16-bit
Duration : 00:06:35.38 = 17436126 samples = 29653.3 CDDA sectors
File Size : 15.8M
Bit Rate : 320k
Sample Encoding: MPEG audio (layer I, II or III)
Comments :
Title=Strand der Zeit
Artist=Aspar
Album=Maifrost
Tracknumber=9
Year=2021
Genre=Metal

[/more]

Register
(18) akym, Fater_Hu, GorAtheist, infiltrator, Marek, Olethros, Ostinato, Phlebotomized, randumbum, Rosen, sadmannn, sergsazan, suseka, Taakeferd, VALERY, varlam4, zhol, Сварог Барг,
Yesterday, 17:19:37 Grima - Rotten Garden (2021)
FLAC (Tracks) 278 mb
Register
(8) Andr, infiltrator, Marek, Olethros, Piob, serjred, vasiljev_sergej, VLADISLAV_V_K,
Yesterday, 17:01:07 In Vision - In Vision (2021)
ЦИТАТА(Victim of fate @ 22nd January 2021 - 06:24:01) *
жаль выпить нельзя..

Сухой закон чтоле?
(3) infiltrator, Victim of fate, vosmidesijatye,
Yesterday, 16:56:23 Conviction - Conviction (2021)


*Artist: Conviction
*Album: Conviction
*Year: 2021
*Genre: Doom Metal
*Country: France
*Format: mp3@CBR320kbps
*Size: 138MB

Tracklist:
1. Prologue Affliction 00:50 instrumental
2. Voices of the Dead 06:52
3. Through the Window 09:43
4. Curse of the Witch 05:28
5. Outworn 09:40
6. Wrong Life 08:26
7. Castles Made of Shame 07:27
8. My Sanctuary 11:18
******************************
Total playing time: 59:44




[more=Extended info]Olivier Verron Everything (2013-2017), Guitars, Vocals (2017-present)
See also: Bloodoffer, Bran Barr, Temple of Baal, ex-Banished Spirits, ex-Fly Strike, ex-Antaeus, ex-Silver Machine
Rachid "Teepee" Trabelsi Drums (2017-present)
See also: Corrosive Elements, Moonskin, Pervert Asshole, ghUSa (live), ex-Lethal Mind, ex-Worth, ex-Tales of Blood, ex-Repulsed (Dza), ex-Utopia (Dza)
Vincent Buisson Bass (2018-present)
See also: Bran Barr, Heol Telwen, Mourning Dawn, ex-Ond Aand, ex-Funeralium
Frédéric Patte-Brasseur Guitars (2018-present)
See also: Ataraxie, Funeralium, Stabwound, Mourning Dawn (live), ex-Wormfood, ex-Despond
[youtube]_90gqKkHS2s[/youtube][/more]

[more=Technical info]
Input File: 08 - My Sanctuary.mp3
Channels : 2
Sample Rate : 44100
Precision : 16-bit
Duration : 00:11:17.71 = 29886967 samples = 50828.2 CDDA sectors
File Size : 27.3M
Bit Rate : 323k
Sample Encoding: MPEG audio (layer I, II or III)
Comments :
Title=My Sanctuary
Artist=Conviction
Album=Conviction
Tracknumber=8
Year=2021

[/more]

Register
(14) andreikun, EpicDoomLord, ErikGoth, infiltrator, metala, Morgoth, Noxius, Olethros, randumbum, Rosen, Sabbathian, sergsazan, stumpheavyrock, VALERY,
Yesterday, 16:44:50 Torus - Damsel (2021)


*Artist: Torus
*Album: Damsel
*Year: 2021
*Genre: Modern Thrash Metal
*Country: Germany
*Format: mp3@CBR320kbps
*Size: 105MB

Tracklist:
1. Mary
2. Catherine
3. Ursula
4. Magaret
5. Lucia
6. Barbara
7. Sophia
8. Lilith
******************************
Total playing time: 45:46




[more=Technical info]
Input File: 07 - Sophia.mp3
Channels : 2
Sample Rate : 44100
Precision : 16-bit
Duration : 00:05:16.10 = 13939966 samples = 23707.4 CDDA sectors
File Size : 12.7M
Bit Rate : 323k
Sample Encoding: MPEG audio (layer I, II or III)
Comments :
Title=Sophia
Artist=Torus
Album=Damsel
Tracknumber=7
Year=2021

[/more]

Register
(8) boby9052, chipsgott, infiltrator, Marek, metala, Olethros, Rosen, sadmannn,
Yesterday, 16:30:51 Noen Hater Oss - Siste Stopp Skjærsilden (2021)


*Artist: Noen Hater Oss
*Album: Siste Stopp Skjærsilden
*Year: 2021
*Genre: Black Metal
*Country: Norway
*Format: mp3@CBR320kbps
*Size: 100MB

Tracklist:
1. Morgenstjerne
2. Ordets makt
3. Liksvopet
4. Deus est mortuus
5. Deres aerede kadaver
6. Noen spiser oss
7. Hjem i ei kiste
8. Den siste salme
9. Herr Vinter
******************************
Total playing time: 42:42




[more=Extended info]Raum Everything (2016-2019), Guitars, bass, drums (2019-present)
See also: Sjelferd, ex-Dingir Xul, ex-Majestic, The Strangled
Morloc Vocals (2018-present)
See also: Dawn of Retaliation, Faustian Dripfeed, Sjelferd, ex-A Winter Within, ex-Majestic, ex-Deathfare, ex-Myriads, ex-Blasfemi Brødrene
[youtube]k21DyGoedSA[/youtube][/more]

[more=Technical info]
Input File: 08 - Den siste salme.mp3
Channels : 2
Sample Rate : 44100
Precision : 16-bit
Duration : 00:05:47.58 = 15328190 samples = 26068.4 CDDA sectors
File Size : 14.1M
Bit Rate : 326k
Sample Encoding: MPEG audio (layer I, II or III)
Comments :
Title=Den siste salme
Artist=Noen hater oss
Album=Siste stopp skjærsilden
Tracknumber=8
Year=2021

[/more]

Register
(23) cancer1974, caro, EvilPiet, Fater_Hu, infiltrator, isvili, kim666, Korpse, kryptor, Marek, Olethros, Ostinato, randumbum, Rosen, Sjelekval, suseka, Taakeferd, VALERY, varlam4, vasiljev_sergej, vov7609, vovenom, zhol,
Yesterday, 16:20:38 Athar Aghanon - Fidelitas (2021)


*Artist: Athar Aghanon
*Album: Fidelitas
*Year: 2021
*Genre: Black Metal
*Country: Norway
*Format: mp3@CBR320kbps
*Size: 110MB

Tracklist:
1. Purge of the Lawless 08:45
2. Resanctified — Anteferrean Ghost Invocation 09:59
3. The Slaughter of the Child and the Demise of the Good 05:16
4. We Lie Alone 09:18
5. Order Upon the Underworld 06:37
6. Imperial Dusk, Feudal Dawn 08:00 instrumental
******************************
Total playing time: 47:55



[more=Extended info]Athar Aghanon Unknown (2013-present)
See also: ex-Saurga, ex-Schismata[/more]

[more=Technical info]
Input File: 05 - Order Upon the Underworld.mp3
Channels : 2
Sample Rate : 44100
Precision : 16-bit
Duration : 00:06:37.16 = 17514800 samples = 29787.1 CDDA sectors
File Size : 16.1M
Bit Rate : 323k
Sample Encoding: MPEG audio (layer I, II or III)
Comments :
Title=Order Upon the Underworld
Artist=Athar Aghanon
Album=Fidelitas
Tracknumber=5
Year=2021

[/more]

Register
(16) AlexSmith, Fater_Hu, infiltrator, kim666, legion01, Marek, Olethros, Ostinato, randumbum, Rosen, Sjelekval, suseka, Taakeferd, VALERY, varlam4, vasiljev_sergej,
Yesterday, 16:12:18 Immense - Torture Banished (2021)


*Artist: Immense
*Album: Torture Banished
*Year: 2021
*Genre: Brutal Death Metal
*Country: Indonesia
*Format: mp3@CBR320kbps
*Size: 67MB

Tracklist:
1. The Bloody Victims
2. Torn of Veins
3. Brutally Massacre Part II
4. Vortex of Misery (feat. Jake Munson Nelson)
5. Into the Grave
6. Hellwinds Disaster
7. Enemy of Sickness
8. Scum Injection
9. Apparent Death
******************************
Total playing time: 29:03




[more=Extended info]Danny Guitars
Arga Haryanto Drums (2017-present)
See also: Concussion, Disgusting Castigation, Human Impurity, Organ Busuck (live), ex-Chaosfury
Fachmy Bleed Insuffer Vocals (2017-present)
See also: Delirium Tremens, Injected Sufferage, ex-Vile, ex-Absolute Defiance[/more]

[more=Technical info]
Input File: 07 - Enemy of Sickness.mp3
Channels : 2
Sample Rate : 44100
Precision : 16-bit
Duration : 00:03:39.65 = 9686521 samples = 16473.7 CDDA sectors
File Size : 9.00M
Bit Rate : 328k
Sample Encoding: MPEG audio (layer I, II or III)
Comments :
Title=Enemy of Sickness
Artist=Immense
Album=Torture Banished
Tracknumber=7
Year=2021

[/more]

Register
(14) alikkon, andreikun, cesar, Corpuscul, EvilSpirit, infiltrator, metala, MMMMM, Olethros, randumbum, Rosen, suseka, Taakeferd, Witchmaster,
Yesterday, 16:01:22 Evil Dream - Arctic (2021)


*Artist: Evil Dream
*Album: Arctic
*Year: 2021
*Genre: Melodic Death Metal
*Country: Germany
*Format: mp3@CBR320kbps
*Size: 98MB

Tracklist:
1. Arctic
2. Call Out For Death (feat. MR. HORROX)
3. Fernweh
4. Traum
5. Lost In A Dream
6. Cold As Ice
7. Weg
8. Sleep
9. Wanderer
10. Autumn Song
******************************
Total playing time: 42:12





[more=Extended info]Leon Hering Unknown[/more]

[more=Technical info]
Input File: 08 - Sleep.mp3
Channels : 2
Sample Rate : 44100
Precision : 16-bit
Duration : 00:05:04.09 = 13410149 samples = 22806.4 CDDA sectors
File Size : 12.4M
Bit Rate : 325k
Sample Encoding: MPEG audio (layer I, II or III)
Comments :
Title=Sleep
Artist=Evil Dream
Album=Arctic
Tracknumber=8
Year=2021

[/more]

Register
(13) cesar, Fater_Hu, GorAtheist, infiltrator, Marek, Olethros, randumbum, Rosen, sergsazan, suseka, Taakeferd, VALERY, zhol,
Yesterday, 15:50:10 Mortal Terror - Bite Of The Underdog (2020)


*Artist: Mortal Terror
*Album: Bite Of The Underdog
*Year: 2020
*Genre: Old School Thrash Metal
*Country: Germany
*Format: mp3@CBR320kbps
*Size: 98MB

Tracklist:
1. Bite of the Underdog 05:03
2. Die at Full Speed 06:39
3. To the End 04:46
4. Black Church of Rock'n'Roll 05:17
5. Hate for the Haters 05:44
6. Black Pilled 04:24
7. Hounds of the Night 04:57
8. Warheads 06:37
******************************
Total playing time: 43:27




[more=Extended info]Gerret "Rox" Geilich Bass
Jürgen Grauer Drums
Matthias Keyser Guitars
Dirk Wieland Guitars, Vocals
Stefan "Charlie" Kunth Vocals[/more]

[more=Technical info]
Input File: 07 Hounds of the Night.mp3
Channels : 2
Sample Rate : 44100
Precision : 16-bit
Duration : 00:04:57.50 = 13119662 samples = 22312.4 CDDA sectors
File Size : 11.9M
Bit Rate : 320k
Sample Encoding: MPEG audio (layer I, II or III)
Comments :
Title=Hounds of the Night
Artist=Mortal Terror
Album=Bite of the Underdog
Tracknumber=7
Year=2020

[/more]

Register
(14) akym, boby9052, caro, GorAtheist, infiltrator, isvili, metala, Necroeire, Olethros, Rosen, Rover, suseka, thrashiac55, wgs73,
Yesterday, 00:38:00 Death Crusader - Death Crusader (2021)


*Artist: Death Crusader
*Album: Death Crusader
*Year: 2021
*Genre: Heavy Metal
*Country: Norway
*Format: mp3@CBR320kbps
*Size: 98MB

Tracklist:
1. The Reaper 04:18
2. Brothers in Arms 04:10
3. Death will Come 03:15
4. Hymn of Glory 03:51
5. We March 04:13
6. Heavy Metal 04:53
7. Death Crusader 03:53
8. Last Rites 04:50
9. Final Battle 03:34
10. Heavy Metal (Kjartan edition) 04:53
******************************
Total playing time: 41:50



[more=Extended info]Nattsvart Drums, Guitars, Vocals (backing)
See also: Death's Hollow Grasp, Framtak, Gnipaheller, IronFister, ex-Sverdkamp, ex-Thurs
Satan Guitars, Bass, Choir programming, Vocals,
See also: Dreyri, Evig Hat, Framtak, Hillbilly Blitzkrieg, IronFister, Mannepenis, Thurs, ex-Incipit[/more]

[more=Technical info]
Input File: Death Crusader - Death Crusader - 08 Last Rites.mp3
Channels : 2
Sample Rate : 44100
Precision : 16-bit
Duration : 00:04:50.71 = 12820135 samples = 21803 CDDA sectors
File Size : 11.8M
Bit Rate : 326k
Sample Encoding: MPEG audio (layer I, II or III)
Comments :
Title=Last Rites
Artist=Death Crusader
Album=Death Crusader
Tracknumber=8
Year=2021

[/more]

Register
(20) after21allD, BugEyes, caro, infiltrator, infozahist, Marek, metala, multizwilling, older68, Olethros, randumbum, Reverend, Rosen, Rover, sadmannn, sergsazan, smes, stumpheavyrock, Taakeferd, Yngwarr,
Yesterday, 00:10:29 Kharon - Kharon [ep] (2021)


*Artist: Kharon
*Album: Kharon [ep]
*Year: 2021
*Genre: Melodic Black Metal
*Country: Greece
*Format: mp3@CBR320kbps
*Size: 54MB

Tracklist:
1. Scowling Dissonance (A Prelude to Suffering) 01:31 instrumental
2. The Great Sacrifice (The Price of Salvation) 05:01
3. Tribulation (A Purposeless Dream) 06:28
4. Cult of Six Rivers 04:40
5. Nyx (Night) 06:18
******************************
Total playing time: 23:58



[more=Extended info]Kratz Everything (2020-present)[/more]

[more=Technical info]
Input File: 03 - Tribulation (A Purposeless Dream).mp3
Channels : 2
Sample Rate : 44100
Precision : 16-bit
Duration : 00:06:28.53 = 17134305 samples = 29140 CDDA sectors
File Size : 15.5M
Bit Rate : 320k
Sample Encoding: MPEG audio (layer I, II or III)
Comments :
Title=Tribulation (A Purposeless Dream)
Artist=Kharon
Album=Kharon
Tracknumber=3
Year=2021
Genre=Black Metal

[/more]

Register
(20) BugEyes, Fater_Hu, infiltrator, Marek, multizwilling, Olethros, Ostinato, randumbum, Rosen, satanist666, sergsazan, smes, suseka, symphonicadiction, Taakeferd, VALERY, varlam4, vasiljev_sergej, zhol, Сварог Барг,
Jan 21 2021, 23:50:41 Ellende - Triebe [ep] (2021)


*Artist: Ellende
*Album: Triebe [ep]
*Year: 2021
*Genre: Post-Black Metal
*Country: Austria
*Format: mp3@CBR320kbps
*Size: 70MB

Tracklist:
1. Triebe II 10:41
2. Weltennacht 10:35
3. Zwischen Sommer und Herbst 08:22
******************************
Total playing time: 29:38




[more=Extended info]L.G. Vocals, Guitars, Bass, Drums, Piano, Violin, Viola (2011-present)
See also: Svarta, ex-Aphotic Excess, Roadking[/more]

[more=Technical info]
Input File: 03 Zwischen Sommer Und Herbst.mp3
Channels : 2
Sample Rate : 44100
Precision : 16-bit
Duration : 00:08:22.52 = 22161088 samples = 37688.9 CDDA sectors
File Size : 20.8M
Bit Rate : 331k
Sample Encoding: MPEG audio (layer I, II or III)
Comments :
Title=Zwischen Sommer Und Herbst
Artist=Ellende
Album=Triebe
Tracknumber=3/3
Year=2021-21-20
Genre=Metal
Discnumber=1/1

[/more]

Register
(33) aleon, ALEXSATHANAS, Andr, Black Cat, ErikGoth, gena, Hefir, infiltrator, karpenka, kim666, Korpse, Lamby90, mondlicht, multizwilling, nadin85, Oath19, Olethros, Ostinato, Penetralia, randumbum, Rosen, sadmannn, SaintVitus, satanist666, sergsazan, smes, squall8fr, stone88, Taakeferd, toto, VALERY, varlam4, vasiljev_sergej,
Jan 21 2021, 23:09:38 Bloodletter - Funeral Hymns (2020)
320 from bandcamp 75 mb
Register

FLAC (Tracks) from bandcamp 382 mb
Register
(10) boby9052, Diflock, FlammenTod666, hell_armageddon, infiltrator, isvili, Marek, multizwilling, Olethros, victorinox,
Jan 21 2021, 20:36:46 Tidal Fall - Tidal Fall [ep] (2021)


*Artist: Tidal Fall
*Album: Tidal Fall [ep]
*Year: 2021
*Genre: Melodic Death Metal
*Country: United Kingdom
*Format: mp3@CBR320kbps
*Size: 59MB

Tracklist:
1. As the Crow Flies 01:10
2. Redemption 03:42
3. Carved in a Bullet 04:11
4. Barren Heart 03:49
5. Shores of Reflection 04:14
6. Letter to the Mutineer 03:41
7. When the Last Ship Has Sailed 02:17
******************************
Total playing time: 23:04




[more=Technical info]
Input File: 05 Shores of Reflection.mp3
Channels : 2
Sample Rate : 44100
Precision : 16-bit
Duration : 00:04:14.63 = 11229139 samples = 19097.2 CDDA sectors
File Size : 11.0M
Bit Rate : 344k
Sample Encoding: MPEG audio (layer I, II or III)
Comments :
Title=Shores of Reflection
Artist=Tidal Fall
Album=Tidal Fall
Tracknumber=5/7
Year=2021-21-20
Genre=Metal
Discnumber=1/1

[/more]

Register
(16) BugEyes, infiltrator, karpenka, Marek, multizwilling, Olethros, Ostinato, randumbum, Rosen, sadmannn, satanist666, sergsazan, Taakeferd, VALERY, zhol, Сварог Барг,
Jan 21 2021, 20:18:09 Torn Fabriks - Mind Consumption [ep] (2021)


*Artist: Torn Fabriks
*Album: Mind Consumption [ep]
*Year: 2021
*Genre: Thrash Metal
*Country: Portugal
*Format: mp3@CBR320kbps
*Size: 50MB

Tracklist:
1. Respect 03:52
2. Idiocracy Layers 03:46
3. Face It 03:18
4. Felt the Treason 03:10
5. Evil Eight 03:40
6. Bring Me Down 02:52
******************************
Total playing time: 20:38




[more=Extended info]Paulo Soares Drums (2020-present)
See also: Adamantine, Rageful, ex-Wall of Death, ex-Burned Blood, ex-Endless Dyskinesia
Jorge Matos Guitars (2020-present)
See also: ex-Veinless
Ricardo Santos Vocals, Bass (2020-present)
See also: Morbid Death, ex-Lakrau
[youtube]RgFY-2c-VHw[/youtube][/more]

[more=Technical info]
Input File: 05 Evil Eight.mp3
Channels : 2
Sample Rate : 44100
Precision : 16-bit
Duration : 00:03:40.67 = 9731459 samples = 16550.1 CDDA sectors
File Size : 9.22M
Bit Rate : 334k
Sample Encoding: MPEG audio (layer I, II or III)
Comments :
Title=Evil Eight
Artist=Torn Fabriks
Album=Mind Consumption
Tracknumber=5/6
Year=2021-21-20
Genre=Metal
Discnumber=1/1

[/more]

Register
(10) after21allD, gwar, hell_armageddon, infiltrator, Marek, Olethros, Rosen, sergsazan, stumpheavyrock, thrashiac55,
Jan 21 2021, 19:46:07 Deprived Of Salvation - The Era Of Disdain [ep] (2021)


*Artist: Deprived Of Salvation
*Album: The Era Of Disdain [ep]
*Year: 2021
*Genre: Old School Death Metal
*Country: Hungary
*Format: mp3@CBR320kbps
*Size: 25MB

Tracklist:
1. Still Above the Grave 02:51
2. The Uprising 03:42
3. The Era of Disdain 03:38
******************************
Total playing time: 10:11




[more=Extended info]Borisz Sarafutgyinov All instruments, Vocals (2019-present)
See also: Dusty Chopper, Lies of the Machine, Symmetry of the Void, ex-Baskíria, ex-Forget the Past, ex-Enemiga
Dániel Mácsai Vocals (backing), Guitars (2019-present)
[youtube]Q02OInCSpps[/youtube][/more]

[more=Technical info]
Input File: 03. The Era of Disdain.mp3
Channels : 2
Sample Rate : 44100
Precision : 16-bit
Duration : 00:03:38.84 = 9650976 samples = 16413.2 CDDA sectors
File Size : 9.05M
Bit Rate : 331k
Sample Encoding: MPEG audio (layer I, II or III)
Comments :
Title=The Era of Disdain
Artist=Deprived of Salvation
Album=The Era of Disdain
Tracknumber=3
Year=2021
Genre=Death Metal

[/more]

Register
(13) andreikun, EvilSpirit, infiltrator, Kaotik, Olethros, Rosen, sergsazan, stumpheavyrock, Taakeferd, VALERY, vyacheslav, Yngwarr, zhol,
Jan 21 2021, 19:35:48 Bloodkill - Throne Of Control (2021)


*Artist: Bloodkill
*Album: Throne Of Control
*Year: 2021
*Genre: Thrash Metal
*Country: India
*Format: mp3@CBR320kbps
*Size: 84MB

Tracklist:
1. The Unveiling 00:55 instrumental
2. Blindead Circus 03:05
3. False Face 04:36
4. 3B 03:58
5. Unite and Conquer 05:35
6. Horrorscope 05:16
7. For I Am the Messiah 05:31
8. Throne of Control 04:39
******************************
Total playing time: 33:35




[more=Extended info]Jay Patil Drums
Shubham Khare Guitars (lead)
Anirudh Gollapudi Vocals
Yash Wadkar Bass
Vishwas Shetty Guitars (rhythm)
[youtube]-3Q6OUh1UAM[/youtube]
[youtube]zBib2u2C0hE[/youtube][/more]

[more=Technical info]
Input File: 05 Unite and Conquer.mp3
Channels : 2
Sample Rate : 44100
Precision : 16-bit
Duration : 00:05:45.83 = 15251015 samples = 25937.1 CDDA sectors
File Size : 14.6M
Bit Rate : 338k
Sample Encoding: MPEG audio (layer I, II or III)
Comments :
Title=Unite and Conquer
Artist=Bloodkill
Album=Throne of Control
Tracknumber=5/8
Year=2021-21-20
Genre=Metal
Discnumber=1/1

[/more]

Register
(13) after21allD, BugEyes, cesar, gwar, infiltrator, metala, Olethros, Phlebotomized, Rosen, Rover, stumpheavyrock, thrashiac55, varlam4,

880 Pages V   1 2 3 > » 
- Lo-Fi Version Support form
Copyrights and abuse reports form
Time is now: 23rd January 2021 - 23:35:24