Welcome Guest ( Log In | Register )

История благодарностей участнику Samaritianin ::: Спасибо сказали: 308895 раз(а)
Дата поста: В теме: За сообщение: Спасибо сказали:
Oct 20 2020, 12:42:45 Dethrone - State Of Decay [ep] (2020)


*Artist: Dethrone
*Album: State Of Decay [ep]
*Year: 2020
*Genre: Death/Thrash Metal
*Country: Sweden
*Format: mp3@CBR320kbps
*Size: 33MB

Tracklist:
1. Divine Supremacy
2. Revolt
3. Flesh Harvest
4. Room 101
******************************
Total playing time: 13:11




[more=Extended info]Gesang – Mattias Vestlund
Gitarre – David Hartikainen
Bassgitarre – Kenni Öjebrandt
Schlagzeug – Klas Blomgren
[youtube]MEFnY18Viok[/youtube]
[youtube]8m3l7CeBP3w[/youtube][/more]

[more=Technical info]
Input File: 04 - Room 101.mp3
Channels : 2
Sample Rate : 44100
Precision : 16-bit
Duration : 00:03:11.00 = 8423100 samples = 14325 CDDA sectors
File Size : 7.80M
Bit Rate : 327k
Sample Encoding: MPEG audio (layer I, II or III)
Comments :
Title=Room 101
Artist=Dethrone
Album=State of Decay
Tracknumber=4
Year=2020-13-10
Genre=Rock
Discnumber=1

[/more]

Register
(15) boby9052, caro, infiltrator, Marek, metala, Olethros, Ostinato, Rosen, SadistikSlayer, scorpionmk, sergsazan, sludge666, stumpheavyrock, Volk11911, vyacheslav,
Oct 20 2020, 12:20:50 Dying Aura - Of Death, Kings And Solitude (2020)


*Artist: Dying Aura
*Album: Of Death, Kings And Solitude
*Year: 2020
*Genre: Atmospheric Black Metal
*Country: Austria
*Format: mp3@CBR320kbps
*Size: 136MB

Tracklist:
1. Autumn Dreams 08:49
2. The Blood of Kings 07:16
3. Ghost in Black Void 05:58
4. Voices of Solitude 06:44
5. The Dying Light 06:11
6. Summoners of Endzeit 05:11
7. The Blood on My Blade 07:09
8. Signs on the Firmament 06:49
9. Kill the Flame 05:17
******************************
Total playing time: 59:24



[more=Extended info]Blængur Everything[/more]

[more=Technical info]
Input File: Dying Aura - Of Death, Kings and Solitude - 04 Voices of Solitude.mp3
Channels : 2
Sample Rate : 44100
Precision : 16-bit
Duration : 00:06:44.08 = 17820104 samples = 30306.3 CDDA sectors
File Size : 16.3M
Bit Rate : 323k
Sample Encoding: MPEG audio (layer I, II or III)
Comments :
Title=Voices of Solitude
Artist=Dying Aura
Album=Of Death, Kings and Solitude
Tracknumber=4
Year=2020

[/more]

Register
(27) 1968_janeart, 2Amarth2, AlexSmith, alikkon, AnnFairy, Doooomed, El_Chibo, infiltrator, LEGION69, Lukittaz, maochen, Marek, metala, multizwilling, nsk2008, older68, Olethros, randumbum, Romanza, Rosen, sergsazan, Shadechaser, smysl, stub888, suseka, VALERY, vasiljev_sergej,
Oct 20 2020, 02:36:02 Tourniquet - The Slow Cosmic Voyage To Wisdom [compilation] (2020)


*Artist: Tourniquet
*Album: The Slow Cosmic Voyage To Wisdom [compilation]
*Year: 2020
*Genre: Heavy/Doom Metal
*Country: United States
*Format: mp3@CBR320kbps
*Size: 178MB

Tracklist:
1. Electric Funeral (Black Sabbath cover) 05:09
2. Memento Mori 04:22
3. Lions 06:07 instrumental
4. Going, Going...Gone 06:04
5. Gethsemane (Andrew Lloyd Webber's Jesus Christ Superstar cover) 05:49
6. No Soul 04:43
7. In Death We Rise (vocals up) 07:02
8. Officium Defunctorum 06:26
9. Lord of This World (Black Sabbath cover) 05:48
10. Mission to MACS J1149+2223 Lensed Star 1 (I - Navigating the Distant Spiral Galaxy Cluster, II - The Nothingness of the Primordial Black Holes, III - Arrival: 9 Billion Light-years from Earth) 25:30 instrumental
******************************
Total playing time: 1:17:00




[more=Extended info]Ted Kirkpatrick Drums (1989-present), Bass (?-present)
Aaron Guerra Guitars (1994-2002, 2004-2008, 2008-present) Vocals (?-present)
Victor Macias Bass (track 8)
Gary Lenaire Guitars (track 8)
Guy Ritter Vocals (track 8)
Erik Mendez Guitars (track 8)
Luke Easter Vocals (tracks 4, 7)[/more]

[more=Technical info]
Input File: 04 - Going, Going…Gone.mp3
Channels : 2
Sample Rate : 44100
Precision : 16-bit
Duration : 00:06:04.00 = 16052400 samples = 27300 CDDA sectors
File Size : 14.8M
Bit Rate : 325k
Sample Encoding: MPEG audio (layer I, II or III)
Comments :
Title=Going, Going…Gone
Artist=Tourniquet
Album=The Slow Cosmic Voyage to Wisdom
Tracknumber=4
Year=2020-01-10
Genre=Alternative/Indie Rock/Metal
Discnumber=1

[/more]

Register
(11) infiltrator, Marek, marilin, Niknne, Olethros, Reverend, Rosen, Shub, stumpheavyrock, VALERY, Yngwarr,
Oct 20 2020, 02:12:56 Artillery - The Last Journey [single] (2020)


*Artist: Artillery
*Album: The Last Journey [single]
*Year: 2020
*Genre: Power/Thrash Metal
*Country: Denmark
*Format: flac@320kbps
*Size: 66MB

Tracklist:
1. The Last Journey 04:50
2. Trapped Under Ice (Metallica cover) 04:10
******************************
Total playing time: 9:00



[more=Extended info]Michael Stützer Guitars (lead)
Peter Thorslund Bass
Josua Madsen Drums
Michael Bastholm Dahl Vocals
Kræn Meier Guitars
[youtube]Zh3wXckmNes[/youtube][/more]

Register
(13) AHBAnep, Alexis The Best, boby9052, Bzth, canadaspaceman, infiltrator, LightWizard, Marek, metaljosue, Olethros, Rosen, sergsazan, stumpheavyrock,
Oct 20 2020, 01:05:56 Dismembered Flesh Mutilation - Necrophiliac Decomposition (2020)


*Artist: Dismembered Flesh Mutilation
*Album: Necrophiliac Decomposition
*Year: 2020
*Genre: Slamming Brutal Death Metal
*Country: Poland
*Format: mp3@CBR320kbps
*Size: 72MB

Tracklist:
01. Ulcerated Vagina Filled with Maggots
02. Shredded Mature in a Stone Grinder
03. Raped by the Hatchet
04. Orgy in the Morgue Full of Decomposing Secretion
05. Arnold God of Whores and Flies
06. Sadomasochistic Trepanation of Skull of a Musty Dwarf
07. Cooking Children's Entrails from the Rosary Ring
08. The Guartered Torso of the Pregnant Bride
09. Zombie Apocalypse
10. Anorectic Breast Barbecue
11. Death Injection
12. The End of Suffering
******************************
Total playing time: 30:09




[more=Extended info][youtube]bNB5V9KN64Y[/youtube][/more]

[more=Technical info]
Input File: 10. Anorectic Breast Barbecue.mp3
Channels : 2
Sample Rate : 44100
Precision : 16-bit
Duration : 00:03:05.35 = 8174023 samples = 13901.4 CDDA sectors
File Size : 7.60M
Bit Rate : 328k
Sample Encoding: MPEG audio (layer I, II or III)
Comments :
Title=Anorectic Breast Barbecue
Artist=Dismembered Flesh Mutilation
Album=Necrophiliac Decomposition
Tracknumber=10
Year=2020

[/more]

Register
(6) infiltrator, maochen, Olethros, Rosen, vyacheslav, Wotanwatch,
Oct 19 2020, 19:59:53 Thrashwall - Thrashwall (2020)
FLAC (Tracks) 234 mb
Register
(5) AHBAnep, infiltrator, isvili, Marek, Olethros,
Oct 19 2020, 18:27:17 Terror Blind - The Gate Of Grieving Souls (2020)


*Artist: Terror Blind
*Album: The Gate Of Grieving Souls
*Year: 2020
*Genre: Thrash/Death Metal
*Country: Japan
*Format: mp3@CBR320kbps
*Size: 71MB

Tracklist:
01. Until The Soul Goes Empty
02. Set This Tragedy Ablaze
03. In Darkest Flame
04. Fury Of The Freezing Moon
05. The Gate Of Grieving Souls
06. Daylight Dies In Black Cloud
07. Void Storm
08. Blind Eyes
09. Chasing The Demon
10. Abyss Walker
11. Before The Light Torches Us
******************************
Total playing time: 30:15



[more=Technical info]
Input File: Terror Blind - The Gate Of Grieving Souls - 06 Daylight Dies In Black Cloud.mp3
Channels : 2
Sample Rate : 44100
Precision : 16-bit
Duration : 00:03:04.88 = 8153120 samples = 13865.9 CDDA sectors
File Size : 7.56M
Bit Rate : 327k
Sample Encoding: MPEG audio (layer I, II or III)
Comments :
Title=Daylight Dies In Black Cloud
Artist=Terror Blind
Album=The Gate Of Grieving Souls
Tracknumber=6
Year=2020

[/more]

Register
(10) boby9052, infiltrator, Lukittaz, Marek, metala, Olethros, Rosen, SadistikSlayer, sergsazan, Wail,
Oct 19 2020, 16:13:07 Epitimia - Allusion (2020)


*Artist: Epitimia
*Album: Allusion
*Year: 2020
*Genre: Post-Black Metal
*Country: Russian Federation
*Format: mp3@CBR320kbps
*Size: 124MB

Tracklist:
1. Clue I: Animist 07:22
2. Clue II: Melencolia I 07:56
3. Clue III: Waiting for the Doom 06:42
4. Clue IV: I Aspire Like a Bird 08:42
5. Clue V: Altered State of Consciousness 07:45
6. Clue VI: Schizophrenia 08:43
7. Clue VII: Post Scriptum 07:15
******************************
Total playing time: 54:25




[more=Extended info]A. All instruments (2008-present)
See also: Mute Ocean, Nirmal Hriday, ex-Depicting Abysm, ex-Shit Peredozzzz, ex-Syntagma
K. Vocals (2008-present)
See also: ex-Depicting Abysm
M. Drums, Violin (2009-present)
See also: Nirmal Hriday
[youtube]j1RXPIZcfsM[/youtube][/more]

[more=Technical info]
Input File: 04 - Clue IV I Aspire Like a Bird.mp3
Channels : 2
Sample Rate : 44100
Precision : 16-bit
Duration : 00:08:42.59 = 23045999 samples = 39193.9 CDDA sectors
File Size : 20.9M
Bit Rate : 321k
Sample Encoding: MPEG audio (layer I, II or III)
Comments :
Title=Clue IV: I Aspire Like a Bird
Artist=Epitimia
Album=Allusion
Tracknumber=4
Year=2020

[/more]

Register
(13) 1968_janeart, 666days, alikkon, Bregon, Daale, El_Chibo, infiltrator, Kwaad, Olethros, randumbum, Rosen, VALERY, vasiljev_sergej,
Oct 19 2020, 15:03:44 Horre - Teetädäk (2020)


*Artist: Horre
*Album: Teetädäk
*Year: 2020
*Genre: Funeral Doom Metal
*Country: Finland
*Format: mp3@CBR320kbps
*Size: 83MB

Tracklist:
1. Teetädäk
2. Evergreen
3. Solitude
4. Wanderer
5. Grove
******************************
Total playing time: 36:39




[more=Extended info]Jesse Laatikainen All instruments, Vocals (2017-present)
See also: ex-Minor
[youtube]GOy1jVvkUXU[/youtube]
[youtube]T7lBWBg7qFQ[/youtube][/more]

[more=Technical info]
Input File: 02 - Evergreen.mp3
Channels : 2
Sample Rate : 44100
Precision : 16-bit
Duration : 00:07:56.26 = 21003242 samples = 35719.8 CDDA sectors
File Size : 19.2M
Bit Rate : 323k
Sample Encoding: MPEG audio (layer I, II or III)
Comments :
Title=Evergreen
Artist=Horre
Album=Teetädäk
Tracknumber=2
Year=2020

[/more]

Register
(16) AlexSmith, Funeral Frost, infiltrator, Marek, metala, nadin85, Niknne, nsk2008, randumbum, Rosen, scorn33, sergsazan, Shadechaser, StoneTemple, stub888, VALERY,
Oct 19 2020, 14:45:47 Thrashwall - Thrashwall (2020)


*Artist: Thrashwall
*Album: Thrashwall
*Year: 2020
*Genre: Old School Thrash Metal
*Country: Portugal
*Format: mp3@CBR320kbps
*Size: 68MB

Tracklist:
1. Intro 00:57
2. War Outside the Wall 03:45
3. Old Jail 03:22
4. Warehouse Rampage 03:57
5. World Domination 05:14
6. Mental Destruction 03:37
7. Insanity Alert 04:12
8. Mosh in the Hall 03:38
******************************
Total playing time: 28:42




[more=Extended info]Garras Drums (2015-present)
See also: ex-Toxikull, ex-Corrosão Social, ex-Noisy Trips
Gonçalo Branco Guitars (2015-present)
See also: Mindtaker
Nelson Coelho Guitars (2015-present)
See also: ex-Black Shadows, ex-Karseron
Luís Rodrigues Vocals (2015-present)
João Martins Bass (2020-present)
[youtube]_Qxl14umylg[/youtube][/more]

[more=Technical info]
Input File: 05 - World Domination.mp3
Channels : 2
Sample Rate : 44100
Precision : 16-bit
Duration : 00:05:14.64 = 13875448 samples = 23597.7 CDDA sectors
File Size : 12.9M
Bit Rate : 327k
Sample Encoding: MPEG audio (layer I, II or III)
Comments :
Title=World Domination
Artist=ThrashWall
Album=ThrashWall
Tracknumber=5
Year=2020

[/more]

Register
(22) after21allD, andreikun, boby9052, BugEyes, canadaspaceman, Diflock, hammer, infiltrator, Lukittaz, metala, Morgoth, multizwilling, Niknne, older68, oldthrashman, Olethros, Rosen, SadistikSlayer, SaintVitus, thenecromancer, Thrashman, wgs73,
Oct 18 2020, 19:57:02 Classic Alien Invasion - Classic Alien Invasion (2020)


*Artist: Classic Alien Invasion
*Album: Classic Alien Invasion
*Year: 2020
*Genre: Thrash Metal
*Country: Belgium
*Format: mp3@CBR320kbps
*Size: 84MB

Tracklist:
01. Gaaab 03:33
02. Alien Number One 04:56
03. Alienophobia 03:16
04. Mars Blast Waves 03:54
05. Cosmos Family Values 03:42
06. Classic Alien Invasion 05:18
07. Tractor Beam 04:47
08. Live Damage Special Edition 04:33
******************************
Total playing time: 33:59




[more=Extended info]One man band
[youtube]s8CdaS9piCQ[/youtube][/more]

[more=Technical info]
Input File: 06 - Classic Alien Invasion.mp3
Channels : 2
Sample Rate : 44100
Precision : 16-bit
Duration : 00:05:18.01 = 14024197 samples = 23850.7 CDDA sectors
File Size : 13.5M
Bit Rate : 338k
Sample Encoding: MPEG audio (layer I, II or III)
Comments :
Title=Classic Alien Invasion
Artist=Classic Alien Invasion
Album=Classic Alien Invasion
Tracknumber=6/8
Year=2020
Discnumber=1/1

[/more]

Register
(19) after21allD, boby9052, BugEyes, caro, craP_cillA, HMHamster, infiltrator, Lukittaz, Marek, metala, Morgoth, multizwilling, older68, Olethros, postal67, Rosen, sagratan, stumpheavyrock, suseka,
Oct 18 2020, 18:42:46 Voyeur - Primal Instinct [ep] (2020)


*Artist: Voyeur
*Album: Primal Instinct [ep]
*Year: 2020
*Genre: Death Metal
*Country: United States
*Format: mp3@CBR320kbps
*Size: 55MB

Tracklist:
1. Primal Instinct 01:48
2. Nightbreed 00:53
3. Unmarked Shallow Grave 02:46
4. Replicant 03:18
5. Aura of Terror 02:22
6. 14th & Broadway 01:42
7. Breeding the Weak 02:04
8. Hour of Reckoning 02:15
9. Carcinogen 01:47
10. Impulse Control Disorder 01:46
11. Premature Funeral 01:42
******************************
Total playing time: 22:23



[more=Extended info]Joshua Secretario Guitars (2015-present)
Kenneth Ruggles Vocals (2015-present)
Sebrezjeno Drums (2017-present)
SkidMark Bass (2018-present)[/more]

[more=Technical info]
Input File: 04. Replicant.mp3
Channels : 2
Sample Rate : 44100
Precision : 16-bit
Duration : 00:03:19.04 = 8777708 samples = 14928.1 CDDA sectors
File Size : 8.27M
Bit Rate : 333k
Sample Encoding: MPEG audio (layer I, II or III)
Comments :
Title=Replicant
Artist=Voyeur
Album=Primal Instinct
Tracknumber=4
Year=2020
Genre=Death Metal

[/more]

Register
(12) Borya_Tvorogov, caro, infiltrator, Morgoth, multizwilling, Olethros, Ostinato, Rosen, sagratan, VALERY, vyacheslav, wanderer73,
Oct 18 2020, 14:32:38 Respeto - El Eclipse De La Razón (2020)


*Artist: Respeto
*Album: El Eclipse De La Razón
*Year: 2020
*Genre: Melodic Groove/Thrash Metal
*Country: Argentina
*Format: mp3@CBR320kbps
*Size: 72MB

Tracklist:
1. Despertar 03:55
2. De pie 02:50
3. Honor 04:20
4. Impulso 03:38
5. Conciencia 03:22
6. Mueren por vivir 04:08
7. Revancha 04:34
8. Resistiendo 04:01
******************************
Total playing time: 30:48



[more=Extended info]Leandro Gomez Chaves Bass, Vocals
Adrian Grimaux Drums
Juan Di Leone Guitars
Marcos Campos Guitars
See also: Bastardos, •Entre Luces Y Tumbas•
[youtube]p1dA7OW5SaM[/youtube][/more]

[more=Technical info]
Input File: 07 - Revancha.mp3
Channels : 2
Sample Rate : 44100
Precision : 16-bit
Duration : 00:04:34.09 = 12087413 samples = 20556.8 CDDA sectors
File Size : 11.2M
Bit Rate : 327k
Sample Encoding: MPEG audio (layer I, II or III)
Comments :
Title=Revancha
Artist=Respeto
Album=El Eclipse de la Razón
Tracknumber=7
Year=2020

[/more]

Register
(8) after21allD, boby9052, infiltrator, Lukittaz, metala, Morgoth, Olethros, Rosen,
Oct 18 2020, 14:20:13 Army Of Darkness - Army Of Darkness (2020)


*Artist: Army Of Darkness
*Album: Army Of Darkness
*Year: 2020
*Genre: Thrash/Death Metal/Grindcore
*Country: United States
*Format: mp3@CBR320kbps
*Size: 112MB

Tracklist:
1. Risen 01:15
2. Mariposa 04:04
3. Pride 03:05
4. Possessed 04:55
5. Trauma 04:26
6. Army of Darkness 03:17
7. Black Crusade 01:28
8. Pyscho 02:49
9. Torture 04:40
10. Hellbound 03:57
11. Suicide 01:42
12. Forever Undead 03:22
13. Midevil Massacre 04:45
14. Stacking the Dead 03:16
******************************
Total playing time: 47:01




[more=Extended info]Brian Warlord Bass, Vocals
Derin Argon Drums
See also: ex-Deception, ex-Mutants of War
Anthony Guitars
See also: ex-Contortion
Joseph Gonzalez Vocals, Guitars[/more]

[more=Technical info]
Input File: Army of Darkness - Army of Darkness - 04 Possessed.mp3
Channels : 2
Sample Rate : 44100
Precision : 16-bit
Duration : 00:04:55.15 = 13015983 samples = 22136 CDDA sectors
File Size : 12.1M
Bit Rate : 328k
Sample Encoding: MPEG audio (layer I, II or III)
Comments :
Title=Possessed
Artist=Army of Darkness
Album=Army of Darkness
Tracknumber=4
Year=2020

[/more]

Register
(14) alikkon, boby9052, caro, FartNapalm, infiltrator, metala, Morgoth, multizwilling, Olethros, Reverend, Rosen, sagratan, stumpheavyrock, suseka,
Oct 18 2020, 14:06:02 Sons Of Otis - Isolation (2020)


*Artist: Sons Of Otis
*Album: Isolation
*Year: 2020
*Genre: Stoner/Doom Metal
*Country: Canada
*Format: mp3@CBR320kbps
*Size: 101MB

Tracklist:
1. Hopeless 07:54
2. JJ 08:23
3. Trust 06:24
4. Blood Moon 09:01
5. Ghost 06:12
6. Theme II 05:59
******************************
Total playing time: 43:53




[more=Extended info]Ryan Aubin Drums
Frank Sargeant Bass
Ken Baluke Guitars, Vocals
[youtube]vVuyQTslr3E[/youtube][/more]

[more=Technical info]
Input File: 04 Blood Moon.mp3
Channels : 2
Sample Rate : 44100
Precision : 16-bit
Duration : 00:09:01.61 = 23884825 samples = 40620.5 CDDA sectors
File Size : 21.7M
Bit Rate : 320k
Sample Encoding: MPEG audio (layer I, II or III)
Comments :
Title=Blood Moon
Artist=Sons of Otis
Album=Isolation
Tracknumber=4
Year=2020

[/more]

Register
(20) BERZERK, gena, infiltrator, Leshiy666, Living_Beat, marilin, Morgoth, multizwilling, NappyRob, Olethros, Rosen, SatanicPanzer, sludge666, stub888, stumpheavyrock, suseka, TNARAG, Un4given, VALERY, Winter Funeral,
Oct 18 2020, 13:51:21 Forlorn World - Umbra (2020)


*Artist: Forlorn World
*Album: Umbra
*Year: 2020
*Genre: Melodic Death Metal
*Country: United Kingdom
*Format: mp3@CBR320kbps
*Size: 68MB

Tracklist:
1. Moving Mountains 05:17
2. The Shadowmancer 03:29
3. Before the End 01:06 instrumental
4. March Into Void 04:50
5. Traveller 05:45
6. Pillars of Eternity 04:21
7. Umbra 04:47
******************************
Total playing time: 29:35




[more=Extended info]Josh McMorran Vocals, Guitar, Songwriting (2019-present)
See also: Bloodshot Dawn, ex-Karmyne[/more]

[more=Technical info]
Input File: 05. Traveller.mp3
Channels : 2
Sample Rate : 44100
Precision : 16-bit
Duration : 00:05:37.80 = 14896892 samples = 25334.9 CDDA sectors
File Size : 13.5M
Bit Rate : 320k
Sample Encoding: MPEG audio (layer I, II or III)
Comments :
Title=Traveller
Artist=Forlorn World
Album=Umbra
Tracknumber=05
Year=2020

[/more]

Register
(16) AHBAnep, BugEyes, caro, infiltrator, Marek, Morgoth, multizwilling, Olethros, Ostinato, phtm, randumbum, Rosen, sergsazan, suseka, VALERY, zhol,
Oct 18 2020, 13:34:23 Hell Vendetta - Hell Vendetta (2020)


*Artist: Hell Vendetta
*Album: Hell Vendetta
*Year: 2020
*Genre: Thrash/Death Metal
*Country: United States
*Format: mp3@CBR320kbps
*Size: 86MB

Tracklist:
1. Call the Coroner
2. Built for War
3. Taken Away
4. Seventh Sin
5. Pit Keeper
6. Walking Corpse
7. Civil Seizure
******************************
Total playing time: 36:58




[more=Extended info][youtube]fMh8tVtqqnM[/youtube][/more]

[more=Technical info]
Input File: 04 - Seventh Sin.mp3
Channels : 2
Sample Rate : 44100
Precision : 16-bit
Duration : 00:04:41.04 = 12393864 samples = 21078 CDDA sectors
File Size : 11.4M
Bit Rate : 325k
Sample Encoding: MPEG audio (layer I, II or III)
Comments :
Title=Seventh Sin
Artist=Hell Vendetta
Album=Hell Vendetta
Tracknumber=4
Year=2020

[/more]

Register
(16) after21allD, boby9052, BugEyes, caro, infiltrator, metala, multizwilling, Olethros, Rosen, sagratan, sergsazan, sludge666, stumpheavyrock, suseka, wanderer73, wgs73,
Oct 18 2020, 13:20:00 Generichrist - Insomniac Death Parade (2020)


*Artist: Generichrist
*Album: Insomniac Death Parade
*Year: 2020
*Genre: Thrash/Death Metal/Punk
*Country: United States
*Format: mp3@CBR320kbps
*Size: 104MB

Tracklist:
1. Skull Puppet 03:17
2. Ego Killer 01:34
3. Bastards of Terror Must Feed 03:33
4. Disturbance on 75th Street 01:42
5. Loss for Words 05:11
6. Insomniac Death Parade 04:47
7. Art of Self Mutilation 04:46
8. Trails of Delusion 04:30
9. Dying to Live 03:34
10. Nostalgia 03:16
11. Rotting in the Swamp 03:08
12. Tampa Morgue 05:22
******************************
Total playing time: 44:40




[more=Extended info]Tony Anderson Vocals
Edwin Webb Bass
Chris Maraman Drums
Joe Hujbar Guitars
Marco Escalante Guitars
[youtube]hGIvAlAkzjY[/youtube][/more]

[more=Technical info]
Input File: 05 - Loss For Words.mp3
Channels : 2
Sample Rate : 44100
Precision : 16-bit
Duration : 00:05:11.55 = 13739487 samples = 23366.5 CDDA sectors
File Size : 12.7M
Bit Rate : 325k
Sample Encoding: MPEG audio (layer I, II or III)
Comments :
Title=Loss For Words
Artist=GENERICHRIST
Album=Insomniac Death Parade
Tracknumber=5
Year=2020

[/more]

Register
(9) andreikun, boby9052, infiltrator, metala, multizwilling, Olethros, Rosen, sergsazan, suseka,
Oct 17 2020, 21:00:25 Act Of Creation - The Uncertain Light (2020)


*Artist: Act Of Creation
*Album: The Uncertain Light
*Year: 2020
*Genre: Melodic Death/Thrash Metal
*Country: Germany
*Format: mp3@CBR320kbps
*Size: 127MB

Tracklist:
1. The Burning Place 07:22
2. Break New Ground 05:37
3. Violet Red 04:24
4. Reflection 06:19
5. Sector F 03:48
6. Legion 04:43
7. State of Agony 03:54
8. Confused Illusion 06:14
9. Hatefriend 05:16
10. The Uncertain Light 06:47
******************************
Total playing time: 54:24




[more=Extended info]Carsten Schluch Guitars (rhythm) (2007-present)
See also: ex-E 605, ex-Decision to Hate
Jan P. Drums (2017-present)
See also: Wolftribe, Scorum
Jess Vocals (2018-present)
Holger Fischer Bass (2019-present)
Christoph Milkowski Guitars (2020-present)
[youtube]etnDV6zN7gw[/youtube][/more]

[more=Technical info]
Input File: 04 Reflection.mp3
Channels : 2
Sample Rate : 44100
Precision : 16-bit
Duration : 00:06:18.90 = 16709490 samples = 28417.5 CDDA sectors
File Size : 15.3M
Bit Rate : 323k
Sample Encoding: MPEG audio (layer I, II or III)
Comments :
Title=Reflection
Artist=ACT OF CREATION
Album=The Uncertain Light
Tracknumber=4
Year=2020

[/more]

Register
(21) after21allD, avather, boby9052, BugEyes, caro, chipsgott, DenisKov, Diflock, gwar, infiltrator, Lukittaz, metala, multizwilling, Olethros, Rosen, sadmannn, stumpheavyrock, suseka, VALERY, zhol, Сварог Барг,
Oct 17 2020, 20:42:17 Sarcoptes - Plague Hymns [ep] (2020)


*Artist: Sarcoptes
*Album: Plague Hymns [ep]
*Year: 2020
*Genre: Black/Thrash Metal
*Country: United States
*Format: mp3@CBR320kbps
*Size: 43MB

Tracklist:
1. The Vertigo Soul 06:47
2. La Moria Grandissima 10:44
******************************
Total playing time: 17:31




[more=Extended info]Sean Zimmerman Bass, Guitars, Keyboards
Garrett Garvey Drums, Vocals (2009-present)
See also: Awaiting the Apocalypse, Princess Kitten, ex-Jack Ketch, ex-Flub (live), ex-Gary Busey Amber Alert
[youtube]jhWubw0WJGM[/youtube][/more]

[more=Technical info]
Input File: 01 The Vertigo Soul.mp3
Channels : 2
Sample Rate : 44100
Precision : 16-bit
Duration : 00:06:47.69 = 17979085 samples = 30576.7 CDDA sectors
File Size : 17.5M
Bit Rate : 343k
Sample Encoding: MPEG audio (layer I, II or III)
Comments :
Title=The Vertigo Soul
Artist=Sarcoptes
Album=Plague Hymns
Tracknumber=1/2
Year=2020-20-20
Genre=Metal
Discnumber=1/1

[/more]

Register
(10) infiltrator, Olethros, Ostinato, randumbum, Rosen, Sanctus, sergsazan, stumpheavyrock, vasiljev_sergej, wanderer73,
Oct 17 2020, 15:38:20 Senpais - Senpais (2020)


*Artist: Senpais
*Album: Senpais
*Year: 2020
*Genre: Melodic Death Metal
*Country: Germany
*Format: mp3@CBR320kbps
*Size: 96MB

Tracklist:
1. Intro 01:00
2. Liquid Salvation 03:52
3. RED 04:48
4. Prologue of Pain 04:48
5. B'n'T 04:55
6. Resistance 04:49
7. Nail 05:34
8. Shore 08:09
9. Hate 03:45
******************************
Total playing time: 41:40




[more=Extended info]Christian Bass, Vocals (backing) (2018-present)
Daniel Drums (2018-present)
Paul Guitars (lead) (2018-present), Vocals (lead) (2019-present)
See also: ex-Crypt
Norman Guitars (rhythm) (2018-present)
[youtube]fPU002NFppU[/youtube][/more]

[more=Technical info]
Input File: 07 - Nail.mp3
Channels : 2
Sample Rate : 44100
Precision : 16-bit
Duration : 00:05:34.46 = 14749862 samples = 25084.8 CDDA sectors
File Size : 13.5M
Bit Rate : 323k
Sample Encoding: MPEG audio (layer I, II or III)
Comments :
Title=Nail
Artist=Senpais
Album=Senpais
Tracknumber=7
Year=2020

[/more]

Register
(15) AHBAnep, BugEyes, caro, chipsgott, infiltrator, krotovich, Lukittaz, Morgoth, Olethros, randumbum, Rosen, sergsazan, VALERY, zhol, Сварог Барг,
Oct 17 2020, 15:05:38 Disaster Rex - Disaster Rex (2020)


*Artist: Disaster Rex
*Album: Disaster Rex
*Year: 2020
*Genre: Post-Black Metal
*Country: Brazil
*Format: mp3@CBR320kbps
*Size: 111MB

Tracklist:
1. I 05:01
2. II 04:39
3. III 04:02
4. IV 03:01
5. V 04:21
6. VI 03:29
7. VII 05:28
8. VIII 05:27
9. IX 04:50
10. X 08:02
******************************
Total playing time: 48:20




[more=Technical info]
Input File: 07 - VII.mp3
Channels : 2
Sample Rate : 44100
Precision : 16-bit
Duration : 00:05:28.46 = 14484866 samples = 24634.1 CDDA sectors
File Size : 13.2M
Bit Rate : 322k
Sample Encoding: MPEG audio (layer I, II or III)
Comments :
Title=VII
Artist=Disaster Rex
Album=Disaster Rex
Tracknumber=7
Year=2020

[/more]

Register
(13) 1968_janeart, aleon, FuneralWolf, infiltrator, kim666, Morgoth, Olethros, randumbum, robertho777, Rosen, Sanctus, VALERY, vasiljev_sergej,
Oct 17 2020, 11:30:24 Suffocate The Skies - Heathenwulf (2020)


*Artist: Suffocate The Skies
*Album: Heathenwulf
*Year: 2020
*Genre: Symphonic/Melodic Death Metal
*Country: United States
*Format: mp3@CBR320kbps
*Size: 67MB

Tracklist:
1. Ritual of Autumn 03:26
2. Requiem for the Lost 04:33
3. The Apparition 03:23
4. Snowbound Elegy 03:08
5. Forged in Flame 03:19
6. Insidious 02:40
7. Heathenwulf 04:45
8. Dawn of Solace 03:43
******************************
Total playing time: 28:57




[more=Extended info]Drake Lank Bass
See also: ex-Sanctus Infernum (live)
Johnny Meyer Drums
Zeb Hayes Guitars
See also: Torrent (live)
Matt Sikes Guitars
See also: Torrent, ex-Malum
Howard Jones Viola
See also: Sanctus Infernum
Tyler Davis Vocals
See also: ex-Malum
[youtube]ziptEwPcyWo[/youtube]
[youtube]Ejt2ZJm5O5w[/youtube][/more]

[more=Technical info]
Input File: 07 - Heathenwulf.mp3
Channels : 2
Sample Rate : 44100
Precision : 16-bit
Duration : 00:04:45.59 = 12594343 samples = 21419 CDDA sectors
File Size : 11.6M
Bit Rate : 325k
Sample Encoding: MPEG audio (layer I, II or III)
Comments :
Title=Heathenwulf
Artist=Suffocate the Skies
Album=Heathenwulf
Tracknumber=7
Year=2020

[/more]

Register
(21) AHBAnep, Barlak, caro, cenzored, chipsgott, El_Chibo, infiltrator, Lukittaz, multizwilling, Olethros, Ostinato, Phlebotomized, randumbum, Rosen, Sanctus, Satyr, sergsazan, suseka, VALERY, zhol, Сварог Барг,
Oct 17 2020, 11:14:49 Bipolar Disorder - Mysterious Pain (2020)


*Artist: Bipolar Disorder
*Album: Mysterious Pain
*Year: 2020
*Genre: Doom/Death Metal
*Country: Hungary
*Format: mp3@CBR320kbps
*Size: 115MB

Tracklist:
1. Nobody's Tears 14:09
2. Mysterious Pain 17:15
3. Ancient Instinct 19:19
******************************
Total playing time: 50:43




[more=Extended info]Tøth Jøzsef Everything
See also: Degragore, Dipylidium Caninum, Liquid Cemetery, Nekrofília
Sütő Gábor Vocals (2020-present)
See also: Degragore, King Furia[/more]

[more=Technical info]
Input File: 02 - Mysterious Pain.mp3
Channels : 2
Sample Rate : 44100
Precision : 16-bit
Duration : 00:17:15.13 = 45649365 samples = 77635 CDDA sectors
File Size : 41.5M
Bit Rate : 320k
Sample Encoding: MPEG audio (layer I, II or III)
Comments :
Title=Mysterious Pain
Artist=Bipolar Disorder
Album=Mysterious Pain
Tracknumber=2
Year=2020

[/more]

Register
(20) alikkon, andreikun, Bloodn Lord, chipsgott, grimoir, infiltrator, lacrimoza, mayrink, Morgoth, multizwilling, Olethros, robertho777, Rosen, russ777, sergsazan, Shadechaser, stumpheavyrock, suseka, VALERY, vyacheslav,
Oct 16 2020, 22:36:27 Mörtual - Divine Monstrosity [ep] (2020)


*Artist: Mörtual
*Album: Divine Monstrosity [ep]
*Year: 2020
*Genre: Death/Thrash Metal
*Country: Costa Rica
*Format: mp3@CBR320kbps
*Size: 75MB

Tracklist:
01. Necromancy Ritual 05:01
02. Dimensional Chaos 05:55
03. Master of Possession 03:55
04. Divine Monstrosity 04:47
05. Fiendish Visions (Bonus) 04:42
06. The Ancient God of the Earth (Bonus) 02:31
07. Condemned to Madness (Bonus) 03:24
******************************
Total playing time: 30:15



[more=Extended info]Justin Corpse Guitars
See also: ex-Infidelis, ex-Gólgota
Samael (Magician) Drums (2016-present)
See also: ex-Sepulchrated
Master Killer Guitars (2016-present)
See also: ex-Sepulchrated, Master Killer
Carrnivean Bass (2020-present)
See also: Empire of the Silent Forest, Occisionis, Abysmal Hate, Goregoliath, ex-Abaddon, ex-Marturion, ex-Meguilloth, ex-Melovolo, ex-Tarmagante
Dago Fernandez Vocals (2020-present)
See also: Gólgota, Flesh Storm, ex-Devastation, ex-Massacre, ex-Carne Humana, ex-Acidex, ex-Alerta Roja, ex-Alzheimer, ex-Aspid, ex-Beyond of Hate, ex-Caca, ex-Cadaver, ex-Domingo Siete, ex-Eternal Torment, ex-Frentes Firmes, ex-Genital Desmembration, ex-Inquisition, ex-Intestinal Growls, ex-Masturbation Society, ex-Mortus Damned, ex-Qatastrofe, ex-Rapture, ex-Santa Violencia, ex-Sin Cultura, ex-Varduk
[youtube]WfPh21pmfe4[/youtube]
[youtube]SbcBaRUs-QI[/youtube][/more]

[more=Technical info]
Input File: 02 Dimensional Chaos.mp3
Channels : 2
Sample Rate : 44100
Precision : 16-bit
Duration : 00:05:55.21 = 15664585 samples = 26640.5 CDDA sectors
File Size : 15.0M
Bit Rate : 339k
Sample Encoding: MPEG audio (layer I, II or III)
Comments :
Title=Dimensional Chaos
Artist=Mortual
Album=Divine Monstrosity
Tracknumber=2/7
Year=2020-20-20
Genre=Metal
Discnumber=1/1

[/more]

Register
(9) AHBAnep, boby9052, infiltrator, Olethros, Rosen, sergsazan, stumpheavyrock, thrashiac55, vyacheslav,

833 Pages V   1 2 3 > » 
- Lo-Fi Version Support form
Copyrights and abuse reports form
Time is now: 22nd October 2020 - 00:55:54