Welcome Guest ( Log In | Register )

История благодарностей участнику Samaritianin ::: Спасибо сказали: 184715 раз(а)
Дата поста: В теме: За сообщение: Спасибо сказали:
Yesterday, 22:07:31 Behind The Mask - Untergang [ep] (2018)


*Artist: Behind The Mask
*Album: Untergang [ep]
*Year: 2018
*Genre: Death Metal
*Country: Austria
*Format: mp3@CBR320kbps
*Size: 22MB

Tracklist:
1. Untergang (intro) 00:28
2. Glaube 02:49
3. Todgeweiht 02:59
4. Finsterwacht 03:05
******************************
Total playing time: 9:21




[more=Extended info]Bene Bass
Yannick Tagedieb Drums
Jeremia Bruckbauer Vocals, Guitars
[youtube]9RNm8qIIcjk[/youtube][/more]

[more=Technical info]
Input File: Behind the Mask - Untergang - 02 Glaube.mp3
Channels : 2
Sample Rate : 44100
Precision : 16-bit
Duration : 00:02:49.83 = 7489547 samples = 12737.3 CDDA sectors
File Size : 6.89M
Bit Rate : 325k
Sample Encoding: MPEG audio (layer I, II or III)
Comments :
Title=Glaube
Artist=Behind the Mask
Album=Untergang
Tracknumber=2
Year=2018

[/more]

Register
(2) older68, Ostinato,
Yesterday, 19:17:17 Masochist - Chaos Of World Possession [ep] (2019)


*Artist: Masochist
*Album: Chaos Of World Possession [ep]
*Year: 2019
*Genre: Old School Death Metal
*Country: United States
*Format: mp3@CBR320kbps
*Size: 61MB

Tracklist:
1. Chaos of World Possession 04:51
2. Reverse Vision 03:35
3. Imperial Spawn 04:42
4. Genocide 04:33
5. Xenophobia 03:23
6. Last Gasp of Empire 04:12
******************************
Total playing time: 25:16



[more=Extended info]Vincent Dale - Vocals, Composition
Cameron Homa - Guitar, Bass[/more]

[more=Technical info]
Input File: 03. Imperial Spawn.mp3
Channels : 2
Sample Rate : 44100
Precision : 16-bit
Duration : 00:04:42.40 = 12453928 samples = 21180.1 CDDA sectors
File Size : 11.8M
Bit Rate : 333k
Sample Encoding: MPEG audio (layer I, II or III)
Comments :
Title=Imperial Spawn
Artist=Masochist
Album=Chaos of World Possession
Tracknumber=03
Year=2019
Genre=Metal

[/more]

Register
(5) gwar, older68, Ostinato, Tino, wgs73,
Yesterday, 18:22:02 Rhythm Of Fear - Ritual Dementia [ep] (2019)


*Artist: Rhythm Of Fear
*Album: Ritual Dementia [ep]
*Year: 2019
*Genre: Thrash Metal/Crossover
*Country: United States
*Format: mp3@CBR320kbps
*Size: 53MB

Tracklist:
01. Ritual Dementia 06:38
02. Vortex of Torment 03:08
03. Grata Mortem 00:15
04. Life's Disease 05:25
05. Slithering Madness 01:36
06. Holy Venom 05:49
******************************
Total playing time: 22:51




[more=Extended info]Logan Miano Drums (2010-present)
See also: Ill-Tolerance, Merauder, Talk Sick Earth, ex-Leeway (live), ex-Kids Like Us
Cody James Guitars (lead) (2010-present)
See also: ex-Leeway (live)
Stephen Todd Guitars (rhythm) (2010-present)
See also: Merauder, ex-Leeway (live)
Jay Santiago Vocals (2010-present)
Justin Styron Bass (2015-present)
See also: ex-Kids Like Us
[youtube]07xU2LzUK3U[/youtube][/more]

[more=Technical info]
Input File: 04 - Life\'s Disease.mp3
Channels : 2
Sample Rate : 44100
Precision : 16-bit
Duration : 00:05:25.37 = 14348949 samples = 24403 CDDA sectors
File Size : 13.2M
Bit Rate : 324k
Sample Encoding: MPEG audio (layer I, II or III)
Comments :
Title=Life's Disease
Artist=Rhythm Of Fear
Album=Ritual Dementia
Tracknumber=4
Year=2019
Genre=Metal
Discnumber=1

[/more]

Register
(4) Diflock, gwar, older68, wgs73,
Yesterday, 17:20:19 Terror Activator - Moshing Is Available [ep] (2019)


*Artist: Terror Activator
*Album: Moshing Is Available [ep]
*Year: 2019
*Genre: Thrash Metal/Crossover
*Country: Latvia
*Format: mp3@CBR320kbps
*Size: 30MB

Tracklist:
1. Antipode of Halcyon Future 02:31
2. Death of the Current List 02:56
3. Self 02:19
4. Demise of Disgrace 04:50
******************************
Total playing time: 12:36




[more=Extended info]Ernie - vocals
Vadim - guitar
Eddie - guitar
Alex - bass
Paul - drums
[youtube]0CwKTyGndE4[/youtube][/more]

[more=Technical info]
Input File: 04 Demise of Disgrace.mp3
Channels : 2
Sample Rate : 44100
Precision : 16-bit
Duration : 00:04:50.71 = 12820135 samples = 21803 CDDA sectors
File Size : 11.8M
Bit Rate : 323k
Sample Encoding: MPEG audio (layer I, II or III)
Comments :
Title=Demise of Disgrace
Artist=Terror Activator
Album=Moshing is Available
Tracknumber=4
Year=2019

[/more]

Register
(2) gwar, wgs73,
Yesterday, 16:52:43 Formis - Chaozium (2017)


*Artist: Formis
*Album: Chaozium
*Year: 2017
*Genre: Thrash/Death Metal
*Country: Poland
*Format: mp3@CBR320kbps
*Size: 84MB

Tracklist:
1. Arcanum 00:50 instrumental
2. Skaven 03:58
3. Alchemizer 03:21
4. Fornelius 03:07
5. Epigon 02:58
6. Silurian 04:02
7. Haeresis 03:16
8. Luminescent 03:45
9. Chaozium 04:13
******************************
Total playing time: 29:30




[more=Extended info]CD-Rip+Scans
Hubert Nowak Guitars (rhythm)
Jacek "Jaco" Bieniasz Bass
Zwierzak Drums
Sebastian Blabuś Guitars
Marek Zając Vocals
[youtube]bBlAk3clknU[/youtube][/more]

[more=Technical info]
Input File: 02 - Skaven.mp3
Channels : 2
Sample Rate : 44100
Precision : 16-bit
Duration : 00:03:58.59 = 10521907 samples = 17894.4 CDDA sectors
File Size : 9.54M
Bit Rate : 320k
Sample Encoding: MPEG audio (layer I, II or III)
Comments :
Title=Skaven
Artist=Formis
Album=Chaozium
Tracknumber=2
Year=2017
Genre=Thrash Metal

[/more]

Register
(5) metala, metaljan, Olethros, sergsazan, wgs73,
Yesterday, 16:04:50 Megadeth - Warheads On Foreheads [compilation] (2019)
ЦИТАТА(vosmidesijatye @ 22nd March 2019 - 16:54:37) *
*Стиль: Thrash Metal

1488.gif hmm.gif
(1) Ghostb,
Mar 21 2019, 17:50:00 Barbarus - Into The Distant Light (2018)


*Artist: Barbarus
*Album: Into The Distant Light
*Year: 2018
*Genre: Pagan/Doom Metal
*Country: United States
*Format: mp3@CBR320kbps
*Size: 93MB

Tracklist:
1. Primordial Throne 04:24
2. Dreams 04:26
3. Son 03:19
4. Death and Ruin 09:14
5. Horizon 03:01
6. A New Age 11:09
7. Into the Distant Light 05:14
******************************
Total playing time: 40:47




[more=Extended info]Maksym Senyshyn Everything (2015-present)[/more]

[more=Technical info]
Input File: 02 - Dreams.mp3
Channels : 2
Sample Rate : 44100
Precision : 16-bit
Duration : 00:04:26.25 = 11741801 samples = 19969 CDDA sectors
File Size : 10.7M
Bit Rate : 322k
Sample Encoding: MPEG audio (layer I, II or III)
Comments :
Title=Dreams
Artist=Barbarus
Album=Into the Distant Light
Tracknumber=2
Year=2018

[/more]

Register
(9) dermarsoran, Ice Gnoll, metala, Olethros, robertho777, russ777, stub888, suseka, tOmV,
Mar 21 2019, 17:16:30 Bloodthirst - I Am Part Of That Power Which Eternally Wills Evil And Eternally Works Wrong (2019)


*Artist: Bloodthirst
*Album: I Am Part Of That Power Which Eternally Wills Evil And Eternally Works Wrong
*Year: 2019
*Genre: Thrash Metal
*Country: Poland
*Format: mp3@CBR320kbps
*Size: 88MB

Tracklist:
1. Pure Madness Heals 04:04
2. The Conscious Serpent's Will 04:23
3. The Invincible Eagle's Power 03:56
4. Sons of Fire 03:41
5. The Golden Cages of Sin 04:16
6. Beyond the Concept of Reason 04:00
7. No Tounge for Their Ears 03:17
8. A Man Should Be Defeated 03:34
9. Ubóstwiona nicość 05:17
******************************
Total playing time: 36:28





[more=Extended info]Rambo Guitars, Vocals (1999-present)
See also: ex-Firing Squad
Rybosh Bass (2014-present)
See also: Blaze of Perdition, In Twilight's Embrace
Gregor Guitars (2015-present)
See also: Bloodstained, Martwa Aura, Ur, ex-Recall
Urpin Drums (2016-present)
See also: ex-In Twilight's Embrace
[youtube]dIF67a4we8s[/youtube][/more]

[more=Technical info]
Input File: 03 The Invincible Eagle\'s Power.mp3
Channels : 2
Sample Rate : 44100
Precision : 16-bit
Duration : 00:03:55.77 = 10397369 samples = 17682.6 CDDA sectors
File Size : 9.83M
Bit Rate : 333k
Sample Encoding: MPEG audio (layer I, II or III)
Comments :
Title=The Invincible Eagle's Power
Artist=Bloodthirst
Album=I Am Part Of That Power Which Eternally Wills Evil And Eternally Works Wrong
Tracknumber=03
Year=2019

[/more]

Register
(23) AHBAnep, andreikun, Asketto, boby9052, BugEyes, DarkHorde, Diflock, eyes0re, gwar, Helldorado, HMHamster, metala, METALHUNTER, Olethros, postal67, robertho777, Rover, stumpheavyrock, suseka, Tino, varlam4, wgs73, wtk.412,
Mar 21 2019, 17:02:36 Dying Gorgeous Lies - The Hunter And The Prey (2019)
YADI.SK 320
Register
(4) 666kolobok666, boby9052, metala, stumpheavyrock,
Mar 21 2019, 16:59:23 Desert Near The End - Of Fire And Stars (2019)
Cloud Mail 320
Register
(1) postal67,
Mar 21 2019, 15:06:52 Draghkar - Eternal Abyss [compilation] (2019)


*Artist: Draghkar
*Album: Eternal Abyss [compilation]
*Year: 2019
*Genre: Old School Death Metal
*Country: United States
*Format: mp3@CBR320kbps
*Size: 120MB

Tracklist:
1. Wings Over Malkier 03:18
2. Cowering in the Town of Blinded Eyes 02:26
3. World Unraveled 03:37
4. Stealing the Keys to Nothingness 03:58
5. Traversing the Abyss 06:21
6. Swallowed by the Dark 03:32
7. Eternal Disintegration (Of the Body and of the Mind) 03:57
8. Fading into Emptiness 05:25
9. Traversing the Abyss (live) 05:44
10. Swallowed by the Dark (live) 03:09
11. Cowering in the Town of Blinded Eyes (live) 02:24
12. Eternal Disintegration (Of the Body and of the Mind) (live) 03:27
13. Fading into Emptiness (live) 04:56
******************************
Total playing time: 52:14





[more=Extended info]AK Drums (Songs 1-3)
Daniel Kelley Bass (Songs 4-13)
ES Drums (Songs 5-13)
BW Guitars, Vocals[/more]

[more=Technical info]
Input File: 4 - Stealing the Keys to Nothingness.mp3
Channels : 2
Sample Rate : 44100
Precision : 16-bit
Duration : 00:03:58.82 = 10532138 samples = 17911.8 CDDA sectors
File Size : 9.61M
Bit Rate : 322k
Sample Encoding: MPEG audio (layer I, II or III)
Comments :
Title=Stealing the Keys to Nothingness
Artist=Draghkar
Album=Eternal Abyss
Tracknumber=4
Year=2019
Genre=Alternative/Indie Rock/Metal
Discnumber=1

[/more]

Register
(8) LUCASDEATH, marilin, METALHUNTER, Olethros, Ostinato, Tino, zhol, Герб,
Mar 21 2019, 14:22:10 Cryptic - The Gates (2019)


*Artist: Cryptic
*Album: The Gates
*Year: 2019
*Genre: Thrash Metal
*Country: United States
*Format: mp3@CBR320kbps
*Size: 125MB

Tracklist:
01. The March (Intro)
02. Anthem
03. Defibrillation
04. The Gates
05. Resurrection
06. God of Death (G.O.D.)
07. Soulless
08. DualShoxxx
09. Redemption
******************************
Total playing time: 54:41



[more=Extended info]Keith Dobson - Lead Guitar and Lead Vocals
Riley Hutchison - Bass
Jesus Oviedo - Drums and Percussion
[youtube]ZguqlqyFYX0[/youtube][/more]

[more=Technical info]
Input File: 3 - Defibrillation.mp3
Channels : 2
Sample Rate : 44100
Precision : 16-bit
Duration : 00:04:50.55 = 12813211 samples = 21791.2 CDDA sectors
File Size : 11.7M
Bit Rate : 321k
Sample Encoding: MPEG audio (layer I, II or III)
Comments :
Title=Defibrillation
Artist=Cryptic
Album=The Gates
Tracknumber=3
Year=2019
Genre=Metal
Discnumber=1

[/more]

Register
(15) andreikun, boby9052, gwar, HMHamster, metala, METALHUNTER, older68, Olethros, postal67, robertho777, Rover, sergsazan, stumpheavyrock, suseka, wgs73,
Mar 21 2019, 14:07:18 Undead Prophecies - Sempiternal Void (2019)
Cloud Mail 320
Register
(1) stumpheavyrock,
Mar 21 2019, 14:05:14 Obscure Infinity - Into The Vortex Of Obscurity (2019)
Cloud Mail 320
Register
(1) wtk.412,
Mar 21 2019, 14:03:13 Imprecation - Damnatio Ad Bestias (2019)
Cloud Mail 320
Register
(5) 555, AHBAnep, luxxul, skeletron215, wtk.412,
Mar 21 2019, 14:01:03 Bleeding Utopia - Where The Light Comes To Die (2019)
Cloud Mail 320
Register
(2) AHBAnep, wrath082,
Mar 21 2019, 13:58:44 Dying Gorgeous Lies - The Hunter And The Prey (2019)


*Artist: Dying Gorgeous Lies
*Album: The Hunter And The Prey
*Year: 2019
*Genre: Thrash Metal
*Country: Germany
*Format: mp3@CBR320kbps
*Size: 102MB

Tracklist:
1. From the Ashes / Hellfire 05:55
2. We Are the Apocalypse 04:10
3. Revolution Day 03:51
4. ...and as the Bomb Fall 04:42
5. Fatal Craving 04:34
6. New World Order 04:14
7. Ancient Tales 04:30
8. Beast Mode 03:59
9. Greetings from Aleppo 04:10
10. Sweet Taste of Lies 04:32
******************************
Total playing time: 44:37



[more=Extended info]Sascha "Buzz'D Joe" Schulze Bass
Stephan "J.J." Straubinger Drums
Marcel "Mashl J." Völkel Guitars (lead), Vocals (backing)
Lisa "Liz Gorgeous" Minet Vocals (lead)
Jay´na D. Keyboards
[youtube]EYAzclXqy8w[/youtube][/more]

[more=Technical info]
Input File: 4 - ...And as the Bombs Fell.mp3
Channels : 2
Sample Rate : 44100
Precision : 16-bit
Duration : 00:04:42.82 = 12472230 samples = 21211.3 CDDA sectors
File Size : 11.4M
Bit Rate : 321k
Sample Encoding: MPEG audio (layer I, II or III)
Comments :
Title=...And as the Bombs Fell
Artist=Dying Gorgeous Lies
Album=The Hunter And The Prey
Tracknumber=4
Year=2019
Genre=Rock/Hard Rock/Metal
Discnumber=1

[/more]

Register
(9) boby9052, BugEyes, gwar, metala, METALHUNTER, Olethros, robertho777, Rover, wgs73,
Mar 21 2019, 13:43:14 Truth Corroded - Bloodlands (2019)
Cloud Mail 320
Register
(1) boby9052,
Mar 21 2019, 13:42:01 Predatoria - Casting Shadows (2019)
Cloud Mail 320
Register
(1) jollo,
Mar 21 2019, 13:37:54 Pestilent Death - Chapters Of Depravity (2019)


*Artist: Pestilent Death
*Album: Chapters Of Depravity
*Year: 2019
*Genre: Old School Death Metal
*Country: United States
*Format: mp3@CBR320kbps
*Size: 73MB

Tracklist:
1. Chamber of Wretched Souls
2. Torturous Incantations
3. Pulsating Entrails
4. Perverse Blood Offering
5. Emanation of Despair
6. Anthropophagy
7. Upheaval of the Undead
8. Exhumation of Fermented Graves
******************************
Total playing time: 31:50



[more=Extended info]Skullfucker Bass
Ominous Guitars (2010-present)
Retch Vocals (2010-present)[/more]

[more=Technical info]
Input File: 6 - Anthropophagy.mp3
Channels : 2
Sample Rate : 44100
Precision : 16-bit
Duration : 00:04:20.14 = 11472218 samples = 19510.6 CDDA sectors
File Size : 10.5M
Bit Rate : 324k
Sample Encoding: MPEG audio (layer I, II or III)
Comments :
Title=Anthropophagy
Artist=Pestilent Death
Album=Chapters of Depravity
Tracknumber=6
Year=2019
Genre=Alternative/Indie Rock/Metal
Discnumber=1

[/more]

Register
(12) andreikun, DarkHorde, jollo, LUCASDEATH, metaljan, Olethros, samokot, Tino, VALERY, wgs73, wtk.412, Герб,
Mar 21 2019, 13:23:37 Desert Near The End - Of Fire And Stars (2019)


*Artist: Desert Near The End
*Album: Of Fire And Stars
*Year: 2019
*Genre: Heavy/Thrash Metal
*Country: Greece
*Format: mp3@CBR320kbps
*Size: 97MB

Tracklist:
1. A World Beyond 03:42
2. The Call of the Stars 03:56
3. ‎Light Long Dead 03:37
4. Across the Desert 04:30
5. Earth and Water 04:21
6. ‎The Highest Hill 05:25
7. Throne of Martyrdom 05:12
8. The Final Frontier 04:19
9. Of Fire and Stars 06:55
******************************
Total playing time: 41:57




[more=Extended info]Panos Kalompratsos Guitars
Akis Prasinikas Bass (2010-present)
See also: ex-The Eventide
Alexandros Papandreou Vocals (2010-present)
See also: ex-The Eventide
[youtube]yrXsCEsreBQ[/youtube][/more]

[more=Technical info]
Input File: 4 - Across the Desert.mp3
Channels : 2
Sample Rate : 44100
Precision : 16-bit
Duration : 00:04:30.54 = 11930770 samples = 20290.4 CDDA sectors
File Size : 10.9M
Bit Rate : 322k
Sample Encoding: MPEG audio (layer I, II or III)
Comments :
Title=Across the Desert
Artist=Desert Near The End
Album=Of Fire and Stars
Tracknumber=4
Year=2019
Genre=Metal
Discnumber=1

[/more]

Register
(8) aviacademy, boby9052, metala, METALHUNTER, Olethros, Rover, stumpheavyrock, vir2al,
Mar 21 2019, 13:12:13 Bleeding Utopia - Where The Light Comes To Die (2019)


*Artist: Bleeding Utopia
*Album: Where The Light Comes To Die
*Year: 2019
*Genre: Melodic Death Metal
*Country: Sweden
*Format: mp3@CBR320kbps
*Size: 98MB

Tracklist:
1. Ascendants of Hate 05:02
2. Seek Solace in Throes 04:16
3. Enhance My Wrath 03:34
4. Already Dead 04:23
5. Welcome to My Pantheon 04:29
6. Crown of Horns 05:58
7. Ruthless Torment 04:10
8. Ill and Daunting Perversions 04:29
9. Heralds of Hate and Defiance 06:18
******************************
Total playing time: 42:39




[more=Extended info]David Ahlen Bass, Vocals
Andreas Moren Guitars
Adam Björk Drums
Kristian Järvenpää Guitars
Iiro "Ipe" Jarva Bass
[youtube]BeHkn-SvUo4[/youtube][/more]

[more=Technical info]
Input File: 3 - Enhance My Wrath.mp3
Channels : 2
Sample Rate : 44100
Precision : 16-bit
Duration : 00:03:34.22 = 9446882 samples = 16066.1 CDDA sectors
File Size : 8.66M
Bit Rate : 323k
Sample Encoding: MPEG audio (layer I, II or III)
Comments :
Title=Enhance My Wrath
Artist=Bleeding Utopia
Album=Where The Light Comes To Die
Tracknumber=3
Year=2019
Genre=Metal
Discnumber=1

[/more]

Register
(14) BaKu, BugEyes, fateefffddd, Korpse, Morgoth, Olethros, Ostinato, Stringer, stumpheavyrock, talismanFS, VALERY, Woosad, zhol, скептик,
Mar 21 2019, 12:29:32 Obscure Infinity - Into The Vortex Of Obscurity (2019)


*Artist: Obscure Infinity
*Album: Into The Vortex Of Obscurity
*Year: 2019
*Genre: Old School Death Metal
*Country: Germany
*Format: mp3@CBR320kbps
*Size: 94MB

Tracklist:
1. Embrace Obscurity 03:43
2. A Cosmic Disgrace 05:21
3. Grotesque Face 04:53
4. Invoke Deliverance 04:28
5. Lightning Spear (A Forlorn Wanderer Part II) 08:14
6. Void of the Soul 03:58
7. Withering Starseed Under the Cosmic Vault 01:06
8. Swallowed by Time and Darkness 09:02
******************************
Total playing time: 40:45




[more=Extended info]Pascal Bass (2007-2016), Drums (2016-present)
Stefan Guitars (2007-present)
Jules Vocals (2007-present)
Sascha Guitars (2012-present)
Last Bass (2018-present)
See also: Wound, ex-The Fog (live), ex-Blind Man Kills
[youtube]HysG5VWeRAk[/youtube]
[youtube]ZQRTOhl1-4U[/youtube][/more]

[more=Technical info]
Input File: 3 - Grostesque Face.mp3
Channels : 2
Sample Rate : 44100
Precision : 16-bit
Duration : 00:04:53.27 = 12933031 samples = 21995 CDDA sectors
File Size : 11.8M
Bit Rate : 322k
Sample Encoding: MPEG audio (layer I, II or III)
Comments :
Title=Grostesque Face
Artist=Obscure Infinity
Album=Into the Vortex of Obscurity
Tracknumber=3
Year=2019
Genre=Metal
Discnumber=1

[/more]

Register
(20) ahp, andreikun, BugEyes, DarkHorde, jollo, Korpse, LUCASDEATH, metala, metaljan, Mist13Signifier, older68, Olethros, Ostinato, samokot, Stringer, stumpheavyrock, Tino, VALERY, zhol, Герб,
Mar 21 2019, 12:16:01 Imprecation - Damnatio Ad Bestias (2019)


*Artist: Imprecation
*Album: Damnatio Ad Bestias
*Year: 2019
*Genre: Old School Death Metal
*Country: United States
*Format: mp3@CBR320kbps
*Size: 86MB

Tracklist:
1. Temple of the Foul Spirit 05:17
2. Morbid Crucifixion 03:31
3. Baptized in Satan's Blood 05:20
4. Beasts of the Infernal Void 03:58
5. Damnatio ad Bestias 04:23
6. Dagger, Thurible, Altar of Death 04:18
7. The Shepherd and the Flock 05:20
8. Ageless Ones of None 05:05
******************************
Total playing time: 37:12




[more=Extended info]Ruben Elizondo Drums, Keyboards (1991-1998, 2009-present)
See also: Adumus, Dark Reign, Morbus 666, ex-Black Boned Angel, ex-Temple of Wrath
Dave Herrera Vocals (1991-1993, 2009-present)
See also: Christ Dismembered, ex-Bahimiron, ex-Black Boned Angel, ex-Morbus 666, ex-Wülfskol
Milton Luna Bass (2012-2013), Guitars (2013-present)
See also: Adumus, Maledictvs, Morbus 666, ex-Bahimiron, ex-Thornspawn
Jeff Tandy Bass (2014-present)
See also: Birth A.D., Trenchant, Death Wolf (live), ex-Averse Sefira, ex-Antaeus (live), ex-Krieg (live)
Dustin James Guitars (2017-present)
See also: Church of Disgust
Earl Long Guitars (lead) (2018-present)
See also: Dark Reign
[youtube]JZzlL3lAnLU[/youtube][/more]

[more=Technical info]
Input File: 3 - Baptized in Satan's Blood.mp3
Channels : 2
Sample Rate : 44100
Precision : 16-bit
Duration : 00:05:19.60 = 14094316 samples = 23969.9 CDDA sectors
File Size : 12.9M
Bit Rate : 323k
Sample Encoding: MPEG audio (layer I, II or III)
Comments :
Title=Baptized in Satan's Blood
Artist=Imprecation
Album=Damnatio Ad Bestias
Tracknumber=3
Year=2019
Genre=Metal
Discnumber=1

[/more]

Register
(27) 555, andreikun, DarkHorde, desekrator, FUDEDOR, jollo, judaz, kessler, LUCASDEATH, metala, metaljan, Mist13Signifier, Morgoth, older68, Olethros, Ostinato, plagueofflies, SadistikSlayer, samokot, skeletron215, suseka, THROWER666, Tino, Tyler, VALERY, wgs73, Герб,
Mar 21 2019, 12:01:29 Undead Prophecies - Sempiternal Void (2019)


*Artist: Undead Prophecies
*Album: Sempiternal Void
*Year: 2019
*Genre: Old School Death Metal
*Country: France
*Format: mp3@CBR320kbps
*Size: 88MB

Tracklist:
1. I Summon Demons 04:10
2. Suffocated Vanity 04:31
3. Insidious Manipulators 04:55
4. The Souls I Haunt 04:06
5. Unholy Entity 03:13
6. Devoured 03:53
7. Circle of Conspiracy 03:50
8. Above the Claws of Doom 04:27
9. Throne of Void 05:15
10. Warhead 04:56
******************************
Total playing time: 43:16




[more=Extended info]Angelus Bass
Drauhr Drums
Necros Guitars
Noctidiurnal Guitars
King Oscuro Vocals
[youtube]ENYfNiWEKcM[/youtube][/more]

[more=Technical info]
Input File: 4 - The Souls I Haunt.mp3
Channels : 2
Sample Rate : 44100
Precision : 16-bit
Duration : 00:04:06.69 = 10878897 samples = 18501.5 CDDA sectors
File Size : 9.91M
Bit Rate : 321k
Sample Encoding: MPEG audio (layer I, II or III)
Comments :
Title=The Souls I Haunt
Artist=Undead Prophecies
Album=Sempiternal Void
Tracknumber=4
Year=2019
Genre=Metal
Discnumber=1

[/more]

Register
(18) BugEyes, DTGB, igore2911, jollo, judaz, LUCASDEATH, metala, metalboll, metaljan, Morgoth, older68, Olethros, Ostinato, samokot, Tino, VALERY, zhol, Герб,

564 Pages V   1 2 3 > » 
- Lo-Fi Version Support form
Copyrights and abuse reports form
Time is now: 23rd March 2019 - 15:20:30