Welcome Guest ( Log In | Register )

История благодарностей участнику Samaritianin ::: Спасибо сказали: 197345 раз(а)
Дата поста: В теме: За сообщение: Спасибо сказали:
Yesterday, 20:22:12 Septicemia - Apología Del Caos (2016)


*Artist: Septicemia
*Album: Apología Del Caos
*Year: 2016
*Genre: Brutal Death Metal
*Country: Argentina
*Format: mp3@CBR320kbps
*Size: 96MB

Tracklist:
01. Crematorio De Cuerpos Vivos 04:48
02. Acribillando 03:42
03. Necropsia 07:18
04. Morbo Mental 05:02
05. Voragine Demencial 07:57
06. Maximo Exterminio Cristiano 08:30
07. Supremacía Bélica 04:30
******************************
Total playing time: 41:47



[more=Extended info]Gustavo Pascualetto Bass
Mariano Rojas Drums
Marcelo Fernandez Guitars
Cuervin Vocals
Lucas Sikic Guitars
[youtube]MvnfmQ6IYsc[/youtube][/more]

[more=Technical info]
Input File: 03 - Necropsia.mp3
Channels : 2
Sample Rate : 44100
Precision : 16-bit
Duration : 00:07:18.12 = 19321224 samples = 32859.2 CDDA sectors
File Size : 17.7M
Bit Rate : 323k
Sample Encoding: MPEG audio (layer I, II or III)
Comments :
Title=Necropsia
Artist=Septicemia
Album=Apología Del Caos
Tracknumber=3
Year=2016
Genre=Metal
Discnumber=1

[/more]

Register
(2) metala, Rosen,
Yesterday, 19:17:37 Giger - Submit To Reality (2019)


*Artist: Giger
*Album: Submit To Reality
*Year: 2019
*Genre: Sludge/Doom Metal
*Country: United States
*Format: mp3@CBR320kbps
*Size: 74MB

Tracklist:
1. Rasputin 07:29
2. Hasheeshian 06:46
3. Misotheist 10:57
4. The Green 07:01
******************************
Total playing time: 32:13




[more=Extended info]Avery Bradshaw Bass, Vocals (lead)
Travis Hatley Drums
MacCauley Crawford Guitars
Tyler Weed Guitars, Vocals[/more]

[more=Technical info]
Input File: 04 - The Green.mp3
Channels : 2
Sample Rate : 44100
Precision : 16-bit
Duration : 00:07:01.61 = 18593133 samples = 31621 CDDA sectors
File Size : 17.0M
Bit Rate : 322k
Sample Encoding: MPEG audio (layer I, II or III)
Comments :
Title=The Green
Artist=Giger
Album=Submit to Reality
Tracknumber=4
Year=2019

[/more]

Register
(1) infiltrator,
Yesterday, 18:14:08 The Morning Star - Harvesters (2019)


*Artist: The Morning Star
*Album: Harvesters
*Year: 2019
*Genre: Progressive Death/Thrash Metal
*Country: Hungary
*Format: mp3@CBR320kbps
*Size: 99MB

Tracklist:
1. The Angelmaker 03:56
2. Eremite 05:01
3. Fragmentation 04:49
4. Great Greed Grind 03:53
5. Jesus Stranded 05:12
6. Love Faith Hope 06:26
7. Omerta 05:45
8. Revolution Blues II 05:13
9. Spit (Sepultura cover) 02:53
******************************
Total playing time: 43:08




[more=Extended info]Spider Bass
Hozé Bass
Ropee Drums
Kain Guitars
McLeod Guitars
GreenStar Vocals
See also: ex-Testimony, ex-Tesstimony
[youtube]8MZ0mMBGffM[/youtube][/more]

[more=Technical info]
Input File: 03 Fragmentation.mp3
Channels : 2
Sample Rate : 44100
Precision : 16-bit
Duration : 00:04:49.30 = 12757954 samples = 21697.2 CDDA sectors
File Size : 11.7M
Bit Rate : 323k
Sample Encoding: MPEG audio (layer I, II or III)
Comments :
Title=Fragmentation
Artist=The Morning Star
Album=Harvesters
Tracknumber=3
Year=2019

[/more]

Register
(3) metala, Olethros, Rosen,
Yesterday, 07:02:27 Skelator - Cyber Metal (2019)


*Artist: Skelator
*Album: Cyber Metal
*Year: 2019
*Genre: Epic Heavy/Speed Metal
*Country: United States
*Format: mp3@CBR320kbps
*Size: 97MB

Tracklist:
1. Cyber Samurai 04:22
2. Cast Iron 04:06
3. The Hammer 05:05
4. Highlander 05:18
5. Akira 04:54
6. Erlkonig 04:20
7. Seven Scars 05:53
8. Psychic Silver Wheels 06:10
******************************
Total playing time: 40:08




[more=Extended info]Jason Conde-Houston Vocals
Robbie Houston Guitars
Rob Steinway Guitars
Darin Wall Bass
Patrick Seick Drums
[youtube]qzD_oTE5KNo[/youtube][/more]

[more=Technical info]
Input File: 04 Highlander.mp3
Channels : 2
Sample Rate : 44100
Precision : 16-bit
Duration : 00:05:17.72 = 14011540 samples = 23829.1 CDDA sectors
File Size : 13.4M
Bit Rate : 338k
Sample Encoding: MPEG audio (layer I, II or III)
Comments :
Title=Highlander
Artist=Skelator
Album=Cyber Metal
Tracknumber=4
Year=2019
Genre=Metal

[/more]

Register
(3) ace73pq, metala, Olethros,
Yesterday, 06:33:10 Ravensire - A Stone Engraved In Red (2019)


*Artist: Ravensire
*Album: A Stone Engraved In Red
*Year: 2019
*Genre: Epic Heavy Metal
*Country: Portugal
*Format: mp3@CBR320kbps
*Size: 97MB

Tracklist:
1. Carnage at Karnag 06:26
2. Thieves of Pleasure 04:35
3. Gabriel Lies Sleeping 04:04
4. Dawning in Darkness 05:13
5. Bloodsoaked Fields 01:10 instrumental
6. After the Battle 06:50
7. The Smiting God 04:31
8. The Games of Titus 08:15
******************************
Total playing time: 41:04




[more=Extended info]Nuno Mordred Guitars
Rick Thor Bass, Vocals
Alex Drums
Mário Guitars
[youtube]7naTn_2z5R8[/youtube]
[youtube]d42IVnxA6_8[/youtube][/more]

[more=Technical info]
Input File: 03 Gabriel Lies Sleeping.mp3
Channels : 2
Sample Rate : 44100
Precision : 16-bit
Duration : 00:04:03.84 = 10753476 samples = 18288.2 CDDA sectors
File Size : 10.3M
Bit Rate : 339k
Sample Encoding: MPEG audio (layer I, II or III)
Comments :
Title=Gabriel Lies Sleeping
Artist=RAVENSIRE
Album=A Stone Engraved in Red
Tracknumber=3
Year=2019
Genre=Heavy Metal

[/more]

Register
(4) ace73pq, BlazonStone, metala, Olethros,
Yesterday, 03:57:10 Angel Flesh - Plague Of Humanity [ep] (2019)


*Artist: Angel Flesh
*Album: Plague Of Humanity [ep]
*Year: 2019
*Genre: Thrash Metal
*Country: United States
*Format: mp3@CBR320kbps
*Size: 56MB

Tracklist:
01. Plague of Humanity 07:26
02. Silencer 06:14
03. Unseen Enemy 04:46
04. Battlefield 06:02
******************************
Total playing time: 24:28



[more=Extended info]Josh Hellstorm - Vocals and Bass
Stephen Johnson - Guitar
West Pearce - Guitar
Roy Rogers - Drums
[youtube]MJDB2MBSnwY[/youtube]
[youtube]Tx7oJzktlo8[/youtube][/more]

[more=Technical info]
Input File: 03 - Unseen Enemy.mp3
Channels : 2
Sample Rate : 44100
Precision : 16-bit
Duration : 00:04:46.08 = 12616216 samples = 21456.1 CDDA sectors
File Size : 11.6M
Bit Rate : 323k
Sample Encoding: MPEG audio (layer I, II or III)
Comments :
Title=Unseen Enemy
Artist=Angel Flesh
Album=Plague of Humanity
Tracknumber=3
Year=2019
Genre=Metal
Discnumber=1

[/more]

Register
(2) metala, Olethros,
Yesterday, 03:26:56 Darksider - Darksider (2019)


*Artist: Darksider
*Album: Darksider
*Year: 2019
*Genre: Heavy/Dark Metal
*Country: Canada
*Format: mp3@CBR320kbps
*Size: 119MB

Tracklist:
01. The Darkness 04:29
02. Babylon 04:12
03. The Sniper 04:40
04. Kingdom 04:43
05. Raven 06:05
06. The Exorcist 05:13
07. Sad Room Motel 05:37
08. War 03:58
09. Lot of Pain 03:49
10. Feed the Fire 04:26
11. Storm 04:11
******************************
Total playing time: 51:23




[more=Extended info]Patrock -drums
Alain Deslauriers -guitars
David Steines -guitars
Marc Chevalier -vocals/bass
[youtube]Gi20cs3m7lY[/youtube]
[youtube]u7_r7UuvuYI[/youtube][/more]

[more=Technical info]
Input File: 04 - Kingdom.mp3
Channels : 2
Sample Rate : 44100
Precision : 16-bit
Duration : 00:04:43.63 = 12507951 samples = 21272 CDDA sectors
File Size : 11.5M
Bit Rate : 324k
Sample Encoding: MPEG audio (layer I, II or III)
Comments :
Title=Kingdom
Artist=Darksider
Album=Darksider
Tracknumber=4
Year=2019
Genre=Metal
Discnumber=1

[/more]

Register
(3) dermarsoran, metala, Olethros,
Yesterday, 02:31:16 Grand Harvest - Fatehammer [ep] (2019)


*Artist: Grand Harvest
*Album: Fatehammer [ep]
*Year: 2019
*Genre: Death Metal
*Country: Sweden
*Format: mp3@CBR320kbps
*Size: 27MB

Tracklist:
1. As the Vultures Descend 06:03
2. The Harrow 05:28
******************************
Total playing time: 11:31




[more=Extended info]N.S. Bass
R.M. Drums
F.S. Guitars
A.L. Guitars
M.H. Vocals[/more]

[more=Technical info]
Input File: 02 The Harrow.mp3
Channels : 2
Sample Rate : 44100
Precision : 16-bit
Duration : 00:05:28.38 = 14481426 samples = 24628.3 CDDA sectors
File Size : 13.3M
Bit Rate : 324k
Sample Encoding: MPEG audio (layer I, II or III)
Comments :
Title=The Harrow
Artist=Grand Harvest
Album=Fatehammer
Tracknumber=2
Year=2019

[/more]

Register
(3) BlazonStone, Olethros, Rosen,
Yesterday, 01:15:56 Mortic - Beneath The Surface (2019)


*Artist: Mortic
*Album: Beneath The Surface
*Year: 2019
*Genre: Death Metal
*Country: United States
*Format: mp3@CBR320kbps
*Size: 90MB

Tracklist:
1. Dynasty of One 03:39
2. Absolute Zero 03:12
3. Chaos of Torment 03:59
4. Beyond the Cemetery 04:11
5. Days of Silver 02:54
6. Frozen Existence 03:38
7. Crawl 03:48
8. Necromancer 03:38
9. New Temple 04:16
10. In the Twightlight 05:24
******************************
Total playing time: 38:39




[more=Extended info]Nathan Coleman Bass
Arthur Ramsey Drums
Trent Bergerson Vocals
See also: Living Through Ghosts, ex-Defiled Christ (live)
Michael Dillon Guitars (2016-present)[/more]

[more=Technical info]
Input File: 04 - Beyond the Cemetery.mp3
Channels : 2
Sample Rate : 44100
Precision : 16-bit
Duration : 00:04:11.68 = 11098956 samples = 18875.8 CDDA sectors
File Size : 10.2M
Bit Rate : 323k
Sample Encoding: MPEG audio (layer I, II or III)
Comments :
Title=Beyond the Cemetery
Artist=Mortic
Album=Beneath the Surface
Tracknumber=4
Year=2019
Genre=Metal
Discnumber=1

[/more]

Register
(3) infernallord, Olethros, Rosen,
Jun 16 2019, 21:11:44 Hatevömit & Nunslaughter - Hatevömit/Nunslaughter [split] (2019)


*Artist: Hatevömit & Nunslaughter
*Album: Hatevömit/Nunslaughter [split]
*Year: 2019
*Genre: Black/Death Metal | Death Metal
*Country: Turkey | United States
*Format: mp3@CBR320kbps
*Size: 26MB

Tracklist:
Hatevömit:
1. Possessed Nightmares 03:36
2. Necro Future 03:31
Nunslaughter:
3. Fuck The Bastard 01:46
4. Satanic Slut 02:12
******************************
Total playing time: 11:05





[more=Extended info]Nunslaughter:
Don of the Dead Vocals
The Mangler Bass
Tormentor Guitars
Wrath Drums
Hatevomit:
Unholy Nuklear Terrorist Bass, Guitars, Lyrics
Damnare Vocals
H. Drums

[youtube]EiDcRKsgHsU[/youtube]
[youtube]4Mbssvbg_qg[/youtube]
[youtube]7qnsG2pS90g[/youtube]
[youtube]RIPmoZhVj-8[/youtube]
[youtube]lqwCsKV7_80[/youtube][/more]

[more=Technical info]
Input File: 02 - Necro Future.mp3
Channels : 2
Sample Rate : 44100
Precision : 16-bit
Duration : 00:03:24.99 = 9040235 samples = 15374.5 CDDA sectors
File Size : 8.20M
Bit Rate : 320k
Sample Encoding: MPEG audio (layer I, II or III)
Comments :
Title=Necro Future
Artist=Hatevömit
Album=Hatevömit / Nunslaughter
Tracknumber=2
Year=2019

[/more]

Register
(13) craP_cillA, desekrator, FUDEDOR, Ostinato, piledriver, Pinhead666, Rosen, Sickrites, the_cleanser, uk82, VALERY, vasiljev_sergej, wgs73,
Jun 16 2019, 19:08:20 Mighty Thor - Ragnarok (2019)


*Artist: Mighty Thor
*Album: Ragnarok
*Year: 2019
*Genre: Epic Power Metal
*Country: Mexico
*Format: mp3@CBR320kbps
*Size: 101MB

Tracklist:
1. Las Eddas
2. El poder del martillo
3. Palmo de Tierra
4. Thor
5. El regreso del rey
6. Mi refugio
7. Luz de Asgard
8. El ocaso de los dioses
9. Ragnarok
10. Vientos de guerra
******************************
Total playing time: 47:42



[more=Extended info]Mario Dorantes Guitars
Eduardo Gutiérrez Guitars
Moises Flowers Drums
Jean Pinet Bass
Uidemar Cuevas Vocals
[youtube]3vsmiaaXnLo[/youtube]
[youtube]XCv-dE5HU_0[/youtube][/more]

[more=Technical info]
Input File: 03. Palmo de Tierra.mp3
Channels : 2
Sample Rate : 44100
Precision : 16-bit
Duration : 00:04:43.55 = 12504599 samples = 21266.3 CDDA sectors
File Size : 11.5M
Bit Rate : 323k
Sample Encoding: MPEG audio (layer I, II or III)
Comments :
Title=Palmo de Tierra
Artist=Mighty Thor
Album=Ragnarok
Tracknumber=3/10
Year=2019
Genre=17
Discnumber=1/1

[/more]

Register
(6) Foneg, metalwoman, Olethros, Rosen, Rover, Сварог Барг,
Jun 16 2019, 18:25:27 Swarm Of Serpents - Where The Serpents Dwell [ep] (2019)


*Artist: Swarm Of Serpents
*Album: Where The Serpents Dwell [ep]
*Year: 2019
*Genre: Black/Death Metal
*Country: United States
*Format: mp3@CBR320kbps
*Size: 55MB

Tracklist:
01. Celestial Aeon (Intro)
02. Darkness Reborn
03. Invocation 666
04. Insipid God
05. Sign Ov Thy Antichrist
06. Serpents Blood
******************************
Total playing time: 25:38




[more=Extended info]Malleus Serpent Everything (2011-2017), Guitars (lead), Vocals (backing) (2017-present)
See also: ex-Khafra, ex-Nemesis, ex-Crynight, ex-Nailer, ex-Stillborn
Jorheim Bass (2017-present)
Summanus Drums (2017-present)
See also: Kvasura, ex-Anakim
Phosphor Guitars, Vocals (2017-present)
See also: Kvasura, Our Daily Trespasses
[youtube]LE2j-O5VE3I[/youtube][/more]

[more=Technical info]
Input File: 03. Invocation 666.mp3
Channels : 2
Sample Rate : 44100
Precision : 16-bit
Duration : 00:05:00.09 = 13233881 samples = 22506.6 CDDA sectors
File Size : 12.2M
Bit Rate : 325k
Sample Encoding: MPEG audio (layer I, II or III)
Comments :
Title=Invocation 666
Artist=Swarm of Serpents
Album=Where the Serpents Dwell
Tracknumber=3/6
Year=2019
Genre=9
Discnumber=1/1

[/more]

Register
(13) Doooomed, Foneg, GorAtheist, marilin, MMMMM, Olethros, Ostinato, Rosen, Sanctus, Shadechaser, TeamatSE, VALERY, vasiljev_sergej,
Jun 16 2019, 14:24:18 Gôr Mörgûl - Elohim (2019)
Cloud Mail 320
Register
(2) Shadechaser, umnaxtet,
Jun 16 2019, 14:05:12 Gôr Mörgûl - Elohim (2019)


*Artist: Gôr Mörgûl
*Album: Elohim
*Year: 2019
*Genre: Blackened Death Metal
*Country: Italy
*Format: mp3@CBR320kbps
*Size: 76MB

Tracklist:
1. I Begin 02:55
2. Elohim 03:51
3. Portal to Underworld 04:40
4. Rising the War for Ashtoreth 04:04
5. Atum-Ra 03:45
6. Sentinel 04:09
7. Lamaštu 04:02
8. Extinction 06:02
******************************
Total playing time: 33:28




[more=Extended info]Simone "ArcOndA" Piras Drums
See also: Daemonokrat, Worstenemy, Ancient Skin, ex-Hour of Penance, ex-Trismegisto, ex-Accabbadora, ex-Verbo Nero
Leonardo Lantini Guitars
See also: Stigmatized
Andrea "Mörherdir" Murgia Vocals
Marco Soggiu Bass (2015-present)
See also: Stigmatized
[youtube]IIwHvOsckYw[/youtube]
[youtube]TC-N6Ouca6s[/youtube]
[youtube]zXrmr3GBgBc[/youtube]
[youtube]XOfpNW8j6NQ[/youtube]
[youtube]04QHs38dzCM[/youtube][/more]

[more=Technical info]
Input File: 03 - Portal To Underworld.mp3
Channels : 2
Sample Rate : 44100
Precision : 16-bit
Duration : 00:04:40.76 = 12381296 samples = 21056.6 CDDA sectors
File Size : 11.2M
Bit Rate : 320k
Sample Encoding: MPEG audio (layer I, II or III)
Comments :
Title=Portal To Underworld
Artist=Gôr Mörgûl
Album=Elohim
Tracknumber=3
Year=2019
Genre=Metal

[/more]

Register
(21) Albert66613, bacl, DarkHorde, Foneg, GorAtheist, Korpse, makarytch, MMMMM, Nerevar, older68, Olethros, Orgasmik, Ostinato, ripper33, Rosen, Sanctus, thenecromancer, umnaxtet, VALERY, wrath082, zhol,
Jun 16 2019, 13:30:36 Abigorum & Striborg - Spectral Shadows [split] (2018)


*Artist: Abigorum & Striborg
*Album: Spectral Shadows [split]
*Year: 2018
*Genre: Black/Doom Metal | Blackwave/Ambient
*Country: Russia | Australia
*Format: mp3@CBR320kbps
*Size: 126MB

Tracklist:
Abigorum:
1. The Darkness of Aeon 06:34
2. Vortex Cathedral's Shadow 04:48
3. Orpheus Dreams 07:39
4. Striborgum 03:34
Striborg:
5. Spktr 33:29
******************************
Total playing time: 56:04





[more=Extended info]Abigorum:
Aleksey Korolyov - all instruments
Abstrusus - vocals (guest)
Striborg:
Sin Nanna - Everything

Ambient/Black/Doom Metal band ABIGORUM from Saint Petersburg was created in April 2012 by Aleksey "satanath" Korolyov. Abigorum is one-man band project, however guest singer Abstrusus from the Belgian black metal band Absolutus took part in the new songs.

Striborg - black metal/ambient project from Tasmania (Australia) founded by Sin Nanna. Originally began as Kathaaria in 1993, changed name in 1997. His lyrics reveal a fascination with forests, darkness, night, misanthropy and death. The names 'Striborg' and 'Sin Nanna' are the names of a Slavonic wind god and Mesopotamian moon good, respectively. Now Striborg has moved away from black metal and composes electronic music in its own genre - Blackwave.

The fresh split of two unique projects gives the listener the opportunity to enjoy the horizons of flight of musicians' fantasy. From the dark and ritual Black Metal to the chaotic and all-consuming Blackwave. Abigorum's song "Orpheus Dreams" dedicated to William Berger (Prison Tatt Records), who left our world in 2017. Striborg's song Spktr - rehearsal track (short version) recorded in early June 2018. The piece was later performed live at Mona with additional instruments: guzheng, bass clarient, electric violin and trumpet (members of The Australian Art Orchestra) for 4 nights in a row (1 hour performance) to coincide with Ryoji Ikeda's Spectra light installation. Artwork by Depravarts.

[youtube]DVAuQ4DW2Ps[/youtube]
[youtube]AX6DyvEKUyw[/youtube]
[youtube]d54VwCIfVUs[/youtube]
[youtube]ZV53aKov5AI[/youtube]
[youtube]gkDiygrNM7Q[/youtube]
[youtube]l5ZPDTCN7jU[/youtube]
[youtube]75FAzQDssOQ[/youtube][/more]

[more=Technical info]
Input File: 3 Abigorum - Orpheus Dreams.mp3
Channels : 2
Sample Rate : 44100
Precision : 16-bit
Duration : 00:07:30.09 = 19848881 samples = 33756.6 CDDA sectors
File Size : 18.0M
Bit Rate : 320k
Sample Encoding: MPEG audio (layer I, II or III)
Comments :
Title=Orpheus Dreams
Artist=Abigorum
Album=Spectral Shadows
Tracknumber=3
Year=2018

[/more]

Register
(13) 1968_janeart, craP_cillA, FUDEDOR, Ostinato, recber, robertho777, Rosen, the_cleanser, Tyrone, umnaxtet, VALERY, vasiljev_sergej, zotyo1975,
Jun 16 2019, 12:29:33 Lunar Shadow - The Smokeless Fires (2019)


*Artist: Lunar Shadow
*Album: The Smokeless Fires
*Year: 2019
*Genre: Heavy Metal
*Country: Germany
*Format: mp3@CBR320kbps
*Size: 101MB

Tracklist:
1. Catch Fire 06:08
2. Conajohara No More 06:06
3. Roses 05:32
4. Pretend 04:28
5. Laurelindórenan 06:31
6. Red Nails (For the Pillar of Death) 08:05
7. Hawk of the Hills 07:39
******************************
Total playing time: 44:29




[more=Extended info]S. Hamacher Bass
J. Zehner Drums
Max Guitars (lead)
K. Hamacher Guitars (rhythm)
Robert Röttig Vocals
[youtube]iuUa5JvoIBI[/youtube][/more]

[more=Technical info]
Input File: 03 Roses.mp3
Channels : 2
Sample Rate : 44100
Precision : 16-bit
Duration : 00:05:32.40 = 14658972 samples = 24930.2 CDDA sectors
File Size : 13.4M
Bit Rate : 323k
Sample Encoding: MPEG audio (layer I, II or III)
Comments :
Title=Roses
Artist=Lunar Shadow
Album=The Smokeless Fires
Tracknumber=3
Year=2019
Genre=Heavy Metal

[/more]

Register
(15) ahp, avkruchinin, BandR75, infiltrator, metala, metalfaze, metalwoman, Olethros, orgondnor, pedrohell, Rosen, Rover, stumpheavyrock, vir2al, Сварог Барг,
Jun 16 2019, 12:08:46 Malleus - Your Nightmare Calls (2019)


*Artist: Malleus
*Album: Your Nightmare Calls
*Year: 2019
*Genre: Heavy/Doom Metal
*Country: United Kingdom
*Format: mp3@CBR320kbps
*Size: 88MB

Tracklist:
1. Anthem for the Damned 04:20
2. White Noise 03:33
3. Hellhound 04:26
4. Dark Angel 03:55
5. Dark Dreams 08:02
6. Hell's Fire 04:38
7. Death Dealers 05:03
8. Hit This Town Tonight 04:02
******************************
Total playing time: 37:59




[more=Extended info]Andro Coulton - Lead Bass
Shaz Coulton - Guitar
Gram Swan - Vocals
Jake Weekes - Drums[/more]

[more=Technical info]
Input File: 03 - Hellhound.mp3
Channels : 2
Sample Rate : 44100
Precision : 16-bit
Duration : 00:04:26.39 = 11747579 samples = 19978.9 CDDA sectors
File Size : 10.8M
Bit Rate : 323k
Sample Encoding: MPEG audio (layer I, II or III)
Comments :
Title=Hellhound
Artist=Malleus
Album=Your Nightmare Calls
Tracknumber=3
Year=2019

[/more]

Register
(9) marilin, metala, Olethros, poeira, Rosen, Rover, stub888, stumpheavyrock, VALERY,
Jun 15 2019, 20:42:23 Temple Of Demigod - Onslaught Of The Ancient Gods (2019)


*Artist: Temple Of Demigod
*Album: Onslaught Of The Ancient Gods
*Year: 2019
*Genre: Symphonic Black/Death Metal
*Country: Armenia
*Format: mp3@CBR320kbps
*Size: 119MB

Tracklist:
1. Him Who Is Not to Be Named 04:25
2. The Keeper of the Arcane Lore 07:33
3. Acolyte of an Ancient Cult 05:48
4. Cataclysmic March 04:42
5. Destroyer of Aeon 04:04
6. He Who Lies in Eternity 05:26
7. Amorphous 03:36
8. Becoming 04:12
9. Black Rivers of Yuggoth 03:55
10. The Outsider 04:49
11. Neverending Dreams (outro) 02:40 instrumental
******************************
Total playing time: 51:10




[more=Extended info]Mark Erskine Vocals, All instruments
Based on Lovecraft's myths, symphonic tech black/death metal filled with blast beats, fast riffs and epic symphonies! Featuring awesome musicians, such as Thomas A. G. Jensen (Saturnus), Stevie O'Shaughnessy (Sold Soul), Sam Schneider (Abyss Walker, Sammy Slamdance, ex-Inferi), Demether Grail (Zmey Gorynich, Arcanorum Astrum), Kieran Scott (Ashen Crown), Brent Dossett (Coffin Goblin, ex - A Hill To Die Upon), and Artak Karapetyan (Eternally Scarred).[/more]

[more=Technical info]
Input File: 04 - Cataclysmic March (feat. Artak Karapetyan from Eternally Sca.mp3
Channels : 2
Sample Rate : 44100
Precision : 16-bit
Duration : 00:05:04.50 = 13428450 samples = 22837.5 CDDA sectors
File Size : 12.2M
Bit Rate : 320k
Sample Encoding: MPEG audio (layer I, II or III)
Comments :
Title=Cataclysmic March (feat. Artak Karapetyan from Eternally Sca
Artist=Temple of Demigod
Album=Onslaught of the Ancient Gods
Tracknumber=4
Year=2019
Genre=Metal

[/more]

Register
(19) ahp, alikkon, GloomyDeath, GorAtheist, Jackyl, kimkayoung, klon71, metala, Metalload, MMMMM, Olethros, Ostinato, Rosen, Sanctus, Shadechaser, shurapindos666, VALERY, vasiljev_sergej, Сварог Барг,
Jun 15 2019, 20:00:06 Phantom Witch - Death As We Know It (2019)


*Artist: Phantom Witch
*Album: Death As We Know It
*Year: 2019
*Genre: Thrash Metal
*Country: United States
*Format: mp3@CBR320kbps
*Size: 121MB

Tracklist:
1. Call of the Reaper
2. Death as We Know It
3. Basilisk
4. Volcanic Calamity
5. In Deluison
6. The Enemy
7. Eternal Damnation
8. Blood on the Ice
9. Demon in Black
10. Spiderwebs
11. Torture Chamber
12. Undead
13. In Delusion
******************************
Total playing time: 57:01




[more=Extended info]Q Minor Drums (2012-present)
See also: Section 5150
Travis Ochoa Guitars (2017-present)
Cross Carrasco Guitars (2018-present)
Mateo Ramos Bass (2019-present)
Zach Cox Vocals (2019-present)
See also: Stormbat
[youtube]Wx7l4eL8NQM[/youtube][/more]

[more=Technical info]
Input File: 04. Volcanic Calamity.mp3
Channels : 2
Sample Rate : 44100
Precision : 16-bit
Duration : 00:04:20.09 = 11470057 samples = 19506.9 CDDA sectors
File Size : 10.5M
Bit Rate : 324k
Sample Encoding: MPEG audio (layer I, II or III)
Comments :
Title=Volcanic Calamity
Artist=Phantom Witch
Album=Death As We Know It
Tracknumber=4/13
Year=2019
Genre=9
Discnumber=1/1

[/more]

Register
(13) avkruchinin, boby9052, canadaspaceman, GorAtheist, makarytch, metala, older68, Olethros, Rosen, Rover, stumpheavyrock, wgs73, WX419,
Jun 15 2019, 19:45:14 Neuroticos - Kill Fo God (2019)


*Artist: Neuroticos
*Album: Kill Fo God
*Year: 2019
*Genre: Death Metal
*Country: International
*Format: mp3@CBR320kbps
*Size: 78MB

Tracklist:
01. Beginning of Inferno
02. Opened the Gate of Hell
03. Slaves of God
04. Blinded by War
05. Kill for God
06. Family Violence
07. Nothing's Going to Change This World
08. Liars
09. Pray Until You Die
10. Kill
******************************
Total playing time: 36:40



[more=Extended info]Brazil / Japan
Junpei Nakamura Bass
Carlos Henrique Tomi Drums
Kleber Dias Matsuda Guitars
Bruno Dias Matsuda Vocals
[youtube]WRUmcmE66yo[/youtube][/more]

[more=Technical info]
Input File: 04. Blinded by War.mp3
Channels : 2
Sample Rate : 44100
Precision : 16-bit
Duration : 00:04:04.63 = 10788051 samples = 18347 CDDA sectors
File Size : 9.90M
Bit Rate : 324k
Sample Encoding: MPEG audio (layer I, II or III)
Comments :
Title=Blinded by War
Artist=Neuroticos
Album=Kill for God
Tracknumber=4/10
Year=2019
Genre=9
Discnumber=1/1

[/more]

Register
(10) alikkon, andreikun, GorAtheist, jollo, makarytch, MMMMM, Olethros, Rosen, VALERY, vov7609,
Jun 15 2019, 19:23:13 Vulgar - H.D.P. (2019)


*Artist: Vulgar
*Album: H.D.P.
*Year: 2019
*Genre: Thrash/Death Metal
*Country: Chile
*Format: mp3@CBR320kbps
*Size: 74MB

Tracklist:
1. We Are Insane
2. Dolor
3. Ley Del Caos
4. Esperanza
5. Alicia
6. Perro Blanco
7. Psycho Porno
8. El Enemigo Es Dios
9. Danzan En La Oscuridad
******************************
Total playing time: 31:17



[more=Technical info]
Input File: 03 - Ley Del Caos.mp3
Channels : 2
Sample Rate : 44100
Precision : 16-bit
Duration : 00:04:00.26 = 10595510 samples = 18019.6 CDDA sectors
File Size : 9.88M
Bit Rate : 329k
Sample Encoding: MPEG audio (layer I, II or III)
Comments :
Title=Ley Del Caos
Artist=Vulgar
Album=H.D.P
Tracknumber=3
Year=2019

[/more]

Register
(6) GorAtheist, jollo, Olethros, Rosen, stumpheavyrock, wgs73,
Jun 15 2019, 10:30:30 Kâl - Tage Der Nacht (2019)
ЦИТАТА(adeptus_custodes @ 15th June 2019 - 10:26:20) *
и поплывёт

то есть отлично? 15.gif
(3) dagger666, kessler, NecroButcher,
Jun 15 2019, 10:26:17 Tundra - The Darkening Sky (2019)
Cloud Mail 320
Register
(3) kimkayoung, Ostinato, Skog1349,
Jun 15 2019, 10:24:40 Kâl - Tage Der Nacht (2019)
Cloud Mail 320
Register
(1) kimkayoung,
Jun 15 2019, 09:48:49 Gueules Cassées - Ypérite (2019)


*Artist: Gueules Cassées
*Album: Ypérite
*Year: 2019
*Genre: Black Metal
*Country: Finland
*Format: mp3@CBR320kbps
*Size: 76MB

Tracklist:
1. Silence 01:15
2. Un képi de sang 03:41
3. Dieu de la guerre 03:11
4. Ypérite 03:00
5. À l'ombre d'un arbre brisé 04:45
6. La Sainte-Gadoue 06:42
7. Brûlez , consommez ! 03:44
8. 28.6.1914 06:52
******************************
Total playing time: 33:10



[more=Extended info]Zack Janson Design, Layout
Alex Snape Mixing, Mastering
See also: Gurthang, Suncross, Unbowed, Alex Snape, Turenn[/more]

[more=Technical info]
Input File: 05 À l\'ombre d\'un arbre brisé.mp3
Channels : 2
Sample Rate : 44100
Precision : 16-bit
Duration : 00:04:45.09 = 12572469 samples = 21381.7 CDDA sectors
File Size : 11.5M
Bit Rate : 322k
Sample Encoding: MPEG audio (layer I, II or III)
Comments :
Title=À l'ombre d'un arbre brisé
Artist=Gueules Cassées
Album=Ypérite
Tracknumber=5
Year=2019

[/more]

Register
(14) 1968_janeart, Bekkerev, kim666, krotovich, nemx, Olethros, rimfrost, robertho777, Rosen, SilentNidhogg, stub888, VALERY, vasiljev_sergej, vov7609,

602 Pages V   1 2 3 > » 
- Lo-Fi Version Support form
Copyrights and abuse reports form
Time is now: 18th June 2019 - 05:37:55