Welcome Guest ( Log In | Register )

История благодарностей участнику Samaritianin ::: Спасибо сказали: 163022 раз(а)
Дата поста: В теме: За сообщение: Спасибо сказали:
Today, 16:43:52 Damnation Gallery - Black Stains (2018)


*Artist: Damnation Gallery
*Album: Black Stains
*Year: 2018
*Genre: Blackened Heavy Metal
*Country: Italy
*Format: mp3@CBR320kbps
*Size: 104MB

Tracklist:
1. Equilibrium et Chaos 01:12 instrumental
2. Damnation Gallery 06:30
3. Black Stains 04:28
4. Evil Extreme 04:40
5. Transcendence Hymn 04:28
6. Rest in Pestilence 03:30
7. Dark Soul 04:44
8. Noumenon 04:07
9. Addiction 05:30
10. Psychosis 05:39
******************************
Total playing time: 44:48



[more=Extended info]Low Bass
Lord Edgard Guitars
Scarlet Vocals
Coroner Drums
Lord of Plague Guitars
[youtube]At5P4QC3Iyg[/youtube][/more]

[more=Technical info]
Input File: 03 Black Stains.mp3
Channels : 2
Sample Rate : 44100
Precision : 16-bit
Duration : 00:04:30.25 = 11918201 samples = 20269 CDDA sectors
File Size : 11.1M
Bit Rate : 329k
Sample Encoding: MPEG audio (layer I, II or III)
Comments :
Title=Black Stains
Artist=Damnation Gallery
Album=Black Stains
Tracknumber=3
Year=2018
Genre=Heavy Metal

[/more]

Register
(2) kefka, Narasimha,
Today, 16:34:21 Azaghal - Valo Pohjoisesta (2018)
Cloud Mail 320
Register
(2) StrixPT, Vidder242,
Today, 16:08:56 Azaghal - Valo Pohjoisesta (2018)


*Artist: Azaghal
*Album: Valo Pohjoisesta
*Year: 2018
*Genre: Black Metal
*Country: Finland
*Format: mp3@CBR320kbps
*Size: 107MB

Tracklist:
1. VLE 02:21 instrumental
2. Mato Joka Sinut Turmelee 02:59
3. Valo Pohjoisesta 03:57
4. Ajaton 03:51
5. Ruumistie 04:19
6. Argenteum Astrum 06:33
7. AIWASS 07:04
8. Sielujen Yössä 04:57
9. Ylistys 04:00
10. Taivaan Käärme Nielee Auringon 06:15
******************************
Total playing time: 46:16



[more=Extended info]Narqath Guitars, Bass, Keyboards
Niflungr Vocals, Bass
Lima Drums
[youtube]uqTOBSBOtwc[/youtube][/more]

[more=Technical info]
Input File: 03 - Valo Pohjoisesta.mp3
Channels : 2
Sample Rate : 44100
Precision : 16-bit
Duration : 00:03:57.10 = 10456110 samples = 17782.5 CDDA sectors
File Size : 9.59M
Bit Rate : 324k
Sample Encoding: MPEG audio (layer I, II or III)
Comments :
Title=Valo Pohjoisesta
Artist=Azaghal
Album=Valo Pohjoisesta
Tracknumber=3
Year=2018

[/more]

Register
(7) BlaspherionFLUL, Borderline1991, kim666, nadin85, Narasimha, Pinhead666, the_cleanser,
Today, 15:27:52 Horrendous - Idol (2018)
Зачетная группа! 20.gif
Cloud Mail 320 Vinyl Rip
Register
(2) andreikun, Samogon,
Today, 14:55:03 Horrendous - Idol (2018)


*Artist: Horrendous
*Album: Idol
*Year: 2018
*Genre: Progressive Death Metal
*Country: United States
*Format: mp3@CBR320kbps
*Size: 94MB

Tracklist:
1. Prescience 01:18
2. Soothsayer 04:49
3. The Idolater 05:13
4. Golgothan Tongues 06:15
5. Divine Anhedonia 05:04
6. Devotion (Blood for Ink) 06:25
7. Threnody 02:20
8. Obolus 08:37
******************************
Total playing time: 40:01




[more=Extended info]Vinyl rip
Jamie Knox Drums
Damian Herring Guitars, Vocals, Keyboards
Matt Knox Guitars, Vocals
Alex Kulick Bass
[youtube]-r9iS6fWnMA[/youtube][/more]

[more=Technical info]
Input File: 02-horrendous-soothsayer.mp3
Channels : 2
Sample Rate : 48000
Precision : 16-bit
Duration : 00:04:43.15 = 13591440 samples ~ 21236.6 CDDA sectors
File Size : 11.7M
Bit Rate : 331k
Sample Encoding: MPEG audio (layer I, II or III)
Comments :
Title=Soothsayer
Artist=Horrendous
Album=Idol
Tracknumber=2
Year=2018
Genre=Death Metal

[/more]

Register
(9) add0101, andreikun, helvetestoner, jpvalentim, Leshiy666, metala, suseka, troll_swamp, yuratroll,
Today, 11:14:40 Hero's Last Rite - Wasted Prayer (2017)


*Artist: Hero's Last Rite
*Album: Wasted Prayer
*Year: 2017
*Genre: Thrash Metal
*Country: Canada
*Format: mp3@CBR320kbps
*Size: 89MB

Tracklist:
1. Wasted Prayer 04:55
2. Engage The Weak 04:29
3. Devilfinger 03:52
4. Nothing Left 04:26
5. The Unforgiving Disease 04:31
6. Trapped On Your Side 06:20
7. Or The One 05:09
8. Human 04:49
******************************
Total playing time: 38:31




[more=Extended info]Dan Rogers Drums
Tim Gorman Guitars
Mike Davidson Guitars
Steve McDonald Vocals
Eric Godin Bass
[youtube]-PwsrbUxlTE[/youtube][/more]

[more=Technical info]
Input File: 03 - Devilfinger.mp3
Channels : 2
Sample Rate : 44100
Precision : 16-bit
Duration : 00:03:52.69 = 10261409 samples = 17451.4 CDDA sectors
File Size : 9.43M
Bit Rate : 324k
Sample Encoding: MPEG audio (layer I, II or III)
Comments :
Title=Devilfinger
Artist=Hero's Last Rite
Album=Wasted Prayer
Tracknumber=3
Year=2017

[/more]

Register
(2) wgs73, zaqxsw,
Today, 10:56:56 Inoculation - Pure Cosmic Dread (2018)
Cloud Mail 320
Register
(1) Thrashman,
Yesterday, 21:43:40 Absence Betrayal - Emotions (2018)


*Artist: Absence Betrayal
*Album: Emotions
*Year: 2018
*Genre: Melodic Black/Death Metal
*Country: Russian Federation
*Format: mp3@CBR320kbps
*Size: 100MB

Tracklist:
1. A Cruel Dream 04:21
2. Children's Tears 03:49
3. Elizabeth 05:39
4. In My Eyes 05:10
5. Lifeless People 04:04
6. In Memory Of ... 05:38
7. We are Close to Heaven 05:02
8. One More Day 05:06
9. When the Sun Goes Out 05:24
******************************
Total playing time: 44:13


Preview 2

[more=Extended info]Andrey Baranov All instruments, Vocals
See also: Escadaia, Heresiarkhes, ex-Uroboros, ex-Enhorn
Yana Baranova Lyrics[/more]

[more=Technical info]
Input File: 02 - Children\'s Tears.mp3
Channels : 2
Sample Rate : 44100
Precision : 16-bit
Duration : 00:03:49.16 = 10105956 samples = 17187 CDDA sectors
File Size : 9.17M
Bit Rate : 320k
Sample Encoding: MPEG audio (layer I, II or III)
Comments :
Title=Children's Tears
Artist=Absence Betrayal
Album=Emotions
Tracknumber=2
Year=2018
Genre=Metal

[/more]

Register
(2) kim666, metala,
Yesterday, 20:10:41 Inoculation - Pure Cosmic Dread (2018)


*Artist: Inoculation
*Album: Pure Cosmic Dread
*Year: 2018
*Genre: Old School Technical Death Metal
*Country: United States
*Format: mp3@CBR320kbps
*Size: 89MB

Tracklist:
1. Hypnotic Regression 03:32
2. Purity 02:43
3. The Silencers 03:03
4. Xa'Ligha 03:54
5. Loss of Esoteric Profoundness 03:37
6. Bending of Time 04:17
7. Eye of Providence 03:01
8. XX121 03:41
9. Pockets of Devastation 02:15
10. Lunar Illusion 3 02:51
11. Pure Cosmic Dread 02:55
******************************
Total playing time: 35:49




[more=Extended info]Matt Behner Drums
See also: Aethereus, ex-Fully Consumed, ex-Year of Desolation, ex-Mythrias, ex-Decrypt
Anthony Allen Guitars
See also: Abraded
Tyler Clark Guitars (2013-present)
See also: Mythrias
Marcus Schulte Bass (2014-present)
Jon Douglas Vocals (2016-present)
[youtube]154NBnpLBVE[/youtube][/more]

[more=Technical info]
Input File: 03 The Silencers.mp3
Channels : 2
Sample Rate : 44100
Precision : 16-bit
Duration : 00:03:04.04 = 8116252 samples = 13803.1 CDDA sectors
File Size : 7.64M
Bit Rate : 332k
Sample Encoding: MPEG audio (layer I, II or III)
Comments :
Title=The Silencers
Artist=Inoculation
Album=Pure Cosmic Dread
Tracknumber=03
Year=2018

[/more]

Register
(4) andreikun, maochen, metala, Thrashman,
Yesterday, 19:44:01 Deflagrator - Raising Weapons For The Beast (2014)


*Artist: Deflagrator
*Album: Raising Weapons For The Beast
*Year: 2014
*Genre: Old School Blackened Thrash Metal
*Country: Italy
*Format: mp3@CBR320kbps
*Size: 70MB

Tracklist:
1. Intro 01:40
2. Dawn of the Occult Plague 03:34
3. Inhuman Violence 03:28
4. NecroSpeedAssault 03:52
5. Evil Posession 04:44
6. Mantra of Death 04:25
7. Goat Constrictor 03:52
8. Procreating Blasphemy 05:56
******************************
Total playing time: 31:31





[more=Extended info]DEFLAGRATOR spawned in mid-2009, is a 4-piece abomination hailing from the deepest grounds of the Italian wasteland. Finally out the debut album "Raising Weapons For The Beast" of this italian band who plays some fast blackened aggressive death/thrash metal attack in the old school metal vein a la early SEPULTURA, SARCOFAGO, BULLDOZER etc.
Von Degroth - Vocals
Hertier - Guitars (only studio), Bass
Vinz - Bass (only studio), Guitars
Incinerator - Drums
[youtube]7yvXbaIbLXM[/youtube][/more]

[more=Technical info]
Input File: 03 - Inhuman Violence.mp3
Channels : 2
Sample Rate : 44100
Precision : 16-bit
Duration : 00:03:28.19 = 9181003 samples = 15614 CDDA sectors
File Size : 8.55M
Bit Rate : 328k
Sample Encoding: MPEG audio (layer I, II or III)
Comments :
Title=Inhuman Violence
Artist=Deflagrator
Album=Raising Weapons for the Beast
Tracknumber=3/8
Year=2014
Genre=Black/Thrash Metal

[/more]

Register
(3) AHBAnep, andreikun, wgs73,
Yesterday, 18:13:15 Mourning By Morning - Mourning By Morning (2018)


*Artist: Mourning By Morning
*Album: Mourning By Morning
*Year: 2018
*Genre: Black Metal
*Country: United States
*Format: mp3@CBR320kbps
*Size: 95MB

Tracklist:
1. Azure Eyes 04:32
2. At Heart 05:34
3. The Bride of Ice 05:18
4. Bleakness 04:13
5. I Wander 06:51
6. Underneath the Pressure of The Sea 04:33
7. Wintertide 09:19
******************************
Total playing time: 40:20




[more=Extended info]Caden Frankovich Everything
[youtube]E7jtlPvO2MQ[/youtube][/more]

[more=Technical info]
Input File: 02 At Heart.mp3
Channels : 2
Sample Rate : 44100
Precision : 16-bit
Duration : 00:05:33.71 = 14716435 samples = 25028 CDDA sectors
File Size : 13.6M
Bit Rate : 326k
Sample Encoding: MPEG audio (layer I, II or III)
Comments :
Title=At Heart
Artist=Mourning By Morning
Album=Mourning By Morning
Tracknumber=02
Year=2018

[/more]

Register
(2) kim666, stub888,
Yesterday, 16:03:22 Vintergata - Смородина (2018)
Cloud Mail 320
Register
(3) nsk2008, Ostinato, vasiljev_sergej,
Yesterday, 14:51:30 Хрен - Поле Чудес В Стране Дураков (2018)
Cloud Mail 320
Register
(2) A.L.Rapsod, nsk2008,
Yesterday, 14:44:16 Vintergata - Смородина (2018)


*Artist: Vintergata
*Album: Смородина
*Year: 2018
*Genre: Symphonic Black Metal
*Country: Russian Federation
*Format: mp3@CBR320kbps
*Size: 117MB

Tracklist:
1. Правый Бой
2. Малахит
3. Смородина
4. Девана
5. Садко
6. Арысь-Поле
7. В Изумрудном Струге
8. Повелители Ветра
9. Песнь Финиста
******************************
Total playing time: 49:22




[more=Extended info]Alexey Zakharov Bass
Vasiliy "Ghost" Gorshkov Drums
Vladimir Lehtinen Guitars
Alexandr "Nortti" Demidov Vocals
Veli-Matti Kananen Keyboards
[youtube]1huRg2t3fB4[/youtube]
[youtube]oiTweYQZOH0[/youtube][/more]

[more=Technical info]
Input File: 04. Девана.mp3
Channels : 2
Sample Rate : 44100
Precision : 16-bit
Duration : 00:05:33.08 = 14688784 samples = 24980.9 CDDA sectors
File Size : 13.3M
Bit Rate : 320k
Sample Encoding: MPEG audio (layer I, II or III)
Comments :
Title=Девана
Artist=Vintergata
Album=Смородина
Tracknumber=04
Year=2018

[/more]

Register
(5) LEGION69, Luminous, Ostinato, Rosen, VALERY,
Yesterday, 13:15:20 Steingrab - Jahre Nach Der Pest (2018)
Cloud Mail 320
Register
(4) Narasimha, nsk2008, RUDACHUR, vasiljev_sergej,
Yesterday, 10:53:03 Хрен - Поле Чудес В Стране Дураков (2018)


*Artist: Хрен
*Album: Поле Чудес В Стране Дураков
*Year: 2018
*Genre: Extreme Folk Metal
*Country: Russian Federation
*Format: mp3@CBR320kbps
*Size: 83MB

Tracklist:
1. Среди Лесов... 03:55
2. Вешать и Стрелять 03:49
3. Голоса 03:49
4. Поле Чудес в Стране Дураков 03:48
5. Иван-Дурак 04:06
6. Мой Проспиртованный Труп 03:50
7. След 04:03
8. Осень 04:51 instrumental
9. Русская Водка 03:41
******************************
Total playing time: 35:52

Preview 1

[more=Extended info]ex-Eldiarn
Evgeniy Uvarov Guitars, Vocals (2011-2018)
Alexander Burenin Bass (2015-2018)
Leonid Orlov Guitars (2015-2018)
See also: ex-Варвар, Оля и Домовые, Хрен, ex-Reликт (live), ex-Atman, ex-Чёрный Граф, ex-Эйфория
[youtube]5kGQ70Xq6Ds[/youtube][/more]

[more=Technical info]
Input File: 03. Голоса.mp3
Channels : 2
Sample Rate : 44100
Precision : 16-bit
Duration : 00:00:00.23 = 10099 samples = 17.1752 CDDA sectors
File Size : 9.38M
Bit Rate : 328M
Sample Encoding: MPEG audio (layer I, II or III)
Comments :
Title=Голоса
Artist=Хрен
Album=Поле чудес в стране дураков
Tracknumber=3
Year=2018-18-20
Discnumber=1/1

[/more]

Register
(12) Aresson, Black Cat, Druidir, fateefffddd, finntroll3, Golodomor, hammer, judaz, Requiescat, Rosen, stone88, VALERY,
Sep 23 2018, 19:53:58 Steingrab - Jahre Nach Der Pest (2018)


*Artist: Steingrab
*Album: Jahre Nach Der Pest
*Year: 2018
*Genre: Atmospheric Black Metal
*Country: Germany
*Format: mp3@CBR320kbps
*Size: 91MB

Tracklist:
01. Präludium
02. Dämon
03. Rachewalzer
04. Das Trübe Glas
05. Fort Von Hier
06. Falscher Frühling
07. Der Trübe See
08. Mondfinsternis
09. Jahre Nach Der Pest
10. Walzer Toter Zukunft
11. Verlorene Engel
******************************
Total playing time: 43:15



[more=Extended info]Mahr Everything (2008-present)
See also: Morok, ex-Alrakis, ex-Nargis
[youtube]jDH_ATAiFtM[/youtube][/more]

[more=Technical info]
Input File: 03. Rachewalzer.mp3
Channels : 2
Sample Rate : 44100
Precision : 16-bit
Duration : 00:03:29.39 = 9233923 samples = 15704 CDDA sectors
File Size : 8.46M
Bit Rate : 323k
Sample Encoding: MPEG audio (layer I, II or III)
Comments :
Title=Rachewalzer
Artist=Steingrab
Album=Jahre nach der Pest
Tracknumber=3
Year=2018
Discnumber=1

[/more]

Register
(15) Doooomed, Druidir, dsword, EvilPiet, Indamage, kim666, Necromag, Ostinato, Rosen, Shadechaser, stub888, suseka, VALERY, Witchlord, zotyo1975,
Sep 23 2018, 13:33:10 Skeleton Gong - Cold Earth Wanderers (2018)
Cloud Mail 320
Register
(1) Ludwig Hagen,
Sep 23 2018, 13:31:47 Raiden - Khronos (2018)
Cloud Mail 320
Register
(2) Diflock, postal67,
Sep 23 2018, 13:16:18 Heads For The Dead - Serpent's Curse (2018)
Cloud Mail 320
Register
(4) Amsterdam, marilin, muskatnuss, nunim,
Sep 23 2018, 04:24:13 The Abducted - Epoch Before The End [ep] (2017)


*Artist: The Abducted
*Album: Epoch Before The End [ep]
*Year: 2017
*Genre: Melodic/Technical Death Metal
*Country: Australia
*Format: mp3@CBR320kbps
*Size: 37MB

Tracklist:
1. Oncoming the Enemy (2017) 03:41
2. Vanished Without a Trace 04:01
3. Fusion Programmed Minds (Hypocrisy cover) 04:37
4. No Choices 03:44
******************************
Total playing time: 16:03




[more=Extended info]Andres "Abducted" Guitars, Vocals (Lead) (2013-present)
See also: ex-Abducted Child[/more]

[more=Technical info]
Input File: The Abducted - Epoch Before The End - 02 Vanished Without A Trace.mp3
Channels : 2
Sample Rate : 44100
Precision : 16-bit
Duration : 00:04:01.15 = 10634671 samples = 18086.2 CDDA sectors
File Size : 9.71M
Bit Rate : 322k
Sample Encoding: MPEG audio (layer I, II or III)
Comments :
Title=Vanished Without A Trace
Artist=The Abducted
Album=Epoch Before The End
Tracknumber=2
Year=2017

[/more]

Register
(3) metala, Rosen, VALERY,
Sep 23 2018, 03:15:32 Mind Imperium - Way To Carcosa (2018)


*Artist: Mind Imperium
*Album: Way To Carcosa
*Year: 2018
*Genre: Melodic Death/Groove Metal
*Country: France
*Format: mp3@CBR320kbps
*Size: 109MB

Tracklist:
01. I Am Become Death
02. Eventide
03. Fragmented
04. Time to Pay
05. Dust
06. Apocalyptical Parade
07. The Blind Shepherd
08. Cassilda's Lament
09. Last Man Standing
10. A War Without End
11. Outro
******************************
Total playing time: 47:13



[more=Extended info]Nogh, rhythm guitars and lead vocals
Robs, lead and rhythm guitars
Carol, bass guitars
Julie, drums
[youtube]RcOg_rjwgmE[/youtube][/more]

[more=Technical info]
Input File: 03. Fragmented.mp3
Channels : 2
Sample Rate : 44100
Precision : 16-bit
Duration : 00:00:00.23 = 10055 samples = 17.1003 CDDA sectors
File Size : 9.28M
Bit Rate : 326M
Sample Encoding: MPEG audio (layer I, II or III)
Comments :
Title=Fragmented
Artist=Mind Imperium
Album=Way to Carcosa
Tracknumber=3
Year=2018-18-20
Discnumber=1/1

[/more]

Register
(5) Ostinato, Rosen, sadmannn, TeamatSE, VALERY,
Sep 23 2018, 03:01:42 Княжая Пустынь - Врѣмена (2018)


*Artist: Княжая Пустынь
*Album: Врѣмена
*Year: 2018
*Genre: Dark Folk
*Country: Russian Federation
*Format: mp3@CBR320kbps
*Size: 169MB

Tracklist:
1. Полярные Зори 03:30
2. Студень. Сѣверъ 04:15
3. Просинец. В Объятья Пурги 05:21
4. Лютень. Ледяное Безмолвие 02:29
5. Березень. В Хриплом Крике Голодных Ворон 07:56
6. Первоцвет. Ветрами Степей 05:54
7. Травень. Отражение 03:02
8. Червень. К Сокрытым в Памяти Истокам… 04:24
9. Косень. Пролилась Ночь Неспешно Смолой 03:31
10. Облака 02:10
11. Зарев. Жнец 06:31
12. Колыбель Семи Ключей 01:53
13. Златоцвет. Бросив Горсть Угасших Звёзд… 10:47
14. Позимник. Угасание 04:02
15. Вглубь Спящих Урманов 02:31
16. Грудень. Чёрным Вороном 03:06
17. Лучи на Хрустале Инея 02:23
******************************
Total playing time: 1:13:45


Preview 2

[more=Technical info]
Input File: 03. Просинец. В объятья пурги.mp3
Channels : 2
Sample Rate : 44100
Precision : 16-bit
Duration : 00:05:22.03 = 14201611 samples = 24152.4 CDDA sectors
File Size : 12.9M
Bit Rate : 320k
Sample Encoding: MPEG audio (layer I, II or III)
Comments :
Title=Просинец. В объятья пурги
Artist=Княжая Пустынь
Album=Врѣмена
Tracknumber=3
Year=2018

[/more]

Register
(16) Aresson, Cartman223, Farung, Golodomor, Infidel, MeatWolf, Moonshtook, Old Vyaine, Phlebotomized, recber, SAPOGi, stone88, tOmV, Uriel, VALERY, vasiljev_sergej,
Sep 22 2018, 23:37:46 Metamorpher - Becoming [ep] (2018)


*Artist: Metamorpher
*Album: Becoming [ep]
*Year: 2018
*Genre: Progressive Thrash Metal
*Country: Germany
*Format: mp3@CBR320kbps
*Size: 43MB

Tracklist:
1. Like a Mantis 06:51
2. Limbic 05:28
3. House in the Fields 06:40
******************************
Total playing time: 18:59




[more=Extended info]Dominik Kwasny Bass
See also: Motorjesus (live), ex-Diagnosis:Different
Carlos Gottberath Drums
See also: ex-Diagnosis:Different
Patrick Wasserburg Guitars (lead)
Michael Schiefer Guitars (rhythm)
Michael Junker Vocals
See also: ex-Diagnosis:Different
[youtube]AiA7tuKP2GI[/youtube][/more]

[more=Technical info]
Input File: 01 - Like a Mantis.mp3
Channels : 2
Sample Rate : 44100
Precision : 16-bit
Duration : 00:06:51.68 = 18154912 samples = 30875.7 CDDA sectors
File Size : 16.5M
Bit Rate : 320k
Sample Encoding: MPEG audio (layer I, II or III)
Comments :
Title=Like a Mantis
Artist=Metamorpher
Album=Becoming
Tracknumber=1
Year=2018
Genre=Thrash Metal

[/more]

Register
(6) avkruchinin, metala, METALHUNTER, pichileon, postal67, Rosen,
Sep 22 2018, 22:34:44 Infernal Antarctica - From The Depths Of The Earth (2017)


*Artist: Infernal Antarctica
*Album: From The Depths Of The Earth
*Year: 2017
*Genre: Black Metal
*Country: Hungary
*Format: mp3@CBR320kbps
*Size: 72MB

Tracklist:
1. Destroying the Altars of the Desert God 04:50
2. The Demonic Terrain 04:51
3. Awake the Beast Inside 05:11
4. Beyond the Nameless Mountains 05:32
5. Carnivore Feast 03:36
6. The Savage Winter 07:40
******************************
Total playing time: 31:40




[more=Extended info]Máté Novák (Bass early), Drum programming, Vocals, Guitars[/more]

[more=Technical info]
Input File: 02 - The Demonic Terrain.mp3
Channels : 2
Sample Rate : 44100
Precision : 16-bit
Duration : 00:04:51.76 = 12866792 samples = 21882.3 CDDA sectors
File Size : 11.7M
Bit Rate : 320k
Sample Encoding: MPEG audio (layer I, II or III)
Comments :
Title=The Demonic Terrain
Artist=Infernal Antarctica
Album=From the Depths of the Earth
Tracknumber=2
Year=2017
Genre=Black Metal

[/more]

Register
(9) kim666, nsk2008, Ostinato, Rosen, stub888, VALERY, vasiljev_sergej, vovenom, zotyo1975,

493 Pages V   1 2 3 > » 
- Lo-Fi Version Support form
Copyrights and abuse reports form
Time is now: 25th September 2018 - 17:38:08