Welcome Guest ( Log In | Register )

История благодарностей участнику Samaritianin ::: Спасибо сказали: 408302 раз(а)
Дата поста: В теме: За сообщение: Спасибо сказали:
Yesterday, 20:46:51 Stygian Dark - Gorelords Of War (2021)
FLAC (Tracks) 269 mb
Register
(1) Marek,
Yesterday, 18:07:29 Stygian Dark - Gorelords Of War (2021)


*Artist: Stygian Dark
*Album: Gorelords Of War
*Year: 2021
*Genre: Old School Death Metal
*Country: International
*Format: mp3@CBR320kbps
*Size: 81MB

Tracklist:
1. Gorelords of War 03:53
2. Driven by Ravenous Hunger 02:36
3. Casket Malediction 03:02
4. Lick the Oculus 03:28
5. To Kill the Raven 03:48
6. The Oligarch 03:28
7. Suffering of the Sinister 03:28
8. Lacerated Lies 03:04
9. No Choke Chain on the Wolf 03:30
10. Buried Before First Light 03:29
******************************
Total playing time: 33:46



[more=Extended info]Netherlands / United Kingdom / Sweden
Alwin Roes Bass
See also: ex-Abyss, ex-Dead End, ex-Wish, ex-Into the Arcane, ex-Morthicia
Jon Rudin Drums
See also: Dead Sun, Dehumanaut, Formaldehydist, Just Before Dawn, Monstrous, Never the Dead, Pale King, Those Who Bring the Torture, Wombbath, Wormveil, ex-From Ruin, ex-Ashcloud, ex-Body Harvest
Rogga Johansson Guitars
See also: Bloodgut, Dead Sun, Down Among the Dead Men, Echelon, Eye of Purgatory, Fondlecorpse, Formaldehydist, Furnace, Ghoulhouse, God Cries, Grisly, Heir Corpse One, House by the Cemetary, Humanity Delete, Johansson & Speckmann, Lobotomy Dept, Massacre, Megascavenger, Metal Against Coronavirus, Monstrous, Necrogod, Never the Dead, Paganizer, PermaDeath, Pile of Skulls, Putrevore, Reek, Revolting, Ribspreader, Rogga Johansson, Severed Limbs, Stass, Svitjod, The Cleaner and Mr. Filth's Van Murders, The Dead Cold, The Skeletal, Those Who Bring the Torture, To Descend, ex-Carve, ex-Demiurg, ex-Eaten, ex-Foreboding, ex-Minotaur Head, ex-Skeletal Spectre, ex-Swarming, ex-Terminal Grip, ex-The Grotesquery, Catacomb, Disruptor, Troikadon, ex-Banished from Inferno, ex-Graveyard After Graveyard, ex-Sinners Burn, ex-The 11th Hour, ex-Deranged (live), ex-Bone Gnawer, ex-To the Gallows
Dave Ingram Vocals
See also: Benediction, Down Among the Dead Men, Echelon, Formaldehydist, Metal Against Coronavirus, Ursinne, ex-Downlord, ex-Hail of Bullets, ex-Strangler, Hellfrost and Fire, Troikadon, ex-Eyegouger, ex-Just Before Dawn, ex-Bolt Thrower
[youtube]MSnvX_mMfH4[/youtube][/more]

[more=Technical info]
Input File: Stygian Dark - Gorelords Of War - 07 Suffering of the Sinister.mp3
Channels : 2
Sample Rate : 44100
Precision : 16-bit
Duration : 00:03:28.32 = 9186692 samples = 15623.6 CDDA sectors
File Size : 8.52M
Bit Rate : 327k
Sample Encoding: MPEG audio (layer I, II or III)
Comments :
Title=Suffering of the Sinister
Artist=Stygian Dark
Album=Gorelords Of War
Tracknumber=7/10
Year=2021
Genre=Death Metal

[/more]

Register
(16) cesar, chipsgott, guidanner, infozahist, older68, Reverend, sagratan, stumpheavyrock, suseka, Taakeferd, TeamatSE, tim47, Torquemada, WOLAND, wrath082, zhol,
Yesterday, 15:27:01 Jotunn - Huldra (2021)


*Artist: Jotunn
*Album: Huldra
*Year: 2021
*Genre: Black/Death/Doom Metal
*Country: United States
*Format: mp3@CBR320kbps
*Size: 88MB

Tracklist:
1. Chapter I - The Deceit Of Desire 06:42
2. Chapter II - Into Ascendancy's Lie 04:24
3. Chapter III - Deluded Contagion 05:00
4. Chapter IV - Foreseen Elimination 05:14
5. Chapter V - Scorched Flesh & Vitality 08:18
6. Chapter VI - Aksepterer Etterspill 09:31
******************************
Total playing time: 39:09



[more=Extended info]Freya Reeves Bass, Vocals, Lyrics
Darrell J. Gilbert Jr. Guitars, Vocals (backing), Keyboards, Programming[/more]

[more=Technical info]
Input File: 05. Chapter V: Scorched Flesh & Vitality.mp3
Channels : 2
Sample Rate : 44100
Precision : 16-bit
Duration : 00:08:18.00 = 21961800 samples = 37350 CDDA sectors
File Size : 19.9M
Bit Rate : 320k
Sample Encoding: MPEG audio (layer I, II or III)
Comments :
Title=Chapter V: Scorched Flesh & Vitality
Artist=Jotunn
Album=Huldra
Tracknumber=5
Year=2021
Genre=Metal

[/more]

Register
(10) AlexSmith, Doooomed, Fater_Hu, lacrimoza, metala, quarantine, sergsazan, suseka, Taakeferd, vasiljev_sergej,
Yesterday, 14:46:48 Helgrind - Insurrection (2017)


*Artist: Helgrind
*Album: Insurrection
*Year: 2017
*Genre: Heavy/Thrash Metal
*Country: United Kingdom
*Format: mp3@CBR320kbps
*Size: 98MB

Tracklist:
1. Dead Shall Rise 06:38
2. Massacre the Suffering 03:36
3. Dead Army 03:36
4. Bitter End 04:58
5. Not My Enemy 05:36
6. Breeding Hate 05:30
7. Harvest 04:00
8. Raise the Flag 04:38
9. Helgrind 04:18
******************************
Total playing time: 42:50




[more=Extended info]Paul Nelson Bass (2000-?, 2014-present), Vocals (2000-2013)
See also: ex-Cerberus
Andy Keel Drums (2008-2013, 2014-present)
Mikey Takacs Guitars (2010-2013, 2014-present)
Simon Ellis Guitars (2012-2013, 2014-present)
See also: Tempashot
[youtube]BRHevoEn84Y[/youtube][/more]

[more=Technical info]
Input File: 08 - Raise The Flag.mp3
Channels : 2
Sample Rate : 44100
Precision : 16-bit
Duration : 00:04:36.00 = 12171600 samples = 20700 CDDA sectors
File Size : 11.3M
Bit Rate : 327k
Sample Encoding: MPEG audio (layer I, II or III)
Comments :
Title=Raise The Flag
Artist=Helgrind
Album=Insurrection
Tracknumber=8
Year=2021-10-22
Genre=Metal
Discnumber=1

[/more]

Register
(6) boby9052, Marek, Sabbathian, sergsazan, stumpheavyrock, Taakeferd,
Yesterday, 14:26:29 Unisex - Unholy Moly (2021)


*Artist: Unisex
*Album: Unholy Moly
*Year: 2021
*Genre: Heavy Metal
*Country: Norway
*Format: mp3@CBR320kbps
*Size: 83MB

Tracklist:
1. Aa vandre gjennom urmenneskets forlokkende habitat 00:53
2. Siblinghood of Unisex 04:16
3. Blood on Steel 06:06
4. Take the Devil by the Horns 05:41
5. Denim Heart 07:08
6. Unholy Scriptures 05:55
7. License to Love 04:56
8. Aa stride mot de naadeloese krefter af vantro opphav 01:17
******************************
Total playing time: 36:12



[more=Extended info]Raging Rod Bass (2019-present)
Thunder Hammer Drums (2019-present)
Proto Pick Guitars (lead) (2019-present)
Fredrik Guitars (rhythm) (2019-present)
Max Confidence Vocals (2019-present)[/more]

[more=Technical info]
Input File: 07 - License to Love.mp3
Channels : 2
Sample Rate : 44100
Precision : 16-bit
Duration : 00:04:55.59 = 13035563 samples = 22169.3 CDDA sectors
File Size : 11.9M
Bit Rate : 322k
Sample Encoding: MPEG audio (layer I, II or III)
Comments :
Title=License to Love
Artist=Unisex
Album=Unholy Moly
Tracknumber=7/8
Year=2021

[/more]

Register
(6) metala, Rover, sergsazan, stumpheavyrock, Taakeferd, vir2al,
Yesterday, 05:15:18 Maiestas - Purgatorium (2019)


*Artist: Maiestas
*Album: Purgatorium
*Year: 2019
*Genre: Black Metal
*Country: United States
*Format: mp3@CBR320kbps
*Size: 73MB

Tracklist:
1. Battle Charge 06:06
2. Path of Destruction 05:38
3. Pleading for Death 03:36
4. The Conquering 06:03
5. His Ardent Throne (DevastNecro) 03:45
6. Relentless Attack 04:50
7. And 02:20 instrumental
******************************
Total playing time: 32:18




[more=Extended info]FLAC-Rip
M.E. Rangel Drums
Dave M. Ward Vocals, Guitars
Matthew Isaacks Bass, Guitars
Cameron Smith Bass[/more]

[more=Technical info]
Input File: 04 - The Conquering.mp3
Channels : 2
Sample Rate : 44100
Precision : 16-bit
Duration : 00:06:05.45 = 16116477 samples = 27409 CDDA sectors
File Size : 14.6M
Bit Rate : 320k
Sample Encoding: MPEG audio (layer I, II or III)
Comments :
Title=The Conquering
Artist=Maiestas
Album=Purgatorium
Tracknumber=4
Year=2019
Genre=Metal

[/more]

Register
(5) AlexSmith, stormhatt, suseka, Taakeferd, vasiljev_sergej,
Yesterday, 04:43:36 D-Tox - Kubark Project (2021)


*Artist: D-Tox
*Album: Kubark Project
*Year: 2021
*Genre: Groove/Heavy Metal
*Country: Italy
*Format: mp3@CBR320kbps
*Size: 131MB

Tracklist:
1. Twilight Bravado 03:41
2. The Revolution Oracle 04:37
3. Rorschach Maze 04:24
4. Black Powder Mastermind 04:32
5. Big Bad Block 04:24
6. White Angel 06:42
7. Psycko Wacko 04:20
8. Splinter of Insane Lucidity 06:18
9. Deceitful Divinity 03:45
10. Nothing Behind Those Eyes 05:17
11. Judas Goat 04:03
12. Oxyuranus 04:12
******************************
Total playing time: 56:15




[more=Extended info]Fabio "FX" Capulli Bass (2017-present)
See also: ex-Maskim, ex-Hot Blood, Phoenix Rising, ex-Messerschmitt, ex-D.O.C.
Riccardo "Rick Rock" Macrì Drums (2017-present)
Paolo "Dr. Phibes" Caucci Guitars (2017-present)
See also: ex-Maskim, ex-Hot Blood, Phoenix Rising, ex-D.O.C., ex-Duka, ex-Mindscape
Emanuele "Mr. Hellvis" Galanti Vocals (2017-present)[/more]

[more=Technical info]
Input File: 08 - Splinter of Insane Lucidity.mp3
Channels : 2
Sample Rate : 44100
Precision : 16-bit
Duration : 00:06:18.85 = 16707197 samples = 28413.6 CDDA sectors
File Size : 15.3M
Bit Rate : 323k
Sample Encoding: MPEG audio (layer I, II or III)
Comments :
Title=Splinter of Insane Lucidity
Artist=D-Tox
Album=Kubark Project
Tracknumber=8/12
Year=2021

[/more]

Register
(2) chipsgott, Taakeferd,
Yesterday, 04:21:45 Cognos - Cognos (2021)


*Artist: Cognos
*Album: Cognos
*Year: 2021
*Genre: Progressive Death Metal
*Country: Unknown
*Format: mp3@CBR320kbps
*Size: 113MB

Tracklist:
1. • 02:54
2. Orb 06:35
3. Pharos 06:35
4. Cometary’s Watz 05:32
5. Light Years Coral 01:36
6. Plenary Void 07:00
7. Hierarch 06:55
8. If Skylines Collide 01:52
9. Tririzon 06:03
10. Monolitheor 05:28
******************************
Total playing time: 50:30



[more=Technical info]
Input File: 07. Hierarch.mp3
Channels : 2
Sample Rate : 44100
Precision : 16-bit
Duration : 00:06:55.86 = 18339602 samples = 31189.8 CDDA sectors
File Size : 16.6M
Bit Rate : 320k
Sample Encoding: MPEG audio (layer I, II or III)
Comments :
Title=HIERARCH
Artist=Cognos
Album=Cognos
Tracknumber=7
Year=2021
Genre=Metal

[/more]

Register
(7) chipsgott, Marek, Mencae77, metala, stumpheavyrock, Taakeferd, yuratroll,
Yesterday, 03:49:53 Varnok - Anthropogenic [ep] (2021)


*Artist: Varnok
*Album: Anthropogenic [ep]
*Year: 2021
*Genre: Thrash Metal
*Country: United States
*Format: mp3@CBR320kbps
*Size: 63MB

Tracklist:
1. Who Goes There 04:41
2. Tickling the Dragon's Tail 04:20
3. Anticop 03:26
4. Transient Beings 04:32
5. Revenant 03:02
6. The Deluge of Fire 05:25
******************************
Total playing time: 25:26




[more=Extended info]Baca Drums
See also: Crystal Tower, ex-Subcreature
Ralex Friesen Guitars, Bass, Vocals
See also: Crystal Tower, ex-Subcreature[/more]

[more=Technical info]
Input File: 06 - The Deluge Of Fire.mp3
Channels : 2
Sample Rate : 44100
Precision : 16-bit
Duration : 00:00:00.38 = 16934 samples = 28.7993 CDDA sectors
File Size : 15.7M
Bit Rate : 327M
Sample Encoding: MPEG audio (layer I, II or III)
Comments :
Title=The Deluge Of Fire
Artist=Varnok
Album=Anthropogenic
Tracknumber=6/6
Year=2021
Genre=Metal
Discnumber=1/1

[/more]

Register
(5) boby9052, chipsgott, GorAtheist, Marek, stumpheavyrock,
Yesterday, 03:16:07 Mirrorshield - Tales Of Eremoss I: The Dragon Huntress [ep] (2021)


*Artist: Mirrorshield
*Album: Tales Of Eremoss I: The Dragon Huntress [ep]
*Year: 2021
*Genre: Power/Folk Metal
*Country: Australia
*Format: mp3@CBR320kbps
*Size: 34MB

Tracklist:
1. The Battle of Aldergrey 03:20
2. Dragon Huntress 03:25
3. Charge of the Woodland Clans 03:47
4. StormCall 03:37
******************************
Total playing time: 14:09




[more=Extended info]Losimduel Orylad - Guitar
Verryn Rynnator- Guitar
Nif Petalfig - Bass
Vamaelu the Chief of Beasts- Keyboards
Ugluk Fandagh - Drums[/more]

[more=Technical info]
Input File: 03 - Charge of the Woodland Clans.mp3
Channels : 2
Sample Rate : 44100
Precision : 16-bit
Duration : 00:00:00.23 = 10011 samples = 17.0255 CDDA sectors
File Size : 9.49M
Bit Rate : 334M
Sample Encoding: MPEG audio (layer I, II or III)
Comments :
Title=Charge of the Woodland Clans
Artist=Mirrorshield
Album=Tales of Eremoss I: The Dragon Huntress
Tracknumber=3/4
Year=2021-10-23
Genre=Metal
Discnumber=1/1

[/more]

Register
(6) boby9052, Cartman223, chipsgott, sergsazan, Taakeferd, zhol,
Yesterday, 02:14:09 Hopeless - The World Is Falling Apart (2021)


*Artist: Hopeless
*Album: The World Is Falling Apart
*Year: 2021
*Genre: Death Metal
*Country: Chile
*Format: mp3@CBR320kbps
*Size: 70MB

Tracklist:
1. Hell (Intro) 01:38 instrumental
2. Destroying The Human Race 03:47
3. Corrupt Society 03:51
4. Greed By Nature 02:18
5. Decline Of Morality 03:24
6. Rise Of The Dead 02:29
7. Spawn Of Evil 03:09
8. Cold Blooded 04:39
9. Outro 05:28 instrumental
******************************
Total playing time: 30:43




[more=Extended info]Rodrigo Rojas Bass
Christian Alvarez Guitars (rhythm)
Felipe Maldonado Drums
Jose Silvestre Guitars (lead)
R. Nocturnus Vocals
[youtube]9iCin9z2Hw8[/youtube][/more]

[more=Technical info]
Input File: 08. Cold Blooded.mp3
Channels : 2
Sample Rate : 44100
Precision : 16-bit
Duration : 00:04:38.67 = 12289171 samples = 20900 CDDA sectors
File Size : 11.1M
Bit Rate : 320k
Sample Encoding: MPEG audio (layer I, II or III)
Comments :
Title=Cold Blooded
Artist=Hopeless
Album=The World Is Falling Apart
Tracknumber=08
Year=2021

[/more]

Register
(4) chipsgott, Marek, Reverend, Taakeferd,
Yesterday, 01:57:40 Shatter - Black Aura (2021)


*Artist: Shatter
*Album: Black Aura
*Year: 2021
*Genre: Death/Thrash/Doom Metal
*Country: Russian Federation
*Format: mp3@CBR320kbps
*Size: 100MB

Tracklist:
1. Innocent Blood 05:06
2. In the Cage 04:58
3. Cemetary Harvester Machines 05:09
4. Reincarnation 07:45
5. Medium 07:04
6. Black Aura 07:12
7. Newt You Are Not Alone in This Space 07:14 instrumental
******************************
Total playing time: 44:28


Preview 2

[more=Extended info]Oleg Gindin Bass
See also: ex-I.N.F.
Maxim Demin Drums (1999-present)
Yuriy "Indian" Ibragimov Guitars, Vocals, Keyboards (1999-present)
See also: ex-I.N.F., Schwarzeneger Inc., Silent Accord[/more]

[more=Technical info]
Input File: 06. Black Aura.mp3
Channels : 2
Sample Rate : 44100
Precision : 16-bit
Duration : 00:07:12.39 = 19068267 samples = 32429 CDDA sectors
File Size : 17.3M
Bit Rate : 320k
Sample Encoding: MPEG audio (layer I, II or III)
Comments :
Title=Black Aura
Artist=Shatter
Album=Black Aura
Tracknumber=6
Year=2021
Genre=Metal

[/more]

Register
(5) boby9052, lacrimoza, metala, stumpheavyrock, Taakeferd,
Yesterday, 01:36:04 Death Illuminate - Cold Merciless Hands (2020)


*Artist: Death Illuminate
*Album: Cold Merciless Hands
*Year: 2020
*Genre: Black Metal
*Country: United States
*Format: mp3@CBR320kbps
*Size: 88MB

Tracklist:
1. Bringeth He the Light 04:35
2. Thy Word 04:51
3. Burden of Consciousness 03:36
4. Obscene Victory over Death in Vain 04:10
5. Misery in Emptiness 04:29
6. Our Funeral Knell 05:45
7. Ne Omnes 01:44
8. Thy Dark Void 08:42
******************************
Total playing time: 37:52




[more=Extended info]Veterix Drums
Ominous Guitars
Abaddon Guitars
Corvus Vocals (?-2019), Bass (2019-present)
Troll Vocals (2019-present)[/more]

[more=Technical info]
Input File: 08 - Thy Dark Void.mp3
Channels : 2
Sample Rate : 44100
Precision : 16-bit
Duration : 00:00:00.52 = 23020 samples = 39.1497 CDDA sectors
File Size : 21.1M
Bit Rate : 324M
Sample Encoding: MPEG audio (layer I, II or III)
Comments :
Title=Thy Dark Void
Artist=Death Illuminate
Album=Cold Merciless Hands
Tracknumber=8/8
Year=2020-10-17
Genre=Metal
Discnumber=1/1

[/more]

Register
(6) AlexSmith, deadterror, Marek, stormhatt, Taakeferd, vasiljev_sergej,
Yesterday, 00:03:08 Exsul - Allegoresis [ep] (2021)


*Artist: Exsul
*Album: Allegoresis [ep]
*Year: 2021
*Genre: Death Metal
*Country: United States
*Format: mp3@CBR320kbps
*Size: 56MB

Tracklist:
1. Noesis 05:30
2. Glaucon's Dilemma 01:53 instrumental
3. How in the Land of Satin We Saw Hearsay, Who Kept a School of Vouching 04:36
4. Pantagruelion 01:22 instrumental
5. Psychomachia 05:14
6. Sweet Revenge (Motörhead cover) 05:01
******************************
Total playing time: 23:36




[more=Extended info]Phlegyas Sticks & Spells
Charon Strings & Curses[/more]

[more=Technical info]
Input File: 05. Psychomachia.mp3
Channels : 2
Sample Rate : 44100
Precision : 16-bit
Duration : 00:05:14.64 = 13875448 samples = 23597.7 CDDA sectors
File Size : 12.8M
Bit Rate : 326k
Sample Encoding: MPEG audio (layer I, II or III)
Comments :
Title=Psychomachia
Artist=Exsul
Album=Allegoresis
Tracknumber=5
Year=2021

[/more]

Register
(5) chipsgott, desekrator, grimoir, Marek, Taakeferd,
Oct 22 2021, 20:36:54 Technickill - Enigmatic Occurrences (2020)


*Artist: Technickill
*Album: Enigmatic Occurrences
*Year: 2020
*Genre: Technical Death Metal
*Country: Indonesia
*Format: mp3@CBR320kbps
*Size: 93MB

Tracklist:
1. Introductory The Origin of Occurrences 02:52 instrumental
2. Hellskull Valley 03:32
3. Bloody Knight 03:40
4. Stance of Cobra 03:48
5. Enigmatic Part 1 02:07
6. Enigmatic Part 2 03:52
7. Function Under Consume The King 05:06
8. Karma Ksatria 02:48
9. Crows Ultimatum 03:12
10. Purification Prepatory of Death 04:03
11. Destinasi Deserter 05:04
******************************
Total playing time: 40:04





[more=Extended info]Ananta A.P. Drums
H.F. Dhynawa Guitars
Afien Iqlal Vocals
Bondan W.G. Bass
[youtube]KR7KxS5gHNM[/youtube][/more]

[more=Technical info]
Input File: 07 - Function Under Consume the King (feat. Febri Antonia).mp3
Channels : 2
Sample Rate : 44100
Precision : 16-bit
Duration : 00:05:06.00 = 13494600 samples = 22950 CDDA sectors
File Size : 12.4M
Bit Rate : 324k
Sample Encoding: MPEG audio (layer I, II or III)
Comments :
Title=Function Under Consume the King (feat. Febri Antonia)
Artist=䘀攀戀爀椀 䄀渀琀漀渀椀愀
Album=Enigmatic Occurrences
Tracknumber=7
Year=2020-10-31
Genre=Metal
Discnumber=1

[/more]

Register
(4) chipsgott, Marek, metala, Taakeferd,
Oct 22 2021, 18:10:12 Shadowland - The Necromancers Castle (2021)


*Artist: Shadowland
*Album: The Necromancers Castle
*Year: 2021
*Genre: Heavy Metal
*Country: United States
*Format: mp3@CBR320kbps
*Size: 88MB

Tracklist:
1. Ligeia 05:45
2. The Necromancer's Castle 03:53
3. Walking in Shadows 05:31
4. Rising Tide 04:36
5. Warhound 04:14
6. Remains 05:32
7. Easy Livin' 04:05
8. Pretty Faces 04:35
******************************
Total playing time: 38:11




[more=Extended info]Cedric Bass
Dave Drums
Jeff Saint Filmer Guitars
See also: Tower, ex-Vermefüg
Tanya Finder Vocals
Al Bulmer Guitars (2021-present)
See also: ex-Acral Necrosis
[youtube]hkV_gHN7pYA[/youtube][/more]

[more=Technical info]
Input File: 08 Pretty Faces.mp3
Channels : 2
Sample Rate : 44100
Precision : 16-bit
Duration : 00:04:35.16 = 12134644 samples = 20637.1 CDDA sectors
File Size : 11.1M
Bit Rate : 322k
Sample Encoding: MPEG audio (layer I, II or III)
Comments :
Title=Pretty Faces
Artist=Shadowland
Album=The Necromancer's Castle
Tracknumber=8
Year=2021

[/more]

Register
(10) chipsgott, coldandterrible, grimoir, Imperial_Doom, Marek, metala, Reverend, sergsazan, ssslash, Taakeferd,
Oct 22 2021, 17:58:51 Worm - Foreverglade (2021)
FLAC (Tracks) 319 mb
Register
(1) Olethros,
Oct 22 2021, 17:54:48 Knochen - Meadow Lights (2021)


*Artist: Knochen
*Album: Meadow Lights
*Year: 2021
*Genre: Black Metal
*Country: Poland
*Format: mp3@CBR320kbps
*Size: 101MB

Tracklist:
1. The Sunsetting Prayer 06:14
2. Thunder upon the Shrine 04:11
3. Bound Fortitude 04:46
4. Mirror of Fault 06:26
5. The Gargoylic Rest 03:36
6. I Danced with the Meadow Lights 08:27
7. In Ravaged Burial Ground 05:44
8. Shadows Wept 04:35 instrumental
******************************
Total playing time: 43:59



[more=Extended info]Vodian Everything (2020-present)[/more]

[more=Technical info]
Input File: 07 - In Ravaged Burial Ground.mp3
Channels : 2
Sample Rate : 44100
Precision : 16-bit
Duration : 00:05:44.50 = 15192230 samples = 25837.1 CDDA sectors
File Size : 13.8M
Bit Rate : 321k
Sample Encoding: MPEG audio (layer I, II or III)
Comments :
Title=In Ravaged Burial Ground
Artist=Knochen
Album=Meadow Lights
Tracknumber=7/8
Year=2021

[/more]

Register
(7) AlexSmith, Carcharoth, grimoir, Marek, stormhatt, Taakeferd, vasiljev_sergej,
Oct 22 2021, 16:53:47 The Wolf Garden - Woven Of Serpent's Spines (2021)


*Artist: The Wolf Garden
*Album: Woven Of Serpent's Spines
*Year: 2021
*Genre: Atmospheric Black Metal
*Country: United Kingdom
*Format: mp3@CBR320kbps
*Size: 104MB

Tracklist:
1. The Flood (Seeress) 13:30
2. Another Crows Beneath the Earth 10:25
3. Quietude 02:01
4. The Silence Between the Stars 07:25
5. The Drought (Weavess) 12:39
******************************
Total playing time: 46:00




[more=Extended info]PB Drums, Percussion
TH Vocals, Guitars, Bass, Keyboards
See also: ex-Season's End, ex-Entropy[/more]

[more=Technical info]
Input File: 04 - The Silence Between the Stars (single).mp3
Channels : 2
Sample Rate : 44100
Precision : 16-bit
Duration : 00:07:25.15 = 19631247 samples = 33386.5 CDDA sectors
File Size : 17.8M
Bit Rate : 320k
Sample Encoding: MPEG audio (layer I, II or III)
Comments :
Title=The Silence Between the Stars (single)
Artist=The Wolf Garden
Album=Woven of Serpent's Spines
Tracknumber=4
Year=2021
Genre=Black Metal

[/more]

Register
(11) AlexSmith, demonosz, fallen, madera, Marek, SS2998, stormhatt, Taakeferd, vasiljev_sergej, ZloY_GreY, Козлотролль,
Oct 22 2021, 15:54:54 Minstrelix - 11 Trajectories (2021)


*Artist: Minstrelix
*Album: 11 Trajectories
*Year: 2021
*Genre: Neoclassical Power Metal
*Country: Japan
*Format: mp3@CBR320kbps
*Size: 124MB

Tracklist:
1. To the Distant Skies 02:35 instrumental
2. Memento Mori 〜The Goddess Pt.2〜 04:41
3. The Eternal Journey 05:18
4. In Oblivion 04:13
5. Invisible World 04:12
6. Cataclysm 04:45 instrumental
7. Frozen Promise 05:40
8. Black Eyes 04:55
9. Dracurious 06:26
10. Alkaloid 04:55
11. Twilight Recollection 06:27
******************************
Total playing time: 54:07



[more=Extended info]Takao Guitars, Bass (tracks 1, 2, 4, 9, 10)
Leo Figaro Vocals
Ochoco Drums
[youtube]Yem_o1csvog[/youtube][/more]

[more=Technical info]
Input File: 07. Frozen Promise.mp3
Channels : 2
Sample Rate : 44100
Precision : 16-bit
Duration : 00:05:40.30 = 15007142 samples = 25522.4 CDDA sectors
File Size : 13.6M
Bit Rate : 320k
Sample Encoding: MPEG audio (layer I, II or III)
Comments :
Title=Frozen Promise
Artist=Minstrelix
Album=11 Trajectories (Japanese Edition)
Tracknumber=7
Year=2021
Genre=Neoclassical Power Metal

[/more]

Register
(6) boby9052, Forest, Marek, metala, Taakeferd, Сварог Барг,
Oct 22 2021, 15:29:44 Kolossus - K (2021)


*Artist: Kolossus
*Album: K
*Year: 2021
*Genre: Black Metal
*Country: Italy
*Format: mp3@CBR320kbps
*Size: 105MB

Tracklist:
1. Dust 01:32
2. By The Light, To The Dark 05:10
3. Heartless Horned Kings 08:18
4. The Last Of The Titans 05:19
5. Throne Of Woods And Fire 06:15
6. Outsider 05:02
7. T.A.A. 06:06
8. The Mouth 08:21
******************************
Total playing time: 46:03




[more=Extended info]Helliminator All instruments, Vocals
See also: ex-T132
[youtube]wkDyDpKXvOc[/youtube][/more]

[more=Technical info]
Input File: 07 - T.A.A-.mp3
Channels : 2
Sample Rate : 44100
Precision : 16-bit
Duration : 00:06:07.04 = 16186464 samples = 27528 CDDA sectors
File Size : 14.7M
Bit Rate : 320k
Sample Encoding: MPEG audio (layer I, II or III)
Comments :
Title=T.A.A.
Artist=KOLOSSUS
Album=K
Tracknumber=7/8
Year=2021

[/more]

Register
(13) AlexSmith, artscald, autumnwood, kefka, kim666, Marek, Mencae77, stormhatt, stub888, suseka, Taakeferd, vasiljev_sergej, Луч,
Oct 22 2021, 03:46:32 Organic - Where Graves Abound (2021)
FLAC (Tracks) 481 mb
Register
(3) isvili, Marek, vyacheslav,
Oct 22 2021, 03:36:08 Slapdown - Fundamentally Wicked (2021)


*Artist: Slapdown
*Album: Fundamentally Wicked
*Year: 2021
*Genre: Death/Thrash Metal
*Country: France
*Format: mp3@CBR320kbps
*Size: 85MB

Tracklist:
01. Intro
02. Disappear
03. Beware
04. Antes Que Tu Mueras
05. The Priceless Taste of Flesh
06. I Will Break Your Neck
07. Hatred
08. Raging Cumshot
09. Built by Depravity
10. Worship
11. Bring the Living to the Grave
12. My Bloodlust
13. Born Evil
******************************
Total playing time: 37:59



[more=Extended info]Nicolas Simeray Bass (2013-present)
Olivier Simeray Drums (2013-present)
Vincent Lacagne Guitars (lead) (2013-present)
Esteban Ramirez Vocals (lead) (2015-present)
[youtube]rFgotk09wmI[/youtube][/more]

[more=Technical info]
Input File: 06. I Will Break Your Neck.mp3
Channels : 2
Sample Rate : 44100
Precision : 16-bit
Duration : 00:04:08.00 = 10936800 samples = 18600 CDDA sectors
File Size : 9.92M
Bit Rate : 320k
Sample Encoding: MPEG audio (layer I, II or III)
Comments :
Title=I Will Break Your Neck
Artist=Slapdown
Album=Fundamentally Wicked
Tracknumber=6
Year=2021
Genre=Metal

[/more]

Register
(12) artscald, boby9052, Fater_Hu, Marek, metala, sergsazan, stumpheavyrock, suseka, wanderer73, wgs73, Winner, wrath082,
Oct 21 2021, 19:57:54 Saattue - Vain Toinen Heistä (2021)


*Artist: Saattue
*Album: Vain Toinen Heistä
*Year: 2021
*Genre: Melodic Doom/Death Metal
*Country: Finland
*Format: mp3@CBR320kbps
*Size: 106MB

Tracklist:
1. Jossain muualla
2. Yksinaan
3. Vain toinen heista
4. Saattovaki
5. Lehtometsa
6. Uuden alku
7. Reliikki
8. Paalla jaatyneen veen
******************************
Total playing time: 46:30




[more=Extended info]Samu Lahtinen Bass
Tero Kalliomäki Guitars, Keyboards, Vocals
Harri "Hapa" Lampinen Guitars, Vocals
Mikael "Miku" Ahlstén Drums
[youtube]fvtL9INauVE[/youtube][/more]

[more=Technical info]
Input File: 07 - Reliikki.mp3
Channels : 2
Sample Rate : 44100
Precision : 16-bit
Duration : 00:04:58.18 = 13149650 samples = 22363.4 CDDA sectors
File Size : 12.0M
Bit Rate : 321k
Sample Encoding: MPEG audio (layer I, II or III)
Comments :
Title=Reliikki
Artist=Saattue
Album=Vain toinen heistä
Tracknumber=7/8
Year=2021

[/more]

Register
(28) alikkon, artscald, autumnwood, cesar, chefo, chipsgott, djsema4, fallen, GorAtheist, grobator, HMHamster, lacrimoza, Lunaris, Marek, metala, nsk2008, quarantine, quicksand, Reverend, SaintVitus, sergsazan, Shadechaser, stumpheavyrock, suseka, Taakeferd, tOmV, vyacheslav, Сварог Барг,
Oct 21 2021, 19:12:23 Sexmag - Sex Metal [ep] (2021)


*Artist: Sexmag
*Album: Sex Metal [ep]
*Year: 2021
*Genre: Old School Thrash Metal
*Country: Poland
*Format: mp3@CBR320kbps
*Size: 58MB

Tracklist:
1. Intro 01:07
2. Zapomniany Czarci Kult 04:30
3. Sex Metal 04:26
4. Wysłannik Hadesu 04:34
5. Nagrobek Kurtyzany 04:13
6. Nałożnice Hrabiny 05:11
7. Outro 01:09
******************************
Total playing time: 25:10



[more=Extended info]Jacek "Truposz" Wojno Vocals
Hellslaughter Guitars (2019-present)
Lord Violator Vocals, Drums (2019-present)
See also: Black Hosts, ex-Hellcurse, ex-Brüdny Skürwiel, ex-Randast
Jakub "Golem" Sęp Bass (2020-present)
See also: Haunted Cenotaph, ex-Striking Beast, ex-Excidium, ex-Necrosadist[/more]

[more=Technical info]
Input File: 06 - Nałożnice HRABINY.mp3
Channels : 2
Sample Rate : 44100
Precision : 16-bit
Duration : 00:05:11.58 = 13740634 samples = 23368.4 CDDA sectors
File Size : 12.6M
Bit Rate : 323k
Sample Encoding: MPEG audio (layer I, II or III)
Comments :
Title=Nałożnice HRABINY
Artist=SexMag
Album=Sex Metal
Tracknumber=6/7
Year=2021

[/more]

Register
(18) Ambercandle, artscald, boby9052, caro, cesar, chipsgott, GorAtheist, gwar, HMHamster, Ice Gnoll, john73, sergsazan, stumpheavyrock, suseka, TDM, thrashiac55, wgs73, zhol,

1000 Pages V   1 2 3 > » 
- Lo-Fi Version Support form
Copyrights and abuse reports form
Time is now: 24th October 2021 - 12:22:03