Welcome Guest ( Log In | Register )

История благодарностей участнику Samaritianin ::: Спасибо сказали: 364586 раз(а)
Дата поста: В теме: За сообщение: Спасибо сказали:
Today, 17:46:09 Malformity - Monumental Ruin (2021)
FLAC (Tracks) 381 mb
Register
(1) Marek,
Today, 16:40:50 Zergeyth - Nyt (2021)


*Artist: Zergeyth
*Album: Nyt
*Year: 2021
*Genre: Atmospheric Black/Folk Metal
*Country: Russian Federation
*Format: mp3@CBR320kbps
*Size: 134MB

Tracklist:
1. Pohatterit Betonikoropoista 05:13
2. Enkä Jakša Kaččuo Muuvvalla 08:59
3. 1187: Hyväšti, Sigtuna! 04:07
4. Lähemmä, Ka Tulemma 08:10
5. Vuosi Vapautta 04:08
6. Paukeh 08:21
7. Ajatella Toisin Šanoin 05:31
8. Kunne Šie Viet Miun Meččyä?! 06:03
9. Repriisi 05:08 instrumental
10. Kriminaliverkošto (Ennio Morricone cover) 02:28 instrumental
******************************
Total playing time: 58:08



Preview 3

[more=Extended info]Serg Everything
See also: Repus Tuto Matos[/more]

[more=Technical info]
Input File: 07 - Ajatella Toisin Šanoin.mp3
Channels : 2
Sample Rate : 44100
Precision : 16-bit
Duration : 00:05:31.00 = 14597100 samples = 24825 CDDA sectors
File Size : 13.4M
Bit Rate : 324k
Sample Encoding: MPEG audio (layer I, II or III)
Comments :
Title=Ajatella Toisin Šanoin
Artist=Zergeyth
Album=Nyt
Tracknumber=7
Year=2021-04-11
Discnumber=1

[/more]

Register
(5) AlexSmith, Fater_Hu, robertho777, varlam4, Сварог Барг,
Today, 16:26:47 Strike - Fast & Loud (2020)


*Artist: Strike
*Album: Fast & Loud
*Year: 2020
*Genre: Speed Metal/Punk
*Country: Colombia
*Format: mp3@CBR320kbps
*Size: 61MB

Tracklist:
1. Intro (Trouble) 02:39
2. Live Fast, Die Drunk 03:36
3. Mi decadencia 04:16
4. Siglos de miseria 03:53
5. Street Rock n' Rollers 03:10
6. Daughter of Satan 04:10
7. Destroy! 04:02
******************************
Total playing time: 25:46




[more=Extended info]Sebastian Muñoz Bass, Vocals (backing)
Santiago Pérez Drums, Guitars, Vocals (lead)[/more]

[more=Technical info]
Input File: 07 - Destroy!.mp3
Channels : 2
Sample Rate : 44100
Precision : 16-bit
Duration : 00:04:02.00 = 10672200 samples = 18150 CDDA sectors
File Size : 9.94M
Bit Rate : 328k
Sample Encoding: MPEG audio (layer I, II or III)
Comments :
Title=Destroy!
Artist=Strike
Album=Fast & Loud
Tracknumber=7
Year=2020-07-06
Discnumber=1

[/more]

Register
(5) andreikun, cesar, HMHamster, stumpheavyrock, suseka,
Today, 16:06:25 Heaven Can Wait - Some Prays Just Go Unheard (2021)


*Artist: Heaven Can Wait
*Album: Some Prays Just Go Unheard
*Year: 2021
*Genre: Melodic Death/Doom Metal
*Country: Portugal
*Format: mp3@CBR320kbps
*Size: 64MB

Tracklist:
1. Heal This Curse 05:18
2. Emptyness 04:09
3. Psychological Pain 04:53
4. Take It Back 04:10
5. Some Prays Just Go Unheard 06:44
6. With The Dead 03:07
******************************
Total playing time: 28:21




[more=Extended info]Carlos Barreto Bass
Georgino Capelo Drums
See also: Vulcanus, ex-Extreme Attitude, ex-Karnak Seti
Bruno Guitars, Vocals
See also: Vulcanus, ex-Disfigured, ex-Psychological Pain
[youtube]ID1v8u_Y2Qo[/youtube][/more]

[more=Technical info]
Input File: 05 - Some Prays Just Go Unheard.mp3
Channels : 2
Sample Rate : 44100
Precision : 16-bit
Duration : 00:07:05.38 = 18759170 samples = 31903.4 CDDA sectors
File Size : 17.0M
Bit Rate : 320k
Sample Encoding: MPEG audio (layer I, II or III)
Comments :
Title=Some Prays Just Go Unheard
Artist=Heaven Can Wait
Album=Some Prays Just Go Unheard
Tracknumber=5
Year=2021

[/more]

Register
(3) HMHamster, Marek, stumpheavyrock,
Today, 15:31:27 Sick Violence - Hegemonía De La Decadencia Humana (2021)


*Artist: Sick Violence
*Album: Hegemonía De La Decadencia Humana
*Year: 2021
*Genre: Black/Thrash Metal
*Country: Chile
*Format: mp3@CBR320kbps
*Size: 67MB

Tracklist:
1. Desintegración
2. En resistencia
3. Insignificante a los ojos de la muerte
4. Recalcitrante ilusión
5. Hegemonía de la decadencia humana
6. Retrato de una muerte silenciosa
7. Quimeras de libertad
8. Transmutación
******************************
Total playing time: 29:25





[more=Extended info]Black Death Guitars
See also: Maledictum, Motosierra, ex-Miserycore, ex-Genocide
Thrash Mayhem Vocals, Guitars
Destripador Siniestro Bass (2012-2019), Guitars (2019-present)
See also: Deathxecutor, Trepanación, Tripas (live), ex-Nightmare (live), ex-Metal Invocation, ex-Velatorio, ex-Feretrum
Mauricio Arredondo Drums (2015-present)
See also: Ametralladora, Reus, ex-Nightmare
Duncan Arancibia Bass (2019-present)
See also: Motosierra, Opossitor
[youtube]Yr39srU5J4c[/youtube][/more]

[more=Technical info]
Input File: 07 - Quimeras de Libertad.mp3
Channels : 2
Sample Rate : 44100
Precision : 16-bit
Duration : 00:04:32.45 = 12015001 samples = 20433.7 CDDA sectors
File Size : 10.9M
Bit Rate : 320k
Sample Encoding: MPEG audio (layer I, II or III)
Comments :
Title=Quimeras de Libertad
Artist=Sick Violence
Album=Hegemonía de la Decadencia Humana
Tracknumber=7
Year=2021

[/more]

Register
(7) AlexSmith, atavist, cesar, judaz, METALHUNTER, stumpheavyrock, varlam4,
Today, 15:02:33 Nordsind - Lys (2021)


*Artist: Nordsind
*Album: Lys
*Year: 2021
*Genre: Atmospheric Post-Black Metal/Rock/Instrumental
*Country: Denmark
*Format: mp3@CBR320kbps
*Size: 104MB

Tracklist:
1. Io 05:35
2. Portræt I Skygger 04:34
3. Når Himlen Falder, Kommer Lyset Tættere På 05:58
4. Drømmefanger 06:34
5. Mørke 04:31
6. For Evigt Forblændet 06:39
7. Midnatssol 07:34
8. Ilddåb 04:29
******************************
Total playing time: 45:54




[more=Technical info]
Input File: 07 - Midnatssol.mp3
Channels : 2
Sample Rate : 44100
Precision : 16-bit
Duration : 00:07:34.91 = 20061531 samples = 34118.2 CDDA sectors
File Size : 18.2M
Bit Rate : 320k
Sample Encoding: MPEG audio (layer I, II or III)
Comments :
Title=Midnatssol
Artist=Nordsind
Album=Lys
Tracknumber=7
Year=2021
Genre=Metal

[/more]

Register
(5) craP_cillA, razor7, suseka, varlam4, zemlemer,
Today, 13:57:30 Gexerott - Hallucinetic Violet Ignition (2021)


*Artist: Gexerott
*Album: Hallucinetic Violet Ignition
*Year: 2021
*Genre: Black Metal
*Country: Colombia
*Format: mp3@CBR320kbps
*Size: 85MB

Tracklist:
1. Ain
2. Hallucinetic Violet Ignition
3. Ain Soph
4. EgoKinesis
5. Ketagnosis
6. Obnubilado
7. Threshold of Crystal Maze
8. Ain Soph Aur
9. Inseminated
******************************
Total playing time: 37:38




[more=Extended info]Umbræ Drums
Mald'Aurore Guitars (rhythm)
תְּהוֹם Bass
S. Morkvis Guitars
KXI Vocals
[youtube]Fyo-Rg5nAYc[/youtube]
[youtube]lNqCs75b75o[/youtube]
[youtube]NhK-2gWFbIk[/youtube]
[youtube]PPwO_udASjk[/youtube][/more]

[more=Technical info]
Input File: 07 - Threshold Of Crystal Maze.mp3
Channels : 2
Sample Rate : 44100
Precision : 16-bit
Duration : 00:07:36.00 = 20109600 samples = 34200 CDDA sectors
File Size : 18.2M
Bit Rate : 320k
Sample Encoding: MPEG audio (layer I, II or III)
Comments :
Title=Threshold Of Crystal Maze
Artist=Gexerott
Album=Hallucinetic Violet Ignition
Tracknumber=7
Year=2021
Genre=Black Metal

[/more]

Register
(10) AlexSmith, atavist, isvili, Mencae77, razor7, suseka, SyncestrA, tim47, varlam4, yuratroll,
Today, 13:23:27 Malformity - Monumental Ruin (2021)


*Artist: Malformity
*Album: Monumental Ruin
*Year: 2021
*Genre: Old School Death Metal
*Country: United States
*Format: mp3@CBR320kbps
*Size: 133MB

Tracklist:
1. And I Beheld... 01:23
2. Perverse Apotheosis 04:30
3. Facemelt Bloodgrinder 05:39
4. Into Ruin 05:26
5. Monument to Decay 04:55
6. Degenerative Sequences 03:26
7. Immolated Archetype 05:28
8. False Dichotomy 05:13
9. Lost Necropolis 05:11
10. Lifeless Mindless 03:30
11. In Corrosion 05:06
12. Rapturous Damnation 04:23
13. Unraveling 04:23
******************************
Total playing time: 58:33





[more=Extended info]Eric Snodgrass Bass, Vocals
Dan Ratanasit Guitars, Vocals
Craig Vogel Drums
Glenn Sykes Guitars
[youtube]xUB3W418M28[/youtube][/more]

[more=Technical info]
Input File: 07 - Immolated Archetype.mp3
Channels : 2
Sample Rate : 44100
Precision : 16-bit
Duration : 00:05:27.81 = 14456201 samples = 24585.4 CDDA sectors
File Size : 13.1M
Bit Rate : 320k
Sample Encoding: MPEG audio (layer I, II or III)
Comments :
Title=Immolated Archetype
Artist=Malformity
Album=Monumental Ruin
Tracknumber=7
Year=2021

[/more]

Register
(7) andreikun, judaz, Mist13Signifier, older68, stumpheavyrock, wanderer73, zhol,
Today, 12:45:48 Invigorator - The Age Of Eternity [ep] (2020)


*Artist: Invigorator
*Album: The Age Of Eternity [ep]
*Year: 2020
*Genre: Thrash Metal
*Country: United States
*Format: mp3@CBR320kbps
*Size: 49MB

Tracklist:
1. The Unforgiving Sea 06:00
2. Age of Eternity 04:48
3. Reaching Ataraxia 02:58
4. Divine Serpent 07:29
******************************
Total playing time: 21:15



[more=Extended info]Jason Martinez Bass (2020-present)
Zachary Alder Guitars (lead), Vocals (2020-present)
Austin Medina Drums (2021-present)
John McDonald Guitars (rhythm) (2021-present)[/more]

[more=Technical info]
Input File: 04 Divine Serpent.mp3
Channels : 2
Sample Rate : 44100
Precision : 16-bit
Duration : 00:07:29.62 = 19828154 samples = 33721.4 CDDA sectors
File Size : 18.1M
Bit Rate : 322k
Sample Encoding: MPEG audio (layer I, II or III)
Comments :
Title=Divine Serpent
Artist=Invigorator
Album=The Age of Eternity
Tracknumber=4
Year=2020

[/more]

Register
(4) HMHamster, Marek, stumpheavyrock, varlam4,
Today, 12:40:12 Invigorator - State Of Our Union [ep] (2021)


*Artist: Invigorator
*Album: State Of Our Union [ep]
*Year: 2021
*Genre: Thrash Metal
*Country: United States
*Format: mp3@CBR320kbps
*Size: 40MB

Tracklist:
1. Schizo 01:20
2. Polarity 05:59
3. As The World Goes Black 04:57
4. State of Our Union 05:03
******************************
Total playing time: 17:19



[more=Extended info]Jason Martinez Bass (2020-present)
Zachary Alder Guitars (lead), Vocals (2020-present)
Austin Medina Drums (2021-present)
John McDonald Guitars (rhythm) (2021-present)[/more]

[more=Technical info]
Input File: 02 - Polarity.mp3
Channels : 2
Sample Rate : 44100
Precision : 16-bit
Duration : 00:05:59.00 = 15831900 samples = 26925 CDDA sectors
File Size : 14.5M
Bit Rate : 322k
Sample Encoding: MPEG audio (layer I, II or III)
Comments :
Title=Polarity
Artist=Invigorator
Album=State of Our Union
Tracknumber=2
Year=2021-04-15
Genre=Metal
Discnumber=1

[/more]

Register
(4) HMHamster, Marek, stumpheavyrock, varlam4,
Today, 09:19:17 Ankhara - Premonición (2021)


*Artist: Ankhara
*Album: Premonición
*Year: 2021
*Genre: Power Metal
*Country: Spain
*Format: mp3@CBR320kbps
*Size: 92MB

Tracklist:
1. Huida 03:39
2. Lentamente 03:59
3. Esperando en la eternidad 04:07
4. Levantar mi alma 04:33
5. Tu revolución 04:12
6. Otra vez 04:20
7. Sin suplicar 03:43
8. Senderos de Espinas 02:54
9. Da la cara 04:23
10. El cazador 04:13
******************************
Total playing time: 40:03



[more=Extended info]Sergio Martínez Bass (1995-2003, 2013-present)
See also: Bürdel King, Tete Novoa, Rafa Blas (live), ex-Mägo de Oz, ex-Zero3iete, ex-Wayland, ex-Belfast, ex-Mr. Rock
Cecilio Sánchez Guitars (1995-2004, 2013-present)
See also: Tequila Sunrise, ex-Mägo de Oz (live), ex-Sibila (live)
Alberto Marín Guitars (1995-1999, 2013-present)
See also: ex-Kaothic, ex-Hamlet, ex-Avulsed (live), ex-Bürdel King, ex-Skunk D.F.
Pacho Brea Vocals (lead) (1995-2004, 2013-present)
See also: Herética, Pacho Brea, ex-Hybris, ex-Megara, ex-Knell Odyssey (live), ex-Sepulcro, ex-Diabólica, ex-Mysteria
Matías de Vallejo Drums (2017-present)
See also: Undead, Zero3iete, Dulcamara, Gizëh, ex-Unicornia, ex-Frozen (live), ex-Kaothic (live), Voces del Rock, Rafa Blas (live), ex-Lords of Black (live), ex-Neohunters, ex-Tregua Eterna
[youtube]eZ-xF_2z3p0[/youtube]
[youtube]fUod_kS7FW4[/youtube][/more]

[more=Technical info]
Input File: 09 - Da La Cara.mp3
Channels : 2
Sample Rate : 44100
Precision : 16-bit
Duration : 00:04:23.83 = 11634815 samples = 19787.1 CDDA sectors
File Size : 10.6M
Bit Rate : 320k
Sample Encoding: MPEG audio (layer I, II or III)
Comments :
Title=Da La Cara
Artist=Ankhara
Album=Premonición
Tracknumber=9
Year=2021

[/more]

Register
(3) HMHamster, varlam4, Сварог Барг,
Today, 09:02:42 The Summon - The Reckoning (2021)


*Artist: The Summon
*Album: The Reckoning
*Year: 2021
*Genre: Black/Doom/Death Metal
*Country: Mexico
*Format: mp3@CBR320kbps
*Size: 102MB

Tracklist:
1. Intro 02:34
2. The Reckoning 04:18
3. Cleansing 05:38
4. Acteal Massacre 05:33
5. Burned Alive 06:39
6. Agony 06:55
7. This Is the Total War 05:15
8. Kingdom of Madness 07:57
******************************
Total playing time: 44:49



[more=Extended info]Carlos Muñiz Garcia Everything
See also: Dance Now Bitch, Thelema Code (live), ex-Extinción Cerebral (live), ex-Rain Shatter (live), ex-Open Mind Chakra
[youtube]aGPwS8_fxUg[/youtube][/more]

[more=Technical info]
Input File: 07 - This Is the Total War.mp3
Channels : 2
Sample Rate : 44100
Precision : 16-bit
Duration : 00:05:15.06 = 13894014 samples = 23629.3 CDDA sectors
File Size : 12.6M
Bit Rate : 320k
Sample Encoding: MPEG audio (layer I, II or III)
Comments :
Title=This Is the Total War
Artist=The Summon
Album=The Reckoning
Tracknumber=7
Year=2021

[/more]

Register
(2) AlexSmith, varlam4,
Yesterday, 16:45:51 Riivaus - Hehkumaton (2021)


*Artist: Riivaus
*Album: Hehkumaton
*Year: 2021
*Genre: Black Metal
*Country: Finland
*Format: mp3@CBR320kbps
*Size: 71MB

Tracklist:
1. I 01:37 instrumental
2. II 04:48
3. III 04:32
4. IV 06:19
5. V 02:33
6. VI 05:35
7. VII 05:41
******************************
Total playing time: 31:05



[more=Extended info]Hoath Daemnator All instruments, Vocals
See also: Abbashaitan, Foedus, Herr der Qual, Nôidva, Rodent Epoch, Sacrificium Carmen, The Watcher, Wömit Angel, ex-Araqiel
[youtube]O2h4YMbJ4pU[/youtube]
[youtube]mrpTaNL8qyM[/youtube][/more]

[more=Technical info]
Input File: 06 - VI.mp3
Channels : 2
Sample Rate : 44100
Precision : 16-bit
Duration : 00:05:36.79 = 14852439 samples = 25259.2 CDDA sectors
File Size : 13.5M
Bit Rate : 320k
Sample Encoding: MPEG audio (layer I, II or III)
Comments :
Title=VI
Artist=Riivaus
Album=Hehkumaton
Tracknumber=6
Year=2021
Genre=Black Metal

[/more]

Register
(12) AlexSmith, atavist, craP_cillA, Fater_Hu, judaz, Lucju, Marek, murian, robertho777, sabr, suseka, varlam4,
Yesterday, 15:23:21 Fear Factory - Disruptor [single] (2021)
Облога прям фирмовая для сингла! 15.gif
попырил?))
(2) cesar, infiltrator,
Yesterday, 15:07:35 Crypts Of Despair - All Light Swallowed (2021)
FLAC (Tracks) 302 mb
Register
(2) infiltrator, Marek,
Yesterday, 14:01:00 Thos Ælla - Abnegation Psalms (2021)


*Artist: Thos Ælla
*Album: Abnegation Psalms
*Year: 2021
*Genre: Death/Black Metal
*Country: United States
*Format: mp3@CBR320kbps
*Size: 86MB

Tracklist:
1. Ascending Temple 05:48
2. Unbroken Seal, Unbroken Circle 05:15
3. A Serpent In The Violet Of Dusk 04:52
4. Her Eyes Within The Orchid 04:39
5. A Smoldering Ember In The Ashes Of... 01:27
6. An Empire Of Order (Silver Twilight...Golden Dawn) 04:45
7. Upon The Throne Of Nethermost Blasphemies 04:35
8. Abnegation Psalms 08:11
******************************
Total playing time: 39:32



[more=Extended info]FLAC-Rip
Ghoul Everything (2020-present)
See also: Apocryphetic, Father Befouled, ex-Abyssion[/more]

[more=Technical info]
Input File: 08 - Abnegation Psalms.mp3
Channels : 2
Sample Rate : 44100
Precision : 16-bit
Duration : 00:06:37.35 = 17523003 samples = 29801 CDDA sectors
File Size : 15.9M
Bit Rate : 320k
Sample Encoding: MPEG audio (layer I, II or III)
Comments :
Title=Abnegation Psalms
Artist=Thos Aella
Album=Abnegation Psalms
Tracknumber=8
Year=2021

[/more]

Register
(4) AlexSmith, atavist, Spork, varlam4,
Yesterday, 13:41:47 Moanaa - Embers (2021)


*Artist: Moanaa
*Album: Embers
*Year: 2021
*Genre: Post-Metal
*Country: Poland
*Format: mp3@CBR320kbps
*Size: 91MB

Tracklist:
1. Nothing 07:17
2. Lie 09:05
3. Triad 07:28
4. Inflexion 06:51
5. Expire 03:53
6. Embers 05:43
******************************
Total playing time: 40:17




[more=Extended info]Łukasz 'cHooDy' Kursa Guitars
K-vass Vocals
Łukasz Tomiczek Bass
Kamil Gębala Drums
Maciej Kosarz Guitars[/more]

[more=Technical info]
Input File: 06 - Embers.mp3
Channels : 2
Sample Rate : 44100
Precision : 16-bit
Duration : 00:05:43.35 = 15141691 samples = 25751.2 CDDA sectors
File Size : 13.7M
Bit Rate : 320k
Sample Encoding: MPEG audio (layer I, II or III)
Comments :
Title=Embers
Artist=Moanaa
Album=Embers
Tracknumber=6
Year=2021

[/more]

Register
(12) aleon, chipsgott, gena, HMHamster, infiltrator, Marek, Ostinato, pahail, razor7, Tino, wtk.412, yuratroll,
Yesterday, 13:32:34 Plaguepreacher - Terracide [ep] (2021)


*Artist: Plaguepreacher
*Album: Terracide [ep]
*Year: 2021
*Genre: Black/Thrash Metal
*Country: Germany
*Format: mp3@CBR320kbps
*Size: 65MB

Tracklist:
1. Abhorrent Beast 06:33
2. Destroyers of Light 05:52
3. A World Forlorn 04:44
4. Terracide 05:10
5. Finis Coronat Opus 05:35
******************************
Total playing time: 27:54




[more=Extended info]Ahraman Bass
See also: Inferi
Aeshma Daeva Drums
See also: Aeshma Daeva, ex-Kharnath
Pandemaniac Guitars
See also: Stormrage, Voidstalker, ex-Nuklear Disaster
VX Vocals
[youtube]HoPE9d4rKnM[/youtube][/more]

[more=Technical info]
Input File: 04 - Terracide.mp3
Channels : 2
Sample Rate : 44100
Precision : 16-bit
Duration : 00:05:10.00 = 13671000 samples = 23250 CDDA sectors
File Size : 12.6M
Bit Rate : 324k
Sample Encoding: MPEG audio (layer I, II or III)
Comments :
Title=Terracide
Artist=Plaguepreacher
Album=Terracide
Tracknumber=4
Year=2021-04-16
Genre=Metal
Discnumber=1

[/more]

Register
(15) boby9052, caro, craP_cillA, infiltrator, Marek, metala, razor7, sergsazan, sludge666, stumpheavyrock, TeamatSE, varlam4, vasiljev_sergej, wanderer73, wgs73,
Yesterday, 12:58:27 Black Sigma - Lost (2021)


*Artist: Black Sigma
*Album: Lost
*Year: 2021
*Genre: Atmospheric Post-Black Metal
*Country: Belgium
*Format: mp3@CBR320kbps
*Size: 98MB

Tracklist:
1. Redeemed of Life 05:36
2. Dying Sun 04:59
3. Always Alone 05:20
4. Drowned in Black 07:02
5. Lost 05:44
6. Awake 06:36
7. Apocalypse 3.0 05:06
8. Desolation 02:12
******************************
Total playing time: 42:35




[more=Extended info]Occulta All instruments, Vocals (2020-present)
See also: ex-Avatar, ex-The Avatar, ex-Grinning Ghoul[/more]

[more=Technical info]
Input File: 06 - Awake.mp3
Channels : 2
Sample Rate : 44100
Precision : 16-bit
Duration : 00:06:36.00 = 17463600 samples = 29700 CDDA sectors
File Size : 16.0M
Bit Rate : 323k
Sample Encoding: MPEG audio (layer I, II or III)
Comments :
Title=Awake
Artist=Black Sigma
Album=Lost
Tracknumber=6
Year=2021
Discnumber=1

[/more]

Register
(25) 6666666, aleon, AlexSmith, alikkon, andeimon, isvili, kimkayoung, Korpse, Krosis, Lukittaz, Marek, Mencae77, metala, Olrak, ripper33, robertho777, russ777, sabr, SaintVitus, Sanctus, sergsazan, suseka, VALERY, varlam4, vasiljev_sergej,
Yesterday, 12:48:52 Ande - Bos (2021)


*Artist: Ande
*Album: Bos
*Year: 2021
*Genre: Atmospheric Black Metal
*Country: Belgium
*Format: mp3@CBR320kbps
*Size: 127MB

Tracklist:
1. De messentrekker 07:08
2. Het broek 06:12
3. Vogelvlucht 09:35
4. Ransuilen 07:31
5. De bierteller 03:19
6. Mijn hart 05:52
7. Achter de bomen 08:59
8. Het afscheid 05:39
******************************
Total playing time: 54:15




[more=Extended info]Jim Everything (2015-present)
See also: The Whocares
[youtube]RNaIpEoHb0A[/youtube][/more]

[more=Technical info]
Input File: 07 - Achter De Bomen.mp3
Channels : 2
Sample Rate : 44100
Precision : 16-bit
Duration : 00:05:52.00 = 15523200 samples = 26400 CDDA sectors
File Size : 21.8M
Bit Rate : 496k
Sample Encoding: MPEG audio (layer I, II or III)
Comments :
Title=Achter de bomen
Artist=Ande
Album=Bos
Tracknumber=7
Year=2021
Discnumber=1

[/more]

Register
(18) aleon, AlexSmith, dan22, infiltrator, kimkayoung, Marek, Mencae77, metala, pahail, robertho777, Sanctus, sergsazan, smes, stone88, suseka, VALERY, varlam4, vasiljev_sergej,
Yesterday, 08:28:39 Left Hand Solution - Dead Of Winter (2021)


*Artist: Left Hand Solution
*Album: Dead Of Winter
*Year: 2021
*Genre: Doom Metal
*Country: Sweden
*Format: mp3@CBR320kbps
*Size: 66MB

Tracklist:
1. First Day of Winter 05:59
2. The Sleeping Dead 03:58
3. Jolene (Dolly Parton cover) 03:48
4. For the Hallowed Blood 04:34
5. Flame of Desire 03:27
6. When the Reason Is Gone 07:06
******************************
Total playing time: 28:52




[more=Extended info]Jocke Mårdstam Guitars (1991-1997, 2018-present)
See also: ex-Slitage
Peter Selin Bass (1992-2002, 2018-present)
See also: ex-Gloom, ex-The Kristet Utseende, ex-Epic Irae, ex-Division Hate
Erik Barthold Drums (1992-present)
See also: Cerecloth, Darklands, ex-Egregori, ex-Gloom, ex-The Kristet Utseende
Mariana Holmberg Vocals (1995-present)
[youtube]K9t9vyIKEgk[/youtube][/more]

[more=Technical info]
Input File: 06 - When the Reason Is Gone.mp3
Channels : 2
Sample Rate : 44100
Precision : 16-bit
Duration : 00:07:06.48 = 18807548 samples = 31985.6 CDDA sectors
File Size : 17.1M
Bit Rate : 320k
Sample Encoding: MPEG audio (layer I, II or III)
Comments :
Title=When the Reason Is Gone
Artist=left hand solution
Album=Dead of Winter
Tracknumber=6
Year=2021

[/more]

Register
(18) Black Cat, BlutWut, caro, chipsgott, ENDSMOUTH, HMHamster, infiltrator, kostja, Kowalski, Marek, metala, popen13, russ777, stumpheavyrock, VALERY, varlam4, Wise.man, wtk.412,
Yesterday, 08:04:55 Гедонист - Осознание (2020)


*Artist: Гедонист
*Album: Осознание
*Year: 2020
*Genre: Post-Black Metal
*Country: Russian Federation
*Format: mp3@CBR320kbps
*Size: 75MB

Tracklist:
1. Осознание 06:51
2. Гибель 03:19
3. Око 07:57
4. Итог 03:57
5. В темноте 02:12
6. Окружённый 08:15
******************************
Total playing time: 32:31


Preview 2

[more=Technical info]
Input File: ГЕДОНИСТ - Осознание - 06 Окружённый.mp3
Channels : 2
Sample Rate : 44100
Precision : 16-bit
Duration : 00:08:15.67 = 21859223 samples = 37175.5 CDDA sectors
File Size : 19.9M
Bit Rate : 321k
Sample Encoding: MPEG audio (layer I, II or III)
Comments :
Title=Окружённый
Artist=ГЕДОНИСТ
Album=Осознание
Tracknumber=6
Year=2020

[/more]

Register
(10) AlexSmith, caro, Golodomor, infiltrator, Mencae77, pahail, robertho777, TeamatSE, VALERY, varlam4,
Yesterday, 06:39:56 Death Struggle - Beyond The Wail Of Arctic Winds (2021)


*Artist: Death Struggle
*Album: Beyond The Wail Of Arctic Winds
*Year: 2021
*Genre: Melodic Death Metal
*Country: Russian Federation
*Format: mp3@CBR320kbps
*Size: 96MB

Tracklist:
1. The Frozen Earth
2. The Essence
3. Blazing Skies
4. Perpetual Night
5. The Wave
6. Into the Abyss
7. Ice Mirrors
8. Awakening
9. Blind Fury
10. Beyond the Wail of Arctic Winds
******************************
Total playing time: 42:16



Preview 3

[more=Extended info]Olga Mikhaylyants Bass
Anton Lebakov Drums
Ivan Tyshov Guitars
Serge Duriagin Guitars
Aleksandr Mørzlyy Vocals[/more]

[more=Technical info]
Input File: 05 - The Wave.mp3
Channels : 2
Sample Rate : 44100
Precision : 16-bit
Duration : 00:04:36.51 = 12193959 samples = 20738 CDDA sectors
File Size : 11.1M
Bit Rate : 320k
Sample Encoding: MPEG audio (layer I, II or III)
Comments :
Title=The Wave
Artist=Death Struggle
Album=Beyond the Wail of Arctic Winds
Tracknumber=5
Year=2021
Genre=Metal

[/more]

Register
(10) caro, chipsgott, DenisKov, hate_eternal, infiltrator, lary_veel, Lukittaz, VALERY, wanderer73, Сварог Барг,
Yesterday, 05:14:36 Hatemonger - The Vile Maxim [ep] (2021)


*Artist: Hatemonger
*Album: The Vile Maxim [ep]
*Year: 2021
*Genre: Old School Death Metal
*Country: United States
*Format: mp3@CBR320kbps
*Size: 53MB

Tracklist:
1. Perpetual War 03:31
2. Death Age 05:44
3. Famine Driven Thirst 04:01
4. Plague For Days 04:41
5. Disinformation Campaign 04:24
******************************
Total playing time: 22:21




[more=Extended info]Jerome Marshall - Guitar/Vocals
John Porada - Guitar/Bass
Garry Naples - Drums
[youtube]Tu4gPfBeAfw[/youtube][/more]

[more=Technical info]
Input File: 04. Plague for Days.mp3
Channels : 2
Sample Rate : 44100
Precision : 16-bit
Duration : 00:04:41.00 = 12392100 samples = 21075 CDDA sectors
File Size : 11.6M
Bit Rate : 329k
Sample Encoding: MPEG audio (layer I, II or III)
Comments :
Title=Plague for Days
Artist=Hatemonger
Album=The Vile Maxim (320)
Tracknumber=04
Year=2021
Genre=Metal

[/more]

Register
(14) andreikun, caro, chipsgott, EvilSpirit, GorAtheist, infiltrator, Marek, sergsazan, stumpheavyrock, Tino, VALERY, vyacheslav, wanderer73, zhol,
Yesterday, 04:58:50 Death Is Death - Death Is Hardest Thing To Do (2021)


*Artist: Death Is Death
*Album: Death Is Hardest Thing To Do
*Year: 2021
*Genre: Thrash Metal
*Country: Finland
*Format: mp3@CBR320kbps
*Size: 65MB

Tracklist:
1. Death Is Hardest Thing to Do 01:06
2. Death Is Victory 01:55
3. Violent-Psycho-Death 02:05
4. Dirty Death 02:07
5. Energy Death 02:45
6. Slayer Kind of Death 03:17
7. Death Brewery 01:35
8. Genetic Death 02:19
9. Mega Death 01:33
10. Certain Death 01:58
11. Death to the Idiot 01:55
12. Die by Death 01:23
13. Death by Coroner 02:25
14. Smooth Death 01:28
******************************
Total playing time: 27:51



[more=Extended info]EV Bass
See also: Deadlight, ex-Death Is Liberty
EP Drums
See also: ex-Death Is Liberty
TH Vocals (lead), Guitars
See also: ex-Chorea, ex-Purity, ex-Sancta, ex-Timo Rautiainen & Trio Niskalaukaus, ex-Death Is Liberty, ex-Estado Novo, ex-Penis Surprise
[youtube]izMFDb9z0ao[/youtube]
[youtube]VVH8cpdPAI4[/youtube][/more]

[more=Technical info]
Input File: 06 - Slayer Kind of Death.mp3
Channels : 2
Sample Rate : 44100
Precision : 16-bit
Duration : 00:03:16.00 = 8643600 samples = 14700 CDDA sectors
File Size : 7.99M
Bit Rate : 326k
Sample Encoding: MPEG audio (layer I, II or III)
Comments :
Title=Slayer Kind of Death
Artist=Death Is Death
Album=Death Is Hardest Thing to Do
Tracknumber=6
Year=2021-04-16
Genre=Metal
Discnumber=1

[/more]

Register
(12) andreikun, atavist, boby9052, caro, HMHamster, infiltrator, Marek, metala, sergsazan, stumpheavyrock, suseka, wgs73,

924 Pages V   1 2 3 > » 
- Lo-Fi Version Support form
Copyrights and abuse reports form
Time is now: 18th April 2021 - 23:49:23