Welcome Guest ( Log In | Register )

История благодарностей участнику Samaritianin ::: Спасибо сказали: 173268 раз(а)
Дата поста: В теме: За сообщение: Спасибо сказали:
Today, 18:01:06 Croc Noir - Mort (2018)


*Artist: Croc Noir
*Album: Mort
*Year: 2018
*Genre: Black Metal
*Country: France
*Format: mp3@CBR320kbps
*Size: 86MB

Tracklist:
1. Dans l'abîme 04:22
2. Au seuil du trépas 05:09
3. Tapis dans l'ombre 04:37
4. Égérie funeste 04:08
5. Des feuilles mortes 05:07
6. Transi d'effroi 07:23
7. Seul 06:33 instrumental
******************************
Total playing time: 37:19




[more=Extended info]Morgue Bass (2016-present), Drums (2016-2018), Guitars (2016-present)
See also: ex-Sacred Hate
Geist Vocals, Traditional instruments (2016-present)
Cloporte Accordion (2018-present)
See also: ex-Algide, Both Alone
Maraud Drums (2018-present)
See also: Supertzar
[youtube]W_XgRiWbBK8[/youtube][/more]

[more=Technical info]
Input File: Croc Noir - Mort - 03 Tapis dans l\'ombre.mp3
Channels : 2
Sample Rate : 44100
Precision : 16-bit
Duration : 00:05:09.41 = 13645025 samples = 23205.8 CDDA sectors
File Size : 12.5M
Bit Rate : 322k
Sample Encoding: MPEG audio (layer I, II or III)
Comments :
Title=Tapis dans l'ombre
Artist=Croc Noir
Album=Mort
Tracknumber=3
Year=2018

[/more]

Register
(3) Gylve, Ostinato, sethurius,
Today, 17:41:51 Acheronte - Son Of No God (2018)
Cloud Mail 320
Register
(1) Ostinato,
Today, 17:06:33 Iron Attack! - Unknown Flowers (2018)


*Artist: Iron Attack!
*Album: Unknown Flowers
*Year: 2018
*Genre: Power Metal
*Country: Japan
*Format: mp3@CBR320kbps
*Size: 90MB

Tracklist:
1. Unknown Flowers
2. Into the Storm
3. Fire Soul
4. Magic Bullet
5. Full Eternity
6. Dreaming Murderer
7. Chance!!
8. Unknown Flowers =Off vocal= instrumental
******************************
Total playing time: 36:23



[more=Extended info][youtube]eA-Qsaqld6I[/youtube][/more]

[more=Technical info]
Input File: (03) Fire Soul.mp3
Channels : 2
Sample Rate : 44100
Precision : 16-bit
Duration : 00:04:03.22 = 10725826 samples = 18241.2 CDDA sectors
File Size : 10.6M
Bit Rate : 350k
Sample Encoding: MPEG audio (layer I, II or III)
Comments :
Title=Fire Soul
Artist=Iron Attack!
Album=Unknown Flowers
Tracknumber=03/08
Year=2018
Genre=Metal

[/more]

Register
(1) Rover,
Today, 16:40:08 Acheronte - Son Of No God (2018)


*Artist: Acheronte
*Album: Son Of No God
*Year: 2018
*Genre: Black Metal
*Country: Italy
*Format: mp3@CBR320kbps
*Size: 103MB

Tracklist:
1. Heralds Of Antichrist 07:11
2. Four Beasts 04:33
3. Babylon Unholy Hammer 06:39
4. Trascendental Will 07:19
5. Son Of No God 07:33
6. Fall Of Perfection 12:25
******************************
Total playing time: 45:40




[more=Extended info]Phobos Guitars
Lord Baal Vocals
A. T. La Morte Bass
Bestia Drums
[youtube]p2Bs8TEz95k[/youtube]
[youtube]1xpj-eRnwH0[/youtube]
[youtube]40fNIPmMfdM[/youtube][/more]

[more=Technical info]
Input File: 03 - Babylon Unholy Hammer.mp3
Channels : 2
Sample Rate : 44100
Precision : 16-bit
Duration : 00:06:39.77 = 17629637 samples = 29982.4 CDDA sectors
File Size : 16.0M
Bit Rate : 320k
Sample Encoding: MPEG audio (layer I, II or III)
Comments :
Title=Babylon Unholy Hammer
Artist=Acheronte
Album=Son of No God
Tracknumber=3
Year=2018
Genre=Black Metal

[/more]

Register
(4) Ostinato, SyncestrA, thenecromancer, varlam4,
Yesterday, 20:41:48 Dawn Of Winter - Pray For Doom (2018)
Cloud Mail 320
Register

Sampo.ru FLAC 384 mb
Register
(3) older68, postal67, RUDACHUR,
Yesterday, 17:45:56 White Midnight - Forest Of Leaving (Don't Blame Me) (2018)


*Artist: White Midnight
*Album: Forest Of Leaving (Don't Blame Me)
*Year: 2018
*Genre: Black Metal
*Country: Russian Federation
*Format: mp3@CBR320kbps
*Size: 107MB

Tracklist:
1. Painkiller Doesen't Work 02:05
2. Ashen Loneliness 05:05
3. Devoid of Dream 06:27
4. Forest of Leaving 06:10
5. Hematemesis of the Unheard 04:07
6. Through the Endless Grayscale 07:11
7. Soul Faintness 04:10
8. Final Revelation 06:31
9. Tower of Despair 03:38
10. Grayscale Epilogue 01:51
******************************
Total playing time: 47:15



[more=Extended info]Max Shtanke Unknown (2016-present)
See also: Black October, ex-Corrupted Grave, Test by Freedom, Winter Dream, ex-Alkonost[/more]

[more=Technical info]
Input File: 03 - Devoid of Dream.mp3
Channels : 2
Sample Rate : 44100
Precision : 16-bit
Duration : 00:06:28.40 = 17128484 samples = 29130.1 CDDA sectors
File Size : 15.5M
Bit Rate : 320k
Sample Encoding: MPEG audio (layer I, II or III)
Comments :
Title=Devoid of Dream
Artist=White Midnight
Album=Forest of Leaving (Don't Blame Me)
Tracknumber=3
Year=2018
Genre=Black Metal

[/more]

Register
(5) 1968_janeart, artscald, Ostinato, VALERY, vasiljev_sergej,
Yesterday, 17:36:17 Dawn Of Winter - Pray For Doom (2018)


*Artist: Dawn Of Winter
*Album: Pray For Doom
*Year: 2018
*Genre: Epic Doom Metal
*Country: Germany
*Format: mp3@CBR320kbps
*Size: 120MB

Tracklist:
1. A Dream Within a Dream 07:08
2. The Thirteenth of November 06:06
3. Woodstock Child 04:29
4. The Sweet Taste of Ruin 06:29
5. Pray for Doom 06:36
6. The Orchestra Bizarre 04:21
7. Paralysed by Sleep 06:19
8. Father Winter (Sacrifice Pt. 3) 10:27
******************************
Total playing time: 51:55




[more=Extended info]Gerrit P. Mutz Guitars (1991-1992), Vocals (1991-present)
See also: Angel of Damnation, Battleroar, Sacred Steel, ex-Tragedy Divine, ex-Cemetery, ex-Variety of Arts, ex-Astral Door, ex-Throne of Isolation
Joachim "Bolle" Schmalzried Bass (1992-present)
Jörg M. Knittel Guitars (1992-present)
See also: My Darkest Hate, ex-Tragedy Divine, ex-Variety of Arts, ex-Sacred Steel
Dennis Schediwy Drums (1993-present)
See also: ex-Throne of Isolation
[youtube]zHSSBqD82xM[/youtube][/more]

[more=Technical info]
Input File: 03 Woodstock Child.mp3
Channels : 2
Sample Rate : 44100
Precision : 16-bit
Duration : 00:04:29.10 = 11867398 samples = 20182.6 CDDA sectors
File Size : 10.9M
Bit Rate : 325k
Sample Encoding: MPEG audio (layer I, II or III)
Comments :
Title=Woodstock Child
Artist=Dawn Of Winter
Album=Pray For Doom
Tracknumber=03
Year=2018
Genre=Doom Metal

[/more]

Register
(13) artscald, csgmnk, djsema4, EpicDoomLord, Korpse, marilin, metala, postal67, rammmirez, tOmV, VALERY, Wail, WX419,
Dec 9 2018, 17:14:30 Kamikaze Zombie - Night Of The Nuberus (2017)


*Artist: Kamikaze Zombie
*Album: Night Of The Nuberus
*Year: 2017
*Genre: Thrash Metal/Crossover
*Country: United States
*Format: mp3@CBR320kbps
*Size: 56MB

Tracklist:
1. ManHunter 02:04
2. Eraser-Head 02:38
3. The Stone Giant 02:20
4. In the Mouth of Madness 02:41
5. The Story of Jane Doe 01:47
6. 1226 03:08
7. Death Rides a Horse 03:18
8. The Blood Countess 01:55
9. As the Moon Stares at Death 03:21
******************************
Total playing time: 23:12




[more=Extended info]Steve Cater Guitars (2014-present)
See also: ex-The Cut Throat Conspiracy
Clint Spain Guitars, Vocals (2014-present)
See also: ex-The Cut Throat Conspiracy, ex-Throne of Blood
Josh Fondren Drums (2017-present)
See also: Celestial Plague, Mountain Bastard, Thothamon, Brothers Rage[/more]

[more=Technical info]
Input File: 04 - In the Mouth of Madness.mp3
Channels : 2
Sample Rate : 44100
Precision : 16-bit
Duration : 00:02:41.34 = 7115138 samples = 12100.6 CDDA sectors
File Size : 6.74M
Bit Rate : 334k
Sample Encoding: MPEG audio (layer I, II or III)
Comments :
Title=In the Mouth of Madness
Artist=Kamikaze Zombie
Album=Night of the Nuberus
Tracknumber=4
Year=2017

[/more]

Register
(6) artscald, boby9052, Olethros, Ostinato, pichileon, postal67,
Dec 9 2018, 15:41:53 Wreck-Defy - Fragments Of Anger (2017)
Cloud Mail 320
Register
(2) boby9052, postal67,
Dec 9 2018, 12:28:00 Wreck-Defy - Fragments Of Anger (2017)


*Artist: Wreck-Defy
*Album: Fragments Of Anger
*Year: 2017
*Genre: Thrash Metal
*Country: Canada
*Format: mp3@CBR320kbps
*Size: 127MB

Tracklist:
1. Industrial Lies 05:33
2. Justify the Unjust 05:10
3. Sentenced 06:48
4. The Eternal Lie 04:14
5. Under My Skin 04:59
6. Karmic Wheel 05:01
7. The Human Waste 05:29
8. Casualties of War 05:56
******************************
Total playing time: 43:10




[more=Extended info]CD-Rip+Scans
Dave O'Neal Drums
See also: ex-Angerhead
Matt Hanchuck Guitars (2016-present)
Aaron Randall Vocals (2017-present)
See also: ex-Speeed, ex-Randall Frost Project, ex-Annihilator
[youtube]Vj93FDbOxoI[/youtube][/more]

[more=Technical info]
Input File: 03. Sentenced.mp3
Channels : 2
Sample Rate : 44100
Precision : 16-bit
Duration : 00:06:48.64 = 18021156 samples = 30648.2 CDDA sectors
File Size : 16.6M
Bit Rate : 324k
Sample Encoding: MPEG audio (layer I, II or III)
Comments :
Title=Sentenced
Artist=Wreck-Defy
Album=Fragments of Anger
Tracknumber=03
Year=2017
Genre=144

[/more]

Register
(15) AHBAnep, andreikun, artscald, Balusina, Darkness, Diflock, DTGB, marioamuro, metala, Olethros, pichileon, postal67, russ777, wgs73, WX419,
Dec 9 2018, 10:20:07 Medical Negligence - Odium In Venas (2017)
Cloud Mail 320
Register
(1) jollo,
Dec 9 2018, 09:55:00 Medical Negligence - Odium In Venas (2017)


*Artist: Medical Negligence
*Album: Odium In Venas
*Year: 2017
*Genre: Brutal Death Metal
*Country: Mexico
*Format: mp3@CBR320kbps
*Size: 47MB

Tracklist:
1. Vascular Disease 01:21
2. House of Dead Stories 02:27
3. Flesh Is for Zombies 02:08
4. Relación canina 02:42
5. Removal of a Brain Tumor 01:39
6. Post-Trauma Amputation (Human Vermis) 01:26
7. Fetal Death 02:35
8. Boobs Carnival 02:54
9. Purification through Violence (Wasted World) 03:00
******************************
Total playing time: 20:12




[more=Extended info]Héctor Enrique Drums
Oscar Bitzer Guitars
Agustín Preciado Bass (2016-2017), Vocals (2017-present)
Mike Gideon Bass (2018-present)[/more]

[more=Technical info]
Input File: 04 - Relación Canina.mp3
Channels : 2
Sample Rate : 44100
Precision : 16-bit
Duration : 00:02:42.07 = 7147375 samples = 12155.4 CDDA sectors
File Size : 6.63M
Bit Rate : 327k
Sample Encoding: MPEG audio (layer I, II or III)
Comments :
Title=Relación Canina
Artist=Medical Negligence
Album=Odium in Venas
Tracknumber=4
Year=2017

[/more]

Register
(7) AHBAnep, artscald, jollo, Olethros, satanist666, WX419, Герб,
Dec 9 2018, 09:30:02 Blade Of Horus - Obliteration (2018)
Cloud Mail 320
Register
(2) Ostinato, volostakoeto,
Dec 9 2018, 06:36:18 Indomia - Indomia (2018)
Cloud Mail 320
Register
(1) sergsazan,
Dec 9 2018, 06:35:01 Xibalba Itzaes - Ah Tza Xibalba Itzaes (2018)
Cloud Mail 320
Register
(5) Albert66613, Beazth, Narasimha, Ostinato, vasiljev_sergej,
Dec 9 2018, 06:33:48 Biolence - Violent Exhumation (2018)
Cloud Mail 320
Register
(1) older68,
Dec 9 2018, 06:32:46 Blade Of Horus - Obliteration (2018)


*Artist: Blade Of Horus
*Album: Obliteration
*Year: 2018
*Genre: Brutal/Technical Death Metal
*Country: Australia
*Format: mp3@CBR320kbps
*Size: 65MB

Tracklist:
1. God Slayer
2. God Slayer pt.II Fall of the Ancients
3. Temple
4. Obliteration
5. Embrace the Abyss
6. Send Forth All Legions
7. RA
8. Cyber Demon
******************************
Total playing time: 27:29




[more=Extended info]James Buckman Guitars (2015-present)
See also: ex-Eviscerator, ex-Paradox Unseen
Ivan Ellis Guitars, Drum programming (2015-2016), Guitars (2016-present)
See also: ex-Eviscerator
Jordan Watts Bass (2016-present)
See also: Enviktas
Sebastian Su Drums (2016-present)
Phoone Slambeth Vocals (2018-present)
[youtube]n3DzJGpgp6o[/youtube][/more]

[more=Technical info]
Input File: 03 - Temple.mp3
Channels : 2
Sample Rate : 44100
Precision : 16-bit
Duration : 00:04:56.09 = 13057481 samples = 22206.6 CDDA sectors
File Size : 11.9M
Bit Rate : 323k
Sample Encoding: MPEG audio (layer I, II or III)
Comments :
Title=Temple
Artist=Blade of Horus
Album=Obliteration
Tracknumber=3
Year=2018

[/more]

Register

Register
(16) andreylogan, artscald, avather, LEGION69, metala, Narasimha, neoatheist, older68, Olethros, Ostinato, ripper33, samokot, satanist666, Tha, yuratroll, Герб,
Dec 9 2018, 03:55:48 Warscythe - Elemental Fusion [ep] (2010)


*Artist: Warscythe
*Album: Elemental Fusion [ep]
*Year: 2010
*Genre: Death Metal
*Country: United States
*Format: mp3@CBR320kbps
*Size: 75MB

Tracklist:
1. Elemental Fusion 04:25
2. Temporal 05:39
3. Roar of the Skies 07:04
4. Warlords 08:53
5. Beyond the Infinite 06:42
******************************
Total playing time: 32:43




[more=Extended info]Jeff Patterson Bass
Steve Danska Guitars
Tim Sakogawa Drums (2006-present)
Justin Sakogawa Vocals, Guitars (lead) (2006-present)
See also: Hatriot, Splattered, From Hell (live), Vile (live), ex-Kinnefret
[youtube]DU9h3DJLwgI[/youtube][/more]

[more=Technical info]
Input File: 02 - Temporal.mp3
Channels : 2
Sample Rate : 44100
Precision : 16-bit
Duration : 00:05:42.09 = 15086257 samples = 25656.9 CDDA sectors
File Size : 13.9M
Bit Rate : 326k
Sample Encoding: MPEG audio (layer I, II or III)
Comments :
Title=Temporal
Artist=Warscythe
Album=Elemental Fusion
Tracknumber=2
Year=2010

[/more]

Register
(4) artscald, beast666, Ostinato, Герб,
Dec 9 2018, 02:43:14 Nekroptikon - Ecce Ad Exitium Humani Generis (2018)


*Artist: Nekroptikon
*Album: Ecce Ad Exitium Humani Generis
*Year: 2018
*Genre: Black Metal
*Country: France
*Format: mp3@CBR320kbps
*Size: 55MB

Tracklist:
1. Succombe Qui Doit 04:39
2. Cross the Swamp 05:40
3. The Sixth Tower 04:22
4. Sekhmet 05:52
5. Mortus Dei 03:04
******************************
Total playing time: 23:37




[more=Extended info]Yog Sottoh All instruments
Perraver Invocator Vocals
[youtube]p5nYhWWBs10[/youtube][/more]

[more=Technical info]
Input File: 03 - The Sixth Tower.mp3
Channels : 2
Sample Rate : 44100
Precision : 16-bit
Duration : 00:04:22.07 = 11557463 samples = 19655.5 CDDA sectors
File Size : 10.6M
Bit Rate : 323k
Sample Encoding: MPEG audio (layer I, II or III)
Comments :
Title=The Sixth Tower
Artist=Nekroptikon
Album=Ecce Ad Exitium Humani Generis
Tracknumber=3
Year=2018

[/more]

Register
(15) 1968_janeart, artscald, kim666, LEGION69, marilin, Olethros, Ostinato, satanist666, SilentNidhogg, stub888, suseka, VALERY, varg-38ru, vasiljev_sergej, yuratroll,
Dec 8 2018, 21:08:43 Beyonder - Always On The Road (2018)


*Artist: Beyonder
*Album: Always On The Road
*Year: 2018
*Genre: Heavy Metal/Hard Rock
*Country: Mexico
*Format: mp3@CBR320kbps
*Size: 98MB

Tracklist:
1. Metal Forever
2. Black Genesis
3. Always on the Road
4. Cry of the Night
5. Heartbreak
6. Walking Alone
7. Light Zone
8. I Wanna Love You
9. Last Chance
10. Realm of Warriors
******************************
Total playing time: 42:33



[more=Extended info]Eric Martínez Bass (2016-present)
Augusto Arrigunaga Drums (2016-present)
Manuel Narvaez Guitars (2016-present)
Russel Ramos Guitars (2016-present)
See also: Dragoner, ex-Kiabeth, ex-Wartormentor
David Gil Vocals (2016-present)
[youtube]xJORBLpoE04[/youtube]
[youtube]MIyaR2961UY[/youtube][/more]

[more=Technical info]
Input File: 02 - Black Genesis.mp3
Channels : 2
Sample Rate : 44100
Precision : 16-bit
Duration : 00:04:04.78 = 10794798 samples = 18358.5 CDDA sectors
File Size : 9.95M
Bit Rate : 325k
Sample Encoding: MPEG audio (layer I, II or III)
Comments :
Title=Black Genesis
Artist=Beyonder
Album=Always on the Road
Tracknumber=2
Year=2018

[/more]

Register
(7) artscald, metala, MеtalHead, Olethros, postal67, Rosen, vir2al,
Dec 8 2018, 20:46:49 Dead Acid - Fuck, I'm Dead! (2018)
Cloud Mail 320
Register
(1) Diflock,
Dec 8 2018, 20:43:56 Indomia - Indomia (2018)


*Artist: Indomia
*Album: Indomia
*Year: 2018
*Genre: Heavy Metal
*Country: Chile
*Format: mp3@CBR320kbps
*Size: 149MB

Tracklist:
1. Ultimatum
2. Indomia
3. En Cenizas
4. Factor Humano
5. Nacion Reptil
6. Oscura Torre
7. Piel En Trance
8. Replicantes
9. Poder En Las Sombras
10. Titeres Y Maquinas
11. Tecnodistantes
******************************
Total playing time: 1:04:51



[more=Extended info]Sebastián Muñoz Guitars (2016-present)
See also: Rotweiller
Ricardo Palma Vocals, Bass (2016-present)
See also: ex-Frozen, ex-Bloden-Wedd, ex-Mantiza
Guido Guerrero Drums (2018-present)
[youtube]KD57EWeiXco[/youtube][/more]

[more=Technical info]
Input File: 02 - Indomia.mp3
Channels : 2
Sample Rate : 44100
Precision : 16-bit
Duration : 00:05:57.66 = 15772894 samples = 26824.6 CDDA sectors
File Size : 14.4M
Bit Rate : 323k
Sample Encoding: MPEG audio (layer I, II or III)
Comments :
Title=Indomia
Artist=Indomia
Album=Indomia
Tracknumber=2
Year=2018

[/more]

Register
(6) artscald, aviacademy, MеtalHead, Olethros, Rosen, sergsazan,
Dec 8 2018, 20:32:39 Xibalba Itzaes - Ah Tza Xibalba Itzaes (2018)


*Artist: Xibalba Itzaes
*Album: Ah Tza Xibalba Itzaes
*Year: 2018
*Genre: Black Metal
*Country: Mexico
*Format: mp3@CBR320kbps
*Size: 75MB

Tracklist:
1. Ah Tza! 02:01
2. Intro All Hail Chaac 00:21
3. All Hail Chaac 03:12
4. Rituals in the Sun 05:14
5. Throughout the Equinox 02:08
6. The Storm of Giaia 04:49
7. Nine Steps Below 03:38
8. Dawn of Endless Horrors 03:14
9. Ekab 03:00
10. The Owl 02:31
11. Ah Tza Xibalba Itzaes 00:44
12. Katun II (The First Chronicle) 01:47
******************************
Total playing time: 32:39



[more=Extended info]Victor Ehxibchac Bass
See also: ex-Reckoning
Jorge Ah Ektenel Drums
Marco Ek Balam Guitars, Vocals
[youtube]T4AB48L7YSw[/youtube][/more]

[more=Technical info]
Input File: 04 - Rituals in the Sun.mp3
Channels : 2
Sample Rate : 44100
Precision : 16-bit
Duration : 00:05:14.09 = 13851237 samples = 23556.5 CDDA sectors
File Size : 12.7M
Bit Rate : 323k
Sample Encoding: MPEG audio (layer I, II or III)
Comments :
Title=Rituals in the Sun
Artist=Xibalba Itzaes
Album=Ah Tza Xibalba Itzaes
Tracknumber=4
Year=2018

[/more]

Register
(29) 1968_janeart, acerbus, Anhra Mainyu, artscald, Daale, FUDEDOR, Kazoth, kim666, mizantrophist, Namnlos, nemx, Olethros, Ostinato, Panacea, Phlebotomized, Precaria, princeshr, Rosen, RUSP73, satanist666, sethurius, SilentNidhogg, the_cleanser, VALERY, varg-38ru, vovenom, ZambuL, Абигор, Луч,
Dec 8 2018, 20:18:08 Biolence - Violent Exhumation (2018)


*Artist: Biolence
*Album: Violent Exhumation
*Year: 2018
*Genre: Old School Thrash/Death Metal
*Country: Portugal
*Format: mp3@CBR320kbps
*Size: 93MB

Tracklist:
1. Intro
2. Holy Word
3. Dead Flesh
4. Devoured
5. Disease
6. Look Around
7. Undying Flame
8. Merda
9. Death Is Reality (Bonus Track)
10. Manipulacao (Bonus Track)
******************************
Total playing time: 40:39




[more=Extended info]David Guitars
See also: Unfleshed, ex-Agonizing Terror
César Vocals, Guitars
See also: Unfleshed
Afonso Ribeiro Drums (2010-present)
See also: Gates of Hell, Pitch Black, Sotz' (live), ex-Revolution Within (live)
Daniel Marage Bass (2018-present)
[youtube]1HkLisSWORM[/youtube][/more]

[more=Technical info]
Input File: 03 - Dead Flesh.mp3
Channels : 2
Sample Rate : 44100
Precision : 16-bit
Duration : 00:04:00.10 = 10588586 samples = 18007.8 CDDA sectors
File Size : 9.73M
Bit Rate : 324k
Sample Encoding: MPEG audio (layer I, II or III)
Comments :
Title=Dead Flesh
Artist=Biolence
Album=Violent Exhumation
Tracknumber=3
Year=2018

[/more]

Register
(11) andreikun, artscald, Diflock, jollo, metala, Olethros, Rosen, russ777, sergsazan, VALERY, wgs73,
Dec 8 2018, 09:16:54 Dead Acid - Fuck, I'm Dead! (2018)


*Artist: Dead Acid
*Album: Fuck, I'm Dead!
*Year: 2018
*Genre: Thrash/Death Metal
*Country: Germany
*Format: mp3@CBR320kbps
*Size: 83MB

Tracklist:
1. Chapter One
2. Clarity
3. Run!
4. Tonight
5. Busted
6. Down
7. Inside Your Head
8. End Of Days
9. Fuck, I'm Dead
10. A.F.T.
11. Dead Acid
******************************
Total playing time: 35:55



[more=Extended info]Torge Ehlers (vocals, guitar)
Dennis Schäfer (bass)
Heiko Hahn (guitar)
Kai Ruthardt (drums)
[youtube]c10dRI3f0gU[/youtube][/more]

[more=Technical info]
Input File: 04 - Tonight.mp3
Channels : 2
Sample Rate : 44100
Precision : 16-bit
Duration : 00:03:31.34 = 9320182 samples = 15850.6 CDDA sectors
File Size : 8.50M
Bit Rate : 322k
Sample Encoding: MPEG audio (layer I, II or III)
Comments :
Title=Tonight
Artist=Dead Acid
Album=Fuck, I'm Dead
Tracknumber=4
Year=2018

[/more]

Register
(6) Diflock, metala, Olethros, Ostinato, Rosen, wgs73,

527 Pages V   1 2 3 > » 
- Lo-Fi Version Support form
Copyrights and abuse reports form
Time is now: 11th December 2018 - 23:04:39