Welcome Guest ( Log In | Register )

История благодарностей участнику Samaritianin ::: Спасибо сказали: 241797 раз(а)
Дата поста: В теме: За сообщение: Спасибо сказали:
Today, 07:36:52 Tarlak - A Trapped Call In The Depths (2020)


*Artist: Tarlak
*Album: A Trapped Call In The Depths
*Year: 2020
*Genre: Melodic Death/Black Metal
*Country: Brazil
*Format: mp3@CBR320kbps
*Size: 121MB

Tracklist:
1. Lamentations 01:50
2. A Post Mortem Song 07:14
3. Absence 05:47
4. An Evil Heritage 05:04
5. Destiny 04:25
6. Cercle Vicieux 06:12
7. Meaningless Words 05:45
8. To Hunter to Hunting 05:42
9. Uncomfortable Happiness 04:39
10. Where Soulless Are Born 05:00
11. A Trapped Call in the Depths 01:24
******************************
Total playing time: 53:02




[more=Extended info]Bruno Jokubauskas Bass
Matheus Scarlate Vocals, Guitars
See also: Neptuniam, ex-Enforcation
Gabriel Padilha Drums (2018-present)
[youtube]zY_y_ohDrDk[/youtube][/more]

[more=Technical info]
Input File: 03 - Absence.mp3
Channels : 2
Sample Rate : 44100
Precision : 16-bit
Duration : 00:05:47.34 = 15317826 samples = 26050.7 CDDA sectors
File Size : 13.9M
Bit Rate : 320k
Sample Encoding: MPEG audio (layer I, II or III)
Comments :
Title=Absence
Artist=Talrak
Album=A Trapped Call In The Depths
Tracknumber=3
Year=2020-09-19
Genre=22

[/more]

Register
(4) infiltrator, Olethros, VALERY, wanderer73,
Today, 07:07:10 Scorn - A Comedic Tragedy (2020)


*Artist: Scorn
*Album: A Comedic Tragedy
*Year: 2020
*Genre: Thrash/Death Metal
*Country: Canada
*Format: mp3@CBR329kbps
*Size: 93MB

Tracklist:
1. Intro 03:12 instrumental
2. Frenzy 06:18
3. Dense Mind 03:04
4. Psychotic Acts 03:36
5. Demented 04:51
6. Isolation 02:24 instrumental
7. Phagocytosis 03:45
8. Chemical Lobotomy 03:42
9. A Lack of Communication 03:52
10. Falling Fortress 05:05 Show l
******************************
Total playing time: 39:49




[more=Extended info]Steven Rowlands Guitars (lead), Vocals (2014-present)
See also: Unbowed, Invicta (live), Northern Cry[/more]

[more=Technical info]
Input File: 05 - Demented.mp3
Channels : 2
Sample Rate : 44100
Precision : 16-bit
Duration : 00:04:51.57 = 12858281 samples = 21867.8 CDDA sectors
File Size : 11.8M
Bit Rate : 324k
Sample Encoding: MPEG audio (layer I, II or III)
Comments :
Title=Demented
Artist=Scorn
Album=A Comedic Tragedy
Tracknumber=5
Year=2020-01-20
Genre=Metal
Discnumber=1

[/more]

Register
(7) atavist, infiltrator, metala, Niknne, Olethros, thrashiac55, wanderer73,
Today, 02:43:49 Iron Driver - Smell Of Perdition (2020)


*Artist: Iron Driver
*Album: Smell Of Perdition
*Year: 2020
*Genre: Heavy Metal
*Country: Russian Federation
*Format: mp3@CBR320kbps
*Size: 82MB

Tracklist:
1. Smell of Perdition 06:00
2. No Speed Limits 02:49
3. Eagle of Steel (Russian Version) 03:49
4. Hitman 06:07
5. Don't Cry Blues 05:35
6. Slave to Haze 05:59
7. Calm Before the Storm 01:46 instrumental
8. Evil Wench 05:19
******************************
Total playing time: 37:24




[more=Extended info]Iron Serj Bass
Iron Seva Drums
Iron Alex Guitars
Iron Maschina Guitars
Iron Paul Vocals
[youtube]epo1AxjCUcs[/youtube][/more]

[more=Technical info]
Input File: 04 Hitman.mp3
Channels : 2
Sample Rate : 44100
Precision : 16-bit
Duration : 00:06:06.09 = 16144393 samples = 27456.5 CDDA sectors
File Size : 15.0M
Bit Rate : 327k
Sample Encoding: MPEG audio (layer I, II or III)
Comments :
Title=Hitman
Artist=Iron Driver
Album=Smell Of Perdition
Tracknumber=04
Year=2020
Genre=Heavy Metal

[/more]

Register
(5) infiltrator, metala, Niknne, Olethros, vir2al,
Today, 02:25:57 Vrag - Remete (2017)


*Artist: Vrag
*Album: Remete
*Year: 2017
*Genre: Black Metal
*Country: Hungary
*Format: mp3@CBR320kbps
*Size: 123MB

Tracklist:
1. Az idő fogságában 08:45
2. Gyűlöllek 05:20
3. Reménytelenül 11:40
4. Remete 14:05
5. Lidércfény 12:22
6. A fák könnyei 02:26
******************************
Total playing time: 54:38



[more=Extended info]Vrag All instruments, Vocals
See also: Witcher, Earth Plague (live)[/more]

[more=Technical info]
Input File: Vrag - Remete - 02 Gyűlöllek.mp3
Channels : 2
Sample Rate : 44100
Precision : 16-bit
Duration : 00:05:20.20 = 14120820 samples = 24015 CDDA sectors
File Size : 12.9M
Bit Rate : 322k
Sample Encoding: MPEG audio (layer I, II or III)
Comments :
Title=Gyűlöllek
Artist=Vrag
Album=Remete
Tracknumber=2
Year=2017

[/more]

Register
(7) atavist, infiltrator, Maximvs, Olethros, stub888, VALERY, zotyo1975,
Today, 02:00:03 Helldown - In Deaths Hands [ep] (2020)


*Artist: Helldown
*Album: In Deaths Hands [ep]
*Year: 2020
*Genre: Thrash/Groove Metal
*Country: United Kingdom
*Format: mp3@CBR320kbps
*Size: 37MB

Tracklist:
1. The Unnamed 04:37
2. Mortal Shell 03:28
3. Heretic 03:58
4. Flames of Heresy 03:58
******************************
Total playing time: 16:01



[more=Extended info]Rhythm Guitar - Matthew Evans
Bass Guitar & Vocals - Ben Evans
Drums - Ross Thomas
Lead Guitar - Lewis Larkman
[youtube]frbZepF2jWc[/youtube]
[youtube]l7PEgLz_zyc[/youtube][/more]

[more=Technical info]
Input File: 03 - Heretic.mp3
Channels : 2
Sample Rate : 44100
Precision : 16-bit
Duration : 00:03:58.25 = 10506957 samples = 17869 CDDA sectors
File Size : 9.57M
Bit Rate : 321k
Sample Encoding: MPEG audio (layer I, II or III)
Comments :
Title=Heretic
Artist=Helldown
Album=In Deaths Hands
Tracknumber=3
Year=2020-01-17
Discnumber=1

[/more]

Register
(2) infiltrator, Olethros,
Today, 00:09:47 Kveld Ulver - La Orden Del Trono Invernal (2019)


*Artist: Kveld Ulver
*Album: La Orden Del Trono Invernal
*Year: 2019
*Genre: Pagan/Black Metal
*Country: Argentina
*Format: mp3@CBR320kbps
*Size: 101MB

Tracklist:
1. La Batalla De Svolder 04:25
2. Solsticio Invernal 04:27
3. La Orden Del Trono Invernal 06:49
4. Reino De Tinieblas 07:24
5. Esperando El Ragnarök 05:21
6. Legiones Del Fuego Ancestral 05:30
7. Desde La Eterna Oscuridad 06:01
8. Ataque Final 03:34
******************************
Total playing time: 43:31




[more=Extended info]Mariano (Satanás) Rojas: Voz
Lucius Obregon: Guitarra Líder y Coros.
Milton Ceballos: Guitarra Rítmica
Julio Cisnero: Bajo
Jonas Salicioni: Batería
[youtube]B6pK7rl2qio[/youtube]
[youtube]9wK8K_vbOwI[/youtube][/more]

[more=Technical info]
Input File: 04 - Reino De Tinieblas.mp3
Channels : 2
Sample Rate : 44100
Precision : 16-bit
Duration : 00:07:24.08 = 19584060 samples = 33306.2 CDDA sectors
File Size : 17.9M
Bit Rate : 323k
Sample Encoding: MPEG audio (layer I, II or III)
Comments :
Title=Reino De Tinieblas
Artist=Kveld Ulver
Album=La Orden Del Trono Invernal
Tracknumber=4
Year=2019-10-20
Genre=Metal
Discnumber=1

[/more]

Register
(6) atavist, Battaleon, infiltrator, Olethros, thenecromancer, VALERY,
Yesterday, 22:40:48 Asgrauw - IJsval (2020)


*Artist: Asgrauw
*Album: IJsval
*Year: 2020
*Genre: Black Metal
*Country: Netherlands
*Format: mp3@CBR320kbps
*Size: 89MB

Tracklist:
1. Leeg 05:59
2. IJsval 08:59
3. Nevel 04:49
4. Stortvloed 05:03
5. Broeihaard 04:12
6. Heilloos 03:47
7. Wanorde 04:42
******************************
Total playing time: 37:31




[more=Extended info]Kaos Bass, Vocals (2010-present)
See also: Meslamtaea
Vaal Guitars, Vocals (2010-present)
See also: Libithum
Batr Drums (2012-present)
See also: Meslamtaea, Sagenland, ex-Deifecation, Annwfyn, ex-Escutcheon
[youtube]yEiSmStF32Y[/youtube]
[youtube]Hx5Br9NnwhA[/youtube][/more]

[more=Technical info]
Input File: 04 Stortvloed.mp3
Channels : 2
Sample Rate : 44100
Precision : 16-bit
Duration : 00:05:03.40 = 13380028 samples = 22755.1 CDDA sectors
File Size : 12.3M
Bit Rate : 323k
Sample Encoding: MPEG audio (layer I, II or III)
Comments :
Title=Stortvloed
Artist=Asgrauw
Album=IJsval
Tracknumber=04
Year=2020

[/more]

Register
(9) atavist, FlammenTod666, infiltrator, Maximvs, nadin85, Olethros, stub888, suseka, VALERY,
Yesterday, 22:20:23 Necropsy - Exitus [ep] (2020)


*Artist: Necropsy
*Album: Exitus [ep]
*Year: 2020
*Genre: Old School Death/Doom Metal
*Country: Finland
*Format: mp3@CBR320kbps
*Size: 56MB

Tracklist:
01. Meat Ceremony
02. Fucking Dead
03. 206 Motives
04. Butcherado
******************************
Total playing time: 22:27




[more=Extended info]Janne Kosonen Guitars (lead) (1987-1994, 2008-present), Vocals (1987-1989)
Tero Kosonen Vocals (1991-1994, 2008-present)
See also: ex-Inferia
Ville Vartiainen Bass (2008-present)
Hannu Väänänen Drums (2008-present)
See also: Holy Life
Sami Heinonen Guitars (rhythm) (2011-present)
See also: Lightsucker (live), ex-Avafrost, ex-Inferia, ex-Plaguebreeder, ex-Falchion
[youtube]lEa3n7ZoQQU[/youtube][/more]

[more=Technical info]
Input File: 02. Fucking Dead.mp3
Channels : 2
Sample Rate : 44100
Precision : 16-bit
Duration : 00:06:03.15 = 16014959 samples = 27236.3 CDDA sectors
File Size : 15.4M
Bit Rate : 339k
Sample Encoding: MPEG audio (layer I, II or III)
Comments :
Title=Fucking Dead
Artist=Necropsy
Album=Exitus
Tracknumber=2/4
Year=2020
Discnumber=1/1

[/more]

Register
(15) AHBAnep, andreikun, Anhra Mainyu, CRUNCH, infiltrator, older68, Olethros, SAPOGi, THROWER666, Tino, troll_swamp, VALERY, wanderer73, wtk.412, zhol,
Yesterday, 22:03:19 Defiled - Infinite Regress (2020)


*Artist: Defiled
*Album: Infinite Regress
*Year: 2020
*Genre: Technical Death Metal
*Country: Japan
*Format: mp3@CBR320kbps
*Size: 82MB

Tracklist:
1. Intro 00:23
2. Divide and Conquer 02:30
3. Tragedy 05:21
4. Systematic Decomposition 02:33
5. So Blind 02:47
6. Legacy 01:58
7. Masses in Chaos 02:00
8. Centuries 04:17
9. Aftermath 03:01
10. Invisible War 01:44
11. Ignorant 02:27
12. Slaverobot 02:57
13. Infinite Regress 02:47
14. Outro 00:32
******************************
Total playing time: 35:17




[more=Extended info]Yusuke Sumita Guitars
Keisuke Hamada Drums
Shinichiro Hamada Guitars, Vocals
Takachika Nakajima Bass
[youtube]Nqq-NJNQNd8[/youtube]
[youtube]SrheZiL_QWI[/youtube][/more]

[more=Technical info]
Input File: 03. Tragedy.mp3
Channels : 2
Sample Rate : 44100
Precision : 16-bit
Duration : 00:05:20.94 = 14153234 samples = 24070.1 CDDA sectors
File Size : 12.9M
Bit Rate : 323k
Sample Encoding: MPEG audio (layer I, II or III)
Comments :
Title=Tragedy
Artist=Defiled
Album=Infinite Regress
Tracknumber=3
Year=2020
Genre=Technical Death

[/more]

Register
(15) AHBAnep, andreikun, atavist, Bitchkiller, CRUNCH, lary_veel, metala, Olethros, Orgasmik, SAPOGi, Tino, troll_swamp, VALERY, wanderer73, wtk.412,
Yesterday, 09:12:52 Blasphemer - The Sixth Hour (2020)
FLAC (Tracks) 523 mb
Register
(4) AHBAnep, FlammenTod666, infiltrator, Olethros,
Yesterday, 06:47:05 Angelblast - Rotting Paradise [ep] (2019)


*Artist: Angelblast
*Album: Rotting Paradise [ep]
*Year: 2019
*Genre: Black/Death Metal
*Country: International
*Format: mp3@CBR320kbps
*Size: 20MB

Tracklist:
1. Rotting Paradise 03:25
2. Descending of the Immortals 03:26
3. Incarnation of the Fallen 01:32 instrumental
******************************
Total playing time: 8:23




[more=Extended info]Sweden / Canada
Hempa Brynolfsson Guitars (2019-present)
See also: Darkened, Ordo Inferus, ex-Excruciate, ex-Mykorrhiza, ex-Obscuratum, ex-Internal Decay, ex-Carbonized
Gord Olson Vocals, Guitars (2019-present)
See also: Darkened, Demisery, Divinity, Ye Goat-Herd Gods, ex-Despirited
[youtube]Pwr_fpDP9uo[/youtube][/more]

[more=Technical info]
Input File: 02 - Descending of the Immortals.mp3
Channels : 2
Sample Rate : 44100
Precision : 16-bit
Duration : 00:03:26.07 = 9087599 samples = 15455.1 CDDA sectors
File Size : 8.40M
Bit Rate : 326k
Sample Encoding: MPEG audio (layer I, II or III)
Comments :
Title=Descending of the Immortals
Artist=AngelBlast
Album=Rotting Paradise
Tracknumber=2
Year=2019-12-20
Genre=Metal
Discnumber=1

[/more]

Register
(12) FlammenTod666, Grev, infiltrator, lldma, morbidangelo, Olethros, Ostinato, satanist666, terron, varlam4, vasiljev_sergej, wanderer73,
Yesterday, 06:01:15 Third Chamber - Harvesting Our Decay [ep] (2019)


*Artist: Third Chamber
*Album: Harvesting Our Decay [ep]
*Year: 2019
*Genre: Death Metal
*Country: Canada
*Format: mp3@CBR320kbps
*Size: 49MB

Tracklist:
1. Parasitic Communion 04:45
2. Mind Rot 03:05
3. Choke 04:07
4. Harvesting Our Decay 04:24
5. Terror Formed 04:28
******************************
Total playing time: 20:49



[more=Extended info]Jamie - Guitar
Jason - Guitar
Russ - Bass
Shane - Vocals
Dustin - Drums
[youtube]Vf3rxBW-4gs[/youtube]
[youtube]blNGaK10dM8[/youtube][/more]

[more=Technical info]
Input File: 03 - Choke.mp3
Channels : 2
Sample Rate : 44100
Precision : 16-bit
Duration : 00:04:07.08 = 10896360 samples = 18531.2 CDDA sectors
File Size : 10.1M
Bit Rate : 326k
Sample Encoding: MPEG audio (layer I, II or III)
Comments :
Title=Choke
Artist=Third Chamber
Album=Harvesting Our Decay
Tracknumber=3
Year=2019-11-22
Genre=Alternative; Indie Rock; Metal
Discnumber=1

[/more]

Register
(8) Grev, infiltrator, morbidangelo, Olethros, Ostinato, terron, thrashiac55, VALERY,
Yesterday, 05:13:02 Tzompantli - Tlamanalli [ep] (2019)


*Artist: Tzompantli
*Album: Tlamanalli [ep]
*Year: 2019
*Genre: Doom/Death Metal
*Country: United States
*Format: mp3@CBR320kbps
*Size: 48MB

Tracklist:
1. Ohtlatoc Copa Ilcahualuztli 04:31
2. Tlamanalli 06:15
3. Tlehco Tonatiuh - 1 04:26
4. Tlehco Tonatiuh - 2 05:31
******************************
Total playing time: 20:43



[more=Extended info]Bigg o))) Vocals, Guitars, Bass, Didgeridoo, Animal flute, Shells, Drum programming
See also: Mortuary Punishment, Xibalba
[youtube]5buY8eFDEIs[/youtube]
[youtube]cUnLSc5l-EI[/youtube][/more]

[more=Technical info]
Input File: 02 - Tlamanali.mp3
Channels : 2
Sample Rate : 44100
Precision : 16-bit
Duration : 00:06:15.85 = 16574853 samples = 28188.5 CDDA sectors
File Size : 15.2M
Bit Rate : 324k
Sample Encoding: MPEG audio (layer I, II or III)
Comments :
Title=Tlamanali
Artist=Tzompantli
Album=Tlamanalli
Tracknumber=2
Year=2020-01-16
Genre=Metal
Discnumber=1

[/more]

Register
(10) Doooomed, infiltrator, metala, Olethros, sergsazan, stumpheavyrock, VALERY, Wail, wanderer73, Winter Funeral,
Yesterday, 04:06:38 Ancient Knights - Camelot (2019)


*Artist: Ancient Knights
*Album: Camelot
*Year: 2019
*Genre: Epic Heavy/Power Metal
*Country: Italy
*Format: mp3@CBR320kbps
*Size: 102MB

Tracklist:
01. March of the Ancient Knights
02. Secret Castle of Love
03. The Usurper
04. Forever (Light on Me)
05. Camelot
06. Prophecy of the Magic Kingdom
07. Whispers in Shadows
08. Camelot (Italian Version)
09. Para Siempre (Verdadero Amor)
10. The Usurper (Duet Version)
******************************
Total playing time: 42:00




[more=Extended info]Andrea "King Aramald" Atzori - Songwriting, Keyboards, Orchestrations, Backing Vocals.
Atzori Marcello - Songwriting, Keyboards, Drums, Orchestrations, Arrangments, Backing Vocals.
Matt "Steel" Siddi - Lead Vocals, Backing Vocals
Fuhito Nakamura - Guitars, Lead Guitars
[youtube]1nLZcFo4UKU[/youtube]
[youtube]5eUgYffQ-w0[/youtube][/more]

[more=Technical info]
Input File: 03. The Usurper.mp3
Channels : 2
Sample Rate : 44100
Precision : 16-bit
Duration : 00:05:06.93 = 13535701 samples = 23019.9 CDDA sectors
File Size : 12.4M
Bit Rate : 322k
Sample Encoding: MPEG audio (layer I, II or III)
Comments :
Title=The Usurper
Artist=Ancient Knights
Album=Camelot
Tracknumber=3/10
Year=2019
Genre=17
Discnumber=1/1

[/more]

Register
(7) Herrant, infiltrator, Olethros, Rover, varlam4, vir2al, Сварог Барг,
Yesterday, 03:43:11 Devil Crusade - Mental Breach (2020)


*Artist: Devil Crusade
*Album: Mental Breach
*Year: 2020
*Genre: Heavy/Thrash Metal
*Country: Italy
*Format: mp3@CBR320kbps
*Size: 108MB

Tracklist:
01. Mental Breach
02. Raperiest
03. Wild Hunt
04. Search & Incinerate
05. Executioner
06. Bonobo's Nightmares
07. Veni Vidi Killing
08. Undefiled
******************************
Total playing time: 46:14



[more=Extended info]Rock'n'Blond - Guitar&Vocals
Lvpo - Bass
Ponstein - Drums
[youtube]q-GvnJG9xO8[/youtube]
[youtube]1bMTm2EIIDE[/youtube][/more]

[more=Technical info]
Input File: 03. Wild Hunt.mp3
Channels : 2
Sample Rate : 44100
Precision : 16-bit
Duration : 00:05:45.31 = 15228083 samples = 25898.1 CDDA sectors
File Size : 14.1M
Bit Rate : 328k
Sample Encoding: MPEG audio (layer I, II or III)
Comments :
Title=Wild Hunt
Artist=Devil Crusade
Album=Mental Breach
Tracknumber=3
Year=2020-01-13
Discnumber=1

[/more]

Register
(11) boby9052, cast_iron, infiltrator, metala, Olethros, postal67, Rover, sergsazan, stumpheavyrock, thrashiac55, vir2al,
Yesterday, 01:57:42 Mourned - Devoured Humanity [ep] (2019)


*Artist: Mourned
*Album: Devoured Humanity [ep]
*Year: 2019
*Genre: Death Metal
*Country: United States
*Format: mp3@CBR320kbps
*Size: 24MB

Tracklist:
1. Blue Ruin 05:09
2. Corridors of Cain 04:57
******************************
Total playing time: 10:06



[more=Technical info]
Input File: 02. Corridors of Cain.mp3
Channels : 2
Sample Rate : 44100
Precision : 16-bit
Duration : 00:04:57.40 = 13115208 samples = 22304.8 CDDA sectors
File Size : 12.3M
Bit Rate : 331k
Sample Encoding: MPEG audio (layer I, II or III)
Comments :
Title=Corridors of Cain
Artist=Mourned
Album=Devoured Humanity
Tracknumber=2/2
Year=2019
Genre=Death

[/more]

Register
(6) infiltrator, Olethros, Ostinato, terron, VALERY, wanderer73,
Yesterday, 01:34:00 Melektaus - Self Knowledge Disintegrate The Velis (2019)


*Artist: Melektaus
*Album: Self Knowledge Disintegrate The Velis
*Year: 2019
*Genre: Death Metal
*Country: Chile
*Format: mp3@CBR320kbps
*Size: 91MB

Tracklist:
1. N.O.X. The Night of Pan 04:10
2. Cursed Those Transgress Wills 03:52
3. Transmutation of Enslavering Commandments 04:07
4. Denigration of All Iniciatic Orders 03:44
5. Pneumapotheosis 03:54
6. Self-Knowledge Disintegrate the Veils 03:48
7. Purification Decree 04:36
8. Owner of Universal Laws 04:29
9. The Way of Inner Voice 04:32
******************************
Total playing time: 37:12




[more=Extended info]Francisco Cornejo Bass
See also: Denying Nazarene, Dominus Xul, ex-Dr. Zaius
Fernando Villalobos Guitars
See also: Corporatocracia, Dominus Xul
Rodolfo Sequeida Guitars, Vocals (2001-present)
See also: Denying Nazarene, Porta Daemonium, ex-Dominus Xul, ex-Trimegisto (live)
Hugo Fuenzalida Drums (2019-present)
See also: Bruma, Denying Nazarene, ex-Gneneshen, ex-Ammit, ex-Kratherion, ex-Slveary, ex-Teofobia, ex-Sheolgeenna
[youtube]G8BUgQ0gqaM[/youtube][/more]

[more=Technical info]
Input File: 03. Transmutation of Enslavering Commandments.mp3
Channels : 2
Sample Rate : 44100
Precision : 16-bit
Duration : 00:04:07.42 = 10911310 samples = 18556.6 CDDA sectors
File Size : 10.9M
Bit Rate : 353k
Sample Encoding: MPEG audio (layer I, II or III)
Comments :
Title=Transmutation of Enslavering Commandments
Artist=Melektaus
Album=Self Knowledge Disintegrate the Velis
Tracknumber=3
Year=2019

[/more]

Register
(13) AHBAnep, andreikun, atavist, infiltrator, jollo, kolpp45, metala, Olethros, Ostinato, terron, VALERY, Wail, wanderer73,
Jan 19 2020, 23:28:57 Blasphemer - The Sixth Hour (2020)


*Artist: Blasphemer
*Album: The Sixth Hour
*Year: 2020
*Genre: Technical Brutal Death Metal
*Country: Italy
*Format: mp3@CBR320kbps
*Size: 109MB

Tracklist:
1. Let Him Be Crucified 03:58
2. Hail, King of the Jews! 03:33
3. The Stumbling Block 03:58
4. Stabat Mater 04:33
5. Blessed Are the Wombs That Never Bore 01:20
6. Lord of Lies 03:36
7. Via Dolorosa 03:20
8. The Robe of Mockery 04:02
9. I.N.R.I. 04:22
10. The Sixth Hour 03:41
11. The Deposition 03:59
12. De Profundis 02:10
******************************
Total playing time: 42:32




[more=Extended info]Simone Brigo Guitars, Vocals (backing) (1998-present)
See also: Beheaded
Clod "The Ripper" De Rosa Bass (2006-present), Vocals (lead) (2017-present)
See also: Modus Delicti, ex-Darkness Thy Counts, ex-Neophyte, ex-Nobody, ex-Alice in Darkland, ex-Ira, ex-Septycal Gorge, ex-Nuclear Devastation, ex-Stygian
Nicolò Brambilla Guitars, Vocals (backing) (2016-present)
See also: Ekpyrosis, ex-Daemoniac
Davide Cazziol Drums (2017-present)
See also: ex-Mortui Corpus, The Saros Cycle, ex-Helion
[youtube]I8S9x5A9tdI[/youtube]
[youtube]A_PHrDQLImw[/youtube][/more]

[more=Technical info]
Input File: 04. Stabat Mater.mp3
Channels : 2
Sample Rate : 44100
Precision : 16-bit
Duration : 00:04:33.57 = 12064525 samples = 20517.9 CDDA sectors
File Size : 12.0M
Bit Rate : 350k
Sample Encoding: MPEG audio (layer I, II or III)
Comments :
Title=Stabat Mater
Artist=Blasphemer
Album=The Sixth Hour
Tracknumber=4
Year=2020
Genre=Technical Death/Black

[/more]

Register
(26) akym, ALEXSATHANAS, alikkon, ancientuscoronero, andreikun, atavist, Borrr, cesar, infiltrator, jollo, kimkayoung, LEGION69, Leshiy666, maochen, metala, Moonshtook, morbidangelo, older68, Olethros, Ostinato, Reverend, satanist666, terron, varlam4, Wail, yuratroll,
Jan 19 2020, 21:40:14 The Genotype - Post Humanity [ep] (2019)


*Artist: The Genotype
*Album: Post Humanity [ep]
*Year: 2019
*Genre: Melodic Death Metal
*Country: Mexico
*Format: mp3@CBR320kbps
*Size: 58MB

Tracklist:
1. Analogue Earth 03:48
2. Sentience 03:45
3. Esper 03:55
4. Obsidian 04:11
5. Magnetic Fields of Broken Aeons 03:59
6. Transcendence 05:24
******************************
Total playing time: 25:02



[more=Extended info]Humberto Rodríguez - Vocals
Manuel Antuna - Guitar
Roberto Cervera - Guitar
Felipe Lopez - Bass
Eduardo Pérez - Drums
[youtube]UAc0X6zUqAc[/youtube]
[youtube]9HrHxyISZBI[/youtube]
[youtube]81TSar7QD8w[/youtube][/more]

[more=Technical info]
Input File: 04 - Obsidian.mp3
Channels : 2
Sample Rate : 44100
Precision : 16-bit
Duration : 00:04:11.08 = 11072584 samples = 18830.9 CDDA sectors
File Size : 10.2M
Bit Rate : 323k
Sample Encoding: MPEG audio (layer I, II or III)
Comments :
Title=Obsidian
Artist=The Genotype
Album=Post Humanity
Tracknumber=4
Year=2020-01-15
Genre=Metal
Discnumber=1

[/more]

Register
(13) BugEyes, cesar, infiltrator, kimkayoung, krotovich, morbidangelo, Olethros, sadmannn, sergsazan, terron, VALERY, wanderer73, Сварог Барг,
Jan 19 2020, 20:58:20 Belore - Journey Through Mountains And Valleys (2020)


*Artist: Belore
*Album: Journey Through Mountains And Valleys
*Year: 2020
*Genre: Epic Black Metal
*Country: France
*Format: mp3@CBR320kbps
*Size: 119MB

Tracklist:
1. The Valley of the Giants
2. The Whispering Mountains
3. The Bewitching Horns
4. The Howlings Fields
5. The Initiation Ritual
6. The King's Funeral
7. The Return of the Fallen Heroes
8. The Serenity of Steel
******************************
Total playing time: 52:43




[more=Extended info]Aleevok - All instruments & lyrics
[youtube]PLlb0FIzYRg[/youtube][/more]

[more=Technical info]
Input File: 04 - The Howlings Fields.mp3
Channels : 2
Sample Rate : 44100
Precision : 16-bit
Duration : 00:05:20.43 = 14131051 samples = 24032.4 CDDA sectors
File Size : 12.8M
Bit Rate : 320k
Sample Encoding: MPEG audio (layer I, II or III)
Comments :
Title=The Howlings Fields
Artist=Belore
Album=Journey Through Mountains and Valleys
Tracknumber=4
Year=2020
Genre=Black Metal

[/more]

Register
(24) 1968_janeart, AlexSmith, atavist, djsema4, infiltrator, ironyserg, kim666, kimkayoung, mart2203, Maximvs, metala, Militia, morbidangelo, Olethros, popen13, Sanctus, sergsazan, stub888, tOmV, VALERY, vasiljev_sergej, wanderer73, zhol, Сварог Барг,
Jan 19 2020, 20:34:32 Jakem - Declive Humano (2020)


*Artist: Jakem
*Album: Declive Humano
*Year: 2020
*Genre: Thrash Metal
*Country: Costa Rica
*Format: mp3@CBR320kbps
*Size: 73MB

Tracklist:
1. Esclavos del Subsuelo 05:09
2. Miedo Etereo 03:42
3. Arquitectos de la Tempestad 03:45
4. Leviatan de Sangre Fria 04:24
5. Gobierno Genocida 04:02
6. Red de Mentiras 04:09
7. Placer Retorcido 04:57
8. Codicia Abstracta 04:03
******************************
Total playing time: 34:11




[more=Extended info]Fabián Mora Drums
Lenin Zamora Guitars (lead) (2011-present)
Christopher Calderon Leon Bass (2017-present)
See also: ex-Burial, ex-Catatonic, ex-Genital Desmembration, ex-Summon the Beast
Natalia Calderon Vocals (2018-present)
[youtube]nNH-xR0--H8[/youtube]
[youtube]hNEdziB-ECU[/youtube]
[youtube]7fF664Na0ns[/youtube][/more]

[more=Technical info]
Input File: 04. Leviatan de Sangre Fria.mp3
Channels : 2
Sample Rate : 44100
Precision : 16-bit
Duration : 00:04:23.91 = 11638255 samples = 19793 CDDA sectors
File Size : 10.7M
Bit Rate : 323k
Sample Encoding: MPEG audio (layer I, II or III)
Comments :
Title=Leviatan de Sangre Fria
Artist=Jakem
Album=Declive Humano
Tracknumber=4/8
Year=2020
Genre=9
Discnumber=1/1

[/more]

Register
(11) andreikun, boby9052, cast_iron, infiltrator, morbidangelo, Niknne, Olethros, postal67, sergsazan, stumpheavyrock, thrashiac55,
Jan 19 2020, 19:51:20 Acero Nacional - Trueno (2019)


*Artist: Acero Nacional
*Album: Trueno
*Year: 2019
*Genre: Heavy Metal
*Country: Chile
*Format: mp3@CBR320kbps
*Size: 79MB

Tracklist:
1. Volar 04:54
2. Trueno 06:49
3. Héroe 04:30
4. La red 05:03
5. Rumbo a la eternidad 05:49
6. Yo 07:03
******************************
Total playing time: 34:08



[more=Extended info]Jorge Fuentes Bass
Javier Sepúlveda Drums (2010-present)
See also: Battlerage
Andrés Fuentes Vocals (2010-present)
Cristián Kowal Guitars (2013-present)
Carolina Hernández Guitars (2017-present)
[youtube]SX_5hiyib34[/youtube][/more]

[more=Technical info]
Input File: 03 - Héroe.mp3
Channels : 2
Sample Rate : 44100
Precision : 16-bit
Duration : 00:04:30.07 = 11909999 samples = 20255.1 CDDA sectors
File Size : 11.0M
Bit Rate : 326k
Sample Encoding: MPEG audio (layer I, II or III)
Comments :
Title=Héroe
Artist=Acero Nacional
Album=Trueno
Tracknumber=3
Year=2019

[/more]

Register
(7) cast_iron, infiltrator, morbidangelo, Olethros, Rover, varlam4, Сварог Барг,
Jan 19 2020, 19:35:59 Wrathnoise - The Art Of Obscurity (2020)


*Artist: Wrathnoise
*Album: The Art Of Obscurity
*Year: 2020
*Genre: Blackened Thrash/Death Metal
*Country: Spain
*Format: mp3@CBR320kbps
*Size: 80MB

Tracklist:
1. (Prologue) Into the Mist 05:05
2. Obscured by Hatred 03:20
3. Syndrome of Blood 02:23
4. Fight Till Death 03:30
5. Zombie Christ 04:12
6. A Path to Otorten 03:45
7. New Age of Rage 04:29
8. Tenebris Waltz 02:45
9. Dominus Abyssi (Epilogue) 04:49
******************************
Total playing time: 34:18



[more=Extended info]Pepis Bass, Vocals (backing)
Peich Drums
Til Guitars, Vocals (lead)[/more]

[more=Technical info]
Input File: WRATHNOISE - The Art of Obscurity - 04 Fight till Death.mp3
Channels : 2
Sample Rate : 44100
Precision : 16-bit
Duration : 00:03:30.11 = 9266027 samples = 15758.5 CDDA sectors
File Size : 8.57M
Bit Rate : 326k
Sample Encoding: MPEG audio (layer I, II or III)
Comments :
Title=Fight till Death
Artist=WRATHNOISE
Album=The Art of Obscurity
Tracknumber=4
Year=2020

[/more]

Register
(11) atavist, Foneg, infiltrator, lldma, metala, morbidangelo, Niknne, Olethros, stumpheavyrock, thrashiac55, VALERY,
Jan 19 2020, 13:55:36 Haljoruna - Midtvinterblot (2020)


*Artist: Haljoruna
*Album: Midtvinterblot
*Year: 2020
*Genre: Black Metal
*Country: International
*Format: mp3@CBR320kbps
*Size: 78MB

Tracklist:
1. Opphav 01:46
2. Valdta Livet 05:08
3. Urds Kjelde 06:40
4. A Forest Made For You 03:41
5. Atternatt / Demonbesatt 04:39
6. Dream Spirals 03:58
7. Avmakt 04:48
8. Endelikt 02:14
******************************
Total playing time: 32:54




[more=Extended info]Sweden / Norway
[youtube]43v8t5A4NYE[/youtube][/more]

[more=Technical info]
Input File: 03 - Urds Kjelde.mp3
Channels : 2
Sample Rate : 44100
Precision : 16-bit
Duration : 00:06:40.80 = 17675104 samples = 30059.7 CDDA sectors
File Size : 16.2M
Bit Rate : 324k
Sample Encoding: MPEG audio (layer I, II or III)
Comments :
Title=Urds Kjelde
Artist=Haljōrūna
Album=Midtvinterblot
Tracknumber=3
Year=2020
Genre=Black Metal
Discnumber=1

[/more]

Register
(16) 1968_janeart, atavist, Beazth, craP_cillA, infiltrator, kim666, morbidangelo, Olethros, Sjelekval, stub888, suseka, VALERY, vasiljev_sergej, ZA670, zhol, дивин,
Jan 19 2020, 12:16:34 Dominia - The Withering Of The Rose (2020)


*Artist: Dominia
*Album: The Withering Of The Rose
*Year: 2020
*Genre: Melodic Doom/Gothic Metal
*Country: Russian Federation
*Format: mp3@CBR320kbps
*Size: 138MB

Tracklist:
1. I Want to Forget 07:28
2. My Flesh and the Sacred River 05:36
3. Suprema 07:03
4. The Light of the Black Sun 06:01
5. Entombed in Grief 05:46
6. Nomoreus 07:10
7. The Withering of the Roses 06:58
8. The Night and the Dark Room 09:06
9. The Song that You Don't Like 05:36
******************************
Total playing time: 1:00:44



Preview 3

[more=Extended info]Digital release 9 tracks
Daniel Guitars
Anton Rosa Vocals, Bass
Oleg "Papa" Filistovich Drums
Mikhail Morozkin Violin
[youtube]5yPg8FQIVls[/youtube]
[youtube]W8YvP0I2WSU[/youtube][/more]

[more=Technical info]
Input File: 4 - The Light Of The Black Sun.mp3
Channels : 2
Sample Rate : 44100
Precision : 16-bit
Duration : 00:06:00.74 = 15908810 samples = 27055.8 CDDA sectors
File Size : 14.5M
Bit Rate : 321k
Sample Encoding: MPEG audio (layer I, II or III)
Comments :
Title=The Light Of The Black Sun
Artist=Dominia
Album=The Withering Of The Rose
Tracknumber=4
Year=2020
Genre=Metal
Discnumber=1

[/more]

Register
(26) AHBAnep, Alpha_Prime, Black Cat, Bregon, Cartman223, dark1988, dulak, Farung, Ice Gnoll, infiltrator, metala, Old Vyaine, Olethros, postal67, Reverend, RUDACHUR, sarcophagus, SatanicPanzer, sergsazan, serjred, thenecromancer, tOmV, VLADISLAV_V_K, Vranakrik, woldemort, Сварог Барг,

711 Pages V   1 2 3 > » 
- Lo-Fi Version Support form
Copyrights and abuse reports form
Time is now: 21st January 2020 - 17:46:26