Welcome Guest ( Log In | Register )

История благодарностей участнику Samaritianin ::: Спасибо сказали: 288535 раз(а)
Дата поста: В теме: За сообщение: Спасибо сказали:
Today, 02:59:23 Ensom - Civilizations (2020)


*Artist: Ensom
*Album: Civilizations
*Year: 2020
*Genre: Symphonic/Melodic Black Metal
*Country: Spain
*Format: mp3@CBR320kbps
*Size: 180MB

Tracklist:
1. Civilizations 04:11
2. Determination 06:03
3. Vimana 06:40
4. Brotherhood Between Suns 06:32
5. The War 14:03
6. Revelations 03:17
7. The Eye on the Pyramid 04:51
8. Wisdom from the Stars 05:17
9. The Weight of Truth 05:29
10. Fuerzas 10:16
11. Portador de luz 11:53
******************************
Total playing time: 1:18:32




[more=Extended info]Efrem Quilis Drums, Guitars, Bass
Gessami Martíne Vocals
[youtube]JqrKGhxkBsQ[/youtube][/more]

[more=Technical info]
Input File: 04 - Brotherhood Between Suns.mp3
Channels : 2
Sample Rate : 44100
Precision : 16-bit
Duration : 00:06:33.09 = 17335445 samples = 29482 CDDA sectors
File Size : 15.8M
Bit Rate : 321k
Sample Encoding: MPEG audio (layer I, II or III)
Comments :
Title=Brotherhood Between Suns
Artist=Ensom
Album=Civilizations
Tracknumber=4
Year=2020
Genre=Black Metal

[/more]

Register
(10) ironyserg, kim666, legion01, metala, Olethros, sergsazan, toto, vasiljev_sergej, zhol, Сварог Барг,
Today, 00:21:17 Decarabion - Bastard Son Of Divinity (2020)


*Artist: Decarabion
*Album: Bastard Son Of Divinity
*Year: 2020
*Genre: Brutal Death Metal
*Country: Colombia
*Format: mp3@CBR320kbps
*Size: 74MB

Tracklist:
1. Cult of Void and Chaos
2. Unleashing Molecular War
3. Schizoid Proliferation of Insanity
4. Contemplations of Death and Decay
5. Heading to the Great Extinction
6. Eschaton Immanetized
7. Homine Morbus Est
8. Sub Especie Aeterni
******************************
Total playing time: 30:06




[more=Extended info]Mario Franco Bass
Sander Bermúdez Drums
Daniel Lara Guitars
Sebastián Guarín Vocals
[youtube]NXsZUy-ukbg[/youtube][/more]

[more=Technical info]
Input File: 04 Contemplations of Death and Decay.mp3
Channels : 2
Sample Rate : 44100
Precision : 16-bit
Duration : 00:03:51.41 = 10204961 samples = 17355.4 CDDA sectors
File Size : 9.92M
Bit Rate : 343k
Sample Encoding: MPEG audio (layer I, II or III)
Comments :
Title=Contemplations of Death and Decay
Artist=Decarabion
Album=Bastard Son of Divinity
Tracknumber=4/8
Year=2020-20-20
Genre=Metal
Discnumber=1/1

[/more]

Register
(6) 380661176558, andreikun, grimoir, Hell_Is_Here, metala, Olethros,
Yesterday, 21:39:07 Veligore - Secret Cult (2015)


*Artist: Veligore
*Album: Secret Cult
*Year: 2015
*Genre: Black Metal
*Country: United States
*Format: mp3@CBR320kbps
*Size: 116MB

Tracklist:
1. Horseman of War 04:39
2. American Black Metal 04:08
3. Secret Cult 04:58
4. Land of Darkness 05:12
5. Lucifer's Eyes 04:50
6. Name of Demon 04:56
7. Moscwin's Dolls 04:20
8. Eternal Suffer 04:36
9. Ancient Evil 04:40
10. Infernal Pursuit 03:36
11. Sword of Black Steel 04:02
******************************
Total playing time: 49:57




[more=Extended info]Glor Bass (2013-present), Drums (2013-2015), Vocals (2015-present)
Vivisector Guitars (lead) (2013-present)
See also: Green Hog Band, The Vivisectors
John Hellfire Drums (2015-present)[/more]

[more=Technical info]
Input File: 04 - Land of Darkness.mp3
Channels : 2
Sample Rate : 44100
Precision : 16-bit
Duration : 00:05:12.39 = 13776355 samples = 23429.2 CDDA sectors
File Size : 12.6M
Bit Rate : 323k
Sample Encoding: MPEG audio (layer I, II or III)
Comments :
Title=Land of Darkness
Artist=Veligore
Album=Secret Cult
Tracknumber=4/11
Year=2015

[/more]

Register
(6) Hell_Is_Here, kim666, MortSathynr, Olethros, suseka, vasiljev_sergej,
Yesterday, 21:09:43 The Splitting - Cold Eyes And Warm Flesh (2020)


*Artist: The Splitting
*Album: Cold Eyes And Warm Flesh
*Year: 2020
*Genre: Death Metal/Sludge
*Country: United States
*Format: mp3@CBR320kbps
*Size: 85MB

Tracklist:
1. Death Rots 05:43
2. Cold Eyes and Warm Flesh 08:43
3. I Am a Slave 06:35
4. The Urge 05:45
5. Burned and Torn 10:08
******************************
Total playing time: 36:54



[more=Extended info]Cody Perkins Everything (2020-present)
See also: ex-Seven Rise Up[/more]

[more=Technical info]
Input File: 04 - The Urge.mp3
Channels : 2
Sample Rate : 44100
Precision : 16-bit
Duration : 00:05:44.10 = 15174942 samples = 25807.7 CDDA sectors
File Size : 13.9M
Bit Rate : 324k
Sample Encoding: MPEG audio (layer I, II or III)
Comments :
Title=The Urge
Artist=The Splitting
Album=Cold Eyes and Warm Flesh
Tracknumber=4
Year=2020

[/more]

Register
(3) Hell_Is_Here, Olethros, sludge666,
Yesterday, 20:54:22 Energema - The King Of The Giants (2020)


*Artist: Energema
*Album: The King Of The Giants
*Year: 2020
*Genre: Power Metal
*Country: Colombia
*Format: mp3@CBR320kbps
*Size: 84MB

Tracklist:
1. The Valley of Elah 01:05 instrumental
2. The King of the Giants 04:42
3. The Last Hero 04:11
4. War of Nephilims 04:35
5. The Golden Throne 04:43
6. Wishes of Glory 04:14
7. Time of Faith 03:53
8. Tears of an Angel 03:22
9. Goliath 05:01 instrumental
******************************
Total playing time: 35:46




[more=Extended info]Camilo Duarte Bass
See also: Razo
Julian VillWolfs Drums
Jeff Castro Guitars (rhythm)
Arley Gómez Vocals
See also: ex-Altered Symmetry
Nicolas Waldo Guitars (2015-present)
See also: Fire Lineage, Nicolas Waldo, ex-Heaven Flames, ex-Vorpal Nomad
[youtube]2GBJlflVj1U[/youtube]
[youtube]Bp7NjfrxCz4[/youtube][/more]

[more=Technical info]
Input File: 05 - The Golden Throne.mp3
Channels : 2
Sample Rate : 44100
Precision : 16-bit
Duration : 00:04:44.07 = 12527531 samples = 21305.3 CDDA sectors
File Size : 11.6M
Bit Rate : 327k
Sample Encoding: MPEG audio (layer I, II or III)
Comments :
Title=The Golden Throne
Artist=Energema
Album=The King of the Giants
Tracknumber=5
Year=2020

[/more]

Register
(7) after21allD, metala, Olethros, Rover, sergsazan, wn129aa, Сварог Барг,
Yesterday, 19:32:59 Vile Cynic - Agony [ep] (2020)


*Artist: Vile Cynic
*Album: Agony [ep]
*Year: 2020
*Genre: Death/Thrash Metal
*Country: United States
*Format: mp3@CBR320kbps
*Size: 39MB

Tracklist:
1. Tools of the Tormentor 03:05
2. Blood Eagle 04:04
3. Hell Priest 03:34
4. An End to Agony 05:54
******************************
Total playing time: 16:37




[more=Extended info]AJ Miller Bass
Tim Titus Drums
Jake Banjeglav Guitars (lead)
Jake Meditz Guitars (rhythm)
Angelo Hakey Vocals
See also: Advorsa, ex-Saviour to None[/more]

[more=Technical info]
Input File: Vile Cynic - Agony - 02 Blood Eagle.mp3
Channels : 2
Sample Rate : 44100
Precision : 16-bit
Duration : 00:04:04.36 = 10776364 samples = 18327.1 CDDA sectors
File Size : 10.0M
Bit Rate : 327k
Sample Encoding: MPEG audio (layer I, II or III)
Comments :
Title=Blood Eagle
Artist=Vile Cynic
Album=Agony
Tracknumber=2
Year=2020

[/more]

Register
(3) after21allD, Olethros, sergsazan,
Yesterday, 19:02:49 Winter Nights - Winter Nights (2020)


*Artist: Winter Nights
*Album: Winter Nights
*Year: 2020
*Genre: Melodic Death Metal
*Country: United States
*Format: mp3@CBR320kbps
*Size: 66MB

Tracklist:
1. When December Burns 05:47
2. Starved For Energy 04:09
3. Withdrawals 04:11
4. Unmarked Grave 04:52
5. Day The Sun Died 04:01
6. Encounters 05:19
******************************
Total playing time: 28:19




[more=Extended info]Jeremy Farfan: Vocals and Guitar
Efrain Farfan: Guitar and Vocals
Martin Tune: Bass
Andrew Lobosco: Drums on Encounters, Unmarked Grave, and Starved For Energy
Manolo Estrada: Drums on Withdrawals, When December Burns, and Day The Sun Died[/more]

[more=Technical info]
Input File: 03 - Withdrawals.mp3
Channels : 2
Sample Rate : 44100
Precision : 16-bit
Duration : 00:04:11.91 = 11109319 samples = 18893.4 CDDA sectors
File Size : 10.2M
Bit Rate : 324k
Sample Encoding: MPEG audio (layer I, II or III)
Comments :
Title=Withdrawals
Artist=Winter Nights
Album=Winter Nights
Tracknumber=3
Year=2020

[/more]

Register
(5) Olethros, sergsazan, suseka, zhol, Сварог Барг,
Yesterday, 18:42:53 Occultarum - Successio In Abruptum (2020)


*Artist: Occultarum
*Album: Successio In Abruptum
*Year: 2020
*Genre: Occult Black Metal
*Country: Italy
*Format: mp3@CBR320kbps
*Size: 99MB

Tracklist:
1. Harpyiae
2. Sobek
3. Sekhmet
4. Ishtar
5. Asmoday
6. Beelzebuth
7. Lucifero
******************************
Total playing time: 42:24




[more=Technical info]
Input File: 02 Sobek.mp3
Channels : 2
Sample Rate : 44100
Precision : 16-bit
Duration : 00:06:14.20 = 16502264 samples = 28065.1 CDDA sectors
File Size : 15.1M
Bit Rate : 323k
Sample Encoding: MPEG audio (layer I, II or III)
Comments :
Title=Sobek
Artist=Occultarum
Album=Successio in Abruptum
Tracknumber=2
Year=2020

[/more]

Register
(11) grimoir, Hell_Is_Here, kefka, kim666, metala, Olethros, suseka, tim47, vasiljev_sergej, vov7609, Wail,
Yesterday, 17:13:15 Mr.Kill - The Day Of Reckoning [ep] (2020)


*Artist: Mr.Kill
*Album: The Day Of Reckoning [ep]
*Year: 2020
*Genre: Melodic Death Metal
*Country: Australia
*Format: mp3@CBR320kbps
*Size: 66MB

Tracklist:
1. The Descent (Intro) 01:01
2. Annihilation 05:58
3. Hatred 06:02
4. Valiant Amusement (EP Version) 05:17
5. Oblivion 06:23
6. Elegy (Outro) 01:20
******************************
Total playing time: 26:01




[more=Extended info]Toni Radi Bass
Jordan Michael Drums
Scott Henderson Guitars
Justin Ks Guitars, Vocals
[youtube]EwQh-gDXu6Q[/youtube][/more]

[more=Technical info]
Input File: 04 Valiant Amusement.mp3
Channels : 2
Sample Rate : 44100
Precision : 16-bit
Duration : 00:05:18.06 = 14026358 samples = 23854.4 CDDA sectors
File Size : 13.7M
Bit Rate : 344k
Sample Encoding: MPEG audio (layer I, II or III)
Comments :
Title=Valiant Amusement
Artist=Mrkill
Album=The Day Of Reckoning
Tracknumber=4/6
Year=2020-20-20
Genre=Metal
Discnumber=1/1

[/more]

Register
(4) Olethros, sergsazan, zhol, Сварог Барг,
Yesterday, 16:49:06 Bestial Mortem - Ascensión [ep] (2020)


*Artist: Bestial Mortem
*Album: Ascensión [ep]
*Year: 2020
*Genre: Blackened Death Metal
*Country: Chile
*Format: mp3@CBR320kbps
*Size: 54MB

Tracklist:
1. Viajero errante 03:49
2. Voluntad desarraigada 04:26
3. Enigma 05:18
4. Trascendente espíritu lóbrego 06:50
5. Exasperación 03:38
******************************
Total playing time: 24:01



[more=Extended info]Felipe Soto Drums (2014-present)
See also: Kalkumakuñ, Oricalcum, Profanación Sepulcral
Sibyllinos Inspicerent Guitars (2014-2016)
Julio Contreras Guitars (2016-present)
See also: Kalkumakuñ, NoenumPax, Pene Con Challa[/more]

[more=Technical info]
Input File: Bestial Mortem - Ascensión EP - 03 Enigma.mp3
Channels : 2
Sample Rate : 44100
Precision : 16-bit
Duration : 00:05:18.40 = 14041352 samples = 23879.9 CDDA sectors
File Size : 12.8M
Bit Rate : 322k
Sample Encoding: MPEG audio (layer I, II or III)
Comments :
Title=Enigma
Artist=Bestial Mortem
Album=Ascensión EP
Tracknumber=3
Year=2020

[/more]

Register
(4) Hell_Is_Here, Olethros, Wail, Сварог Барг,
Yesterday, 16:28:36 Falling Meat - Virus (2020)


*Artist: Falling Meat
*Album: Virus
*Year: 2020
*Genre: Death Metal
*Country: Germany
*Format: mp3@CBR320kbps
*Size: 106MB

Tracklist:
01. Intro
02. Wollust
03. Fleisch
04. Gula
05. Nebel
06. IX
07. Virus
08. Sein
09. Rebellion
******************************
Total playing time: 46:07



[more=Extended info]John Bass (2012-present)
Sasha Drums (2012-present)
See also: ex-Elysaeon, ex-Meatal Ulcer, ex-Serial Arsonist
Felix Guitars (2012-present)
Lars Vocals (lead) (2012-present)
[youtube]0Rc5Qnf6MtA[/youtube][/more]

[more=Technical info]
Input File: 05. Nebel.mp3
Channels : 2
Sample Rate : 44100
Precision : 16-bit
Duration : 00:05:17.64 = 14008056 samples = 23823.2 CDDA sectors
File Size : 12.7M
Bit Rate : 320k
Sample Encoding: MPEG audio (layer I, II or III)
Comments :
Title=Nebel
Artist=Falling Meat
Album=Virus
Tracknumber=5
Year=2020
Genre=Death

[/more]

Register
(7) andreikun, metala, Olethros, soulflesh, suseka, tim47, wn129aa,
Yesterday, 02:12:33 Unruly - Unruly (2020)


*Artist: Unruly
*Album: Unruly
*Year: 2020
*Genre: Sludge/Doom Metal
*Country: New Zealand
*Format: mp3@CBR320kbps
*Size: 109MB

Tracklist:
1. Floorboards 04:57
2. Bleach Jesus 03:54
3. Absence 04:28
4. Problem 05:09
5. Stare into the Fire 05:17
6. Unruly Family 04:14
7. Catfish Hemorrhoid 04:46
8. Primordial Hash 05:47
9. Blood of Satan 08:30
******************************
Total playing time: 47:02



[more=Extended info]S.L.D. Bass
T.R.A.P. Drums, Vocals
See also: Invertebrate, ex-Meth Drinker, ex-Baboon King, ex-Drug Problem, ex-Malparido, ex-Scab
V.V. Guitars, Vocals[/more]

[more=Technical info]
Input File: 04 - Problem.mp3
Channels : 2
Sample Rate : 44100
Precision : 16-bit
Duration : 00:05:09.59 = 13653095 samples = 23219.5 CDDA sectors
File Size : 12.6M
Bit Rate : 326k
Sample Encoding: MPEG audio (layer I, II or III)
Comments :
Title=Problem
Artist=Unruly
Album=Unruly
Tracknumber=4
Year=2020

[/more]

Register
(9) chickenfucker, infiltrator, marilin, Olethros, randumbum, sludge666, stumpheavyrock, VALERY, vosmidesijatye,
Yesterday, 01:58:09 Melissa - My Empire Has No Limits (2020)


*Artist: Melissa
*Album: My Empire Has No Limits
*Year: 2020
*Genre: Thrash/Groove Metal
*Country: Serbia
*Format: mp3@CBR320kbps
*Size: 81MB

Tracklist:
1. My Life No Surrender
2. Darkness of Love
3. My Empire Has No Limits
4. Light Work (Pozudno i nezno)
5. No Escape
6. Forgotten Love
7. Madness In My Head
8. Oci govore
******************************
Total playing time: 34:00



[more=Extended info]Dejan Stojanović DEKSTER - Ritam gitara i vokal
Miljkovic Ivan IFTA - Bubnjevi
Ilija Milosavljević - Solo gitara
Boro Radoja - Bas gitara
[youtube]MQbGWjUg674[/youtube]
[youtube]gHTHYFzaYwc[/youtube]
[youtube]ZMKvGR2njBI[/youtube][/more]

[more=Technical info]
Input File: 06 Forgotten Love.mp3
Channels : 2
Sample Rate : 44100
Precision : 16-bit
Duration : 00:06:55.94 = 18343130 samples = 31195.8 CDDA sectors
File Size : 17.0M
Bit Rate : 327k
Sample Encoding: MPEG audio (layer I, II or III)
Comments :
Title=Forgotten Love
Artist=Mélissa
Album=My Empire Has No Limits
Tracknumber=6/8
Year=2020-20-20
Genre=Rock
Discnumber=1/1

[/more]

Register
(7) after21allD, boby9052, chipsgott, infiltrator, metala, Olethros, stumpheavyrock,
Aug 1 2020, 22:34:17 Hor Zapor - Beer Best! (2020)


*Artist: Hor Zapor
*Album: Beer Best!
*Year: 2020
*Genre: Folk Metal
*Country: Russian Federation
*Format: mp3@CBR320kbps
*Size: 80MB

Tracklist:
01. Интро (AK-47 cover) 01:07
02. Играл из-за гор (Glittertind cover) 02:27
03. 3 литра пива 02:04
04. Делирий 03:17
05. Это новый Хор Запор (Trollfest cover) 01:49
06. Люблю бухать на корабле (Re-issue 2005) 02:07
07. Казачок (Re-issue 2005) 02:25
08. Железный кулак (Die Apokalyptischen Reiter cover) 02:33
09. Водка (Korpiklaani cover) 02:57
10. Витольд (Unrelease song from 2015) 04:49
11. Пусто в кружке (Tankard cover) 05:56
12. Аутро (Trollfest cover) 03:36
******************************
Total playing time: 35:07

Preview 1

[more=Extended info]Igor Ovchinnikov Accordion
Andrey Nikiforov Bass
Alexey Chalyk Drums
See also: The Prophet, Cemeterial
Mikhail Baranov Guitars
See also: Cemeterial, ex-The Prophet, ex-Vomitous Mass
Vasiliy Guliy Guitars, Vocals
See also: Lutowrat, Cemeterial, ex-The Prophet[/more]

[more=Technical info]
Input File: 10 - Витольд.mp3
Channels : 2
Sample Rate : 44100
Precision : 16-bit
Duration : 00:04:49.74 = 12777446 samples = 21730.4 CDDA sectors
File Size : 11.6M
Bit Rate : 320k
Sample Encoding: MPEG audio (layer I, II or III)
Comments :
Title=Âèòîëüä
Artist=Hor Zapor
Album=Beer Best!
Tracknumber=10
Year=2020
Genre=Metal

[/more]

Register
(9) Cartman223, chipsgott, djsema4, infiltrator, Olethros, pain, RotAnus, tamerz, wn129aa,
Aug 1 2020, 19:41:16 Vajra - Humano (2020)


*Artist: Vajra
*Album: Humano
*Year: 2020
*Genre: Heavy Metal
*Country: Argentina
*Format: mp3@CBR320kbps
*Size: 83MB

Tracklist:
1. Corriendo Libre (Tarahumara)
2. Ni un Paso Atras
3. Un Nuevo Horizonte
4. E (Inclusion)
5. El Viaje
6. Elevarse
7. Mi Decision
8. El Gigante
9. Un Nuevo Horizonte (Anticipo)
******************************
Total playing time: 35:23



[more=Extended info][youtube]jC7uz640YRI[/youtube]
[youtube]45vdyXPHTD0[/youtube][/more]

[more=Technical info]
Input File: 06 - Elevarse.mp3
Channels : 2
Sample Rate : 44100
Precision : 16-bit
Duration : 00:04:04.42 = 10778702 samples = 18331.1 CDDA sectors
File Size : 9.96M
Bit Rate : 326k
Sample Encoding: MPEG audio (layer I, II or III)
Comments :
Title=Elevarse
Artist=Vajra
Album=Humano
Tracknumber=6
Year=2020

[/more]

Register
(9) after21allD, andreikun, aviacademy, infiltrator, Olethros, randumbum, Rover, stumpheavyrock, Сварог Барг,
Aug 1 2020, 19:11:13 Brutal Pestilência - Peste, Fome E Guerra (2020)


*Artist: Brutal Pestilência
*Album: Peste, Fome E Guerra
*Year: 2020
*Genre: Death/Thrash Metal
*Country: Brazil
*Format: mp3@CBR320kbps
*Size: 102MB

Tracklist:
1. Preludio
2. Escoria da Nacao
3. Peste, Fome e Guerra
4. Assassino: Ato 2
5. Homem-Bomba
6. Tempos de Guerra
7. Vinganca
8. Campo de Batalha: Ato 1
9. Jeff The Killer
******************************
Total playing time: 43:23



[more=Extended info]Adriano Blasphemous (Guitarra e vocal)
Heber Griffin (Guitarra e vocal)
Joanilson Neto (Baixo)
Paulo Braz (Bateria)
[youtube]41FZhuVU3aA[/youtube][/more]

[more=Technical info]
Input File: 05 - Homem-Bomba.mp3
Channels : 2
Sample Rate : 44100
Precision : 16-bit
Duration : 00:05:39.87 = 14988311 samples = 25490.3 CDDA sectors
File Size : 13.9M
Bit Rate : 327k
Sample Encoding: MPEG audio (layer I, II or III)
Comments :
Title=Homem-Bomba
Artist=Brutal Pestilência
Album=Peste, Fome e Guerra
Tracknumber=5
Year=2020

[/more]

Register
(10) andreikun, boby9052, DarkHorde, infiltrator, mayrink, Olethros, randumbum, SadistikSlayer, stumpheavyrock, thrashiac55,
Aug 1 2020, 17:53:35 Imperious Vision - Empire Of Illution (2020)


*Artist: Imperious Vision
*Album: Empire Of Illution
*Year: 2020
*Genre: Technical Death Metal
*Country: South Africa
*Format: mp3@CBR320kbps
*Size: 78MB

Tracklist:
01. Intro
02. Haros
03. Vociferous Digression
04. Genocide Suicide
05. Ignatius
06. Before the Dawn
07. Even the Best of Us Are Scum
08. Empire of Illusion
******************************
Total playing time: 32:25




[more=Extended info][youtube]W_m1eavrrag[/youtube][/more]

[more=Technical info]
Input File: 05 Ignatius.mp3
Channels : 2
Sample Rate : 44100
Precision : 16-bit
Duration : 00:04:15.47 = 11266007 samples = 19159.9 CDDA sectors
File Size : 10.7M
Bit Rate : 335k
Sample Encoding: MPEG audio (layer I, II or III)
Comments :
Title=Ignatius
Artist=Imperious Vision
Album=Empire of Illution
Tracknumber=5/8
Year=2020-20-20
Genre=Alternative
Discnumber=1/1

[/more]

Register
(13) 380661176558, alikkon, chipsgott, infiltrator, maochen, metala, multizwilling, Olethros, Rosen, scorpionmk, VALERY, Vladimir, Луч,
Aug 1 2020, 17:27:53 Ammanas - Obsession Cum Peccatum (2020)


*Artist: Ammanas
*Album: Obsession Cum Peccatum
*Year: 2020
*Genre: Black Metal
*Country: Russian Federation
*Format: mp3@CBR320kbps
*Size: 68MB

Tracklist:
1. Return to Death 03:49
2. Exaltation 05:28
3. Symphony of Decay 04:46
4. Empty Throne 04:33
5. The End of All Things 06:30
6. Faces of Death 04:58
******************************
Total playing time: 30:04




[more=Extended info]Ammanas All instruments (2019-present)
See also: Agvares, Dor Feafaroth, ex-Gaktungar, ex-Лютень (live)
Ashmug Vocals (2019-present)
See also: ex-Raw Bastard
Vandal Vocals (2019-present)
See also: Agvares, Dor Feafaroth, ex-Gaktungar, ex-AntiGod Kult, ex-Xilentium
Samot Vocals (clean) (2019-present)
See also: Dor Feafaroth, ex-Gaktungar[/more]

[more=Technical info]
Input File: 02 - Exaltation.mp3
Channels : 2
Sample Rate : 44100
Precision : 16-bit
Duration : 00:05:28.70 = 14495626 samples = 24652.4 CDDA sectors
File Size : 13.2M
Bit Rate : 320k
Sample Encoding: MPEG audio (layer I, II or III)
Comments :
Title=Exaltation
Artist=Ammanas
Album=Obsession cum Peccatum
Tracknumber=2
Year=2020
Genre=Black Metal

[/more]

Register
(10) 1968_janeart, infiltrator, kim666, multizwilling, Olethros, randumbum, Rosen, scorpionmk, VALERY, vasiljev_sergej,
Aug 1 2020, 14:20:56 Cavort Usurp - Hail Nothing (2020)


*Artist: Cavort Usurp
*Album: Hail Nothing
*Year: 2020
*Genre: Black/Thrash Metal
*Country: United States
*Format: mp3@CBR320kbps
*Size: 67MB

Tracklist:
1. American Apology Tour 03:22
2. Free to Obey 02:13
3. Fire in a Vacuum 02:24
4. Number Five 02:18
5. Cannibal Capital 02:28
6. Lullaby 02:16
7. Dislike 00:26
8. Golden Rule 04:33
9. Trouble 02:51
10. Doppelgänger 04:12
11. No Reason (Minor Threat cover) 01:57
******************************
Total playing time: 29:00



[more=Extended info]Bass: Kelly Kish
Drums: Andy Burns
Guitar: Jacob Pruitt
Vocals + Lyrics: Mark Barnes[/more]

[more=Technical info]
Input File: Cavort Usurp - Hail Nothing - 10 Doppelgänger.mp3
Channels : 2
Sample Rate : 44100
Precision : 16-bit
Duration : 00:04:12.72 = 11145040 samples = 18954.1 CDDA sectors
File Size : 10.2M
Bit Rate : 323k
Sample Encoding: MPEG audio (layer I, II or III)
Comments :
Title=Doppelgänger
Artist=Cavort Usurp
Album=Hail Nothing
Tracknumber=10
Year=2020

[/more]

Register
(15) boby9052, grimoir, infiltrator, metala, multizwilling, Olethros, randumbum, Rosen, SadistikSlayer, scorpionmk, sergsazan, stumpheavyrock, suseka, vasiljev_sergej, wgs73,
Aug 1 2020, 12:28:06 Erl - Necrosterra (2020)


*Artist: Erl
*Album: Necrosterra
*Year: 2020
*Genre: Black Metal
*Country: Austria
*Format: mp3@CBR320kbps
*Size: 149MB

Tracklist:
01. Ascension
02. Memento Mori
03. Those You Deserve
04. Necrosterra
05. Erato (Contraria)
06. Tyranizer
07. Et Nunc Et Semper
08. Celebrating the Black Cult
09. Throne of Death
10. Chanson De Tristesse II
******************************
Total playing time: 1:03:31



[more=Extended info]Carcharoth Guitars (2011-2013), Vocals (2011-present)
See also: ex-Realm of Damnation
Prometheus Drums (2012-present)
See also: Infestus (live), ex-Wolfsthurn
Eligius Guitars (2012-present)
See also: ex-Syrus
Skarim Sidus Septentri Guitars (2013-present)
See also: Heydenrausch, ex-Portae Obscuritas
Molech Bass (2016-present)
[youtube]90W9D32r8gY[/youtube][/more]

[more=Technical info]
Input File: 04. Necrosterra.mp3
Channels : 2
Sample Rate : 44100
Precision : 16-bit
Duration : 00:08:08.08 = 21524108 samples = 36605.6 CDDA sectors
File Size : 20.0M
Bit Rate : 327k
Sample Encoding: MPEG audio (layer I, II or III)
Comments :
Title=Necrosterra
Artist=Erl
Album=Necrosterra
Tracknumber=4/10
Year=2020-20-20
Discnumber=1/1

[/more]

Register
(17) 1968_janeart, El_Chibo, infiltrator, kim666, Mares, Morgoth, multizwilling, Olethros, randumbum, Rosen, sabr, scorpionmk, stub888, suseka, tim47, VALERY, vasiljev_sergej,
Aug 1 2020, 12:13:20 Dkharmakhaoz - Proclamation Ov The Black Suns (2020)


*Artist: Dkharmakhaoz
*Album: Proclamation Ov The Black Suns
*Year: 2020
*Genre: Avant-Garde Black Metal
*Country: Belarus
*Format: mp3@CBR320kbps
*Size: 85MB

Tracklist:
1. The Cycle ov Omega 05:10
2. Thy Way with the Serpent Entwined 04:39
3. Beyond the Transcendental Luminescence 05:18
4. Proclamation ov the Black Suns 05:12
5. Chthonic Rites ov Fertility 04:47
6. Ascension 05:54
7. Reu Nu Pert Em Hru 04:44
******************************
Total playing time: 35:44



[more=Extended info]He All instruments
She Vocals[/more]

[more=Technical info]
Input File: 04 Proclamation Ov the Black Suns.mp3
Channels : 2
Sample Rate : 44100
Precision : 16-bit
Duration : 00:05:12.49 = 13780985 samples = 23437 CDDA sectors
File Size : 13.0M
Bit Rate : 332k
Sample Encoding: MPEG audio (layer I, II or III)
Comments :
Title=Proclamation Ov the Black Suns
Artist=Dkharmakhaoz
Album=Proclamation Ov the Black Suns
Tracknumber=4/7
Year=2020-20-20
Genre=Rock
Discnumber=1/1

[/more]

Register
(31) 1968_janeart, bubba, craP_cillA, El_Chibo, Evilded, fwwm, grimoir, Hell_Is_Here, HMHamster, infiltrator, Kaotik, LexMortis, lucifix, metala, Morgoth, Mortuusinfernus, nemx, nnnmmm, NOMIDIMON, Olethros, Ostinato, PullGrinder, rabindranad, randumbum, Rosen, SaintVitus, suseka, undeadlich, VALERY, vasiljev_sergej, yuratroll,
Aug 1 2020, 10:27:51 Apotropaico - Under Control (2020)


*Artist: Apotropaico
*Album: Under Control
*Year: 2020
*Genre: Heavy/Thrash Metal
*Country: Spain
*Format: mp3@CBR320kbps
*Size: 97MB

Tracklist:
1. Party of Death 04:57
2. Club 27 04:40
3. Voice of Power 04:42
4. Something to Say 03:20
5. Piss Me Off 04:47
6. The Hunters 05:35
7. Under Control 04:08
8. It's Thrash, Not Fucking Trash 04:21
9. Walking Out of Real 05:31
******************************
Total playing time: 42:01




[more=Extended info]Matteo Bass
Batitoni Drums, Vocals (backing)
Manda Guitars, Vocals (backing)
Dani Guitars, Vocals (backing)
Kiaro Vocals (lead)
[youtube]bM_I4zr54vI[/youtube]
[youtube]Dp3krwfPZ0Y[/youtube][/more]

[more=Technical info]
Input File: 05 - Piss Me Off.mp3
Channels : 2
Sample Rate : 44100
Precision : 16-bit
Duration : 00:04:46.47 = 12633503 samples = 21485.5 CDDA sectors
File Size : 11.6M
Bit Rate : 323k
Sample Encoding: MPEG audio (layer I, II or III)
Comments :
Title=Piss Me Off
Artist=Apotropaico
Album=Under Control
Tracknumber=5
Year=2020

[/more]

Register
(12) after21allD, aviacademy, HMHamster, infiltrator, JPV, Mares, metala, Olethros, Rosen, Rover, sergsazan, stumpheavyrock,
Aug 1 2020, 10:11:52 Rusted Coins - Tales (2020)


*Artist: Rusted Coins
*Album: Tales
*Year: 2020
*Genre: Heavy Metal
*Country: Italy
*Format: mp3@CBR320kbps
*Size: 125MB

Tracklist:
1. Fix Myself
2. Raise Your Voice
3. Black Devil
4. Riot
5. Lighthouse
6. Like This
7. Who Rises Will Fall
8. Build It Up
9. Antidote
10. My Hate
******************************
Total playing time: 54:21



[more=Extended info]Julian "Nuns" Rassler Guitars
Florian "Flöör" Malleier Guitars
Klemens "Clemente" Tschenett Drums (2015-present)
Markus "Letti" Letschka Vocals (2015-present)
Kurt "Kutte" Mair Bass (2017-present)
[youtube]MO4hyGjuPCc[/youtube][/more]

[more=Technical info]
Input File: 05 - Lighthouse.mp3
Channels : 2
Sample Rate : 44100
Precision : 16-bit
Duration : 00:04:49.45 = 12764833 samples = 21708.9 CDDA sectors
File Size : 11.7M
Bit Rate : 322k
Sample Encoding: MPEG audio (layer I, II or III)
Comments :
Title=Lighthouse
Artist=Rusted Coins
Album=Tales
Tracknumber=5
Year=2020

[/more]

Register
(14) after21allD, andreikun, aviacademy, HMHamster, infiltrator, Mares, metala, Olethros, randumbum, Rosen, Rover, sergsazan, stumpheavyrock, vir2al,
Aug 1 2020, 09:47:27 Moulderyawn - ...And What Lie 'neath Its Shade (2020)


*Artist: Moulderyawn
*Album: ...And What Lie 'neath Its Shade
*Year: 2020
*Genre: Black Metal/Ambient
*Country: United States
*Format: mp3@CBR320kbps
*Size: 111MB

Tracklist:
1. Mildewed Morn 04:52
2. Who Hath Dreamt Enchanted Dream 07:57
3. Moulderyawn; A Spell To Entwine Life & Death 09:40
4. Passage 04:58
5. The Everwood & What Lie 'Neath its Shade 13:39
6. Singing Mushrooms 07:44
******************************
Total playing time: 48:50




[more=Extended info]Aldersop Everything
[youtube]_V2BeL9MWko[/youtube][/more]

[more=Technical info]
Input File: 05 - The Everwood & What Lie \'Neath Its Shade.mp3
Channels : 2
Sample Rate : 44100
Precision : 16-bit
Duration : 00:13:39.43 = 36136775 samples = 61457.1 CDDA sectors
File Size : 33.0M
Bit Rate : 322k
Sample Encoding: MPEG audio (layer I, II or III)
Comments :
Title=The Everwood & What Lie 'Neath Its Shade
Artist=Moulderyawn
Album=...And What Lie 'Neath its Shade
Tracknumber=5
Year=2020

[/more]

Register
(12) 1968_janeart, alikkon, grimoir, infiltrator, kim666, murayne, Olethros, Ostinato, randumbum, Rosen, stub888, vasiljev_sergej,
Aug 1 2020, 09:26:33 Vomitheist - Sinister Leader Of The Vomit Cult [ep] (2020)


*Artist: Vomitheist
*Album: Sinister Leader Of The Vomit Cult [ep]
*Year: 2020
*Genre: Old School Death Metal
*Country: Switzerland
*Format: mp3@CBR320kbps
*Size: 38MB

Tracklist:
1. Strangled by Entrails 03:59
2. Tormenting Fungal Infestation 05:37
3. Epidemic Disembowelment 04:55
4. NekroFvneral 01:42
******************************
Total playing time: 16:13




[more=Extended info]Gubler Bass, Vocals (2013-present)
See also: ex-Battalion
Wöhrle Drums (2013-present)
Yänä Guitars (2013-present)
See also: ex-Behind Enemy Lines, ex-All Life Ends[/more]

[more=Technical info]
Input File: Vomitheist - Sinister Leader Of The Vomit Cult - 02 Tormenting Fungal Infestation.mp3
Channels : 2
Sample Rate : 44100
Precision : 16-bit
Duration : 00:05:38.07 = 14908843 samples = 25355.2 CDDA sectors
File Size : 13.7M
Bit Rate : 324k
Sample Encoding: MPEG audio (layer I, II or III)
Comments :
Title=Tormenting Fungal Infestation
Artist=Vomitheist
Album=Sinister Leader Of The Vomit Cult
Tracknumber=2
Year=2020

[/more]

Register
(16) andreikun, desekrator, Hell_Is_Here, infiltrator, Kaotik, Mares, Olethros, Rosen, scorpionmk, sergsazan, stumpheavyrock, Styx, VALERY, Wail, wgs73, zhol,

800 Pages V   1 2 3 > » 
- Lo-Fi Version Support form
Copyrights and abuse reports form
Time is now: 3rd August 2020 - 15:13:13