Welcome Guest ( Log In | Register )

История благодарностей участнику Samaritianin ::: Спасибо сказали: 157375 раз(а)
Дата поста: В теме: За сообщение: Спасибо сказали:
Yesterday, 23:36:03 Amenézia - Fase I (2018)


*Artist: Amenézia
*Album: Fase I
*Year: 2018
*Genre: Melodic Death Metal
*Country: Portugal
*Format: mp3@CBR320kbps
*Size: 90MB

Tracklist:
1. Fase I 01:49
2. Desse Sangue 05:59
3. Escravo 03:23
4. Não Cruzes os Braços 03:58
5. Condenados 07:16
6. Tarde Demais 05:45
7. Passagem 03:40
8. Nada Volta 07:50
******************************
Total playing time: 39:40




[more=Extended info]Amadeu Marinho Bass
Fábio Santos Drums
Vitor Silva Guitars
Alex Silva Vocals, Guitars[/more]

[more=Technical info]
Input File: 02 - Desse Sangue.mp3
Channels : 2
Sample Rate : 44100
Precision : 16-bit
Duration : 00:05:59.91 = 15871899 samples = 26993 CDDA sectors
File Size : 14.4M
Bit Rate : 320k
Sample Encoding: MPEG audio (layer I, II or III)
Comments :
Title=Desse Sangue
Artist=Amenézia
Album=Fase I
Tracknumber=2
Year=2018
Genre=Death Metal

[/more]

Register
(3) infiltrator, Ludwig Hagen, SymbyoticEntity,
Yesterday, 15:10:28 Kill Everything - Scorched Earth (2018)


*Artist: Kill Everything
*Album: Scorched Earth
*Year: 2018
*Genre: Brutal Death Metal
*Country: United States
*Format: mp3@CBR320kbps
*Size: 77MB

Tracklist:
1. Kill Everything
2. Scorched Earth
3. Intrinsic Vexation
4. Bereft Of Humanity
5. Thermal Liquidation
6. It's A Wonderful Knife
7. Laid To Waste
8. Carnivorous Lunar Activities
******************************
Total playing time: 30:31




[more=Extended info]Michael Majewski (ex-Devourment) - Vocals
Brian Wynn (ex-Devourment, ex-Meshiha) - Guitar
Weston Wylie (Meshiha, Primordius, The Luteal Phase) - Guitar
Jeff Huffman (Primordius) - Bass
Shane Newbrough (Adipocere, Dead Of Night, ex-Worm Food, ex-First Dead Witness, ex-Fjellsiam, ex-Day Of Revelation) - Drums
[youtube]QZz8_2xodTM[/youtube][/more]

[more=Technical info]
Input File: 04 Bereft Of Humanity.mp3
Channels : 2
Sample Rate : 44100
Precision : 16-bit
Duration : 00:04:16.25 = 11300581 samples = 19218.7 CDDA sectors
File Size : 11.2M
Bit Rate : 350k
Sample Encoding: MPEG audio (layer I, II or III)
Comments :
Title=Bereft Of Humanity
Artist=Kill Everything
Album=Scorched Earth
Tracknumber=04
Year=2018
Genre=Brutal Death Metal

[/more]

Register
(9) Adskij, andreikun, Chasm, jollo, MeathookSeed, Ostinato, SymbyoticEntity, terron, WX419,
Yesterday, 14:37:36 Puncture Wound - Brutal Butchery Of Bargain Basement Bodies [ep] (2017)


*Artist: Puncture Wound
*Album: Brutal Butchery Of Bargain Basement Bodies [ep]
*Year: 2017
*Genre: Death Metal
*Country: Australia
*Format: mp3@CBR320kbps
*Size: 28MB

Tracklist:
1. Gorruption 02:51
2. Indiscriminate Slaughter 02:54
3. Barbed Wire Suicide 02:50
4. Aceldama 03:44
******************************
Total playing time: 12:19



[more=Extended info]Alix Bandiera Drums
Aaron Carey Guitars (lead)
Trigger Finger Trav Guitars (rhythm)
Beau Beale Bass
Gene Waltham Vocals (lead)
[youtube]ge3qCtmO_7Y[/youtube][/more]

[more=Technical info]
Input File: 03 Barbed Wire Suicide.mp3
Channels : 2
Sample Rate : 44100
Precision : 16-bit
Duration : 00:02:50.72 = 7528840 samples = 12804.1 CDDA sectors
File Size : 6.83M
Bit Rate : 320k
Sample Encoding: MPEG audio (layer I, II or III)
Comments :
Title=Barbed Wire Suicide
Artist=Puncture Wound
Album=Brutal Butchery Of Bargain Basement Bodies (EP)
Tracknumber=3
Year=2017
Genre=Death Metal
Discnumber=1

[/more]

Register
(6) djsema4, Ostinato, SymbyoticEntity, terron, THROWER666, VALERY,
Yesterday, 14:10:28 Aghor - Graves With No Crosses [ep] (2018)


*Artist: Aghor
*Album: Graves With No Crosses [ep]
*Year: 2018
*Genre: Old School Death Metal
*Country: Estonia
*Format: mp3@CBR320kbps
*Size: 33MB

Tracklist:
1. Deranged & Unhinged 03:31
2. The Stack 03:36
3. Bound To Decay 03:45
4. Graves With No Crosses 03:41
******************************
Total playing time: 14:33




[more=Extended info]Erki - vocals
Gates - guitars
Jan - bass
Rain - drums[/more]

[more=Technical info]
Input File: 03 - Bound To Decay.mp3
Channels : 2
Sample Rate : 44100
Precision : 16-bit
Duration : 00:03:45.01 = 9922721 samples = 16875.4 CDDA sectors
File Size : 9.00M
Bit Rate : 320k
Sample Encoding: MPEG audio (layer I, II or III)
Comments :
Title=Bound To Decay
Artist=Aghor
Album=Graves With No Crosses
Tracknumber=3
Year=2018
Genre=Death Metal

[/more]

Register
(11) andreikun, Anhra Mainyu, Konungr, MeathookSeed, Ostinato, Sabbathian, Styx, SymbyoticEntity, terron, umnaxtet, VALERY,
Yesterday, 06:02:19 Green Dragon - Green Dragon (2018)


*Artist: Green Dragon
*Album: Green Dragon
*Year: 2018
*Genre: Stoner/Doom Metal
*Country: United States
*Format: mp3@CBR320kbps
*Size: 65MB

Tracklist:
1. Eternal Pyre 04:26
2. Full Moon 04:08
3. Poison Finger 04:36
4. IV 05:25
5. Dark Rider 04:28
6. Dead Space 04:51
******************************
Total playing time: 27:54




[more=Extended info]Jennifer Klein: Bass
Ryan Lipynsky: Guitar
Nathan Wilson: Drums
Zack Kurland: Guitar +Vocals[/more]

[more=Technical info]
Input File: 02 - Full Moon.mp3
Channels : 2
Sample Rate : 44100
Precision : 16-bit
Duration : 00:04:08.78 = 10971242 samples = 18658.6 CDDA sectors
File Size : 10.2M
Bit Rate : 327k
Sample Encoding: MPEG audio (layer I, II or III)
Comments :
Title=Full Moon
Artist=Green Dragon
Album=Green Dragon
Tracknumber=2
Year=2018
Genre=Doom Metal

[/more]

Register
(9) djsema4, infiltrator, KVRT, marilin, Ostinato, SatanicPanzer, scorn33, stub888, VALERY,
Yesterday, 05:36:17 Psychaotic - Psychaotic (2017)


*Artist: Psychaotic
*Album: Psychaotic
*Year: 2017
*Genre: Brutal Death Metal/Grindcore
*Country: Germany
*Format: mp3@CBR320kbps
*Size: 84MB

Tracklist:
1. Impermanence 02:38
2. Disclosure of a Mentality 01:17
3. God Lived as a Devil Dog 03:31
4. State to Rock 03:37
5. From Deep Down Below 04:29
6. Winterschlaf 03:03
7. Urban Style Brutality 03:49
8. Reappear 02:20
9. Circles Demised 04:04
10. Delusions of Grandeur 07:17
******************************
Total playing time: 36:05




[more=Extended info]Liviu Mantescu Bass
Karl Mergen Drums
Peter Junge Guitars
Jens "Cannibaloki" Staschel Vocals[/more]

[more=Technical info]
Input File: 03 - God Lived As a Devil Dog.mp3
Channels : 2
Sample Rate : 44100
Precision : 16-bit
Duration : 00:03:31.11 = 9309819 samples = 15833 CDDA sectors
File Size : 8.62M
Bit Rate : 327k
Sample Encoding: MPEG audio (layer I, II or III)
Comments :
Title=God Lived As a Devil Dog
Artist=Psychaotic
Album=Psychaotic
Tracknumber=3/10
Year=2017

[/more]

Register
(6) andreikun, infiltrator, jollo, metala, Ostinato, terron,
Yesterday, 02:19:35 Abysmal Torment - The Misanthrope (2018)


*Artist: Abysmal Torment
*Album: The Misanthrope
*Year: 2018
*Genre: Brutal Death Metal
*Country: Malta
*Format: mp3@CBR128kbps
*Size: 29MB

Tracklist:
1. Revelation
2. The Misanthrope
3. Second Death
4. Squalid Thoughts
5. Dread
6. Path Of Impiety
7. The Pessimist
8. Strains Of Brutality
9. Worship None
10. Iconoclast
******************************
Total playing time: 31:27




[more=Extended info]Nick Farrugia - Vox
David Depasquale - Guitars
Max Vassallo - Drums
Kurt Pace - Guitars
Melchior Borg - Vox
Karl Romano - Bass[/more]

[more=Technical info]
Input File: 02. The Misanthrope.mp3
Channels : 2
Sample Rate : 44100
Precision : 16-bit
Duration : 00:03:23.44 = 8971792 samples = 15258.1 CDDA sectors
File Size : 3.26M
Bit Rate : 128k
Sample Encoding: MPEG audio (layer I, II or III)
Comments :
Title=The Misanthrope
Artist=Abysmal Torment
Album=The Misanthrope
Tracknumber=2
Year=2018
Genre=Death Metal

[/more]

Register
(7) ALEXSATHANAS, BERZERK, infiltrator, jollo, metala, respect, uk82,
Yesterday, 01:35:54 Hrothgar - First Blood [ep] (2018)


*Artist: Hrothgar
*Album: First Blood [ep]
*Year: 2018
*Genre: Melodic Death Metal
*Country: France
*Format: mp3@CBR320kbps
*Size: 49MB

Tracklist:
1. Wrath of Odinson 05:08
2. Revenge of Nidhogg 05:03
3. Fight or Crime 04:45
4. Giants of Ice 06:51
******************************
Total playing time: 21:47




[more=Extended info]Google Play Rip
Bertrand Paradis Bass
Sébastien Guibal Guitars
Tristan Vatrain Guitars, Vocals
Quentin Peyrouse Vocals
Sébastien Couriol Drums
[youtube]WCava__EQ3o[/youtube][/more]

[more=Technical info]
Input File: 03 - Fight of Crime.mp3
Channels : 2
Sample Rate : 44100
Precision : 16-bit
Duration : 00:04:45.14 = 12574718 samples = 21385.6 CDDA sectors
File Size : 11.4M
Bit Rate : 320k
Sample Encoding: MPEG audio (layer I, II or III)
Comments :
Title=Fight of Crime
Artist=Hrothgar
Album=First Blood
Tracknumber=3
Year=2018
Genre=Death Metal

[/more]

Register
(6) FuneralWolf, infiltrator, Ostinato, SymbyoticEntity, terron, VALERY,
Jul 20 2018, 20:39:51 Extinction - Featherfall [ep] (2018)


*Artist: Extinction
*Album: Featherfall [ep]
*Year: 2018
*Genre: Melodic Death Metal
*Country: Germany
*Format: mp3@CBR320kbps
*Size: 58MB

Tracklist:
01. The Apprentice 04:47
02. Where It Will End 04:20
03. Featherfall 05:10
04. Farewell 05:12
05. Chorus of Isolation 05:06
******************************
Total playing time: 24:35



[more=Extended info]Manuel (Vocals)
Benny (Guitar, Backing Vocals)
Chris (Guitar)
Basti (Bass)
Danilo (Drums)
[youtube]CqSfO1fXk-U[/youtube][/more]

[more=Technical info]
Input File: 02. Where It Will End.mp3
Channels : 2
Sample Rate : 44100
Precision : 16-bit
Duration : 00:04:20.38 = 11482758 samples = 19528.5 CDDA sectors
File Size : 10.7M
Bit Rate : 328k
Sample Encoding: MPEG audio (layer I, II or III)
Comments :
Title=Where It Will End
Artist=Extinction
Album=Featherfall
Tracknumber=2/5
Year=2018
Discnumber=1/1

[/more]

Register
(7) djsema4, infiltrator, Mihalik, Ostinato, SymbyoticEntity, terron, VALERY,
Jul 20 2018, 20:04:40 Beyond Doubts Shadow - The Murder Protocol (2018)


*Artist: Beyond Doubts Shadow
*Album: The Murder Protocol
*Year: 2018
*Genre: Progressive Death Metal
*Country: United States
*Format: mp3@CBR320kbps
*Size: 105MB

Tracklist:
01. Dis_so_nance
02. Free Continental Breakfast
03. Father's Right Hand
04. Darkness Fading
05. The Endless Fall
06. Invoke the Ire
07. Feed the Tyrant (feat. Sean Reynolds)
08. Blue Balls
09. Gravitas
10. The Revelation
******************************
Total playing time: 44:23




[more=Extended info](Vocals) Tom Valenzuela
(Guitar) Josh Julien
(Guitar) Travis Giulietti
(Bass) Clay Brackley
(Drummer) Derek Birdsall[/more]

[more=Technical info]
Input File: 02. Free Continental Breakfast.mp3
Channels : 2
Sample Rate : 44100
Precision : 16-bit
Duration : 00:04:59.80 = 13221224 samples = 22485.1 CDDA sectors
File Size : 12.4M
Bit Rate : 330k
Sample Encoding: MPEG audio (layer I, II or III)
Comments :
Title=Free Continental Breakfast
Artist=Beyond Doubts Shadow
Album=The Murder Protocol
Tracknumber=2/10
Year=2018
Discnumber=1/1

[/more]

Register
(5) infiltrator, metala, Ostinato, SymbyoticEntity, VALERY,
Jul 20 2018, 19:47:54 Vile Secretion - Desolation Process [ep] (2018)


*Artist: Vile Secretion
*Album: Desolation Process [ep]
*Year: 2018
*Genre: Death Metal
*Country: United States
*Format: mp3@CBR320kbps
*Size: 25MB

Tracklist:
1. Necrophilic Inclination 03:03
2. Desolation Process 03:11
3. Synthetic Salvation 04:28
******************************
Total playing time: 10:42


Preview 2


[more=Extended info]Vile Secretion is Chicago's newest death metal act. Featuring former members of Oceano, Warhound, Monsters, and Jerome.
[youtube]BCH0I9YtLkc[/youtube][/more]

[more=Technical info]
Input File: 02. Desolation Process.mp3
Channels : 2
Sample Rate : 44100
Precision : 16-bit
Duration : 00:03:11.70 = 8453970 samples = 14377.5 CDDA sectors
File Size : 7.67M
Bit Rate : 320k
Sample Encoding: MPEG audio (layer I, II or III)
Comments :
Title=Desolation Process
Artist=Vile Secretion
Album=Desolation Process (EP)
Tracknumber=2
Year=2018
Genre=Death Metal

[/more]

Register
(5) infiltrator, Ostinato, SymbyoticEntity, terron, VALERY,
Jul 20 2018, 19:02:48 Sis - Karanlığın Fısıltıları (2018)
Cloud Mail 320
Register
(1) kauyumari,
Jul 20 2018, 04:21:13 Torrent - Breaking The Elements (2018)
Cloud Mail 320
Register
(4) Diflock, infiltrator, Ostinato, SymbyoticEntity,
Jul 20 2018, 04:16:25 Sis - Karanlığın Fısıltıları (2018)


*Artist: Sis
*Album: Karanlığın Fısıltıları
*Year: 2018
*Genre: Blackened Doom Metal
*Country: Turkey
*Format: mp3@CBR320kbps
*Size: 106MB

Tracklist:
01. Sis (feat. Ali Bayar) 07:24
02. Çöl 04:33
03. Zahiri 06:57
04. Har 05:27
05. Hiç (feat. Amras Numenesse) 05:30
06. Zindan 06:25
07. Zaman 05:25
08. Sır 06:47
******************************
Total playing time: 48:28




[more=Extended info]Özgür Gümüş Bass (2013-present)
İsmail Gürbüz Drums (2013-present)
Murat Aşer Guitars (lead) (2013-present)
Şevki Parlar Guitars (rhythm) (2013-present)
Jass Lee Mor Vocals (2013-present)
[youtube]z9AIgSrG8lk[/youtube][/more]

[more=Technical info]
Input File: 03.Zahiri.mp3
Channels : 2
Sample Rate : 44100
Precision : 16-bit
Duration : 00:06:56.17 = 18352965 samples = 31212.5 CDDA sectors
File Size : 16.6M
Bit Rate : 320k
Sample Encoding: MPEG audio (layer I, II or III)
Comments :
Title=Zahiri
Artist=SİS
Album=Karanlığın Fısıltıları
Tracknumber=3
Year=2018
Genre=Metal

[/more]

Register
(5) Guns, metala, Ostinato, SatanicPanzer, VALERY,
Jul 20 2018, 04:08:45 Finnr's Cane - Elegy (2018)
Cloud Mail 320
Register
(7) djsema4, Ostinato, pfk505, Shadechaser, SilentNidhogg, SyncestrA, vasiljev_sergej,
Jul 20 2018, 04:04:23 Abduction - A Crown Of Curses (2018)
Cloud Mail 320
Register
(6) 1968_janeart, kauyumari, marilin, michelver, Ostinato, vasiljev_sergej,
Jul 20 2018, 03:48:47 Armies Of Death - Heretic Dominion (2018)
Cloud Mail 320
Register
(5) boby9052, Diflock, sergsazan, SymbyoticEntity, vasiljev_sergej,
Jul 20 2018, 03:46:21 Runemagick - Evoked From Abysmal Sleep (2018)
На бандкампе 10 треков Track 5 and 8 only released on this bandcamp version
Cloud Mail 320
Register
(11) Amsterdam, Beazth, FUDEDOR, kauyumari, Lightbringer, maochen, older68, recber, Shadechaser, vasilisk, Луч,
Jul 20 2018, 03:42:39 Proliferation - Woodborn (2018)
Cloud Mail 320
Register
(2) older68, SymbyoticEntity,
Jul 20 2018, 03:41:13 Extremity - Coffin Birth (2018)
Cloud Mail 320
Register
(5) Beazth, fracture, kauyumari, Ostinato, SymbyoticEntity,
Jul 20 2018, 02:12:47 Runemagick - Evoked From Abysmal Sleep (2018)


*Artist: Runemagick
*Album: Evoked From Abysmal Sleep
*Year: 2018
*Genre: Doom/Death Metal
*Country: Sweden
*Format: mp3@CBR320kbps
*Size: 104MB

Tracklist:
01. After the End They Rise Again 02:51
02. Evoked from Abysmal Sleep 05:19
03. Runes of the Undead 06:04
04. A Rising Fume of Returning Death 07:53
05. Wisdom Keepers Resurrected 06:14
06. An Anthem of Olden Magic 05:40
07. Tomb to Womb 08:11
08. A Shining Spirit from Beyond 02:56
******************************
Total playing time: 45:08



[more=Extended info]Nicklas "Terror" Rudolfsson Vocals, Guitars (1990-2007, 2017-present)
See also: Domedag, Heavydeath, Necrocurse, Rapid Terrör, Saltas, The Funeral Orchestra, ex-Bells of Doom, ex-Masticator, ex-Swordmaster, ex-Deathwitch, ex-Sacramentum, ex-Varulv
Emma Rudolfsson Bass (2000-2007, 2017-present)
See also: ex-Dracena
Daniel Moilanen Drums, Percussion (2000-2007, 2017-present)
See also: Heavydeath, Katatonia, ex-Mnemonic, ex-Dracena, ex-Lord Belial, ex-Sandalinas, ex-The Project Hate MCMXCIX, ex-Grindnecks, ex-Relevant Few, ex-Engel, ex-Pen Expers[/more]

[more=Technical info]
Input File: 03 Runes of the Undead.mp3
Channels : 2
Sample Rate : 44100
Precision : 16-bit
Duration : 00:06:04.72 = 16084064 samples = 27353.9 CDDA sectors
File Size : 14.6M
Bit Rate : 320k
Sample Encoding: MPEG audio (layer I, II or III)
Comments :
Title=Runes of the Undead
Artist=Runemagick
Album=Evoked from Abysmal Sleep
Tracknumber=3/8
Year=2018
Genre=Death Metal
Discnumber=1/1

[/more]

Register
(35) andreikun, BERZERK, Bloodn Lord, cancer1974, DarkHorde, doomTemplar, EpicDoomLord, Golodomor, Guns, insufferable, LEGION69, marilin, metala, Mist13Signifier, NickKot, Ostinato, pfk505, recber, ripper33, russ777, Sabbathian, sacredserenity, samokot, SatanicPanzer, sergsazan, suseka, terron, THROWER666, Tino, tOmV, VALERY, vyacheslav, xska, Zenial, Луч,
Jul 20 2018, 01:55:00 Armies Of Death - Heretic Dominion (2018)


*Artist: Armies Of Death
*Album: Heretic Dominion
*Year: 2018
*Genre: Black/Thrash Metal
*Country: Mexico
*Format: mp3@CBR320kbps
*Size: 140MB

Tracklist:
01. Back To Hell 06:57
02. Souls of the Forgotten 04:43
03. Armies of Death 03:40
04. Reborn from Ashes 05:03
05. Thrasher Respect 03:43
06. Sinister Chaos 04:27
07. Tenebrarum Noctem 04:04
08. Smell of Death 04:28
09. Victims of Hate 06:43
10 Purified by Fire 07:10
11. The Final 04:51
12. Mourning Palace (Dimmu Borgir Cover) 05:00
******************************
Total playing time: 1:00:49



[more=Extended info]Julen - Bajo
David - Guitarra y voz
Ulises - Batería
Sharim - Guitarra
Abbey - Vocalista
Emanuel - Keyboards
[youtube]24ayCUeDOzg[/youtube][/more]

[more=Technical info]
Input File: 03 Armies of Death.mp3
Channels : 2
Sample Rate : 44100
Precision : 16-bit
Duration : 00:03:40.99 = 9745439 samples = 16573.9 CDDA sectors
File Size : 8.84M
Bit Rate : 320k
Sample Encoding: MPEG audio (layer I, II or III)
Comments :
Title=Armies of Death
Artist=Armies of Death
Album=Heretic Dominion
Tracknumber=3/12
Year=2018
Genre=Black Metal
Discnumber=1/1

[/more]

Register
(10) DarkHorde, Diflock, metala, neoatheist, Orkkh, sergsazan, SilentNidhogg, SymbyoticEntity, THROWER666, wgs73,
Jul 20 2018, 01:29:44 Proliferation - Woodborn (2018)


*Artist: Proliferation
*Album: Woodborn
*Year: 2018
*Genre: Progressive/Technical Death Metal
*Country: United States
*Format: mp3@CBR320kbps
*Size: 103MB

Tracklist:
1. Memories of a False Home 07:02
2. Adorned with Mud 04:12
3. Woodborn 08:50
4. The Council of Elders 06:14
5. Ordealis I: Condemned 05:19
6. Ordealis II: Benevolence 03:55
7. Aura of Ash 08:14
******************************
Total playing time: 43:46




[more=Extended info]Brody Smith Drums
Brandon Iacovella Guitar, Acoustic Guitar, Vocals
Matthew Longerbeam Guitar, Vocals
Philippe DeLage Bass
[youtube]EpJQ4rjj2i4[/youtube][/more]

[more=Technical info]
Input File: 03 Woodborn.mp3
Channels : 2
Sample Rate : 44100
Precision : 16-bit
Duration : 00:08:50.87 = 23411191 samples = 39815 CDDA sectors
File Size : 21.7M
Bit Rate : 327k
Sample Encoding: MPEG audio (layer I, II or III)
Comments :
Title=Woodborn
Artist=Proliferation
Album=Woodborn
Tracknumber=3/7
Year=2018
Genre=Death Metal
Discnumber=1/1

[/more]

Register
(12) Hallelucination, lary_veel, metala, neoatheist, Ostinato, SatanicPanzer, SymbyoticEntity, terron, VALERY, vyacheslav, Луч, скептик,
Jul 20 2018, 01:27:13 Mythologyca - Lady Of The Crows (2018)


*Artist: Mythologyca
*Album: Lady Of The Crows
*Year: 2018
*Genre: Heavy Metal
*Country: Brazil
*Format: mp3@CBR320kbps
*Size: 102MB

Tracklist:
01. Prelude to The Crows Daybreak
02. Lady of The Crows
03. Persephone
04. Rock T-Shirt
05. Bat Eater
06. Borderline Fairy
07. Morgan Le Fay
08. B.A.C.O.
09. Aurora
10. Wandering
******************************
Total playing time: 43:40



[more=Extended info]Marco Bührer - Vocals
Vika Viante - Guitars
André Mares - Drums
Tarlis Vinci - Bass
Giovanni Vicentin - Keyboards
[youtube]ArM0VXWl0jM[/youtube][/more]

[more=Technical info]
Input File: 03. Persephone.mp3
Channels : 2
Sample Rate : 44100
Precision : 16-bit
Duration : 00:00:00.24 = 10628 samples = 18.0748 CDDA sectors
File Size : 9.82M
Bit Rate : 326M
Sample Encoding: MPEG audio (layer I, II or III)
Comments :
Title=Persephone
Artist=Mythologyca
Album=Lady Of The Crows
Tracknumber=3/10
Year=2018-18-20
Discnumber=1/1

[/more]

Register
(4) metala, Rover, sergsazan, vir2al,
Jul 20 2018, 01:02:49 Ineffable Demise - Beyond The Marrow Gates (2018)


*Artist: Ineffable Demise
*Album: Beyond The Marrow Gates
*Year: 2018
*Genre: Brutal Death Metal
*Country: Unknown
*Format: mp3@CBR320kbps
*Size: 66MB

Tracklist:
1. Limbo 02:55
2. Tower 03:13
3. Conflagration 02:00
4. Tyranny 03:15
5. Engine Block 01:01
6. Playrooms 02:43
7. Undercity 02:56
8. Pummel 04:04
9. Abolition 04:18
******************************
Total playing time: 26:25




[more=Extended info]International: UK / USA / Russian Federation

James Shuster - Vox,
Tom Allott - Guitars,
Chris Stratton - Bass,
Roman Tyutin - Session Drums.
[youtube]YBISVJIH6Us[/youtube][/more]

[more=Technical info]
Input File: Ineffable Demise - Beyond The Marrow Gates - 04 Tyranny.mp3
Channels : 2
Sample Rate : 44100
Precision : 16-bit
Duration : 00:03:15.07 = 8602455 samples = 14630 CDDA sectors
File Size : 8.02M
Bit Rate : 329k
Sample Encoding: MPEG audio (layer I, II or III)
Comments :
Title=Tyranny
Artist=Ineffable Demise
Album=Beyond The Marrow Gates
Tracknumber=4
Year=2018

[/more]

Register
(7) andreikun, Chasm, jollo, maochen, older68, SymbyoticEntity, vyacheslav,

471 Pages V   1 2 3 > » 
- Lo-Fi Version Support form
Copyrights and abuse reports form
Time is now: 22nd July 2018 - 15:46:11