Welcome Guest ( Log In | Register )

История благодарностей участнику Samaritianin ::: Спасибо сказали: 221368 раз(а)
Дата поста: В теме: За сообщение: Спасибо сказали:
Today, 01:30:23 Killing - Raise Your Anger [single] (2019)


*Artist: Killing
*Album: Raise Your Anger [single]
*Year: 2019
*Genre: Old School Thrash Metal
*Country: Denmark
*Format: mp3@CBR320kbps
*Size: 17MB

Tracklist:
1. Raise Your Anger 03:48
2. Killing Time 03:25
******************************
Total playing time: 7:13




[more=Extended info]Vocals/bass – Rasmus Soelberg
Guitar – Snade
Guitar – Rasmus Holm Sørensen
Drums – Jesper Fogh Skousen
[youtube]SgxNX82CrNU[/youtube][/more]

[more=Technical info]
Input File: 01 - Raise Your Anger.mp3
Channels : 2
Sample Rate : 44100
Precision : 16-bit
Duration : 00:03:48.19 = 10063267 samples = 17114.4 CDDA sectors
File Size : 9.33M
Bit Rate : 327k
Sample Encoding: MPEG audio (layer I, II or III)
Comments :
Title=Raise Your Anger
Artist=Killing
Album=Raise Your Anger
Tracknumber=1
Year=2019-06-14
Genre=Metal
Discnumber=1

[/more]

Register
(4) ahp, boby9052, Diflock, sergsazan,
Today, 00:35:45 Haruspex Ritual - Ritual [ep] (2019)


*Artist: Haruspex Ritual
*Album: Ritual [ep]
*Year: 2019
*Genre: Black Metal
*Country: Finland
*Format: mp3@CBR320kbps
*Size: 26MB

Tracklist:
1. │ 02:33
2. ││ 02:45
3. │││ 02:22
4. ││││ 03:15
******************************
Total playing time: 10:55



[more=Extended info]Haruspex Everything[/more]

[more=Technical info]
Input File: Haruspex Ritual - Ritual - 04 ││││.mp3
Channels : 2
Sample Rate : 44100
Precision : 16-bit
Duration : 00:03:15.54 = 8623182 samples = 14665.3 CDDA sectors
File Size : 7.96M
Bit Rate : 326k
Sample Encoding: MPEG audio (layer I, II or III)
Comments :
Title=││││
Artist=Haruspex Ritual
Album=Ritual
Tracknumber=4
Year=2019

[/more]

Register
(5) kim666, satanist666, Styx, vasiljev_sergej, wendigo,
Yesterday, 23:45:24 Golgotha - Erasing The Past (2019)
Cloud Mail 320
Register
(4) doomTemplar, nsmetalhead, postal67, Sanctus,
Yesterday, 23:26:15 The Bleeding - Death Eternal [ep] (2013)
ЦИТАТА(tristan1331 @ 21st October 2019 - 23:01:35) *
Re-upload?

320 55 mb
Register
(1) satanist666,
Yesterday, 23:20:30 Dead Vertical - XVII (2019)


*Artist: Dead Vertical
*Album: XVII
*Year: 2019
*Genre: Death Metal/Grindcore
*Country: Indonesia
*Format: mp3@CBR320kbps
*Size: 82MB

Tracklist:
1. Kill the Wall 00:49
2. TV Pembodohan 01:42
3. Minus Toleransi 01:13
4. Gadget Slave 00:36
5. Bajingan Jalanan 01:51
6. Doktrinator Teror 01:31
7. Jalang 00:46
8. Bloody Road 01:56
9. Gugur Muda 02:59
10. Bulungan Bergetar 02:07
11. Low Generation 02:09
12. Lembah Hitam Biologis 01:45
13. Si Mulut Besar 00:59
14. Senja Liar 01:31
15. Dimensi Fatamorgana 02:13
16. Buronan 73 01:26
17. 17+ 04:33 instrumental
18. Elektro Visual Adiktif 02:13
******************************
Total playing time: 32:19




[more=Extended info]Deadbonz Bass, Vocals (backing)
Boybleh Guitars, Vocals (backing), Vocals
Aryablood Drums
[youtube]D4izTGd6rfQ[/youtube][/more]

[more=Technical info]
Input File: 09. Gugur Muda.mp3
Channels : 2
Sample Rate : 44100
Precision : 16-bit
Duration : 00:02:59.34 = 7909026 samples = 13450.7 CDDA sectors
File Size : 7.62M
Bit Rate : 340k
Sample Encoding: MPEG audio (layer I, II or III)
Comments :
Title=Gugur Muda
Artist=Dead Vertical
Album=XVII (320)
Tracknumber=09
Year=2019
Genre=Metal

[/more]

Register
(1) satanist666,
Yesterday, 22:50:33 Scarlet Oath - Blood And Fire (2019)


*Artist: Scarlet Oath
*Album: Blood And Fire
*Year: 2019
*Genre: Gothic/Doom Metal
*Country: Canada
*Format: mp3@CBR320kbps
*Size: 91MB

Tracklist:
1. The Oath 01:48 instrumental
2. Conquered 07:27
3. Cursing the Altars of Molech 07:33
4. Ominous 02:06 instrumental
5. Sages and Sadducees 08:47
6. Blood and Fire 09:43
7. Dawn of Restoration 02:12 instrumental
******************************
Total playing time: 39:36




[more=Extended info]Matar Guitars, Bass
Atara Vocals (female), Keyboards
Mordecai Vocals (lead), Drums
[youtube]gPpCE5lrEMw[/youtube][/more]

[more=Technical info]
Input File: 03 Cursing The Altars Of Molech.mp3
Channels : 2
Sample Rate : 44100
Precision : 16-bit
Duration : 00:07:33.17 = 19984841 samples = 33987.8 CDDA sectors
File Size : 18.2M
Bit Rate : 322k
Sample Encoding: MPEG audio (layer I, II or III)
Comments :
Title=Cursing The Altars Of Molech
Artist=Scarlet Oath
Album=Blood And Fire
Tracknumber=3
Year=2019

[/more]

Register
(5) lekram, metala, postal67, Sanctus, sergsazan,
Yesterday, 22:16:36 Логос - Что Наша Жизнь? (2019)


*Artist: Логос
*Album: Что Наша Жизнь?
*Year: 2019
*Genre: Melodic Metal
*Country: Belarus
*Format: mp3@CBR320kbps
*Size: 87MB

Tracklist:
01. Ода жизни
02. Одиссея капитана Блада
03. Через звезды
04. Вечность
05. Время последних дней
06. Капля в океане
07. Танец дождя
08. Всего лишь сон
09. Что наша жизнь?..
******************************
Total playing time: 39:17


Preview 2

[more=Technical info]
Input File: 02. Одиссея капитана Блада.mp3
Channels : 2
Sample Rate : 44100
Precision : 16-bit
Duration : 00:05:20.30 = 14125054 samples = 24022.2 CDDA sectors
File Size : 13.2M
Bit Rate : 331k
Sample Encoding: MPEG audio (layer I, II or III)
Comments :
Title=Одиссея Капитана Блада
Artist=Логос
Album=Что Наша Жизнь?..
Tracknumber=02
Year=2019
Genre=Metal

[/more]

Register
(3) Aresson, EVENGAR, Sanctus,
Yesterday, 21:52:34 Anorimoi - Κώλαση (2019)


*Artist: Anorimoi
*Album: Κώλαση
*Year: 2019
*Genre: Heavy Metal
*Country: Greece
*Format: mp3@CBR320kbps
*Size: 87MB

Tracklist:
1. 12.000 Πόδια 03:44
2. Γκομενιά 04:03
3. Ο Μήτσος ο Λάννιστερ 03:52
4. Κθούλου 03:58
5. Το Πέος της Παρηγοριάς 04:11
6. Είμαι το Πουτανάκι μου 03:13
7. Μαραμένο Κάστανο 03:20
8. Κωλοκαύτωμα 05:01
9. Ανθοδέσμη από Κρέας 04:50
10. Χοντρό Λάθος 04:25
******************************
Total playing time: 40:37



[more=Extended info]Tafoplakium Bass
See also: Enshadowed, Respawn the Plague, ex-Via Serpentis, ex-RandomWalk, ex-Gospel of Grief (live)
Satrigiannis Guitars
See also: ex-Fragile Vastness, ex-Seduce the Heaven (live)
Count Vargsteiner Narrator
Necropethamenos Guitars (1993-present)
See also: System Shock, ex-Obscure Natus, Fire and Steel, ex-Double Square
Trampakoulas Vocals (1993-present)
Mpokolis Drums (2012-present)
[youtube]QrVVWV2iExk[/youtube]
[youtube]nv8O3GsMrRw[/youtube][/more]

[more=Technical info]
Input File: 03. Ο Μήτσος ο Λάννιστερ.mp3
Channels : 2
Sample Rate : 44100
Precision : 16-bit
Duration : 00:03:52.30 = 10244254 samples = 17422.2 CDDA sectors
File Size : 9.39M
Bit Rate : 323k
Sample Encoding: MPEG audio (layer I, II or III)
Comments :
Title=Ο Μήτσος ο Λάννιστερ
Artist=Anorimoi
Album=Κώλαση
Tracknumber=3/10
Year=2019
Genre=9
Discnumber=1/1

[/more]

Register
(1) metalwoman,
Yesterday, 21:31:45 Pulverized - Falsus In Uno, Falsus In Omnibus (2019)


*Artist: Pulverized
*Album: Falsus In Uno, Falsus In Omnibus
*Year: 2019
*Genre: Brutal Death Metal
*Country: Philippines
*Format: mp3@CBR320kbps
*Size: 122MB

Tracklist:
01. Dead Void (Intro)
02. Topheth
03. Requital to Origins
04. Obnubilated by Nihilistic Delusions
05. Forced Attrition
06. Deci Populo Suo
07. Falsum Divinitatum
08. Howl of Anguish
09. Unhallowed Wraith
******************************
Total playing time: 38:59




[more=Extended info]Gino Pura Guitars (2015-present)
Kenn Ludovice Vocals (2015-present)
Kier Galardo Drums (2016-present)[/more]

[more=Technical info]
Input File: 04. Obnubilated By Nihilistic Delusions.mp3
Channels : 2
Sample Rate : 44100
Precision : 16-bit
Duration : 00:07:01.00 = 18566100 samples = 31575 CDDA sectors
File Size : 20.7M
Bit Rate : 393k
Sample Encoding: MPEG audio (layer I, II or III)
Comments :
Title=Obnubilated By Nihilistic Delusions
Artist=Pulverized
Album=Falsus In Uno, Falsus In Omnibus
Tracknumber=4
Year=2019
Genre=Brutal Death

[/more]

Register
(4) alikkon, metala, satanist666, wendigo,
Yesterday, 21:13:22 Pathogen - Obscure Deathworship (2018)


*Artist: Pathogen
*Album: Obscure Deathworship
*Year: 2018
*Genre: Old School Death Metal
*Country: Philippines
*Format: mp3@CBR320kbps
*Size: 126MB

Tracklist:
1. Vanquished 01:14
2. Obscure Deathworship 03:33
3. Aggressive Tumor 04:02
4. A New Draconian Century 04:54
5. Ashen Surreality 07:49
6. Womb Of Rot 05:23
7. Acrimony 03:51
8. At The Graveyard Of Empires 05:59
9. Deliverance From Existence... Into Sepulchral Realms 08:08
******************************
Total playing time: 44:53




[more=Extended info]Willie Desamero Vocals, Guitars (2001-present)
See also: Omenfilth, ex-Negatron, ex-Effluvium
Vic Jarlego Drums (2002-present)
See also: Ataul, Embalsamo, Rabies, Deiphago (live), ex-Negatron, ex-Effluvium, ex-Toxemia
Nino Jerome Aranza Bass (2007-present)
Jervish Alcos Guitars (2012-present)
See also: Rabies
[youtube]b9oW3ELvmds[/youtube][/more]

[more=Technical info]
Input File: 04 A New Draconian Century.mp3
Channels : 2
Sample Rate : 44100
Precision : 16-bit
Duration : 00:04:54.54 = 12988994 samples = 22090.1 CDDA sectors
File Size : 14.4M
Bit Rate : 391k
Sample Encoding: MPEG audio (layer I, II or III)
Comments :
Title=A New Draconian Century
Artist=Pathogen
Album=Obscure Deathworship
Tracknumber=04
Year=2019

[/more]

Register
(5) metala, sergsazan, troll_swamp, Wail, wendigo,
Yesterday, 21:11:21 Unaussprechlichen Kulten - Teufelsbücher (2019)
FLAC (Tracks) 319 mb
Register
(2) Amsterdam, MetalAreola,
Yesterday, 20:49:40 The Great Old Ones - Cosmicism (2019)
Cloud Mail 320
Register
(7) ahp, dermarsoran, doomTemplar, helvetesrike, infiltrator, Torlof, WolfFenrir,
Yesterday, 20:48:04 Golgotha - Erasing The Past (2019)


*Artist: Golgotha
*Album: Erasing The Past
*Year: 2019
*Genre: Dark/Doom Metal
*Country: Spain
*Format: mp3@CBR320kbps
*Size: 95MB

Tracklist:
1. The Way to Your Soul 07:56
2. Distorted Tears 04:25
3. Enveloped in Fog 04:27
4. Burning the Disease 04:16
5. New Hope 05:23
6. Rewrite Your Destiny 05:05
7. Erasing the Past 08:05
8. Land of Defeat 05:45
******************************
Total playing time: 45:22





[more=Extended info]Vicente J. Paya Guitars
Amon López Vocals
Tomeu Crespí Drums
[youtube]F69m_gqlMPY[/youtube]
[youtube]GZD0J7_Kalw[/youtube][/more]

[more=Technical info]
Input File: 03. Enveloped in Fog (feat. Josep Brunet & Helevorn).mp3
Channels : 2
Sample Rate : 44100
Precision : 16-bit
Duration : 00:04:26.68 = 11760368 samples = 20000.6 CDDA sectors
File Size : 10.8M
Bit Rate : 323k
Sample Encoding: MPEG audio (layer I, II or III)
Comments :
Title=Enveloped in Fog (feat. Josep Brunet & Helevorn)
Artist=Golgotha
Album=Erasing the Past
Tracknumber=3/8
Year=2019
Genre=9
Discnumber=1/1

[/more]

Register
(12) Alexis The Best, Andrew, doomTemplar, kauyumari, metala, nsmetalhead, postal67, ripper33, Sanctus, satanist666, sergsazan, TAKATAEL,
Yesterday, 10:16:47 The Great Old Ones - Cosmicism (2019)


*Artist: The Great Old Ones
*Album: Cosmicism
*Year: 2019
*Genre: Atmospheric/Post-Black Metal
*Country: France
*Format: mp3@CBR320kbps
*Size: 129MB

Tracklist:
1. Cosmic Depths 01:47
2. The Omniscient 09:26
3. Of Dementia 06:16
4. Lost Carcosa 08:56
5. A Thousand Young 11:43
6. Dreams of the Nuclear Chaos 04:27
7. Nyarlathotep 07:29
8. To a Dreamer (bonus track) 07:19
******************************
Total playing time: 57:23



[more=Extended info]Vinyl Rip
Benjamin Guerry: Vocals, Guitars
Aurelien Edouard: Guitars
Alexandre ‘Gart’ Rouleau: Guitars
Benoit ‘Barby’ Claus: Bass
Leo Isnard: Drums
[youtube]ntTla4kdlcc[/youtube][/more]

[more=Technical info]
Input File: 03-the_great_old_ones-of_dementia.mp3
Channels : 2
Sample Rate : 48000
Precision : 16-bit
Duration : 00:06:02.57 = 17403504 samples ~ 27193 CDDA sectors
File Size : 14.5M
Bit Rate : 320k
Sample Encoding: MPEG audio (layer I, II or III)
Comments :
Title=Of Dementia
Artist=The Great Old Ones
Album=Cosmicism
Tracknumber=3
Year=2019
Genre=Black Metal

[/more]

Register
(29) 1968_janeart, ahp, alikkon, artscald, Black Cat, dalek, doomTemplar, Doooomed, Druidir, fuoco, gena, infiltrator, kim666, LEGION69, lekram, nemx, Olethros, Ostinato, Radek, Sanctus, satanist666, sergsazan, stone88, suseka, tamerz, tOmV, vasiljev_sergej, vov7609, yuratroll,
Yesterday, 06:49:16 The Conjured - Speak With The Dead (2019)


*Artist: The Conjured
*Album: Speak With The Dead
*Year: 2019
*Genre: Heavy/Black Metal
*Country: United States
*Format: mp3@CBR320kbps
*Size: 95MB

Tracklist:
1. Conquest of Bosporus 03:22
2. Shadows in the Mountain 04:44
3. Black Knight 05:00
4. Speak with the Dead 04:37
5. Offer No Quarter 04:21
6. Blood in the Moonlight 05:36
7. Wild Hunt 02:42
8. Silver Fog... Scarlet Light 11:00
******************************
Total playing time: 41:22




[more=Extended info]Michael Jahrling Vocals, Guitars, Bass, Drum Programming (2018-present)
Riffmaker Guitars (2019-present)
See also: ex-The Return[/more]

[more=Technical info]
Input File: 03 - Black Knight.mp3
Channels : 2
Sample Rate : 44100
Precision : 16-bit
Duration : 00:05:01.03 = 13275203 samples = 22576.9 CDDA sectors
File Size : 12.1M
Bit Rate : 321k
Sample Encoding: MPEG audio (layer I, II or III)
Comments :
Title=Black Knight
Artist=The Conjured; Michael Jahrling
Album=Speak with the Dead
Tracknumber=3
Year=2019-10-16
Discnumber=1

[/more]

Register
(8) artscald, metala, Olethros, sergsazan, stumpheavyrock, thrashiac, vasiljev_sergej, Сварог Барг,
Yesterday, 06:22:20 Mrok - Soulless Abstract (2019)


*Artist: Mrok
*Album: Soulless Abstract
*Year: 2019
*Genre: Black Metal
*Country: Germany
*Format: mp3@CBR320kbps
*Size: 74MB

Tracklist:
1. Awakening in a World of Lies 07:04
2. The Adversary 04:24
3. Unholy Memories 07:53
4. Hopeless Demise 05:24
5. Mroczna Dusza (Desolation of Souls) 07:10
******************************
Total playing time: 31:55




[more=Extended info]One man band
[youtube]qpu14wKQuFQ[/youtube][/more]

[more=Technical info]
Input File: 03 - Unholy Memories.mp3
Channels : 2
Sample Rate : 44100
Precision : 16-bit
Duration : 00:07:53.18 = 20867326 samples = 35488.6 CDDA sectors
File Size : 19.1M
Bit Rate : 324k
Sample Encoding: MPEG audio (layer I, II or III)
Comments :
Title=Unholy Memories
Artist=MROK
Album=Soulless Abstract
Tracknumber=3
Year=2019-10-17
Genre=Metal
Discnumber=1

[/more]

Register
(15) 1968_janeart, alikkon, artscald, craP_cillA, dermarsoran, kim666, murian, NachtWulf, Olethros, Ostinato, Rover, satanist666, suseka, vasiljev_sergej, zotyo1975,
Yesterday, 05:38:35 Double Horse - The Great Old Ones (2019)


*Artist: Double Horse
*Album: The Great Old Ones
*Year: 2019
*Genre: Stoner/Doom Metal
*Country: Spain
*Format: mp3@CBR320kbps
*Size: 101MB

Tracklist:
1. The Great Old Ones 04:44
2. Seventh Seal 06:52
3. Mescaline 07:15
4. Dragons from Outer Space 04:30
5. Aquelarre 10:02
6. Psychomania 05:17
7. All of Them (Bonus Track) 08:13
******************************
Total playing time: 46:53




[more=Extended info]Pablosky Bass, Vocals (Backing)
Indio Guitars (lead), Vocals
Guille Vocals (lead), drums
See also: Bloody Crom
[youtube]uz7o5KAD-AI[/youtube][/more]

[more=Technical info]
Input File: 02. Seventh Seal.mp3
Channels : 2
Sample Rate : 44100
Precision : 16-bit
Duration : 00:06:52.37 = 18185429 samples = 30927.6 CDDA sectors
File Size : 16.6M
Bit Rate : 322k
Sample Encoding: MPEG audio (layer I, II or III)
Comments :
Title=Seventh Seal
Artist=Double Horse
Album=The Great Old Ones
Tracknumber=2/7
Year=2019
Genre=9
Discnumber=1/1

[/more]

Register
(3) artscald, Olethros, stumpheavyrock,
Yesterday, 02:56:10 Unaussprechlichen Kulten - Teufelsbücher (2019)
320 104 mb
Register
(2) Beazth, deathic,
Yesterday, 02:55:17 Unaussprechlichen Kulten - Teufelsbücher (2019)


*Artist: Unaussprechlichen Kulten
*Album: Teufelsbücher
*Year: 2019
*Genre: Death Metal
*Country: Chile
*Format: mp3@CBR320kbps
*Size: 104MB

Tracklist:
1. The Evil Out of Control 07:39
2. Keziah Lilith Medea 05:34
3. Cranquiluria 07:27
4. A Search and an Evocation 06:07
5. Flapping Membraneous Wings 07:26
6. Necromancy and Torment 08:24
******************************
Total playing time: 42:37




[more=Extended info]Herbert West Guitars
Joseph Curwen Vocals, Guitars
Butcher of Christ Drums
Namru Impetradorum Mortem Bass
[youtube]y63gEA6F7Es[/youtube][/more]

[more=Technical info]
Input File: 02. Keziah Lilith Medea.mp3
Channels : 2
Sample Rate : 44100
Precision : 16-bit
Duration : 00:05:33.89 = 14724637 samples = 25041.9 CDDA sectors
File Size : 14.4M
Bit Rate : 345k
Sample Encoding: MPEG audio (layer I, II or III)
Comments :
Title=Keziah Lilith Medea
Artist=Unaussprechlichen Kulten
Album=Teufelsbücher (320)
Tracknumber=02
Year=2019
Genre=Metal

[/more]

Register
(25) acerbus, alikkon, andreikun, artscald, as71, craP_cillA, Dmitry1977, FUDEDOR, fuoco, HA7tur, kauyumari, metala, Mist13Signifier, Olethros, Ostinato, ripper33, Sacerdos, suseka, SyncestrA, Tino, Torlof, Wail, Wolfera, wtk.412, yuratroll,
Yesterday, 02:22:39 Electric Poison - Desert Nights [ep] (2019)


*Artist: Electric Poison
*Album: Desert Nights [ep]
*Year: 2019
*Genre: Heavy/Speed Metal
*Country: Brazil
*Format: mp3@CBR320kbps
*Size: 27MB

Tracklist:
1. Running Like A Beast 03:18
2. Desert Nights 04:26
3. Burn The Town 03:52
******************************
Total playing time: 11:36




[more=Extended info]Valter Musael Guitars
Fagner Nascimento Guitars
Thauan Rodrigo Vocals
Rodrigo Araújo Bass
Luã Farias Drums
[youtube]Dnf0WRRfdcY[/youtube][/more]

[more=Technical info]
Input File: 02 - Desert Nights.mp3
Channels : 2
Sample Rate : 44100
Precision : 16-bit
Duration : 00:04:25.68 = 11716488 samples = 19926 CDDA sectors
File Size : 10.8M
Bit Rate : 325k
Sample Encoding: MPEG audio (layer I, II or III)
Comments :
Title=Desert Nights
Artist=Electric Poison
Album=Desert Nights
Tracknumber=2
Year=2019-04-02
Discnumber=1

[/more]

Register
(9) artscald, kauyumari, metalwoman, Olethros, Rover, sergsazan, stumpheavyrock, thrashiac, wgs73,
Yesterday, 02:03:19 Ultimatum - Tom II (2019)


*Artist: Ultimatum
*Album: Tom II
*Year: 2019
*Genre: Heavy/Thrash Metal
*Country: Russian Federation
*Format: mp3@CBR320kbps
*Size: 140MB

Tracklist:
1. Аскалон 05:14
2. Твоя Судьба 03:35
3. Инстинкт Убийцы 04:57
4. В Руках Правосудия 03:38
5. Сжечь Мосты 05:18
6. Возмездие 05:12
7. Фобос 05:37
8. Вспоминая (Погибший Мир) 04:24
9. Ветер Воли 05:46
10. Eigengrau (Instrumental) 02:28
11. Книга Мёртвых 05:29
12. В Руках Правосудия (feat. Alexander Trefilov) (bonus track) 03:38
13. Книга Мёртвых (feat. Evgeny Potapov) (bonus track) 05:29
******************************
Total playing time: 1:00:45


Preview 2

[more=Extended info]Андрей "Hugo" Дресвянников - вокал
Александр Пашин - гитара, акустическая гитара
Вадим Грозов - бас
Равиль Низаметдинов - ударные[/more]

[more=Technical info]
Input File: 03 - Инстинкт Убийцы.mp3
Channels : 2
Sample Rate : 44100
Precision : 16-bit
Duration : 00:04:57.58 = 13123146 samples = 22318.3 CDDA sectors
File Size : 12.1M
Bit Rate : 325k
Sample Encoding: MPEG audio (layer I, II or III)
Comments :
Title=Инстинкт Убийцы
Artist=Ultimatum
Album=TOM II
Tracknumber=3
Year=2019-10-16
Genre=Metal
Discnumber=1

[/more]

Register
(5) artscald, Olethros, Rover, stumpheavyrock, Сварог Барг,
Yesterday, 00:31:03 Redshark - Evil Realm [ep] (2019)


*Artist: Redshark
*Album: Evil Realm [ep]
*Year: 2019
*Genre: Speed/Heavy Metal
*Country: Spain
*Format: mp3@CBR320kbps
*Size: 43MB

Tracklist:
1. Destroy What Destroys Ypu 03:11
2. Sentenced to Kill 03:18
3. Burn Your Flag 04:45
4. The Begining of Storm 04:27
5. Stronger Than Ever 02:48
******************************
Total playing time: 18:29




[more=Extended info]Philip Graves Guitars
Mark Striker Drums
Javier Bono Guitars
Chris Carrest Bass
Pau Correas Vocals
[youtube]fd6lvonMR_s[/youtube][/more]

[more=Technical info]
Input File: 03 - Burn Your Flag.mp3
Channels : 2
Sample Rate : 44100
Precision : 16-bit
Duration : 00:04:45.64 = 12596636 samples = 21422.9 CDDA sectors
File Size : 11.6M
Bit Rate : 324k
Sample Encoding: MPEG audio (layer I, II or III)
Comments :
Title=Burn Your Flag
Artist=Redshark
Album=Evil Realm
Tracknumber=3
Year=2019-10-18
Discnumber=1

[/more]

Register
(8) metalwoman, Olethros, Rover, sergsazan, stumpheavyrock, thrashiac, vir2al, wgs73,
Yesterday, 00:10:00 Confabulation - Seeds [ep] (2019)


*Artist: Confabulation
*Album: Seeds [ep]
*Year: 2019
*Genre: Thrash Metal
*Country: Norway
*Format: mp3@CBR320kbps
*Size: 51MB

Tracklist:
1. Kingslayer 03:26
2. Spreading the Disease 03:53
3. Fifty Shades of Blood 03:53
4. Cyberwarfare 02:52
5. Pile of Flesh 04:01
6. The Wave 04:12
******************************
Total playing time: 22:17



[more=Extended info]Drums - Ken Are
Bass guitar - Tom
Rhythm and lead guitars - Sigbjørn
[youtube]vshUuwR9cW8[/youtube][/more]

[more=Technical info]
Input File: 03 - Fifty Shades of Blood.mp3
Channels : 2
Sample Rate : 44100
Precision : 16-bit
Duration : 00:03:53.44 = 10294836 samples = 17508.2 CDDA sectors
File Size : 9.41M
Bit Rate : 323k
Sample Encoding: MPEG audio (layer I, II or III)
Comments :
Title=Fifty Shades of Blood
Artist=Confabulation
Album=Seeds
Tracknumber=3
Year=2019-10-16
Discnumber=1

[/more]

Register
(6) boby9052, Olethros, sergsazan, stumpheavyrock, thrashiac, wgs73,
Oct 20 2019, 23:22:36 Nifrost - Blykrone (2019)


*Artist: Nifrost
*Album: Blykrone
*Year: 2019
*Genre: Viking/Folk/Black Metal
*Country: Norway
*Format: mp3@CBR320kbps
*Size: 98MB

Tracklist:
1. Prosesjon 00:45
2. Blykrone 05:49
3. Slaatten 05:07
4. Arr 00:34
5. Tvihalden 05:41
6. Varden 05:38
7. Daudsvon 03:00
8. Gamling 03:11
9. Kongestol 03:48
10. Klander 08:43
******************************
Total playing time: 42:16




[more=Extended info]Kjetil Andreas Nydal Bass, Vocals
Jørn Ståle Norheim Guitars
Eyvind Jolm Aardal Vocals, Guitars
Henrik Nesse Drums
[youtube]osyPxmd_sM8[/youtube][/more]

[more=Technical info]
Input File: 05 - Tvihalden.mp3
Channels : 2
Sample Rate : 44100
Precision : 16-bit
Duration : 00:05:41.96 = 15080480 samples = 25647.1 CDDA sectors
File Size : 13.8M
Bit Rate : 323k
Sample Encoding: MPEG audio (layer I, II or III)
Comments :
Title=Tvihalden
Artist=Nifrost
Album=Blykrone
Tracknumber=5
Year=2019-10-21
Discnumber=1

[/more]

Register
(18) Black Cat, Brann, Druidir, Korpse, metalwoman, nsk2008, Olethros, Ostinato, Rover, satanist666, Shagarth21, suseka, SyncestrA, vasiljev_sergej, yuratroll, zhol, дивин, Сварог Барг,
Oct 20 2019, 22:00:07 Enquire Within - Bloodlines (2019)


*Artist: Enquire Within
*Album: Bloodlines
*Year: 2019
*Genre: Thrash Metal/Metalcore
*Country: United Kingdom
*Format: mp3@CBR320kbps
*Size: 82MB

Tracklist:
1. Blind
2. Hunter
3. Battle Torn
4. Wasteland
5. Bloodlines
6. Warmonger
7. Watch It Burn
8. War
******************************
Total playing time: 35:46



[more=Extended info]Jacob Waller - Vocalist
Daniel Lewin - Lead Guitarist
Phil White - Rhythm Guitarist
Jon Cresswell - Bassist
Henry Waller - Drums
[youtube]2qg2XmRPrmM[/youtube][/more]

[more=Technical info]
Input File: 03 - Battle Torn.mp3
Channels : 2
Sample Rate : 44100
Precision : 16-bit
Duration : 00:04:00.26 = 10595510 samples = 18019.6 CDDA sectors
File Size : 9.70M
Bit Rate : 323k
Sample Encoding: MPEG audio (layer I, II or III)
Comments :
Title=Battle Torn
Artist=Enquire Within
Album=Bloodlines
Tracknumber=3
Year=2019

[/more]

Register
(2) metala, Olethros,

666 Pages V   1 2 3 > » 
- Lo-Fi Version Support form
Copyrights and abuse reports form
Time is now: 22nd October 2019 - 09:17:21