Welcome Guest ( Log In | Register )

История благодарностей участнику Samaritianin ::: Спасибо сказали: 259685 раз(а)
Дата поста: В теме: За сообщение: Спасибо сказали:
Yesterday, 21:23:04 Dryhten - Ascension [ep] (2020)


*Artist: Dryhten
*Album: Ascension [ep]
*Year: 2020
*Genre: Thrash/Groove Metal
*Country: Germany
*Format: mp3@CBR320kbps
*Size: 43MB

Tracklist:
1. The Only True God 05:29
2. Legion 03:49
3. Asgard's Ride 04:39
4. She Was There 04:54
******************************
Total playing time: 18:51



[more=Extended info]Daniel Junge Bass
Jonathan Koltun Drums
Jannik Henke Guitars
Michael Weiler Vocals (lead)
[youtube]rfrpbYj1r4o[/youtube]
[youtube]9w_gel_NmiM[/youtube][/more]

[more=Technical info]
Input File: 03 - Asgard\'s Ride.mp3
Channels : 2
Sample Rate : 44100
Precision : 16-bit
Duration : 00:04:39.89 = 12343325 samples = 20992 CDDA sectors
File Size : 11.3M
Bit Rate : 322k
Sample Encoding: MPEG audio (layer I, II or III)
Comments :
Title=Asgard's Ride
Artist=Dryhten
Album=Ascension
Tracknumber=3
Year=2020-03-19
Genre=Metal
Discnumber=1

[/more]

Register
(1) boby9052,
Yesterday, 20:36:36 Moribund Scum - ...Only Death (2019)


*Artist: Moribund Scum
*Album: ...Only Death
*Year: 2019
*Genre: Death/Thrash Metal
*Country: Germany
*Format: mp3@CBR320kbps
*Size: 66MB

Tracklist:
1. Servility 04:55
2. Conservative Punks 02:40
3. World Sick 03:11
4. Flat Earth Bollox 02:55
5. ...Only Death 04:39
6. Famine 05:50
7. Sacred Hell 04:07
******************************
Total playing time: 28:17




[more=Extended info]Monsing Bass
Cody Drums
Felix Guitars
Rosi Guitars, Vocals[/more]

[more=Technical info]
Input File: Moribund Scum - ...only death - 05 ...Only Death.mp3
Channels : 2
Sample Rate : 44100
Precision : 16-bit
Duration : 00:04:39.60 = 12330536 samples = 20970.3 CDDA sectors
File Size : 11.3M
Bit Rate : 324k
Sample Encoding: MPEG audio (layer I, II or III)
Comments :
Title=...Only Death
Artist=Moribund Scum
Album=...only death
Tracknumber=5
Year=2019

[/more]

Register
(3) boby9052, metala, Ostinato,
Yesterday, 20:14:21 Rabid - Depravity (2019)


*Artist: Rabid
*Album: Depravity
*Year: 2019
*Genre: Black Metal
*Country: Italy
*Format: mp3@CBR320kbps
*Size: 106MB

Tracklist:
1. Intro
2. Forest Crib
3. Headsman
4. The Depravity Of Thy Sound
5. Satan's Mouth
6. Doom
7. Divided Star
8. Seed Evil Diffused
9. And Not Deliver Us From Evil
10. Rabid
11. Islamraping By Whore
******************************
Total playing time: 44:50




[more=Extended info]Tejat Bass, Vocals (backing)
Astrid Drums
See also: ex-End
Massi F.D. Guitars, Vocals[/more]

[more=Technical info]
Input File: 05 - Satan\'s Mouth.mp3
Channels : 2
Sample Rate : 44100
Precision : 16-bit
Duration : 00:04:31.64 = 11979280 samples = 20372.9 CDDA sectors
File Size : 11.2M
Bit Rate : 329k
Sample Encoding: MPEG audio (layer I, II or III)
Comments :
Title=Satan's Mouth
Artist=Rabid
Album=Depravity
Tracknumber=5
Year=2019

[/more]

Register
(2) kim666, vasiljev_sergej,
Yesterday, 19:35:35 Liberator - Total Devastation (2020)


*Artist: Liberator
*Album: Total Devastation
*Year: 2020
*Genre: Heavy/Thrash Metal
*Country: United Kingdom
*Format: mp3@CBR320kbps
*Size: 96MB

Tracklist:
1. K.M.B.
2. Knights & Nightfall
3. Breaking Point
4. Power & Glory
5. Eye for an Eye
6. Iron Anthem
7. Total Devastation
8. Designed by Fate
9. Motor Oil
10. Is It the Day
******************************
Total playing time: 40:58



[more=Extended info]Brady Moody Bass
Paris Power Drums
Robert Hilton Guitars (lead)
Mike Bower Guitars (rhythm)
See also: ex-Engraved in Blood
Iain Burnham Vocals
[youtube]VBw83fdACwI[/youtube][/more]

[more=Technical info]
Input File: 04 - Power & Glory.mp3
Channels : 2
Sample Rate : 44100
Precision : 16-bit
Duration : 00:05:18.58 = 14049554 samples = 23893.8 CDDA sectors
File Size : 13.0M
Bit Rate : 327k
Sample Encoding: MPEG audio (layer I, II or III)
Comments :
Title=Power & Glory
Artist=Liberator
Album=Total Devastation
Tracknumber=4
Year=2020

[/more]

Register
(2) boby9052, metala,
Yesterday, 19:04:42 Old Throne - Invocation Of Black Magic To Earth (2020)


*Artist: Old Throne
*Album: Invocation Of Black Magic To Earth
*Year: 2020
*Genre: Black Metal
*Country: Mexico
*Format: mp3@CBR320kbps
*Size: 98MB

Tracklist:
1. The Last Dimension on Earth
2. Blood...In the Name of God
3. Astral Key of Picatrix
4. Invocation to the Ocean of Stars
5. Lights in the Dark
6. I'm the Magus
7. Lux
8. Iam Already Dead in Life
******************************
Total playing time: 42:00



[more=Extended info]Sarga Vocals, Bass (2003-2005), Vocals (lead) Guitars (2005-present)
See also: ex-Encounter, Rotten Blood, ex-Demonic Being, ex-Guadaña
Letoz Keyboards (2008-present)
See also: Silent Tormentor
Angmaroth' Drums (2016-present)
See also: Angmaroth, ex-Demonic Being, ex-Flaming Fog, ex-Sargatanas (live)
Kaztuwolf Bass (2017-present)
See also: Wargos, Sachiel in Darkness, ex-Hate Therapy, ex-Neurofrenia, ex-Temple of Darkness
[youtube]0LoKU_CtnN0[/youtube][/more]

[more=Technical info]
Input File: 05 - Lights in the Dark.mp3
Channels : 2
Sample Rate : 44100
Precision : 16-bit
Duration : 00:05:19.08 = 14071428 samples = 23931 CDDA sectors
File Size : 13.0M
Bit Rate : 326k
Sample Encoding: MPEG audio (layer I, II or III)
Comments :
Title=Lights in the Dark
Artist=Old Throne
Album=Invocation of Black Magic to Earth
Tracknumber=5
Year=2020

[/more]

Register
(4) DarkHorde, kim666, randumbum, vasiljev_sergej,
Yesterday, 17:34:59 Galactic Mechanics - The Ominous Quadrant [ep] (2020)


*Artist: Galactic Mechanics
*Album: The Ominous Quadrant [ep]
*Year: 2020
*Genre: Progressive Death Metal
*Country: United States
*Format: mp3@CBR320kbps
*Size: 33MB

Tracklist:
1. Zero Gravity Massacre 04:17
2. Outer World Defense Systems 02:04
3. The Fortress Colony 04:37
4. Aeonian Sequence 03:12
******************************
Total playing time: 14:10




[more=Extended info]Adrian Ocaña Bass, Vocals, Guitars, Programming
See also: Subnuba
Alex Ocaña Guitars, Programming[/more]

[more=Technical info]
Input File: Galactic Mechanics - The Ominous Quadrant - 03 The Fortress Colony.mp3
Channels : 2
Sample Rate : 44100
Precision : 16-bit
Duration : 00:04:37.51 = 12238367 samples = 20813.5 CDDA sectors
File Size : 11.3M
Bit Rate : 325k
Sample Encoding: MPEG audio (layer I, II or III)
Comments :
Title=The Fortress Colony
Artist=Galactic Mechanics
Album=The Ominous Quadrant
Tracknumber=3
Year=2020

[/more]

Register
(2) kimkayoung, metala,
Yesterday, 13:00:32 Mindeater - Mocking The Light [ep] (2020)


*Artist: Mindeater
*Album: Mocking The Light [ep]
*Year: 2020
*Genre: Death Metal
*Country: United States
*Format: mp3@CBR320kbps
*Size: 53MB

Tracklist:
1. Nocturne Funeral 03:53
2. Necrotic Offering 04:03
3. Perpetual Rot 02:09
4. Void Beyond the Stars 04:00
5. Blood Lore 03:58
6. Mocking the Light 03:48
******************************
Total playing time: 21:51



[more=Technical info]
Input File: 04. Void Beyond the Stars.mp3
Channels : 2
Sample Rate : 44100
Precision : 16-bit
Duration : 00:04:00.08 = 10587572 samples = 18006.1 CDDA sectors
File Size : 10.2M
Bit Rate : 341k
Sample Encoding: MPEG audio (layer I, II or III)
Comments :
Title=Void Beyond the Stars
Artist=MindEater
Album=Mocking the Light
Tracknumber=4
Year=2020
Genre=Technical Death

[/more]

Register
(5) Corpuscul, infiltrator, morbidangelo, Olethros, VALERY,
Yesterday, 12:38:20 Fetal Sewage - Dahmer's Kitchen [ep] (2020)


*Artist: Fetal Sewage
*Album: Dahmer's Kitchen [ep]
*Year: 2020
*Genre: Death Metal
*Country: United States
*Format: mp3@CBR320kbps
*Size: 32MB

Tracklist:
1. Aborted with a Machete 03:14
2. Sledgehammer Infanticide 03:06
3. Tearing the Remains 03:53
4. Cannibalistic Consumption 03:01
******************************
Total playing time: 13:14



[more=Technical info]
Input File: FETAL SEWAGE - Dahmer\'s Kitchen - 02 Sledgehammer Infanticide.mp3
Channels : 2
Sample Rate : 44100
Precision : 16-bit
Duration : 00:03:06.94 = 8244142 samples = 14020.6 CDDA sectors
File Size : 7.71M
Bit Rate : 330k
Sample Encoding: MPEG audio (layer I, II or III)
Comments :
Title=Sledgehammer Infanticide
Artist=FETAL SEWAGE
Album=Dahmer's Kitchen
Tracknumber=2
Year=2020

[/more]

Register
(5) morbidangelo, Olethros, satanist666, uk82, VALERY,
Yesterday, 10:47:45 Diabolic - Mausoleum Of The Unholy Ghost (2020)
Cloud Mail 320
Register

FLAC (Tracks) 231mb
Register
(4) desekrator, infiltrator, Olethros, wtk.412,
Yesterday, 10:43:12 Atma - Purge Of Opinion (2020)


*Artist: Atma
*Album: Purge Of Opinion
*Year: 2020
*Genre: Doom Metal
*Country: United States
*Format: mp3@CBR320kbps
*Size: 124MB

Tracklist:
1. The Void
2. Umbra
3. Vicissitudes
4. Act of Kindness
5. Infinitesimal
6, Golden Fish
******************************
Total playing time: 53:31



[more=Extended info]guitar/vocals: Andy Russell
bass: Jack Dotson
drums: Kyle Miner
[youtube]5sDcfgLs2d0[/youtube]
[youtube]KMdectVfXq0[/youtube][/more]

[more=Technical info]
Input File: 03 - Vicissitudes.mp3
Channels : 2
Sample Rate : 44100
Precision : 16-bit
Duration : 00:07:03.73 = 18686581 samples = 31779.9 CDDA sectors
File Size : 17.2M
Bit Rate : 325k
Sample Encoding: MPEG audio (layer I, II or III)
Comments :
Title=Vicissitudes
Artist=Atma
Album=Purge of Opinion
Tracknumber=3
Year=2020

[/more]

Register
(10) infiltrator, LEGION69, marilin, metala, Olethros, randumbum, stone88, stub888, stumpheavyrock, VALERY,
Yesterday, 10:24:21 Diabolic - Mausoleum Of The Unholy Ghost (2020)


*Artist: Diabolic
*Album: Mausoleum Of The Unholy Ghost
*Year: 2020
*Genre: Death Metal
*Country: United States
*Format: mp3@CBR320kbps
*Size: 67MB

Tracklist:
1. Atmosphere of Dread
2. Raped of All Sacred
3. Useless Saviour
4. Mausoleum of the Unholy Ghost
5. Insanity Mastered
6. Infamous Legacy
7. Passageway to Enchantment
8. Spoken Spite
******************************
Total playing time: 28:04



[more=Extended info]Jesse Jolly Vocals, Bass (2006, ?-present)
See also: Blightmass, Nakhiel, Promethean Horde, The Absence (live), ex-Blastmasters, ex-Purgatory Unleashed, Lull Me to Larvae, ex-Amon, ex-Crimson Massacre, ex-Success Will Write Apocalypse Across the Sky, ex-After Death, ex-Evixion
Aantar Lee Coates Drums (1996-2003, 2006-present)
See also: ex-Blastmasters, ex-Impiety, ex-Necrosis, ex-Exmortis, ex-Eulogy, ex-Horror of Horrors, ex-Unholy Ghost
Jerry Mortellaro Guitars (2001-2002, 2016-present)
See also: ex-Unholy Ghost, Clenchfist, ex-Eulogy, ex-Resurrection, ex-Blastmasters, ex-Soulidium, ex-Together in Exile
[youtube]ENCoYz6UJQ4[/youtube]
[youtube]KIRFZtdmbzU[/youtube]
[youtube]GSaSLmF8MrU[/youtube][/more]

[more=Technical info]
Input File: 02 - Raped of All Sacred.mp3
Channels : 2
Sample Rate : 44100
Precision : 16-bit
Duration : 00:04:04.31 = 10774203 samples = 18323.5 CDDA sectors
File Size : 10.1M
Bit Rate : 330k
Sample Encoding: MPEG audio (layer I, II or III)
Comments :
Title=Raped of All Sacred
Artist=Diabolic
Album=Mausoleum of the Unholy Ghost
Tracknumber=2
Year=2020

[/more]

Register
(30) alikkon, atavist, BERZERK, DarkHorde, DEZZIARA, infiltrator, kimkayoung, legion01, Leshiy666, milosdjor, morbidangelo, older68, Olethros, Radogast, ripper33, SadistikSlayer, samokot, satanist666, stumpheavyrock, supremo, suseka, TeamatSE, THROWER666, Tino, troll_swamp, VALERY, wanderer73, WarmasterChorus, wgs73, WX419,
Yesterday, 10:10:57 Blastered - Aporia (2020)


*Artist: Blastered
*Album: Aporia
*Year: 2020
*Genre: Death/Thrash Metal
*Country: Norway
*Format: mp3@CBR320kbps
*Size: 88MB

Tracklist:
1. Intro
2. Through a Serpent's Eye
3. Antithesis
4. Tragic Disbelief
5. Odium
6. Stasis
7. Spurn the Acolyte
8. Desperate Sorrow
9. Blood and Death
******************************
Total playing time: 37:55

Preview 1


[more=Extended info]Stian Junge Strand
Christer Kolden Larsen
Eirik Jønnum Grimnes
Audun Audrvin Ween
Harald Eilertsen
[youtube]pzLb37bwfvY[/youtube]
[youtube]8ChFnAFgMRM[/youtube][/more]

[more=Technical info]
Input File: 03 - Antithesis.mp3
Channels : 2
Sample Rate : 44100
Precision : 16-bit
Duration : 00:05:44.94 = 15211986 samples = 25870.7 CDDA sectors
File Size : 13.9M
Bit Rate : 323k
Sample Encoding: MPEG audio (layer I, II or III)
Comments :
Title=Antithesis
Artist=Blastered
Album=Aporia
Tracknumber=3
Year=2020

[/more]

Register
(13) atavist, boby9052, cancer1974, infiltrator, metala, morbidangelo, Niknne, Olethros, stumpheavyrock, TeamatSE, thrashiac55, wanderer73, wgs73,
Apr 3 2020, 17:16:12 Genuflection - Veil (2020)


*Artist: Genuflection
*Album: Veil
*Year: 2020
*Genre: Death/Doom Metal
*Country: Ireland
*Format: mp3@CBR320kbps
*Size: 86MB

Tracklist:
1. Of Wolves Kin 06:17
2. Besieged by Deceased 11:10
3. Heretic Apostle 07:57
4. Wraith 11:57
******************************
Total playing time: 37:21




[more=Extended info]Tebs Bass (2018-present)
Sean Ryan Drums (2018-present)
Bryan Higgins Guitars, Vocals (2018-present)
See also: Harvester, ex-Rites, Vagrants, ex-Rednecks on Speed[/more]

[more=Technical info]
Input File: 03 - Heretic Apostle.mp3
Channels : 2
Sample Rate : 44100
Precision : 16-bit
Duration : 00:07:57.99 = 21079447 samples = 35849.4 CDDA sectors
File Size : 19.3M
Bit Rate : 323k
Sample Encoding: MPEG audio (layer I, II or III)
Comments :
Title=Heretic Apostle
Artist=Genuflection
Album=Veil
Tracknumber=3
Year=2020-03-27
Genre=Alternative; Indie Rock; Metal
Discnumber=1

[/more]

Register
(7) infiltrator, marilin, morbidangelo, Olethros, randumbum, VALERY, wanderer73,
Apr 3 2020, 15:03:43 The Starkillers - Дикий Восток (2020)


*Artist: The Starkillers
*Album: Дикий Восток
*Year: 2020
*Genre: Thrash/Groove/Heavy Metal/Rock
*Country: Russian Federation
*Format: mp3@CBR320kbps
*Size: 113MB

Tracklist:
01. За Мазу-Рашу!
02. Дикий Восток
03. Часть команды, часть корабля
04. Пусть твоя могила...
05. Нерусский рок
06. Доллары и баты
07. Шаурма из человечины
08. Любовь в соцветьях трав
09. Мы все уже в аду
10. У меня самый большой
11. Не плачь, тафгай
12. Юра, прости
13. Наши демоны нас берегут (feat. 2rbina 2rista)
******************************
Total playing time: 48:34



[more=Extended info][youtube]84CsLYAtSDs[/youtube]
[youtube]1djgKognuos[/youtube][/more]

[more=Technical info]
Input File: 04 - Пусть твоя могила.mp3
Channels : 2
Sample Rate : 44100
Precision : 16-bit
Duration : 00:03:13.08 = 8515004 samples = 14481.3 CDDA sectors
File Size : 7.91M
Bit Rate : 328k
Sample Encoding: MPEG audio (layer I, II or III)
Comments :
Title=Пусть твоя могила...
Artist=The Starkillers
Album=Дикий Восток
Tracknumber=4
Year=2020-04-02
Genre=Alternative
Discnumber=1

[/more]

Register
(4) infiltrator, Olethros, stumpheavyrock, Сварог Барг,
Apr 3 2020, 13:49:42 Sacred Sin - Born Suffer Die [ep] (2020)


*Artist: Sacred Sin
*Album: Born Suffer Die [ep]
*Year: 2020
*Genre: Old School Death Metal
*Country: Portugal
*Format: mp3@CBR320kbps
*Size: 27MB

Tracklist:
1. Born Suffer Die 04:06
2. False Deceiver 04:53
3. Cursed 02:31
******************************
Total playing time: 11:30




[more=Extended info]Jose Costa (Vocals and Bass)
To Pica (Guitar)
Luis Coelho (Guitar)
G.R. (Drums)
[youtube]Na36CI_swsg[/youtube][/more]

[more=Technical info]
Input File: 02 - False Deceiver.mp3
Channels : 2
Sample Rate : 44100
Precision : 16-bit
Duration : 00:04:53.17 = 12928577 samples = 21987.4 CDDA sectors
File Size : 11.9M
Bit Rate : 325k
Sample Encoding: MPEG audio (layer I, II or III)
Comments :
Title=False Deceiver
Artist=Sacred Sin
Album=Born Suffer Die EP
Tracknumber=2
Year=2020-04-01
Genre=Metal
Discnumber=1

[/more]

Register
(8) andreikun, infiltrator, Olethros, stumpheavyrock, supremo, terron, VALERY, zhol,
Apr 3 2020, 13:01:39 Razgate - Countdown To The End [ep] (2014)
320 48mb
Register
(2) Volk11911, wanderer73,
Apr 3 2020, 05:24:21 Crashkill - Consumed By Biomechanics (2020)


*Artist: Crashkill
*Album: Consumed By Biomechanics
*Year: 2020
*Genre: Thrash Metal
*Country: Brazil
*Format: mp3@CBR320kbps
*Size: 81MB

Tracklist:
1. Disconnect: Humanity
2. Chaos Was Created
3. Artificial Inteligence
4. Digital Conflict
5. Consumed by Biomechanics
6. This Is Crashkill
7. Year of Darkness
8. Modern Genocide
9. Killing Peace (Remastered)
******************************
Total playing time: 35:10




[more=Extended info]Mailson Buson Drums (2016-present)
See also: Donzela, Skin Risk, ex-Griefgiver
Valter Doomriff Guitars (2016-present), Vocals (lead) (2016-2017), Vocals (backing) (2017-present)
Ney Barros Guitars (2016-present)
Fernando Gonçalves Bass (2019-present)
Jean Pinheiro Guitars (2019-present), Vocals (backing) (2019-present)
See also: Skin Risk
Renato Ferreira Vocals (lead) (2019-present)
[youtube]WkaW9AG7XQM[/youtube][/more]

[more=Technical info]
Input File: 04 - Digital Conflict.mp3
Channels : 2
Sample Rate : 44100
Precision : 16-bit
Duration : 00:04:18.71 = 11409023 samples = 19403.1 CDDA sectors
File Size : 10.4M
Bit Rate : 322k
Sample Encoding: MPEG audio (layer I, II or III)
Comments :
Title=Digital Conflict
Artist=Crashkill
Album=Consumed by Biomechanics
Tracknumber=4
Year=2020
Genre=Metal
Discnumber=1

[/more]

Register
(7) atavist, boby9052, Corpuscul, infiltrator, metala, Niknne, Olethros,
Apr 3 2020, 05:00:25 Wows - Ver Sacrum (2020)


*Artist: Wows
*Album: Ver Sacrum
*Year: 2020
*Genre: Post-Black/Doom Metal
*Country: Italy
*Format: mp3@CBR320kbps
*Size: 100MB

Tracklist:
1. Elysium 03:20
2. Mythras 09:00
3. Vacuum 06:22
4. Lux Æterna 13:38
5. Resurrecturis 11:32
******************************
Total playing time: 43:52




[more=Extended info]paolo bertaiola
matteo baldi
marco bressanelli
pierluca esposito
fabio orlandi
kevin follet[/more]

[more=Technical info]
Input File: 03 - Vacuum.mp3
Channels : 2
Sample Rate : 44100
Precision : 16-bit
Duration : 00:06:22.51 = 16868647 samples = 28688.2 CDDA sectors
File Size : 15.3M
Bit Rate : 321k
Sample Encoding: MPEG audio (layer I, II or III)
Comments :
Title=Vacuum
Artist=Wows
Album=Ver Sacrum
Tracknumber=3
Year=2020
Genre=Alternative
Discnumber=1

[/more]

Register
(5) igorzz, infiltrator, Olethros, VALERY, vasiljev_sergej,
Apr 3 2020, 04:36:00 Wake Of Sirens - The Blackest Deep (2020)


*Artist: Wake Of Sirens
*Album: The Blackest Deep
*Year: 2020
*Genre: Power/Folk Metal
*Country: United States
*Format: mp3@CBR320kbps
*Size: 87MB

Tracklist:
01. Men of Fate 08:16
02. Prevail 06:49
03. Until You Slip Away 05:31
04. The Blackest Deep 00:58
05. Owned by the Ocean 06:04
06. Cape Evans 10:24
******************************
Total playing time: 38:02



[more=Extended info]Dan Wilson / "Soggy Samb" - Vocals
Nick Gallop / "Joh Drummond" - Guitar, Vocals
Alex Newton / "Hadrian Ironside" - Keyboards, Vocals
Kristina Paul / "Bloodhand Kida" - Bass, Vocals
featuring Vishnu "The Kraken" Reddy - Drums
[youtube]Qqf0bw3TQA0[/youtube][/more]

[more=Technical info]
Input File: 3 - Until You Slip Away.mp3
Channels : 2
Sample Rate : 44100
Precision : 16-bit
Duration : 00:05:31.33 = 14611741 samples = 24849.9 CDDA sectors
File Size : 13.3M
Bit Rate : 321k
Sample Encoding: MPEG audio (layer I, II or III)
Comments :
Title=Until You Slip Away
Artist=Wake of Sirens
Album=The Blackest Deep
Tracknumber=3
Year=2020
Genre=Metal
Discnumber=1

[/more]

Register
(9) ace73pq, boby9052, infiltrator, krotovich, Olethros, satanist666, senecazm, talismanFS, Сварог Барг,
Apr 3 2020, 04:08:40 Bakken - This Means War (2020)
Cloud Mail 320
Register
(3) boby9052, infiltrator, postal67,
Apr 3 2020, 04:07:12 Underking - Amongst The Dead (2020)


*Artist: Underking
*Album: Amongst The Dead
*Year: 2020
*Genre: Heavy/Thrash Metal
*Country: United Kingdom
*Format: mp3@CBR320kbps
*Size: 70MB

Tracklist:
1. Exordium 01:30
2. Nothing But Bone 04:40
3. Deadman (feat. Rainless) 04:14
4. The Way of Man 04:07
5. Lowly Dog 04:22
6. Lost Souls (feat. Rainless) 05:36
7. Gravedigger 06:06
******************************
Total playing time: 30:35




[more=Extended info]Maxwell Jeffries
Dustin Burmeister[/more]

[more=Technical info]
Input File: 4 - The Way of Man.mp3
Channels : 2
Sample Rate : 44100
Precision : 16-bit
Duration : 00:04:07.08 = 10896360 samples = 18531.2 CDDA sectors
File Size : 9.95M
Bit Rate : 322k
Sample Encoding: MPEG audio (layer I, II or III)
Comments :
Title=The Way of Man
Artist=Underking
Album=Amongst the Dead
Tracknumber=4
Year=2020
Genre=Metal
Discnumber=1

[/more]

Register
(6) boby9052, infiltrator, metala, Niknne, Olethros, thrashiac55,
Apr 3 2020, 03:47:50 Skum - Molitva (2020)
Cloud Mail 320
Register
(3) AHBAnep, boby9052, infiltrator,
Apr 3 2020, 03:45:40 Bakken - This Means War (2020)


*Artist: Bakken
*Album: This Means War
*Year: 2020
*Genre: Thrash/Heavy Metal
*Country: United Kingdom
*Format: mp3@CBR320kbps
*Size: 95MB

Tracklist:
1. This Means War 05:09
2. Cold Blooded Murder 05:10
3. Star Machine 03:34
4. Evil Walks This Way 04:10
5. In Requiem 06:09
6. Two-Edged Blade 05:54
7. We Fight 05:30
8. Storm Angels 05:57
******************************
Total playing time: 41:33




[more=Extended info]Niall McGrotty Drums (2011-present)
Simon Pickett Vocals, Guitars (2011-present)
Frank Levi Vocals (2018-present)
Thomas Alford Bass (2019-present)
See also: ex-Selene, ex-Gate XIII
Shaun Nelson Guitars (2019-present)
See also: ex-IronHeart, Secrets of Steel, ex-Conjuring Fate, ex-Syth, ex-Rabid Bitch of the North (live), ex-Attica Rage, ex-Argonath
[youtube]X4qpFWZzTX8[/youtube][/more]

[more=Technical info]
Input File: 4 - Evil Walks This Way.mp3
Channels : 2
Sample Rate : 44100
Precision : 16-bit
Duration : 00:04:10.53 = 11048417 samples = 18789.8 CDDA sectors
File Size : 10.1M
Bit Rate : 322k
Sample Encoding: MPEG audio (layer I, II or III)
Comments :
Title=Evil Walks This Way
Artist=Bakken
Album=This Means War
Tracknumber=4
Year=2020
Genre=Alternative / Indie Rock / Metal
Discnumber=1

[/more]

Register
(11) chipsgott, gwar, Herrant, infiltrator, metala, Niknne, Olethros, suseka, thrashiac55, tOmV, wgs73,
Apr 3 2020, 03:17:30 Skum - Molitva (2020)


*Artist: Skum
*Album: Molitva
*Year: 2020
*Genre: Death/Thrash Metal
*Country: Germany
*Format: mp3@CBR320kbps
*Size: 102MB

Tracklist:
01. Molitva
02. Cowards
03. Zalost
04. Bloodline
05. Need
06. Mother Lord
07. Seed of Hate
08. Bloodrush
09. Ruin
10. Happy Ending
******************************
Total playing time: 40:48




[more=Extended info]Nikola Grgic Vocals (1997-present)
See also: ex-Grail of Darkness, ex-Vatra
Christoph Buchheim Drums (1998-present)
See also: ex-Ages Gone, ex-Guerrilla, ex-Sad, ex-Hellbound Boozehounds, ex-Moloch, ex-Soul Enchantment, ex-Unwaken Hate
Flagg Bass (2008-present)
See also: ex-Hordes of Loki, ex-Orkus, ex-Beltez, ex-Nektra, ex-Debt of Nature
Roberto Parada Guitars (2009-present)
[youtube]yvIm4NfObdA[/youtube][/more]

[more=Technical info]
Input File: 3 - Zalost.mp3
Channels : 2
Sample Rate : 44100
Precision : 16-bit
Duration : 00:04:05.88 = 10843352 samples = 18441.1 CDDA sectors
File Size : 9.91M
Bit Rate : 322k
Sample Encoding: MPEG audio (layer I, II or III)
Comments :
Title=Zalost
Artist=Skum
Album=Molitva
Tracknumber=3
Year=2020
Genre=Metal
Discnumber=1

[/more]

Register
(18) alikkon, atavist, cesar, chipsgott, cist, infiltrator, jollo, metala, morbidangelo, Niknne, older68, Olethros, sergsazan, suseka, TeamatSE, tOmV, wanderer73, wgs73,
Apr 2 2020, 16:03:11 Old Leshy - Pośród Monumentalnych Szczytów (2020)


*Artist: Old Leshy
*Album: Pośród Monumentalnych Szczytów
*Year: 2020
*Genre: Pagan Black Metal
*Country: Poland
*Format: mp3@CBR320kbps
*Size: 97MB

Tracklist:
1. W Skrajnej Nienawiści 04:55
2. Szczyt 04:56
3. Za Mgłą 03:56
4. Jaskinia 05:28
5. Lawina 04:33
6. Milcząca Planeta 03:42
7. Burza 05:27
8. Gwiezdny Blask Zaśnieżonej Nocy 06:51
9. Pożegnanie 02:52 instrumental
******************************
Total playing time: 42:40




[more=Extended info]Salmar Guitars, Songwriting
See also: Sunwheel, ex-Golfaron, ex-Hammer of Hate, ex-Prawo Krwi, ex-Uroczysko
Premyslav Vocals (session)
See also: ex-Golfaron, 1920, Winter Offensive, ex-Sirion, ex-Uroczysko
G Vocals (2016-present)
[youtube]8ANqbecvunA[/youtube][/more]

[more=Technical info]
Input File: 04. Jaskinia.mp3
Channels : 2
Sample Rate : 44100
Precision : 16-bit
Duration : 00:05:27.62 = 14448130 samples = 24571.6 CDDA sectors
File Size : 13.1M
Bit Rate : 320k
Sample Encoding: MPEG audio (layer I, II or III)
Comments :
Title=Jaskinia
Artist=Old Leshy
Album=Pośród Monumentalnych Szczytów
Tracknumber=4/9
Year=2020
Genre=Black Metal/Pagan Metal

[/more]

Register
(27) 1968_janeart, alikkon, atavist, autumnwood, Druidir, Golodomor, infiltrator, judaz, kim666, Lamby90, Moonshtook, morbidangelo, Morgoth, Olethros, pain, randumbum, robertho777, satanist666, Satyr, Slavas, stone88, suseka, TeamatSE, VALERY, vasiljev_sergej, wolverine, Сварог Барг,

749 Pages V   1 2 3 > » 
- Lo-Fi Version Support form
Copyrights and abuse reports form
Time is now: 5th April 2020 - 06:34:12