Welcome Guest ( Log In | Register )

История благодарностей участнику Blacktron ::: Спасибо сказали: 502 раз(а)
Дата поста: В теме: За сообщение: Спасибо сказали:
Oct 1 2018, 19:28:29 Rundagor - Stronghold Of Ruins (1996)
Register
(9) acerbus, ambre, Aresson, FUDEDOR, joyless, Moonshtook, Rikardo90, wolverine, xska,
Sep 29 2018, 14:09:54 Rundagor - The Beastrealm (2018)


*Artist: Rundagor
*Album: The Beastrealm
*Year: 2018
*Genre: Black Metal
*Country: Russian Federation
*Format: mp3@CBR320kbps
*Size: 108MB

Tracklist:
1. Ablaze 7:51
2. A Journey To Return 8:54
3. The Beastrealm 8:50
4. The Only Memory 9:08
5. Embrace The Vast 8:09
6. Outro 4:47
******************************
Total playing time: 47:47

[more=Extended info]All music and lyrics by Dagorath.
Recorded at BlazeBirth Hall in 1997 a.y.p.s.
Remastered by Ragnarok records 2018.
CD-Rip[/more]

[more=Technical info]
Input File: 06 Outro.mp3
Channels : 2
Sample Rate : 44100
Precision : 16-bit
Duration : 00:04:47.00 = 12656744 samples = 21525.1 CDDA sectors
File Size : 13.0M
Bit Rate : 364k
Sample Encoding: MPEG audio (layer I, II or III)
Comments :
Title=Outro
Artist=Rundagor
Album=The Beastrealm
Tracknumber=6/6
Year=2018
Genre=Black Metal

[/more]

Register
(40) 0x13, 1968_janeart, acerbus, ambre, andeimon, Aresson, artscald, Borderline1991, FUDEDOR, garmonbozia, Goatrex, Ildjarn, INDARKNESS, joyless, judaz, Korpse, lafuma, LEGION69, MMMMM, mondblut, Moonshtook, MP101M, oldvarg, Olethros, Ostinato, princeshr, recber, Requiescat, Rosen, RUSP73, satanist666, sethurius, SilentNidhogg, the_cleanser, Thunderbird, varg-38ru, varlam4, vovenom, wolverine, xska,
Aug 29 2018, 12:03:40 Новости Black-направления
RUNDAGOR - Beastreal 1997

Издание забытого альбома, записанного в BlazeBirthHall в далекие 90ые, наконец-то увидело свет! 6 ранее неизданных треков черного андеграунда, 6 песен под знаком Повешенных Предателей! https://vk.com/thehangedtraitors
[attachment=8830:rundagorcd.jpg]
(3) acerbus, Goatrex, infiltrator,
Jul 29 2018, 08:09:53 Burzum
Uruk-Hai / Burzum (Genuine unreleased material from 1988-1994)
[youtube]YkUS_x4V4mc[/youtube]
(3) infiltrator, Lucifer, templ,
Jul 5 2018, 10:46:45 Kvist - For Kunsten Maa Vi Evig Vike (1995)
Конечно в чёрной среде, этот опус находится не на самых вершинах. Но ценность его высока. Кстати это пример того, как Black Metal должен быть одновременно отстранён от лишних масс, и при этом нести мрак только в нужные души. А если говорить вашим, меломанским языком, то правильней будет сказать "недооценённый".
(2) smes, vosmidesijatye,
Jul 2 2018, 12:22:33 Immortal - Northern Chaos Gods (2018)
Как один из немногих блэк металистов на форуме, скажу: альбом можно назвать лучшим со времен At The Heart Of Winter, но это не монументальное творение. Никакого "возвращения к корням" не произошло (если не учитывать имморталовское днк, которое и так всегда есть), это скорее заигрывание с так называемыми корнями. Возможно это было бы ощутимее с голосом Abbatha. Из-за его отсутствия, складывается впечатление что чего-то не хватает. При всех достоинствах скрима Demonaza.
Музыка ровная, сверх особых песен нет (например как Mountains of Might на Blizzard Beasts). Немного нелепо звучат фразы из названий прошлых работ (Mighty Ravendark). В общем полуtrue.
(3) RENыч, SSWolf88, vosmidesijatye,
Mar 26 2018, 17:30:54 Новости Black-направления
Abyssic Hate return! Всё остальное копашение посредственной швали.
Since there has been a delay in the full length album, I'm proud to announce Absurd & Abyssic Hate will be doing a split 7"ep soon before both our full length album's are released during this somewhat lengthy period. More details to come ...

https://m.youtube.com/watch?v=FE3lCI8DAGQ&t=38s
(5) CryptOn, infiltrator, NorthernResistance, Stutthof, Visitor,
Feb 28 2018, 10:31:13 Tiamat - Clouds (1992)
У Tiamat много альбомов, и все они разные. Но почему-то принято ругать именно Sumerian Cry. Особенного у леваков (фанатов опопсевших метал групп и простых металлистов). Они не берут в расчёт, ни то что это дебют, ни то что мало денег на студию etc. Они тявкают на него, только потому что это - Metal! Их трясёт от него как гомиков от Свастики. А ведь если посмотреть реально, то самый дурацким альбомом является Clouds (за период 90х). В основном по исполнению и звуку. Почему-то они его сделали халтурно, и это после завершённого и качественного Astral Sleep. Как будто что-то случилось с голосом и Йохан, как кто-то подметил, спел как пропитый футбольный фанат. А эти дурацкие подпевки не к месту, только вызывают недоумение.
Гитары какие-то ватные. Рабочий звучит как стук выбивания ковра в двором эхе. Местами басовые партии как в цирке... На концертных версиях тех лет, песни из Clouds звучат лучше и мощнее. Ему бы звук и гроул как в Wildhohey.
(3) 1111, quicksand, sta1081,
Feb 25 2018, 18:10:15 Drum As Fukk или "По голове себе постучи!" Выборы лучшего барабанщика
Hellhammer (Mayhem)
(1) Tular,
Feb 19 2018, 09:14:47 Drum As Fukk или "По голове себе постучи!" Выборы лучшего барабанщика
Hellhammer (Mayhem)
(1) Tular,
Feb 15 2018, 06:25:30 BlazeBirth Hall
ЦИТАТА(M8R8K @ Feb 15 2018, 03:09:02) *
обрыган

Значит и весь BBH обрыганы. Всё встало на свои места.
(3) infiltrator, lafuma, SSWolf88,
Feb 14 2018, 11:50:38 Drum As Fukk или "По голове себе постучи!" Выборы лучшего барабанщика
ЦИТАТА(mittal @ Feb 14 2018, 15:20:31) *
Хотелось бы услышать от вас конструктивный анализ и чем ударник Тиамата Ломбардо круче? (вопрос без подвоха, я на Ломбардо не специализируюсь, самому интересно).

Они оба крутые. Первый ударник Тиамата крут минималистичной (дозированной) ингибирующей техникой. Густотой другими словами. Но в силу вашей пониженной звуковыносливости и монотонноустойчивости, ваш мозг не выдерживая генерирует сигнал о псевдоскуки (он просто не знает что ещё сделать, нет таких участков от природы).
У меня недавно был сбой, и я не смог прослушать весь Transilvanian Hunger! Мозг стал слаб как у большинства.
(1) Alexis The Best,
Feb 14 2018, 10:49:17 Drum As Fukk или "По голове себе постучи!" Выборы лучшего барабанщика
ЦИТАТА(Exorcist @ Feb 14 2018, 14:44:08) *
Поглощение заурядного олдскул-дэта и бахвальство оным тем более не делает мозги сильнее.

Звуковыносливость повышается. Кстати Sumerian Cry это Black в Death одеянии.
(1) Alexis The Best,
Feb 14 2018, 10:42:02 Drum As Fukk или "По голове себе постучи!" Выборы лучшего барабанщика
ЦИТАТА(Exorcist @ Feb 14 2018, 14:28:37) *
Это потому, что у тебя мозги слабые. Но не в плане звуковыносливости

Информированность о достижениях Ломбардо не является знанием, и не делает мозги сильнее в плане интеллектуальности. Придумать приёмы - да, а знать - нет.
(1) Alexis The Best,
Feb 14 2018, 10:23:04 Drum As Fukk или "По голове себе постучи!" Выборы лучшего барабанщика
ЦИТАТА(Exorcist @ Feb 14 2018, 13:48:08) *
А я думал драмминга

Вон выше Winter Funeral прекрасно расписал всё. Канистру пива этому джентльмену

Если так же разбираться (или делать вид что разбираешься) как он, то конечно нужен другой подход к спискам. Хотя два драммера у нас совпадают.
Просто ваши мозги не способны выдерживать такой игры как у первого альбома Tiamat или Darkthrone, поэтому вы считаете это говном. Мозги слабые (в звуковыносливости). Почему Метал не популярен? Потому что у большинства людей мозги слабые! А у большинства металлистов полуслабые.
Но есть мозги высокой звуковыносливостью, они способны положительно воспринимать противоположные виды игры.
Если бы на первом альбоме Tiamat играл какой нибудь из ваших, то он был бы пустым.
Я например думал что Ломбардо обычный драммер, а он что-то ещё и придумал.
(1) Alexis The Best,
Feb 14 2018, 07:48:50 Drum As Fukk или "По голове себе постучи!" Выборы лучшего барабанщика
Hellhammer (Mayhem)
Count Grishnackh (Burzum)
Jonas Renske (Katatonia)
Abbath (Immortal)
Ildjarn (Ildjarn)
Anders Holmberg (Tiamat)
Incubus (Inquisition)
Trifixion (Summoning)
Jordison (Slipknot)
(1) Tular,
Feb 9 2018, 12:24:40 BlazeBirth Hall
Убийца Ульва, кто он вообще такой?
(2) infiltrator, vosmidesijatye,
Jan 9 2018, 08:14:10 Новости Black-направления
Immortal has completed new album!
Demonaz - vocal, guitars
Horgh - drumms
Peter Tägtgren - Bass
(2) infiltrator, suseka,
Mar 2 2015, 18:50:40 Legion Of Doom - The Tyrant With The Seven Heads [ep] (2014)


*Artist: Legion Of Doom
*Album: The Tyrant With The Seven Heads [ep]
*Year: 2014
*Genre: Black Metal
*Country: Greece
*Format: mp3@CBR320kbps
*Size: 30MB

Tracklist:
1. A Sickle As An Emblem
2. The Tyrant With The Seven Heads
******************************
Total playing time: 12:55



[more=Technical info]
Input File: 01 A Sickle As An Emblem.mp3
Channels : 2
Sample Rate : 44100
Precision : 16-bit
Duration : 00:06:10.09 = 16320749 samples = 27756.4 CDDA sectors
File Size : 15.0M
Bit Rate : 324k
Sample Encoding: MPEG audio (layer I, II or III)
Comments :
Title=A Sickle As An Emblem
Artist=Legion Of Doom
Album=The Tyrant With The Seven Heads
Tracknumber=1
Year=2015

[/more]

Register
(46) 1968_janeart, andivi, artscald, blacky66, cancer1974, Constantinus I, DarkYantar, ddarkthrone, Emhyr var Emreis, Hell_Is_Here, Hswhhh, igore2911, Ildjarn, Jurmagund, kefka, komhs, lordbathor, morbidangelo, NachtWulf, Narasimha, Nerevar, Orkkh, Ostinato, princeshr, rammmirez, randumbum, Razorbladeswaltz, rom666, Rosen, RUSP73, satanist666, SilentNidhogg, smes, sperminator, Stutthof, sumeriarising, tont, UlvhedinGrom, VALERY, varlam4, vasiljev_sergej, waldemardr, Wolftribes, wolverine, zotyo1975, Абигор,
Sep 29 2014, 20:14:49 Orcultus - Reburial [demo] (2014)


*Artist: Orcultus
*Album: Reburial [demo]
*Year: 2014
*Genre: Black Metal
*Country: Sweden
*Format: mp3@CBR320kbps
*Size: 30MB

Tracklist:
1. I
2. II
3. III
******************************
Total playing time: 13:00



[more=Technical info]
Input File: 01 I.mp3
Channels : 2
Sample Rate : 44100
Precision : 16-bit
Duration : 00:04:12.42 = 11131634 samples = 18931.4 CDDA sectors
File Size : 10.3M
Bit Rate : 327k
Sample Encoding: MPEG audio (layer I, II or III)
Comments :
Title=I
Artist=Orcultus
Album=Reburial
Tracknumber=1
Year=2014

[/more]

Register
(25) andivi, blacky66, Constantinus I, craP_cillA, Darkthronefoad, ddarkthrone, Hell_Is_Here, kim666, Koscheyushka, marilin, NachtWulf, Razorbladeswaltz, Rosen, RUSP73, satanist666, Sjelekval, Sobafreak, stub888, SyncestrA, Tiamatus, tont, varg-38ru, varlam4, vasiljev_sergej, wreak,
Aug 30 2014, 16:06:31 Deadlife - No Help Is Coming (2014)


*Artist: Deadlife
*Album: No Help Is Coming
*Year: 2014
*Genre: Depressive Black Metal
*Country: Sweden
*Format: mp3@CBR320kbps
*Size: 121MB

Tracklist:
01. No Place For Joy
02. Alone
03. Solitude
04. Your Life Is Pointless
05. Set The Blood Free
06. Stabbed To Sleep
07. The Eerie Gloom
08. No Help Is Coming
******************************
Total playing time: 52:21



[more=Technical info]
Input File: 02 Alone.mp3
Channels : 2
Sample Rate : 44100
Precision : 16-bit
Duration : 00:06:30.25 = 17210157 samples = 29269 CDDA sectors
File Size : 15.8M
Bit Rate : 325k
Sample Encoding: MPEG audio (layer I, II or III)
Comments :
Title=Alone
Artist=Deadlife
Album=No Help Is Coming
Tracknumber=2
Year=2014
Genre=Depressive Black Metal

[/more]

Register
(44) 0x13, artscald, Beurer, bka, blacky66, Buregon, craP_cillA, CRUNCH, DarkYantar, GAS, lestllk, libertine, lucifix, metala, Moonshtook, murian, NachtWulf, randumbum, Razorbladeswaltz, redp, rom666, Rosen, RUSP73, sandr666, satanist666, senecazm, serach, shadow666, SIAVASH, Sjelekval, sperminator, SSBandera, StoneTemple, stub888, Tiamatus, tont, User123, VALERY, varlam4, vasiljev_sergej, wreak, xander_spades, Госпромнадзор, добрыйКот,
Aug 29 2014, 07:31:57 Kostnitsa - Dissolved In The Abyss (2014)


*Artist: Kostnitsa
*Album: Dissolved In The Abyss
*Year: 2014
*Genre: Black Metal/Doom Metal
*Country: Russian Federation
*Format: mp3@CBR320kbps
*Size: 68MB

Tracklist:
01. No Exit
02. Dissolved In The Abyss
03. Anti-Life Visions
04. Clouds Of Melancholy
05. Black Mourning
06. Blackout
******************************
Total playing time: 30:25




[more=Technical info]
Input File: 01 No Exit.mp3
Channels : 2
Sample Rate : 44100
Precision : 16-bit
Duration : 00:05:33.45 = 14705233 samples = 25008.9 CDDA sectors
File Size : 14.0M
Bit Rate : 335k
Sample Encoding: MPEG audio (layer I, II or III)
Comments :
Title=No Exit
Artist=Kostnitsa
Album=Dissolved In The Abyss
Tracknumber=1/6
Year=2014
Genre=Dark Metal

[/more]

Register
(28) blacky66, Boozer, Constantinus I, deadterror, doomTemplar, Doooomed, libertine, marilin, metala, Noxius, old, oldvarg, Orkkh, Ostinato, randumbum, rom666, Rosen, satanist666, serach, tont, Uriel, vadik, VALERY, varg-38ru, varlam4, vasiljev_sergej, Victim of fate, wreak,
Aug 6 2014, 08:35:22 Mysterium - Nacht Der Wölfe [demo] (1996)


*Artist: Mysterium
*Album: Nacht Der Wölfe [demo]
*Year: 1996
*Genre: Black Metal/Dungeon Beat
*Country: Germany
*Format: mp3@CBR128kbps
*Size: 21MB

Tracklist:
01. Intro
02. Misanthrope
03. To Step On The Fields Of Honour
04. Nacht Der Wölfe
05. Winternacht
06. Outro
******************************
Total playing time: 22:53

[more=Extended info]All music and lyrics by Gaamalzagoth (Moonblood).[/more]

Register
(19) andivi, Borderline1991, Ildjarn, Kazoth, mondblut, NachtWulf, Premature_Devotion, Rosen, satanist666, sethurius, spiritualdecay666, the_cleanser, Tiamatus, tont, vasiljev_sergej, Velkaarn, Xzor69, zargonath, Абигор,
Jul 9 2014, 16:44:03 Solard - Recessive (2014)


*Artist: Solard
*Album: Recessive
*Year: 2014
*Genre: Dungeon Synth/Dark Ambient
*Country: Russian Federation
*Format: mp3@CBR320kbps
*Size: 60MB

Tracklist:
01. Star Lifeline
02. Time Spin
03. Celestial Race
04. Invisible Birth
05. Equilibration
06. Morning
******************************
Total playing time: 24:50



Preview 3

[more=Technical info]
Input File: 06 Morning.mp3
Channels : 2
Sample Rate : 44100
Precision : 16-bit
Duration : 00:02:28.81 = 6562389 samples = 11160.5 CDDA sectors
File Size : 6.87M
Bit Rate : 370k
Sample Encoding: MPEG audio (layer I, II or III)
Comments :
Title=Morning
Artist=Solard
Album=Recessive
Tracknumber=6
Year=2014
Genre=Dungeon Synth

[/more]

Register
(5) Phlebotomized, stormhatt, Tiamatus, Velkaarn, veselchak_u,
May 21 2014, 17:42:49 Maschinenzimmer 412 - Malfeitor (1989)


*Artist: Maschinenzimmer 412
*Album: Malfeitor
*Year: 1989
*Genre: Industrial
*Country: Sweden
*Format: mp3@CBR320kbps
*Size: 119MB

Tracklist:
01. Virus
02. Malfeitor
03. The Death Of Lasarus
04. Cold Face
05. Auguste Piccard's Nightmare
06. Introspektion
07. Public Worship
08. Ecaf Dloc II
09. Still...
10. Fire
11. -
12. Dead Broadcast
******************************
Total playing time: 57:47

[more=Extended info]Clean machine music with electro convulsive treatments.[/more]

[more=Technical info]
Input File: 12 Dead Broadcast.mp3
Channels : 2
Sample Rate : 44100
Precision : 16-bit
Duration : 00:01:43.05 = 4544593 samples = 7728.9 CDDA sectors
File Size : 4.22M
Bit Rate : 327k
Sample Encoding: MPEG audio (layer I, II or III)
Comments :
Title=Dead Broadcast
Artist=Maschinenzimmer 412
Album=Malfeitor
Tracknumber=12/12
Year=1989
Genre=Industrial

[/more]

Register
(10) crackedbrain, Emhyr var Emreis, gwar, Hell_Is_Here, Hipgnosis, lucifix, milosdjor, morbidangelo, RUSP73, некрософ,

2 Pages V   1 2 >
- Lo-Fi Version Support form
Copyrights and abuse reports form
Time is now: 19th September 2019 - 15:35:15