Welcome Guest ( Log In | Register )

История благодарностей участнику Panacea ::: Спасибо сказали: 5733 раз(а)
Дата поста: В теме: За сообщение: Спасибо сказали:
Aug 16 2019, 16:41:43 Blood Torrent - Torrent Of Hatred (2012)


*Artist: Blood Torrent
*Album: Torrent Of Hatred
*Year: 2012
*Genre: Black Metal/Black 'n' Roll
*Country: Germany
*Format: mp3@CBR320kbps
*Size: 100MB

Tracklist:
1. Day 0 01:48
2. Torrent Of Hatred 05:37
3. Lycanthropic Spell 05:21
4. Madness Prevails 06:33
5. L.C.U. 07:12
6. Knives And Spikes 07:48
7. And It Marches Ahead 04:58
8. Anæmic 06:40
******************************
Total playing time: 45:57



[more=Technical info]
Input File: 02 - Torrent Of Hatred.mp3
Channels : 2
Sample Rate : 44100
Precision : 16-bit
Duration : 00:05:37.81 = 14897465 samples = 25335.8 CDDA sectors
File Size : 13.5M
Bit Rate : 320k
Sample Encoding: MPEG audio (layer I, II or III)
Comments :
Title=Torrent Of Hatred
Artist=Blood Torrent
Album=Torrent Of Hatred
Tracknumber=2
Year=2012
Genre=Black Metal/Black 'n' Roll

[/more]

Register
(7) artscald, Olethros, Ostinato, Rosen, stumpheavyrock, VALERY, vasiljev_sergej,
Aug 12 2019, 20:11:48 Today Is The Day - In The Eyes Of God (1999)
CBR 320 kbps (2010, Remastered, Reissue with 6 bonus tracks)
Register
(1) Герб,
Aug 8 2019, 17:40:49 Gravatus - Et Omnis Insipientia Aperuit Os Suum (2019)


*Artist: Gravatus
*Album: Et Omnis Insipientia Aperuit Os Suum
*Year: 2019
*Genre: Atmospheric Black Metal/Ambient
*Country: Romania
*Format: mp3@CBR320kbps
*Size: 71MB

Tracklist:
1. Vitam Impendere Desperatio 08:20
2. Mors Omnibus Lucet 05:19
3. Nostrum Desiderium Mortis 06:57
4. Nulla Salus 07:14
5. Comedia Finita Est 03:08
******************************
Total playing time: 30:58



[more=Technical info]
Input File: 02 - Mors Omnibus Lucet.mp3
Channels : 2
Sample Rate : 44100
Precision : 16-bit
Duration : 00:05:19.42 = 14086422 samples = 23956.5 CDDA sectors
File Size : 12.9M
Bit Rate : 323k
Sample Encoding: MPEG audio (layer I, II or III)
Comments :
Title=Mors Omnibus Lucet
Artist=Gravatus
Album=Et Omnis Insipientia Aperuit Os Suum
Tracknumber=2
Year=2019
Genre=Atmospheric Black Metal/Ambient

[/more]

Register
(10) artscald, blacky66, Doooomed, kim666, Olethros, robertho777, Rosen, SilentNidhogg, stub888, vasiljev_sergej,
Aug 4 2019, 19:29:13 Bethel - Northern Despondency [demo] (2017)


*Artist: Bethel
*Album: Northern Despondency [demo]
*Year: 2017
*Genre: Melodic Black Metal
*Country: Finland
*Format: mp3@CBR320kbps
*Size: 44MB

Tracklist:
1. Return To The Lands Of Dark & Frost 19:00
******************************
Total playing time: 19:00

[more=Extended info]20 years after “Northern Supremacy” Bethel return with their second demo![/more]

[more=Technical info]
Input File: 01 - Return To The Lands Of Dark & Frost.mp3
Channels : 2
Sample Rate : 44100
Precision : 16-bit
Duration : 00:19:00.39 = 50291155 samples = 85529.2 CDDA sectors
File Size : 45.6M
Bit Rate : 320k
Sample Encoding: MPEG audio (layer I, II or III)
Comments :
Title=Return To The Lands Of Dark & Frost
Artist=Bethel
Album=Northern Despondency
Tracknumber=1
Year=2017
Genre=Black Metal

[/more]

Register
(12) artscald, cancer1974, craP_cillA, Grev, kim666, Olethros, princeshr, Rosen, Strid, thenecromancer, vasiljev_sergej, zargonath,
Aug 4 2019, 18:13:30 Dodenbezweerder - Zwarte Sluiers [ep] (2019)


*Artist: Dodenbezweerder
*Album: Zwarte Sluiers [ep]
*Year: 2019
*Genre: Black Metal
*Country: Netherlands
*Format: mp3@CBR320kbps
*Size: 28MB

Tracklist:
1. Verstenigd En Verdelgd 07:00
2. Zwarte Sluiers Over Dode Gezichten 05:07
******************************
Total playing time: 12:07



[more=Technical info]
Input File: 02 - Zwarte Sluiers Over Dode Gezichten.mp3
Channels : 2
Sample Rate : 44100
Precision : 16-bit
Duration : 00:05:07.64 = 13566836 samples = 23072.9 CDDA sectors
File Size : 12.5M
Bit Rate : 324k
Sample Encoding: MPEG audio (layer I, II or III)
Comments :
Title=Zwarte Sluiers Over Dode Gezichten
Artist=Dodenbezweerder
Album=Zwarte Sluiers
Tracknumber=2
Year=2019
Genre=Black Metal

[/more]

Register
(11) 1968_janeart, artscald, Beazth, kim666, Olethros, robertho777, Rosen, SilentNidhogg, stub888, Tyrone, vasiljev_sergej,
Jul 20 2019, 16:11:07 Arditi - Exaltation Of The Past [compilation] (2019)


*Artist: Arditi
*Album: Exaltation Of The Past [compilation]
*Year: 2019
*Genre: Martial Industrial/Modern Classical/Ambient
*Country: Sweden
*Format: mp3@CBR320kbps
*Size: 108MB

Tracklist:
1. Ploughshares Into Swords 04:32
2. Sieg Durch Zwecksetzung 04:29
3. Legionaries 05:43
4. Ploughshares Into Swords Part II 04:42
5. Volunteers 04:11
6. Nicht Mehr Schande 04:43
7. Blood Firmament 04:47
8. Palingenesis 03:39
9. The Sinking Ship 06:17
10. Standards Of Triumph 04:21
******************************
Total playing time: 47:24



[more=Extended info]Compilation of tracks from the first era of Arditi.
LP limited to 100 copies released by Steinklang Industries.

Tracks 1, 3, 9 and 10 were originally released on "Standards Of Triumph".
Tracks 2, 6, 7 and 8 were originally released on "Spirit Of Sacrifice".
Track 5 was originally released on "Leading The Iron Resistance".
Track 4 was previously unreleased.

All tracks have been reworked and remastered in 2018.[/more]

[more=Technical info]
Input File: 10 - Standards Of Triumph.mp3
Channels : 2
Sample Rate : 44100
Precision : 16-bit
Duration : 00:04:21.58 = 11535722 samples = 19618.6 CDDA sectors
File Size : 10.5M
Bit Rate : 321k
Sample Encoding: MPEG audio (layer I, II or III)
Comments :
Title=Standards Of Triumph
Artist=Arditi
Album=Exaltation Of The Past
Tracknumber=10
Year=2019
Genre=Martial Industrial

[/more]

Register
(11) A.L.Rapsod, cancer1974, Emhyr var Emreis, Evgen79, EvgeniusLongus, kauyumari, Olethros, sethurius, Wizard_in_Black, wolverine, wtk.412,
Jul 20 2019, 15:40:09 Gealach - Gealach [demo] (2019)


*Artist: Gealach
*Album: Gealach [demo]
*Year: 2019
*Genre: Black Metal
*Country: Ireland
*Format: mp3@CBR320kbps
*Size: 45MB

Tracklist:
1. Der Eiskonig 07:55
2. Nailed To The Cross Of Plagues 05:11
3. The Mire 06:03
******************************
Total playing time: 19:09



[more=Extended info]Limited tape release by Celtic Wraith Records.[/more]

[more=Technical info]
Input File: 02 - Nailed To The Cross Of Plagues.mp3
Channels : 2
Sample Rate : 44100
Precision : 16-bit
Duration : 00:05:11.11 = 13720039 samples = 23333.4 CDDA sectors
File Size : 12.5M
Bit Rate : 321k
Sample Encoding: MPEG audio (layer I, II or III)
Comments :
Title=Nailed To The Cross Of Plagues
Artist=Gealach
Album=Gealach
Tracknumber=2
Year=2019
Genre=Black Metal

[/more]

Register
(14) 1968_janeart, artscald, craP_cillA, kim666, lestllk, Olethros, robertho777, Rosen, SilentNidhogg, stub888, VALERY, vasiljev_sergej, vovenom, wreak,
Jul 20 2019, 15:17:11 In The Court Of A Broken Flesh - In The Court Of A Broken Flesh (2019)


*Artist: In The Court Of A Broken Flesh
*Album: In The Court Of A Broken Flesh
*Year: 2019
*Genre: Atmospheric/Psychedelic Black Metal
*Country: Poland
*Format: mp3@CBR320kbps
*Size: 85MB

Tracklist:
1. Part I. Inverted Asceticism 01:01
2. The Lodge Strikes Back 03:18
3. Ouroboros Lament 04:59
4. In The Court Of A Broken Flesh 04:28
5. Cursing The Chasm To Flood 05:14
6. Infected Vessels 05:00
7. Part II. Inward Abstractionism 01:43
8. Deeper Into The Soulhole 10:42
******************************
Total playing time: 36:25



[more=Technical info]
Input File: 02 - The Lodge Strikes Back.mp3
Channels : 2
Sample Rate : 44100
Precision : 16-bit
Duration : 00:03:18.65 = 8760421 samples = 14898.7 CDDA sectors
File Size : 8.04M
Bit Rate : 324k
Sample Encoding: MPEG audio (layer I, II or III)
Comments :
Title=The Lodge Strikes Back
Artist=In The Court Of A Broken Flesh
Album=In The Court Of A Broken Flesh
Tracknumber=2
Year=2019
Genre=Atmospheric/Psychedelic Black Metal

[/more]

Register
(20) 1968_janeart, artscald, judaz, kimkayoung, lestllk, metala, MMMMM, Nak, Olethros, Ostinato, robertho777, Rosen, serach, Shadechaser, SilentNidhogg, VALERY, vasiljev_sergej, wreak, yuratroll, Сварог Барг,
Jul 16 2019, 17:26:35 Adventum Diaboli - Blackheart (2018)


*Artist: Adventum Diaboli
*Album: Blackheart
*Year: 2018
*Genre: Depressive Black Metal
*Country: Greece
*Format: mp3@CBR320kbps
*Size: 102MB

Tracklist:
1. Humans Is The Plague And Suicide Is The Cure 06:36
2. Listen To This Song And Cut Yourself 05:16
3. I Welcome My Death 03:49
4. A Kiss In The Snow 03:18
5. The Winter,The Rain,And Her 04:05
6. Everybody Dies Alone And Forgotten 03:25
7. I See Myself In The End Of The Rope 07:20
8. A Hanging Corpse In The Forest 03:34
9. Her Ghost Haunts These Walls (Nocturnal Depression Cover) 08:18
******************************
Total playing time: 45:41



[more=Technical info]
Input File: 03 - I Welcome My Death.mp3
Channels : 2
Sample Rate : 44100
Precision : 16-bit
Duration : 00:03:49.63 = 10126771 samples = 17222.4 CDDA sectors
File Size : 9.26M
Bit Rate : 323k
Sample Encoding: MPEG audio (layer I, II or III)
Comments :
Title=I Welcome My Death
Artist=Adventum Diaboli
Album=Blackheart
Tracknumber=3
Year=2018
Genre=Depressive Black Metal

[/more]

Register
(17) 1968_janeart, artscald, autumnwood, kim666, koc1, libertine, madster, metala, Olethros, RENыч, Rosen, stone88, supremo, VALERY, vasiljev_sergej, Victim of fate, wreak,
Jul 14 2019, 14:21:27 Undeath - Demo '19 [demo] (2019)


*Artist: Undeath
*Album: Demo '19 [demo]
*Year: 2019
*Genre: Death Metal
*Country: United States
*Format: mp3@CBR320kbps
*Size: 39MB

Tracklist:
1. Unadorned Coffin 02:49
2. Ineffable Tumult 04:07
3. Perverted Self Reflections 03:15
4. Mortuary Breeze 01:13
5. Archfiend Coercion Methods 04:56
******************************
Total playing time: 16:20



[more=Extended info]Caligari Records tape.[/more]

[more=Technical info]
Input File: 01 - Unadorned Coffin.mp3
Channels : 2
Sample Rate : 44100
Precision : 16-bit
Duration : 00:02:49.57 = 7478169 samples = 12718 CDDA sectors
File Size : 6.99M
Bit Rate : 330k
Sample Encoding: MPEG audio (layer I, II or III)
Comments :
Title=Unadorned Coffin
Artist=Undeath
Album=Demo '19
Tracknumber=1
Year=2019
Genre=Death Metal

[/more]

Register
(8) artscald, DimON, GorAtheist, Olethros, Ostinato, Rosen, VALERY, wreak,
Jul 14 2019, 12:08:50 Lamp Of Murmuur - Melancholy Howls In Ceremonial Penitence (2019)


*Artist: Lamp Of Murmuur
*Album: Melancholy Howls In Ceremonial Penitence
*Year: 2019
*Genre: Raw Black Metal
*Country: United States
*Format: mp3@CBR320kbps
*Size: 68MB

Tracklist:
1. Wail Of The Crescent Moon Light 01:41
2. Chalice Of Oniric Perversions 06:42
3. Vertikal Horrors 06:58
4. Unconceivable Spectral Vision 00:53
5. Harbinger Of Blasphemies To Come 05:14
6. Chalice Of Oniric Torment 05:36
7. Morbid Poetry In The Name Of The Levitating Priestess 02:13
******************************
Total playing time: 29:17



[more=Extended info]Limited editions hand-numbered cassettes.
Death Kvlt Productions.[/more]

[more=Technical info]
Input File: 02 - Chalice Of Oniric Perversions.mp3
Channels : 2
Sample Rate : 44100
Precision : 16-bit
Duration : 00:06:42.29 = 17740769 samples = 30171.4 CDDA sectors
File Size : 16.1M
Bit Rate : 320k
Sample Encoding: MPEG audio (layer I, II or III)
Comments :
Title=Chalice Of Oniric Perversions
Artist=Lamp Of Murmuur
Album=Melancholy Howls In Ceremonial Penitence
Tracknumber=2
Year=2019
Genre=Raw Black Metal

[/more]

Register
(22) aleon, Alexis The Best, Altkiller, artscald, autumnwood, Boozer, FUDEDOR, Hell_Is_Here, Ildjarn, kim666, lestllk, nemx, Olethros, Ostinato, RawBlack, Rosen, SilentNidhogg, smysl, stub888, VALERY, vasiljev_sergej, wreak,
Jul 11 2019, 19:16:02 Scumripper - All Veins Blazing (2019)


*Artist: Scumripper
*Album: All Veins Blazing
*Year: 2019
*Genre: Black/Thrash/Death Metal
*Country: Finland
*Format: mp3@CBR320kbps
*Size: 70MB

Tracklist:
1. Colonel Gator 01:53
2. Slay.Scum.Day 01:50
3. Nuns 'N' Doses 01:46
4. Your Local Shriner 01:15
5. Rock The Bone 00:54
6. Three Morbid Magi 01:50
7. Mask Merchant 02:21
8. All Veins Blazing 01:52
9. Eight Rapes A Week 02:35
10. Put A Boot To His Cock 00:34
11. Death Wish 02:39
12. Shit Needle Crown 02:04
13. Burning Of The Midnight Tramp 02:24
14. Scumripper 01:52
15. Cum Killa 02:12
16. Run To The Pills 00:52
17. Gutter Heights 02:15
******************************
Total playing time: 31:08



[more=Extended info]Tracks 12 - 17 are the "Scumripper" EP that is included as bonus.[/more]

[more=Technical info]
Input File: 01 - Colonel Gator.mp3
Channels : 2
Sample Rate : 44100
Precision : 16-bit
Duration : 00:01:54.01 = 5027709 samples = 8550.53 CDDA sectors
File Size : 4.56M
Bit Rate : 320k
Sample Encoding: MPEG audio (layer I, II or III)
Comments :
Title=Colonel Gator
Artist=Scumripper
Album=All Veins Blazing
Tracknumber=1
Year=2019
Genre=Black/Thrash/Death Metal

[/more]

Register
(17) artscald, Boozer, GorAtheist, infiltrator, kauyumari, lestllk, Ludwig Hagen, marilin, metala, nekro2007, Olethros, Rosen, stumpheavyrock, VALERY, vasiljev_sergej, wgs73, wreak,
Jul 10 2019, 19:08:53 Rotting Christ & Varathron - Duality Of The Unholy Existence [split] (2019)


*Artist: Rotting Christ & Varathron
*Album: Duality Of The Unholy Existence [split]
*Year: 2019
*Genre: Melodic Black Metal | Black Metal
*Country: Greece | Greece
*Format: mp3@CBR320kbps
*Size: 22MB

Tracklist:
Rotting Christ:
1. Spiritus Sancti 04:50
Varathron:
2. Shaytan 04:36
******************************
Total playing time: 9:26



[more=Extended info]222 copies pressed on gold vinyl and 777 copies on black vinyl.
Hells Headbangers Records.[/more]

[more=Technical info]
Input File: 02 - Varathron - Shaytan.mp3
Channels : 2
Sample Rate : 44100
Precision : 16-bit
Duration : 00:04:36.08 = 12175128 samples = 20706 CDDA sectors
File Size : 11.2M
Bit Rate : 323k
Sample Encoding: MPEG audio (layer I, II or III)
Comments :
Title=Shaytan
Artist=Varathron
Album=Duality Of The Unholy Existence
Tracknumber=2
Year=2019
Genre=Black Metal

[/more]

Register
(61) 1968_janeart, AHBAnep, Alexis The Best, artscald, Beazth, belphegor6, BERZERK, BlaspherionFLUL, cancer1974, Demonologist, djsema4, draht, dulak, Emhyr var Emreis, fallen, Femto, foma, ForzaMinardi1977, FUDEDOR, GorAtheist, gwynnbleid, Gylve, Hell_Is_Here, igore2911, infiltrator, kauyumari, kim666, kimkayoung, kluval, kostja, Lanceatum, Lux, Maximvs, metalwoman, Mist13Signifier, nadin85, Narasimha, neoatheist, Occultas, Old Vyaine, Ostinato, pedrohell, Persian Gorgrinder, popen13, Reverend, robertho777, Rosen, Shadechaser, SilentNidhogg, supremo, thenecromancer, the_metalist, Uriel, VALERY, vasiljev_sergej, vyacheslav, WarmasterChorus, wreak, Варонъ, Варяг, Волос,
Jul 1 2019, 22:21:38 Celestial Grave - Secular Flesh (2019)


*Artist: Celestial Grave
*Album: Secular Flesh
*Year: 2019
*Genre: Black Metal
*Country: Finland
*Format: mp3@CBR320kbps
*Size: 69MB

Tracklist:
1. Lamentation 06:05
2. Secular Flesh 06:02
3. Gasping From Lips Of Night 08:35
4. Calamitous Love 10:36
******************************
Total playing time: 31:18



[more=Technical info]
Input File: 02 - Secular Flesh.mp3
Channels : 2
Sample Rate : 44100
Precision : 16-bit
Duration : 00:06:03.07 = 16011519 samples = 27230.5 CDDA sectors
File Size : 14.5M
Bit Rate : 320k
Sample Encoding: MPEG audio (layer I, II or III)
Comments :
Title=Secular Flesh
Artist=Celestial Grave
Album=Secular Flesh
Tracknumber=2
Year=2019
Genre=Black Metal

[/more]

Register
(29) 1968_janeart, Ash_1980, Boozer, craP_cillA, d0zer, deadwater, GorAtheist, Hell_Is_Here, horss, HviteGuden, Ildjarn, infernallord, Kehl05, kim666, kimkayoung, MMMMM, nemx, Olethros, Ostinato, robertho777, Rosen, SilentNidhogg, stub888, Taragorm, Tyrone, VALERY, vasiljev_sergej, Vraithee, wreak,
Jun 30 2019, 13:22:28 Præternatura - Blighted Harvest [ep] (2019)


*Artist: Præternatura
*Album: Blighted Harvest [ep]
*Year: 2019
*Genre: Black Metal
*Country: United States
*Format: mp3@CBR320kbps
*Size: 29MB

Tracklist:
1. Blighted Harvest 04:48
2. Forlorn 03:51
3. Acrimony 04:17
******************************
Total playing time: 12:56



[more=Technical info]
Input File: 02 - Forlorn.mp3
Channels : 2
Sample Rate : 44100
Precision : 16-bit
Duration : 00:03:51.88 = 10225820 samples = 17390.9 CDDA sectors
File Size : 9.36M
Bit Rate : 323k
Sample Encoding: MPEG audio (layer I, II or III)
Comments :
Title=Forlorn
Artist=Præternatura
Album=Blighted Harvest
Tracknumber=2
Year=2019
Genre=Black Metal

[/more]

Register
(10) Hell_Is_Here, kim666, robertho777, Rosen, Shadechaser, SilentNidhogg, Tyrone, vasiljev_sergej, wreak, Абигор,
Jun 28 2019, 12:34:36 Infernal Conjuration - Infernale Metallum Mortis (2019)
FLAC 348MB
Register
(3) deatholocaust, FlammenTod666, Samaritianin,
Jun 27 2019, 20:17:00 13 Candless - Angels Of Mourning Silence (1997)
CBR 320 kbps
Register
(3) pedrohell, thenecromancer, wendigo,
Jun 8 2019, 08:42:30 Infernal Conjuration - Infernale Metallum Mortis (2019)
QUOTE(igore2911 @ Jun 8 2019, 08:12:52) *
Неплохой олдскул.

Very good old school release and with amazing vocals reminding a mixture of David Vincent (Altars of Madness and Blessed are the Sick era) and Chuck Schuldiner.
(1) Samaritianin,
Jun 6 2019, 21:53:31 Witches Hex - Rituals Under The Red Moon [demo] (2019)


*Artist: Witches Hex
*Album: Rituals Under The Red Moon [demo]
*Year: 2019
*Genre: Raw Black Metal
*Country: Canada
*Format: mp3@CBR320kbps
*Size: 112MB

Tracklist:
1. Grim Satisfaction 03:59
2. Genocide The Human Race 03:42
3. Forever In Hell 04:05
4. Deathless Eternity 03:44
5. Nuke The World 05:37
6. Hallucinations Of The Ancient Ones 03:11
7. Dreams Of Profound Terror 04:27
8. Forbidden Truths 04:39
9. A Morbid Curiosity 03:01
10. Gazing Out Across The Plains Of Possibility 05:19
11. Vengeance And Sacrifice 04:58
12. Spectral Realm 03:33
******************************
Total playing time: 50:15



[more=Technical info]
Input File: 04 - Deathless Eternity.mp3
Channels : 2
Sample Rate : 44100
Precision : 16-bit
Duration : 00:03:44.49 = 9899789 samples = 16836.4 CDDA sectors
File Size : 9.26M
Bit Rate : 330k
Sample Encoding: MPEG audio (layer I, II or III)
Comments :
Title=Deathless Eternity
Artist=Witches Hex
Album=Rituals Under The Red Moon (Demo)
Tracknumber=4
Year=2019
Genre=Raw Black Metal

[/more]

Register
(14) 1968_janeart, FUDEDOR, Hell_Is_Here, Ildjarn, kim666, kkrrizzzzz, LVXXVL, Olethros, Rosen, SilentNidhogg, stub888, thenecromancer, vasiljev_sergej, wreak,
Jun 6 2019, 20:46:28 Infernal Conjuration - Infernale Metallum Mortis (2019)


*Artist: Infernal Conjuration
*Album: Infernale Metallum Mortis
*Year: 2019
*Genre: Death Metal
*Country: Mexico
*Format: mp3@CBR320kbps
*Size: 91MB

Tracklist:
1. Dreadful Knowledge 04:34
2. Profound Immorality 03:44
3. Infernal Conjuration 04:08
4. Cleansed In Asphyxia 04:28
5. Necrolatria (A Los Muertos Blasfemos) 06:10
6. In The Presence Of Another World 06:19
7. Demonic Possession 03:18
8. Tremendous Plague 03:45
9. Ultimatum 04:03
******************************
Total playing time: 40:29



[more=Technical info]
Input File: 02 - Profound Immorality.mp3
Channels : 2
Sample Rate : 44100
Precision : 16-bit
Duration : 00:03:44.17 = 9885985 samples = 16812.9 CDDA sectors
File Size : 9.07M
Bit Rate : 324k
Sample Encoding: MPEG audio (layer I, II or III)
Comments :
Title=Profound Immorality
Artist=Infernal Conjuration
Album=Infernale Metallum Mortis
Tracknumber=2
Year=2019
Genre=22

[/more]

Register
(29) AHBAnep, andreikun, artscald, FUDEDOR, GorAtheist, helvetestoner, igore2911, jollo, makarytch, metal73, milosdjor, Mist13Signifier, MMMMM, muskatnuss, Olethros, Ostinato, pedrohell, Rosen, Samaritianin, samokot, ShadowHunter, stumpheavyrock, THROWER666, Tino, troll_swamp, vyacheslav, wanderer73, WX419, Герб,
Jun 3 2019, 14:41:08 Orcrypt - Dice & Damnation [demo] (2019)


*Artist: Orcrypt
*Album: Dice & Damnation [demo]
*Year: 2019
*Genre: Black Metal
*Country: United Kingdom
*Format: mp3@CBR320kbps
*Size: 26MB

Tracklist:
1. Oubliette (Intro) 01:43
2. Beholder 04:07
3. Dice & Damnation 04:03
4. Lord Of The Storms (Emperor Cover) 01:56
******************************
Total playing time: 11:49

[more=Extended info]Low-fi RPG Black Metal featuring James Fogarty of Old Forest.[/more]

[more=Technical info]
Input File: 04 - Lord Of The Storms (Emperor Cover).mp3
Channels : 2
Sample Rate : 44100
Precision : 16-bit
Duration : 00:01:56.43 = 5134651 samples = 8732.4 CDDA sectors
File Size : 4.66M
Bit Rate : 320k
Sample Encoding: MPEG audio (layer I, II or III)
Comments :
Title=Lord Of The Storms (Emperor Cover)
Artist=Orcrypt
Album=Dice & Damnation
Tracknumber=4
Year=2019
Genre=Black Metal

[/more]

Register
(15) 1968_janeart, Fryz, FUDEDOR, GorAtheist, Ildjarn, INDARKNESS, kim666, lestllk, Mormo, Olethros, Rosen, stub888, VALERY, vasiljev_sergej, wreak,
May 29 2019, 22:04:21 Dracul - Order Of The Dragon (1999)


*Artist: Dracul
*Album: Order Of The Dragon
*Year: 1999
*Genre: Ritual/Neo-Classical/Dark Ambient
*Country: United States
*Format: mp3@CBR192kbps
*Size: 96MB

Tracklist:
1. Pondering Of Darkness 07:08
2. Blood Stained Chalice 07:24
3. Rise Of Tiamat 04:43
4. Call From Beyond The Dismal Trench 06:58
5. Astral Predator 07:03
6. Sacrifice Of The Lamb 03:54
7. Pondering Of Darkness (Instrumental Version) 07:08
8. Blood Stained Chalice (Instrumental Version) 07:24
9. Rise Of Tiamat (Instrumental Version) 04:43
10. Call From Beyond The Dismal Trench (Instrumental Version) 06:58
11. Astral Predator (Instrumental Version) 07:03
******************************
Total playing time: 1:10:26

[more=Extended info]Dracul (aka Dracul Order Of The Dragon) was a ritual/dark ambient/neoclassical project from the United States.
The project included as members Faunus Amadeus Loki (Mastema, Endoki Forest etc.), Mephistopheles and Deacon Damien.
In 1999 they released their only album entitled "Order Of The Dragon" (aka "Rites Of The Apocalypse") on a limited CDR,
featuring ritual incantations spoken by Mephistopheles and instrumentation's performed by Faunus Amadeus Loki.
Dracul also performed live in 1997 in New York City.[/more]

[more=Technical info]
Input File: 06 - Sacrifice Of The Lamb.mp3
Channels : 2
Sample Rate : 44100
Precision : 16-bit
Duration : 00:03:54.77 = 10353533 samples = 17608 CDDA sectors
File Size : 5.71M
Bit Rate : 195k
Sample Encoding: MPEG audio (layer I, II or III)
Comments :
Title=Sacrifice Of The Lamb
Artist=Dracul
Album=Order Of The Dragon
Tracknumber=6
Year=1999
Genre=Ritual/Classical/Dark Ambient

[/more]

Register
(7) HviteGuden, Olethros, Svafrlami, Vandclash, wendigo, Wolftribes, wtk.412,
May 27 2019, 23:08:12 Ayyur - The Lunatic Creature [ep] (2018)


*Artist: Ayyur
*Album: The Lunatic Creature [ep]
*Year: 2018
*Genre: Black Metal
*Country: Tunisia
*Format: mp3@CBR320kbps
*Size: 49MB

Tracklist:
1. Lugubrious Fields 05:55
2. The Outcast 05:12
3. The Lunatic Creature 06:06
4. He, Who Dwells In The Trenches 04:05
******************************
Total playing time: 21:18



[more=Technical info]
Input File: 04 - He, Who Dwells In The Trenches.mp3
Channels : 2
Sample Rate : 44100
Precision : 16-bit
Duration : 00:04:05.33 = 10819141 samples = 18399.9 CDDA sectors
File Size : 9.91M
Bit Rate : 323k
Sample Encoding: MPEG audio (layer I, II or III)
Comments :
Title=He, Who Dwells In The Trenches
Artist=Ayyur
Album=The Lunatic Creature
Tracknumber=4
Year=2018
Genre=Black Metal

[/more]

Register
(14) 1968_janeart, acerbus, Hell_Is_Here, kim666, lestllk, Olethros, Orgasmik, Ostinato, Precaria, Rosen, SilentNidhogg, VALERY, vasiljev_sergej, wreak,
May 26 2019, 11:47:10 Death Worship - End Times [ep] (2019)


*Artist: Death Worship
*Album: End Times [ep]
*Year: 2019
*Genre: Black/Death Metal
*Country: Canada
*Format: mp3@CBR320kbps
*Size: 31MB

Tracklist:
1. Stand Witness To Atrocity 02:26
2. The Poisoned Chalice 04:35
3. Slaughtersiege 04:08
4. Masters And Monolith 02:50
******************************
Total playing time: 13:59



[more=Technical info]
Input File: 04 - Masters And Monolith.mp3
Channels : 2
Sample Rate : 44100
Precision : 16-bit
Duration : 00:02:50.94 = 7538630 samples = 12820.8 CDDA sectors
File Size : 6.85M
Bit Rate : 321k
Sample Encoding: MPEG audio (layer I, II or III)
Comments :
Title=Masters And Monolith
Artist=Death Worship
Album=End Times
Tracknumber=4/4
Year=2019-01-01
Genre=Black/Death Metal
Discnumber=1/1

[/more]

Register
(31) acerbus, Ambercandle, babanguida, biroutios, Boozer, desekrator, Doooomed, FUDEDOR, garmonbozia, Hell_Is_Here, lestllk, lordbathor, LVXXVL, marilin, metal73, Olethros, Ostinato, rebornflms95, Rosen, RUSP73, sacrut, SadistikSlayer, Shadechaser, SilentNidhogg, soulskinner681, VALERY, vasiljev_sergej, Vidder242, wolverine, wreak, wtk.412,
May 11 2019, 21:48:28 God's Bastard - Last Standing Village [ep] (2019)


*Artist: God's Bastard
*Album: Last Standing Village [ep]
*Year: 2019
*Genre: Black Metal/Crust
*Country: United States
*Format: mp3@CBR320kbps
*Size: 46MB

Tracklist:
1. Chaos Apologist 03:53
2. God Raise The Sea 08:08
3. To The Last Standing Village 07:59
******************************
Total playing time: 20:00



[more=Technical info]
Input File: 01 - Chaos Apologist.mp3
Channels : 2
Sample Rate : 44100
Precision : 16-bit
Duration : 00:03:53.55 = 10299555 samples = 17516.2 CDDA sectors
File Size : 9.45M
Bit Rate : 324k
Sample Encoding: MPEG audio (layer I, II or III)
Comments :
Title=Chaos Apologist
Artist=God's Bastard
Album=Last Standing Village
Tracknumber=1
Year=2019
Genre=Black Metal/Crust

[/more]

Register
(9) 1968_janeart, dermarsoran, metala, Olethros, Ostinato, Rosen, VALERY, vasiljev_sergej, wreak,

24 Pages V   1 2 3 > » 
- Lo-Fi Version Support form
Copyrights and abuse reports form
Time is now: 23rd August 2019 - 01:23:44