Welcome Guest ( Log In | Register )

История благодарностей участнику Panacea ::: Спасибо сказали: 8911 раз(а)
Дата поста: В теме: За сообщение: Спасибо сказали:
Nov 25 2020, 22:25:41 Reverorum Ib Malacht - Draalvanias Et Corpus [demo] (2020)


*Artist: Reverorum Ib Malacht
*Album: Draalvanias Et Corpus [demo]
*Year: 2020
*Genre: Black Metal/Dark Ambient
*Country: Sweden
*Format: mp3@CBR320kbps
*Size: 71MB

Tracklist:
1. 1 01:43
2. 2 02:53
3. 3 03:29
4. 4 04:02
5. 5 03:19
6. 6 00:59
7. 1 Remixed 2005 01:42
8. 2 Remixed 2005 02:53
9. 3 Remixed 2005 03:28
10. 4 Remixed 2005 04:01
11. 5 Remixed 2005 02:41
******************************
Total playing time: 31:10



[more=Extended info]Post PTC (Power Trance Chaos), pre-Reverorum Ib Malacht demo.
Remixed in 2005 but remained unreleased.
One track ended up on the first Reverorum Ib Malacht album.[/more]

[more=Technical info]
Input File: 02 - 2.mp3
Channels : 2
Sample Rate : 44100
Precision : 16-bit
Duration : 00:02:53.91 = 7669387 samples = 13043.2 CDDA sectors
File Size : 7.06M
Bit Rate : 325k
Sample Encoding: MPEG audio (layer I, II or III)
Comments :
Title=2
Artist=Reverorum Ib Malacht
Album=Draalvanias Et Corpus
Tracknumber=2
Year=2020
Genre=Black Metal/Dark Ambient

[/more]

Register
(21) 1968_janeart, acerbus, infiltrator, Kazoth, kim666, milosdjor, MortSathynr, noxspiritus, Occultas, Olethros, Premature_Devotion, randumbum, robertho777, Rosen, sarcophagus, SilentNidhogg, varlam4, vasiljev_sergej, Velmi, Vidder242, wreak,
Nov 23 2020, 17:38:50 Shibalba - Nekrologie Sinistrae (Orchestra Noise Opus I) (2020)


*Artist: Shibalba
*Album: Nekrologie Sinistrae (Orchestra Noise Opus I)
*Year: 2020
*Genre: Industrial/Modern Classical/Ritual/Dark Ambient
*Country: Greece
*Format: mp3@CBR320kbps
*Size: 97MB

Tracklist:
1. Δαήμων Tunnel A 05:54
2. Δαήμων Tunnel B 06:34
3. Δαήμων Tunnel Γ 06:39
4. Δαήμων Tunnel Δ 06:14
5. Δαήμων Tunnel Ε 05:30
6. Δαήμων Tunnel Ζ 04:49
7. Δαήμων Tunnel Η 03:07
8. Δαήμων Tunnel Θ 03:04
******************************
Total playing time: 41:51




[more=Technical info]
Input File: 07 - Δαήμων Tunnel Η.mp3
Channels : 2
Sample Rate : 44100
Precision : 16-bit
Duration : 00:03:07.21 = 8255829 samples = 14040.5 CDDA sectors
File Size : 7.66M
Bit Rate : 327k
Sample Encoding: MPEG audio (layer I, II or III)
Comments :
Title=ÄáÞìùí Tunnel Ç
Artist=Shibalba
Album=Nekrologie Sinistrae (Orchestral Noise Opus I)
Tracknumber=7/8
Year=2020-02-10
Genre=Industrial/Modern Classical/Ritual/Dark Ambient
Discnumber=1

[/more]

Register
(13) amebix, Bzth, Forest Silence, Infidel, infiltrator, Legacy100, nsmetalhead, Occultas, Olethros, smes, tOmV, wolverine, wtk.412,
Nov 21 2020, 12:17:10 Barbarian - Human Prey [demo] (2020)


*Artist: Barbarian
*Album: Human Prey [demo]
*Year: 2020
*Genre: Death Metal
*Country: Australia
*Format: mp3@CBR320kbps
*Size: 29MB

Tracklist:
1. The New Blood 02:40
2. From Sewer To Street 01:45
3. Hybrid Killing Machine 01:48
4. Mutant Eurypterus 02:56
******************************
Total playing time: 9:09



[more=Technical info]
Input File: 03 - Hybrid Killing Machine.mp3
Channels : 2
Sample Rate : 44100
Precision : 16-bit
Duration : 00:01:48.39 = 4780043 samples = 8129.32 CDDA sectors
File Size : 4.42M
Bit Rate : 326k
Sample Encoding: MPEG audio (layer I, II or III)
Comments :
Title=Hybrid Killing Machine
Artist=Barbarian
Album=Human Prey
Tracknumber=3
Year=2020
Genre=Grindcore/Death Metal

[/more]

Register
(9) Bitchkiller, infiltrator, marilin, Olethros, Rosen, VALERY, varlam4, vyacheslav, wreak,
Nov 21 2020, 12:14:33 Barbarian - Demo MMXX [demo] (2020)


*Artist: Barbarian
*Album: Demo MMXX [demo]
*Year: 2020
*Genre: Death Metal
*Country: Australia
*Format: mp3@CBR320kbps
*Size: 43MB

Tracklist:
1. Chainsaw Cannibal 02:00
2. Hellseeker 01:23
3. Barbaric Bloodbath 02:23
4. Werewolf Colony 02:29
5. Axe-Wielding Maniac 02:58
6. King Of Rats 02:56
******************************
Total playing time: 14:09



[more=Technical info]
Input File: 02 - Hellseeker.mp3
Channels : 2
Sample Rate : 44100
Precision : 16-bit
Duration : 00:01:23.89 = 3699417 samples = 6291.53 CDDA sectors
File Size : 3.49M
Bit Rate : 332k
Sample Encoding: MPEG audio (layer I, II or III)
Comments :
Title=Hellseeker
Artist=Barbarian
Album=Demo MMXX
Tracknumber=2
Year=2020
Genre=Grindcore/Death Metal

[/more]

Register
(9) Bitchkiller, infiltrator, marilin, Olethros, Rosen, VALERY, varlam4, vyacheslav, wreak,
Nov 21 2020, 11:07:39 Eclipse - Demo II [demo] (1993)


*Artist: Eclipse
*Album: Demo II [demo]
*Year: 1993
*Genre: Experimental/Raw Black Metal
*Country: Netherlands
*Format: mp3@CBR320kbps
*Size: 70MB

Tracklist:
1. The Shadow Of Belial 07:58
2. Blasphemy Prayer In The Night 03:40
3. The Black Winds 07:18
4. Fallen Angel 04:08
5. The Final Geat War 07:04
******************************
Total playing time: 30:08



[more=Extended info]Recorded on 4 track tape recorder in 1993, Drachten, The Netherlands.
Recorded with: GEM keyboard, Bass, Guitar. All instruments and vocals by Darkstar.[/more]

[more=Technical info]
Input File: 04 - Fallen Angel.mp3
Channels : 2
Sample Rate : 44100
Precision : 16-bit
Duration : 00:04:08.08 = 10940108 samples = 18605.6 CDDA sectors
File Size : 10.0M
Bit Rate : 323k
Sample Encoding: MPEG audio (layer I, II or III)
Comments :
Title=Fallen Angel
Artist=Eclipse
Album=Demo II
Tracknumber=4
Year=1993
Genre=Experimental/Raw Black Metal

[/more]

Register
(12) 1968_janeart, infiltrator, metala, Olethros, Reverend, Rosen, stumpheavyrock, thenecromancer, VALERY, varlam4, vasiljev_sergej, wreak,
Nov 17 2020, 18:39:49 Arditi - Insignia Of The Sun (2020)


*Artist: Arditi
*Album: Insignia Of The Sun
*Year: 2020
*Genre: Martial Industrial/Modern Classical/Dark Ambient
*Country: Sweden
*Format: mp3@CBR320kbps
*Size: 165MB

Tracklist:
1. To The Folk 05:25
2. Conquering Energy 05:02
3. New Atlantean God 06:05
4. Creative Principle 04:28
5. Bloodtheism 04:36
6. Struggle Of The Blood 04:05
7. Militant Fate 05:55
8. Imperium Maius 05:44
9. Discipline And Order 04:12
10. To The Folk (Part II) 05:17
******************************
Total playing time: 50:49



[more=Extended info]"Insignia Of The Sun" was recorded between 2019-2020 and consists of 5 completely new tracks and 5 exclusive versions of some of the tracks from the "Bloodtheism" demo (2018).[/more]

[more=Technical info]
Input File: 05 - Bloodtheism.mp3
Channels : 2
Sample Rate : 44100
Precision : 16-bit
Duration : 00:04:36.66 = 12200486 samples = 20749.1 CDDA sectors
File Size : 15.3M
Bit Rate : 441k
Sample Encoding: MPEG audio (layer I, II or III)
Comments :
Title=Bloodtheism
Artist=Arditi
Album=Insignia Of The Sun
Tracknumber=05/10
Year=2020
Genre=Martial Industrial/Modern Classical/Dark Ambient
Discnumber=1/1

[/more]

Register
(23) A.L.Rapsod, as71, cancer1974, dromord, Evgen79, fylopaloma, Infidel, infiltrator, Kazoth, Konst, NOMIDIMON, noxspiritus, Olethros, Phlebotomized, recber, sarcophagus, smes, Stutthof, thenecromancer, tOmV, Vitald, wolverine, wtk.412,
Nov 17 2020, 17:08:18 Horna - Kuoleman Kirjo (2020)


*Artist: Horna
*Album: Kuoleman Kirjo
*Year: 2020
*Genre: Black Metal
*Country: Finland
*Format: mp3@CBR192kbps
*Size: 92MB

Tracklist:
1. Saatanan Viha 04:27
2. Elegia 05:49
3. Uneton 05:59
4. Sydänkuoro 07:01
5. Elävänä, Kuolleena 04:41
6. Kärsimysten Katedraali 06:46
7. Haudattujen Tähtien Yönä 05:34
8. Rakas Kuu 06:20
9. Unohtumaton 04:06
10. Mustat Vuodet 04:44
11. Pyhä Kuolema 03:47
12. Veriuhri 06:21
13. Ota Minut Vastaan 04:26
******************************
Total playing time: 1:10:01



[more=Extended info]To be released on December 8th, 2020 by World Terror Committee.[/more]

[more=Technical info]
Input File: 01 - Saatanan Viha.mp3
Channels : 2
Sample Rate : 44100
Precision : 16-bit
Duration : 00:04:18.05 = 11380093 samples = 19353.9 CDDA sectors
File Size : 6.45M
Bit Rate : 200k
Sample Encoding: MPEG audio (layer I, II or III)
Comments :
Title=Saatanan Viha
Artist=Horna
Album=Kuoleman Kirjo
Tracknumber=1
Year=2020
Genre=Black Metal

[/more]

Register
(71) 1968_janeart, A.L.Rapsod, Alexis The Best, andivi, Aresson, Bitchkiller, Branis, Chasm, DenisKov, dermarsoran, Eisbar, Forest Silence, frituz3, gena, Golodomor, Haunting, HviteGuden, Incinerator, Infidel, infiltrator, infozahist, judaz, kim666, kimkayoung, LEGION69, Lord Noctua, Lucju, Luminous, maochen, marilin, metaljosue, MMMMM, multizwilling, nadin85, Namnlos, noxspiritus, nsk2008, Old Vyaine, oldvarg, Olethros, Penetralia, pestpogrom, Pinhead666, popen13, randyhermit, rebornflms95, rimfrost, ripper33, robertho777, Rosen, sabr, SadistikSlayer, SaintVitus, SameMan, smes, SSWolf88, Strid, Strygaldwir, supremo, thenecromancer, the_cleanser, Thunderbird, VALERY, vasiljev_sergej, Vidder242, wolverine, Xor, yuratroll, ZambuL, zhol, Авел,
Nov 16 2020, 15:39:06 Zaratus - The Descent [ep] (2019)


*Artist: Zaratus
*Album: The Descent [ep]
*Year: 2019
*Genre: Black Metal
*Country: Greece
*Format: mp3@CBR320kbps
*Size: 47MB

Tracklist:
1. Redeemer Of The Misty Obsession 04:54
2. Darkened Dominion 05:31
3. Ritualistic Nostalgia 05:23
4. Of The Unknown God 05:26
******************************
Total playing time: 21:14

[more=Extended info]Project of Bill (El) Zobolas (Soulskinner, Thou Art Lord, Principality of Hell,Diavolos) and Stefan Necroabyssius (Varathron, Katavasia, Funeral Strom).

Limited edition 12" vinyl EP in 500 copies:
- 100 copies on white vinyl.
- 400 copies on black vinyl.
B side is etched.
Released by Hell's Fire Records.[/more]

[more=Technical info]
Input File: 01 - Redeemer Of The Misty Obsession.mp3
Channels : 2
Sample Rate : 44100
Precision : 16-bit
Duration : 00:04:53.17 = 12928577 samples = 21987.4 CDDA sectors
File Size : 11.7M
Bit Rate : 320k
Sample Encoding: MPEG audio (layer I, II or III)
Comments :
Title=Redeemer Of The Misty Obsession
Artist=Zaratus
Album=The Descent
Tracknumber=1
Year=2019
Genre=Black Metal

[/more]

Register
(17) 1968_janeart, Hell_Is_Here, igore2911, infiltrator, kim666, Marek, Olethros, rammmirez, robertho777, Rosen, SilentNidhogg, tireheb, VALERY, varlam4, vasiljev_sergej, Wail, wreak,
Nov 14 2020, 12:04:03 Crystal Larva - Irradiant Temporality [compilation] (2020)


*Artist: Crystal Larva
*Album: Irradiant Temporality [compilation]
*Year: 2020
*Genre: Raw Black Metal/Ambient
*Country: Canada
*Format: mp3@CBR320kbps
*Size: 174MB

Tracklist:
1. Sacrificial Blade 09:25
2. Mace Of Cleansing 12:00
3. A Healing Spell 08:29
4. Void Spectre, Part I 09:06
5. Void Spectre, Part II - Dazhbog 20:00
6. Void Spectre, Part III - Dimensional Burial 11:00
7. A Temporal Gold 11:04
******************************
Total playing time: 1:21:04



[more=Extended info]Compilation of all previously released Crystal Larva material to this point. Limited to 40 copies. Released by Lichtung Tapes.[/more]

[more=Technical info]
Input File: 04 - Void Spectre, Part I.mp3
Channels : 2
Sample Rate : 44100
Precision : 16-bit
Duration : 00:09:02.73 = 23934261 samples = 40704.5 CDDA sectors
File Size : 21.7M
Bit Rate : 321k
Sample Encoding: MPEG audio (layer I, II or III)
Comments :
Title=Void Spectre, Part I
Artist=Crystal Larva
Album=Irradiant Temporality
Tracknumber=4
Year=2020
Genre=Raw Black Metal/Ambient

[/more]

Register
(14) 1968_janeart, grimoir, infiltrator, kim666, Olethros, Ostinato, Rosen, SilentNidhogg, simonalacacarisa, stub888, varlam4, vasiljev_sergej, Wail, wreak,
Nov 14 2020, 10:18:05 Karst - Genesis Of Nervous Decay [ep] (2020)


*Artist: Karst
*Album: Genesis Of Nervous Decay [ep]
*Year: 2020
*Genre: Death Metal/Crust
*Country: United States
*Format: mp3@CBR320kbps
*Size: 43MB

Tracklist:
1. Mermithid: Genesis Of Nervous Decay 04:05
2. Panic Resin 02:59
3. Encroach: The Cusp Of Process 04:48
4. Mermithid: Anxiety Birthed 02:39
5. Egress And Onward 01:40
******************************
Total playing time: 16:11



[more=Technical info]
Input File: 02 - Panic Resin.mp3
Channels : 2
Sample Rate : 44100
Precision : 16-bit
Duration : 00:02:59.94 = 7935530 samples = 13495.8 CDDA sectors
File Size : 7.42M
Bit Rate : 330k
Sample Encoding: MPEG audio (layer I, II or III)
Comments :
Title=Panic Resin
Artist=Karst
Album=Genesis Of Nervous Decay
Tracknumber=2
Year=2020
Genre=Death Metal/Crust

[/more]

Register
(10) Hell_Is_Here, infiltrator, Olethros, Ostinato, Rosen, sludge666, VALERY, varlam4, Wail, wreak,
Oct 25 2020, 19:34:18 Sign Of Evil - Psychodelic Horror [demo] (2020)


*Artist: Sign Of Evil
*Album: Psychodelic Horror [demo]
*Year: 2020
*Genre: Black/Speed Metal/Punk
*Country: Chile
*Format: mp3@CBR320kbps
*Size: 27MB

Tracklist:
1. Death Will Rise 02:15
2. Guilty! 01:50
3. Horror! 02:20
4. Spilling Black Signs 01:49
5. Force To Eternity 01:18
6. Death Crew 02:26
******************************
Total playing time: 11:58




[more=Technical info]
Input File: 02 - Guilty!.mp3
Channels : 2
Sample Rate : 44100
Precision : 16-bit
Duration : 00:01:50.16 = 4858100 samples = 8262.07 CDDA sectors
File Size : 4.40M
Bit Rate : 320k
Sample Encoding: MPEG audio (layer I, II or III)
Comments :
Title=Guilty!
Artist=Sign Of Evil
Album=Psychodelic Horror
Tracknumber=2
Year=2020
Genre=Black/Speed Metal/Punk

[/more]

Register
(14) Bzth, grimoir, IncendiaryMight, infiltrator, marilin, Olethros, Rosen, stumpheavyrock, Styx, VALERY, varlam4, Wail, wgs73, wreak,
Oct 25 2020, 19:21:31 Mourned - Rift Ripper [ep] (2017)


*Artist: Mourned
*Album: Rift Ripper [ep]
*Year: 2017
*Genre: Death Metal/Hardcore
*Country: United States
*Format: mp3@CBR320kbps
*Size: 31MB

Tracklist:
1. A Dictum, Mute 03:11
2. Striated Hive 02:05
3. Orison 03:40
4. Rift Ripper 04:18
******************************
Total playing time: 13:14




[more=Technical info]
Input File: 02 - Striated Hive.mp3
Channels : 2
Sample Rate : 44100
Precision : 16-bit
Duration : 00:02:13.62 = 5892730 samples = 10021.6 CDDA sectors
File Size : 5.35M
Bit Rate : 320k
Sample Encoding: MPEG audio (layer I, II or III)
Comments :
Title=Striated Hive
Artist=Mourned
Album=Rift Ripper
Tracknumber=2
Year=2017
Genre=Death Metal/Hardcore

[/more]

Register
(7) infiltrator, Marek, Olethros, Rosen, sludge666, varlam4, wreak,
Oct 25 2020, 14:10:31 Sarcoughagus - Invoking Paranoia [demo] (2020)


*Artist: Sarcoughagus
*Album: Invoking Paranoia [demo]
*Year: 2020
*Genre: Death Metal
*Country: United States
*Format: mp3@VBR284kbps
*Size: 30MB

Tracklist:
1. Disfiguring Identities 03:21
2. Subjective Fears 03:35
3. Self Disposition 04:45
4. Scarred Existence 02:34
******************************
Total playing time: 14:15



[more=Technical info]
Input File: 04 - Scarred Existence.mp3
Channels : 2
Sample Rate : 44100
Precision : 16-bit
Duration : 00:02:34.54 = 6815214 samples = 11590.5 CDDA sectors
File Size : 5.92M
Bit Rate : 306k
Sample Encoding: MPEG audio (layer I, II or III)
Comments :
Title=Scarred Existence
Artist=Sarcoughagus
Album=Invoking Paranoia
Tracknumber=4
Year=2020
Genre=22

[/more]

Register
(11) caro, grimoir, Hell_Is_Here, infiltrator, Olethros, Rosen, stumpheavyrock, VALERY, varlam4, Wail, wreak,
Oct 25 2020, 13:44:33 Raw Hex - Always High, Always Low [ep] (2019)


*Artist: Raw Hex
*Album: Always High, Always Low [ep]
*Year: 2019
*Genre: Crust/Black/Death Metal
*Country: United States
*Format: mp3@CBR320kbps
*Size: 32MB

Tracklist:
1. A New Enemy 01:28
2. Dead Dealer 00:57
3. Shut You Out 01:24
4. All Is Cold 01:38
5. Vultures Prey 01:25
6. Follower 01:14
7. Always High, Always Low 01:35
8. Talker 01:15
9. Shackled 02:14
10. Mongrel 02:17
******************************
Total playing time: 15:27



[more=Technical info]
Input File: 02 - Dead Dealer.mp3
Channels : 2
Sample Rate : 44100
Precision : 16-bit
Duration : 00:00:58.00 = 2557712 samples = 4349.85 CDDA sectors
File Size : 2.37M
Bit Rate : 327k
Sample Encoding: MPEG audio (layer I, II or III)
Comments :
Title=Dead Dealer
Artist=Raw Hex
Album=Always High, Always Low
Tracknumber=2/10
Year=2019
Genre=Crust/Black/Death Metal

[/more]

Register
(12) caro, grimoir, Hell_Is_Here, infiltrator, Olethros, Ostinato, Rosen, sludge666, VALERY, varlam4, Wail, wreak,
Oct 25 2020, 13:33:49 Pröfane Oath - Unholy Hymns [ep] (2020)


*Artist: Pröfane Oath
*Album: Unholy Hymns [ep]
*Year: 2020
*Genre: Black/Thrash Metal
*Country: Italy
*Format: mp3@CBR320kbps
*Size: 51MB

Tracklist:
1. Worshipping The Antichrist 06:53
2. Possessed By Quorthon (A Tribute To Bathory) 06:31
3. Virgin's Vomit 04:04
4. Crucis Alcoolica 04:21
******************************
Total playing time: 21:49



[more=Technical info]
Input File: 03 - Virgin\'s Vomit.mp3
Channels : 2
Sample Rate : 44100
Precision : 16-bit
Duration : 00:04:04.71 = 10791491 samples = 18352.9 CDDA sectors
File Size : 9.87M
Bit Rate : 323k
Sample Encoding: MPEG audio (layer I, II or III)
Comments :
Title=Virgin's Vomit
Artist=Pröfane Oath
Album=Unholy Hymns
Tracknumber=3
Year=2020

[/more]

Register
(11) boby9052, infiltrator, Olethros, Rosen, SilentNidhogg, smysl, stumpheavyrock, varlam4, Vitald, Wail, wreak,
Oct 25 2020, 12:46:59 Veriluola - Demo [demo] (2020)


*Artist: Veriluola
*Album: Demo [demo]
*Year: 2020
*Genre: Black Metal
*Country: International
*Format: mp3@CBR320kbps
*Size: 59MB

Tracklist:
1. Carnem Et Ossa 04:36
2. Ritual Blood Marsh 05:04
3. Nuclear Spear 07:26
4. Glacial Beasts 04:51
******************************
Total playing time: 21:57



[more=Technical info]
Input File: 04 - Glacial Beasts.mp3
Channels : 2
Sample Rate : 44100
Precision : 16-bit
Duration : 00:04:51.78 = 12867498 samples = 21883.5 CDDA sectors
File Size : 11.9M
Bit Rate : 326k
Sample Encoding: MPEG audio (layer I, II or III)
Comments :
Title=Glacial Beasts
Artist=Veriluola
Album=Demo
Tracknumber=4
Year=2020
Genre=Black Metal

[/more]

Register
(13) caro, grimoir, infiltrator, kim666, Olethros, robertho777, Rosen, SilentNidhogg, VALERY, varlam4, vasiljev_sergej, Wail, wreak,
Oct 25 2020, 12:24:10 Tsalal - Transmutation War [demo] (2020)


*Artist: Tsalal
*Album: Transmutation War [demo]
*Year: 2020
*Genre: Black Metal/Noise
*Country: Canada
*Format: mp3@CBR320kbps
*Size: 56MB

Tracklist:
1. Cold Trajectory 04:49
2. 666 Angels Descend Into Two Planes 07:47
3. Circumambulating The Pressures Of The Unrelenting Illusion 07:07
4. Paramount Derision 04:23
******************************
Total playing time: 24:06



[more=Technical info]
Input File: 04 - Paramount Derision.mp3
Channels : 2
Sample Rate : 44100
Precision : 16-bit
Duration : 00:04:24.04 = 11644032 samples = 19802.8 CDDA sectors
File Size : 10.7M
Bit Rate : 324k
Sample Encoding: MPEG audio (layer I, II or III)
Comments :
Title=Paramount Derision
Artist=Tsalal
Album=Transmutation War
Tracknumber=4
Year=2020
Genre=Black Metal/Noise

[/more]

Register
(12) Alexis The Best, Hell_Is_Here, infiltrator, Olethros, Rosen, sacrut, SilentNidhogg, stub888, varlam4, Wail, wolverine, wreak,
Oct 24 2020, 17:39:15 Lord Kaos - Thorns Of Impurity (1997)
CBR 320 kbps + Covers
Register
(3) Deni, stumpheavyrock, Wail,
Sep 26 2020, 11:36:37 Xytras - Passage (1997)
CBR 320 kbps + Covers
Register
(3) Deni, infiltrator, Wail,
Sep 12 2020, 11:42:21 Missing old norwegian demos from 90'
Just posted ENCHANTED(Nor) - Daylight Wing Collides ep'98.
9.gif
(2) MP101M, thenecromancer,
Sep 12 2020, 11:41:05 Enchanted - Daylights Wing Collides [ep] (1998)


*Artist: Enchanted
*Album: Daylights Wing Collides [ep]
*Year: 1998
*Genre: Melodic Black Metal
*Country: Norway
*Format: mp3@CBR256kbps
*Size: 19MB

Tracklist:
1. With Eyes I Am Cursed 04:53
2. Daylights Wing Collides 05:06
******************************
Total playing time: 9:59

[more=Extended info]Enchanted was a melodic black metal band from Bergen, Norway that was formed in 1992.
The band was led by Iscariah aka Stian Smørholm (Dead To This World, Amok, Wurdulak etc.)
and released a rehearsal tape in 1994, followed by the demo "Breed My Sorrows" in 1995.
Their last work was the promo CD "Daylights Wing Collides",
that was recorded at Grieghallen Studio and published by Edged Circle Productions in 250 copies.
This recording was actually supposed to be officially released as a 7" or 10" vinyl with full color artwork but Edged Circle Productions went bankrupt before this could be finalized.
The band had actually a lot of material for a planned debut album but this was never happened.
Enchanted split up around 1999 because of lack of time since Iscariah had joined Immortal at the time.[/more]

[more=Technical info]
Input File: 01 - With Eyes I Am Cursed.mp3
Channels : 2
Sample Rate : 44100
Precision : 16-bit
Duration : 00:04:53.79 = 12956139 samples = 22034.2 CDDA sectors
File Size : 9.40M
Bit Rate : 256k
Sample Encoding: MPEG audio (layer I, II or III)
Comments :
Title=With Eyes I Am Cursed
Artist=Enchanted
Album=Daylights Wing Collides
Tracknumber=1
Year=1998
Genre=Melodic Black Metal

[/more]

Register
(28) 1968_janeart, andivi, cancer1974, caro, Ildjarn, infiltrator, kimkayoung, kryptor, legion01, Ludwig Hagen, Mogozoz, MP101M, nord6666, Olethros, Ostinato, randumbum, Rosen, SilentNidhogg, Sjelekval, Storky, thenecromancer, VALERY, varlam4, vasiljev_sergej, Wail, wanderer73, wreak, YarrPirate,
Aug 29 2020, 19:11:13 Sulfure - Neurotisme [demo] (2020)


*Artist: Sulfure
*Album: Neurotisme [demo]
*Year: 2020
*Genre: Black/Death Metal
*Country: Canada
*Format: mp3@CBR320kbps
*Size: 52MB

Tracklist:
1. L'antre De La Tarasque 04:00
2. Parabellum De La Véhémence 04:11
3. Endémie Chthonienne 04:41
4. Chimère De L'asthénie 04:57
5. Labyrinthe De La Déliquescence 04:35
******************************
Total playing time: 22:24



[more=Extended info]Pro-tape via Nekrart Productions & Corde raide Productions,
CD by Self Mutilation Services.[/more]

[more=Technical info]
Input File: 05 - Labyrinthe De La Deliquescence.mp3
Channels : 2
Sample Rate : 44100
Precision : 16-bit
Duration : 00:04:35.98 = 12170542 samples = 20698.2 CDDA sectors
File Size : 11.2M
Bit Rate : 324k
Sample Encoding: MPEG audio (layer I, II or III)
Comments :
Title=Labyrinthe de la déliquescence
Artist=Sulfure
Album=Neurotisme
Tracknumber=5
Year=2020
Genre=Black/Death Metal

[/more]

Register
(22) ahp, Bzth, caro, Doooomed, El_Chibo, grimoir, Hell_Is_Here, infiltrator, Kaotik, Mares, murian, Occultas, Olethros, randumbum, Rosen, SilentNidhogg, VALERY, varlam4, vasiljev_sergej, Wail, wanderer73, wreak,
Aug 29 2020, 18:04:46 Trance Of The Undead - Chalice Of Disease (2020)


*Artist: Trance Of The Undead
*Album: Chalice Of Disease
*Year: 2020
*Genre: Black/Death Metal
*Country: Brazil
*Format: mp3@CBR320kbps
*Size: 90MB

Tracklist:
1. The Old Abbey 02:04
2. Grave Sacrament 04:46
3. Sic Transit Gloria Mundi 06:14
4. Angel Of The Bottomless Pit 06:11
5. Overture To Uncreation 06:05
6. Archaic Knowledge Unveiled 05:24
7. Chalice Of Disease 08:22
******************************
Total playing time: 39:06



[more=Technical info]
Input File: 02 - Grave Sacrament.mp3
Channels : 2
Sample Rate : 44100
Precision : 16-bit
Duration : 00:04:46.14 = 12618686 samples = 21460.4 CDDA sectors
File Size : 11.5M
Bit Rate : 322k
Sample Encoding: MPEG audio (layer I, II or III)
Comments :
Title=Grave Sacrament
Artist=Trance of the Undead
Album=Chalice of Disease
Tracknumber=2
Year=2020
Genre=Black/Death Metal

[/more]

Register
(18) atavist, caro, Doooomed, grimoir, Hell_Is_Here, infiltrator, metala, Olethros, randumbum, Rosen, Shadechaser, SilentNidhogg, VALERY, varlam4, vasiljev_sergej, Wail, wanderer73, wreak,
Aug 29 2020, 14:24:20 Ezellohar - Distant Emerging [ep] (2020)


*Artist: Ezellohar
*Album: Distant Emerging [ep]
*Year: 2020
*Genre: Black Metal
*Country: Finland
*Format: mp3@CBR320kbps
*Size: 47MB

Tracklist:
1. The Nethermore Abyss 05:59
2. Wailing Winds As Barren Bonds 05:14
3. Decaying Horizon Of Rust And Blood 07:14
******************************
Total playing time: 18:27



[more=Technical info]
Input File: 02 - Wailing Winds As Barren Bonds.mp3
Channels : 2
Sample Rate : 44100
Precision : 16-bit
Duration : 00:05:14.95 = 13889383 samples = 23621.4 CDDA sectors
File Size : 12.8M
Bit Rate : 324k
Sample Encoding: MPEG audio (layer I, II or III)
Comments :
Title=Wailing Winds as Barren Bonds
Artist=Ezellohar
Album=Distant Emerging
Tracknumber=2
Year=2020
Genre=Black Metal

[/more]

Register
(22) 1968_janeart, caro, El_Chibo, grimoir, Ildjarn, infiltrator, kim666, legion01, Ludwig Hagen, murian, nemx, Oath19, Olethros, randumbum, robertho777, Rosen, SilentNidhogg, stub888, VALERY, varlam4, vasiljev_sergej, wreak,
Aug 29 2020, 14:21:39 Lunar Kingdom - Crimson Candles And Obscure Pathways [ep] (2020)


*Artist: Lunar Kingdom
*Album: Crimson Candles And Obscure Pathways [ep]
*Year: 2020
*Genre: Black Metal/Ambient
*Country: Brazil
*Format: mp3@CBR320kbps
*Size: 42MB

Tracklist:
1. The Call Of The Blood 06:20
2. Crimson Candles And Obscure Pathways 02:34
3. Stars Of Infinite Wisdom And Luciferian Might 06:20
4. Tenebrae 03:10
******************************
Total playing time: 18:24



[more=Technical info]
Input File: 01 - The Call Of The Blood.mp3
Channels : 2
Sample Rate : 44100
Precision : 16-bit
Duration : 00:06:20.29 = 16770701 samples = 28521.6 CDDA sectors
File Size : 15.3M
Bit Rate : 321k
Sample Encoding: MPEG audio (layer I, II or III)
Comments :
Title=The Call of the Blood
Artist=Lunar Kingdom
Album=Crimson Candles and Obscure Pathways
Tracknumber=1
Year=2020
Genre=Black Metal/Ambient

[/more]

Register
(13) 1968_janeart, grimoir, infiltrator, kim666, Olethros, randumbum, robertho777, Rosen, SilentNidhogg, VALERY, varlam4, vasiljev_sergej, wreak,

31 Pages V   1 2 3 > » 
- Lo-Fi Version Support form
Copyrights and abuse reports form
Time is now: 5th December 2020 - 15:32:59