Welcome Guest ( Log In | Register )

История благодарностей участнику Panacea ::: Спасибо сказали: 7438 раз(а)
Дата поста: В теме: За сообщение: Спасибо сказали:
Yesterday, 23:38:11 Nyredolk - Indebrændt [ep] (2020)


*Artist: Nyredolk
*Album: Indebrændt [ep]
*Year: 2020
*Genre: Black Metal/Punk
*Country: Denmark
*Format: mp3@CBR320kbps
*Size: 34MB

Tracklist:
1. Børnemorder, Elisabeth 03:09
2. Formanet Til Sandhed 03:14
3. Død Af Omsorgssvigt 03:58
4. Tortur For Evigt 04:24
******************************
Total playing time: 14:45





[more=Extended info]- Clear vinyl limited to 100 copies.
- Black vinyl limited to 200 copies.
- Cassette limited to 200 copies.
- 6-panel digipack CD limited to 200 copies.[/more]

[more=Technical info]
Input File: 03 - Dod Af Omsorgssvigt.mp3
Channels : 2
Sample Rate : 44100
Precision : 16-bit
Duration : 00:03:58.93 = 10536901 samples = 17919.9 CDDA sectors
File Size : 9.56M
Bit Rate : 320k
Sample Encoding: MPEG audio (layer I, II or III)
Comments :
Title=Død Af Omsorgssvigt
Artist=NyreDolk
Album=Indebraendt
Tracknumber=3
Year=2020
Genre=Black Metal/Punk

[/more]

Register
(1) stub888,
Yesterday, 22:58:57 Golden Ashes - The Golden Path Of Death Acceptance [ep] (2019)


*Artist: Golden Ashes
*Album: The Golden Path Of Death Acceptance [ep]
*Year: 2019
*Genre: Atmospheric Black Metal
*Country: Netherlands
*Format: mp3@CBR320kbps
*Size: 33MB

Tracklist:
1. The Golden Path Of Death Acceptance 03:18
2. The Light’s Rebirth Unfolding 03:40
3. The Golden Path 03:59
4. To Travel Unknown Spiritual Winds 03:37
******************************
Total playing time: 14:34



[more=Extended info]This is a prelude to the upcoming second full length of GOLDEN ASHES in 2020.
Limited edition cassette of 50 copies.[/more]

[more=Technical info]
Input File: 04 - To Travel Unknown Spiritual Winds.mp3
Channels : 2
Sample Rate : 44100
Precision : 16-bit
Duration : 00:03:37.52 = 9592808 samples = 16314.3 CDDA sectors
File Size : 8.69M
Bit Rate : 320k
Sample Encoding: MPEG audio (layer I, II or III)
Comments :
Title=To Travel Unknown Spiritual Winds
Artist=Golden Ashes
Album=The Golden Path Of Death Acceptance
Tracknumber=4
Year=2019
Genre=Atmospheric Black Metal

[/more]

Register
(4) Ostinato, senecazm, stub888, VALERY,
Yesterday, 22:40:44 Varcolak - Carpathian Nightmare [ep] (2018)


*Artist: Varcolak
*Album: Carpathian Nightmare [ep]
*Year: 2018
*Genre: Black/Thrash Metal
*Country: Germany
*Format: mp3@CBR320kbps
*Size: 36MB

Tracklist:
1. Rattengewitter (Intro) / Final Master 07:27
2. Ode To The Pig 04:50
3. D.C.S.N. 03:01
******************************
Total playing time: 15:18



[more=Extended info]Ltd. tape version incl. patch, 50 copies.[/more]

[more=Technical info]
Input File: 03 - D.C.S.N..mp3
Channels : 2
Sample Rate : 44100
Precision : 16-bit
Duration : 00:03:01.62 = 8009266 samples = 13621.2 CDDA sectors
File Size : 7.42M
Bit Rate : 327k
Sample Encoding: MPEG audio (layer I, II or III)
Comments :
Title=D.C.S.N.
Artist=Varcolak
Album=Carpathian Nightmare
Tracknumber=3
Year=2018
Genre=Black/Thrash Metal

[/more]

Register
(2) Ostinato, wanderer73,
Yesterday, 03:40:02 Acwelan - Nightmare Blood Ritual/Ritual Aura Sensations [demo] (2019)
[youtube]YNkT25RAq98[/youtube]
(2) abob, infiltrator,
Yesterday, 00:16:37 Morgue Walker - Forgotten In Hellfrost [ep] (2019)


*Artist: Morgue Walker
*Album: Forgotten In Hellfrost [ep]
*Year: 2019
*Genre: Blackened Death Metal/Grindcore
*Country: United States
*Format: mp3@CBR320kbps
*Size: 30MB

Tracklist:
1. Burn The Scum (Intro) 01:25
2. Slit Wrist Cabal 03:06
3. Before The Last Light 03:37
4. Forgotten In Hellfrost 04:26
******************************
Total playing time: 12:34




[more=Extended info]Limited edition digipak to 50 copies.
Each copy includes an A3 poster and logo stickers.[/more]

[more=Technical info]
Input File: 02 - Slit Wrist Cabal.mp3
Channels : 2
Sample Rate : 44100
Precision : 16-bit
Duration : 00:03:07.00 = 8246612 samples = 14024.9 CDDA sectors
File Size : 7.63M
Bit Rate : 327k
Sample Encoding: MPEG audio (layer I, II or III)
Comments :
Title=Slit Wrist Cabal
Artist=Morgue Walker
Album=Forgotten In Hellfrost
Tracknumber=2
Year=2019
Genre=Blackened Death Metal/Grindcore

[/more]

Register
(8) Corpuscul, infiltrator, marilin, morbidangelo, Olethros, Ostinato, VALERY, wgs73,
Yesterday, 00:04:36 Acwelan - Nightmare Blood Ritual/Ritual Aura Sensations [demo] (2019)


*Artist: Acwelan
*Album: Nightmare Blood Ritual/Ritual Aura Sensations [demo]
*Year: 2019
*Genre: Noise/Grindcore/Black/Death Metal
*Country: United States
*Format: mp3@CBR320kbps
*Size: 34MB

Tracklist:
1. Nightmare Blood Ritual 07:57
2. Ritual Aura Sensations 06:10
******************************
Total playing time: 14:07



[more=Extended info]1. Nightmare Blood Ritual is a previously unreleased demo from the band.
2. Ritual Aura Sensations was originally recorded in March 2019 and released digitally in April 2019.

First edition limited to 20 pro tapes. Includes poster and logo stickers.

Second repress cassette limited to 50 copies. First few orders include a poster.[/more]

[more=Technical info]
Input File: 02 - Ritual Aura Sensations.mp3
Channels : 2
Sample Rate : 44100
Precision : 16-bit
Duration : 00:06:10.73 = 16349061 samples = 27804.5 CDDA sectors
File Size : 15.0M
Bit Rate : 323k
Sample Encoding: MPEG audio (layer I, II or III)
Comments :
Title=Ritual Aura Sensations
Artist=Acwelan
Album=Nightmare Blood Ritual / Ritual Aura Sensations
Tracknumber=2
Year=2019
Genre=Noise/Grindcore/Black/Death Metal

[/more]

Register
(2) infiltrator, morbidangelo,
Apr 2 2020, 22:09:18 Dark Vision - Gruesome Tide [ep] (2019)


*Artist: Dark Vision
*Album: Gruesome Tide [ep]
*Year: 2019
*Genre: Melodic Black/Death Metal
*Country: Greece
*Format: mp3@CBR320kbps
*Size: 46MB

Tracklist:
1. Gruesome Tide 04:53
2. Dark Vision (2019) 06:05
3. Raise The Dead (Bathory Cover) 04:07
4. Of Unknown Artist 05:01
******************************
Total playing time: 20:06



[more=Extended info]1. “Gruesome Tide” Music/Lyrics by Dark Vision, new song from the upcoming new album.

2. “Dark Vision” (Bonus Track/Music by Takis Foitos/Lyrics by Dimitris Sarmas), self title song released at 1998 and recomposed by current lineup in 2018.

3. "Raise the dead" (Bathory cover)

4. "Of Unknown Artist" (Unreleased rehearsal) Music/Lyrics by Dark Vision[/more]

[more=Technical info]
Input File: 01 - Gruesome Tide.mp3
Channels : 2
Sample Rate : 44100
Precision : 16-bit
Duration : 00:04:54.08 = 12968884 samples = 22055.9 CDDA sectors
File Size : 11.9M
Bit Rate : 323k
Sample Encoding: MPEG audio (layer I, II or III)
Comments :
Title=Gruesome Tide
Artist=Dark Vision
Album=Gruesome Tide
Tracknumber=1
Year=2019
Genre=Melodic Black/Death Metal

[/more]

Register
(11) chipsgott, Gylve, infiltrator, kimkayoung, morbidangelo, senecazm, thenecromancer, VALERY, vasiljev_sergej, wanderer73, Сварог Барг,
Apr 2 2020, 19:54:43 Black Curse - Endless Wound (2020)
[youtube]QRogfznqqps[/youtube]
(1) Samaritianin,
Apr 1 2020, 12:46:09 Die Verbannten Kinder Evas - Nachtaugen: Live In Vaduz [live] (2018)


*Artist: Die Verbannten Kinder Evas
*Album: Nachtaugen: Live In Vaduz [live]
*Year: 2018
*Genre: Ambient/Darkwave/Neoclassical
*Country: Austria
*Format: mp3@CBR320kbps
*Size: 65MB

Tracklist:
1. The Serpent Voice 06:29
2. Shadowvale 04:34
3. Requiem 02:41
4. Futile Belief 06:10
5. House of Glass 05:30
6. Quod Olim Erat (Bonus Video Clip) 05:00
******************************
Total playing time: 30:24

[more=Extended info]In 1996, Die Verbannten Kinder Evas & Weltenbrand performed a live concert separately in Vaduz (Liechtenstein) which was recorded and later released on a split VHS tape titled: Die Verbannten Kinder Evas & Weltenbrand – Nachtaugen: Live In Vaduz . The first press of this VHS tape (actually known as the “extended” VHS tape version) with a total running time of 70 minutes, included as bonus, two video-clips (one video-clip by band) which were omitted in the later VHS tape reissues with a total running time of 60 min.
The DVD is the remastered and digital version of the “extended” VHS tape, including only the D.V.K.E. stuff (live performance plus video clip). As extra, the DVD contains menu, outro and an image gallery.
The "House Of Glass" song (track #5) is a completely different version of the song from the "Come Heavy Sleep" album. The version from "Nachtaugen: Live In Vaduz" contains harsh vocals which were omitted in the album version, along with a bit different keyboard basis. So, this version can be found only in this DVD (also in the original VHS tapes) as something exclusive. It never was published elsewhere.[/more]

[more=Technical info]
Input File: 03 - Requiem.mp3
Channels : 2
Sample Rate : 44100
Precision : 16-bit
Duration : 00:02:41.55 = 7124223 samples = 12116 CDDA sectors
File Size : 6.46M
Bit Rate : 320k
Sample Encoding: MPEG audio (layer I, II or III)
Comments :
Title=Requiem
Artist=Die Verbannten Kinder Evas
Album=Nachtaugen Live In Vaduz
Tracknumber=3
Year=2018
Genre=Ambient/Atmospheric/Darkwave/Neoclassical

[/more]

Register
(4) infiltrator, MAYH, Olethros, wtk.412,
Mar 31 2020, 15:29:37 Die Verbannten Kinder Evas - The Banished Children Of Eve [compilation] (2014)


*Artist: Die Verbannten Kinder Evas
*Album: The Banished Children Of Eve [compilation]
*Year: 2014
*Genre: Ambient/Darkwave/Neoclassical
*Country: Austria
*Format: mp3@CBR320kbps
*Size: 208MB

Tracklist:
1. Requiem 02:38
2. The Messenger 02:04
3. No Tears Stain This Holy Ground 04:39
4. Einleitung 02:17
5. Quod Olim Arat 05:01
6. Not By Words 01:05
7. Escape 05:29
8. None 02:33
9. Outro 01:02
10. Intro (Live) 03:37
11. The Serpent's Voice (Live) 06:24
12. Requiem (Live) 02:43
13. No Tears On This Holy Ground (Live) 04:31
14. Misery (Live) 05:18
15. Unreal Mystery (Live) 05:58
16. Futile Belief (Live) 06:11
17. Come Heavy Sleep (Live) 06:01
18. Quod Olim Arat (Live) 05:07
19. Darkened Skies (Live) 05:34
20. Waters Of Wide Agony (Live) 06:31
21. Misery (Live Encore) 05:49
******************************
Total playing time: 1:30:32



[more=Extended info]Tracks 1-9 : "Die Verbannten Kinder Evas" Demo (1994).
Tracks 10-21 : "Live in Rotterdam, Holland 12/07/97" (1997).[/more]

[more=Technical info]
Input File: 06 - Not By Words.mp3
Channels : 2
Sample Rate : 44100
Precision : 16-bit
Duration : 00:01:08.95 = 3040783 samples = 5171.4 CDDA sectors
File Size : 2.76M
Bit Rate : 320k
Sample Encoding: MPEG audio (layer I, II or III)
Comments :
Title=Not By Words
Artist=Die Verbannten Kinder Evas
Album=The Banished Children Of Eve
Tracknumber=06/21
Year=2014
Genre=Ambient/Atmospheric/Darkwave/Neoclassical

[/more]

Register
(6) cancer1974, cesar, Dragonballz, infiltrator, oldvarg, Olethros,
Mar 31 2020, 14:30:11 Astriferous - Raise High The Scepter Of Indulgence [demo] (2019)


*Artist: Astriferous
*Album: Raise High The Scepter Of Indulgence [demo]
*Year: 2019
*Genre: Death Metal
*Country: Costa Rica
*Format: mp3@CBR320kbps
*Size: 43MB

Tracklist:
1. Mother Of Abominations 04:39
2. Negative Hesychasm 04:36
3. Mind Bending Distortions 03:38
4. Veil Not Your Vices In Virtuous Words 05:45
******************************
Total playing time: 18:38





[more=Technical info]
Input File: 03 - Mind Bending Distortions.mp3
Channels : 2
Sample Rate : 44100
Precision : 16-bit
Duration : 00:03:38.05 = 9615873 samples = 16353.5 CDDA sectors
File Size : 8.72M
Bit Rate : 320k
Sample Encoding: MPEG audio (layer I, II or III)
Comments :
Title=Mind Bending Distortions
Artist=Astriferous
Album=Raise High The Scepter Of Indulgence
Tracknumber=3
Year=2019
Genre=Death Metal

[/more]

Register
(7) Corpuscul, infiltrator, morbidangelo, Olethros, scorpionmk, VALERY, varlam4,
Mar 31 2020, 14:22:50 Bloodsoaked Necrovoid & Ratlord - Split 2019 [split] (2019)


*Artist: Bloodsoaked Necrovoid & Ratlord
*Album: Split 2019 [split]
*Year: 2019
*Genre: Doom/Death Metal | Death Metal
*Country: Costa Rica | Germany
*Format: mp3@CBR320kbps
*Size: 39MB

Tracklist:
Bloodsoaked Necrovoid:
1. Horrid Manifestations Of The Perennial Inmensity 06:39
Ratlord:
2. Hunted Down 04:54
3. The Great Misconception 05:59
******************************
Total playing time: 17:32



[more=Technical info]
Input File: 02 - Ratlord - Hunted Down.mp3
Channels : 2
Sample Rate : 44100
Precision : 16-bit
Duration : 00:04:54.09 = 12969325 samples = 22056.7 CDDA sectors
File Size : 11.8M
Bit Rate : 320k
Sample Encoding: MPEG audio (layer I, II or III)
Comments :
Title=Hunted Down
Artist=Ratlord
Album=Bloodsoaked Necrovoid / Ratlord Split 2019
Tracknumber=2
Year=2019
Genre=Death Metal

[/more]

Register
(6) infiltrator, Lunaris, Mist13Signifier, morbidangelo, Sickrites, VALERY,
Mar 28 2020, 12:39:43 Amnutseba - Emanatism (2020)
FLAC 241MB
Register
(5) Amsterdam, AndreFrancis, nemx, Olethros, Velmi,
Mar 28 2020, 01:23:07 Amnutseba - Emanatism (2020)


*Artist: Amnutseba
*Album: Emanatism
*Year: 2020
*Genre: Black Metal
*Country: France
*Format: mp3@CBR320kbps
*Size: 84MB

Tracklist:
1. Abstinence 08:50
2. Ungrund 09:01
3. . 02:34
4. Dislumen 06:45
5. Tabula 09:00
******************************
Total playing time: 36:10



[more=Extended info]12'' LP:
- 350gsm Jacket with inside flooded in black and matt varnish.
- 140g Black or Gold Vinyl.
- 150gsm Art Paper Insert.
- Limited to 300 copies.

Digipak CD:
- 6 panel Digipak.
- Limited to 300 copies.

Iron Bonehead Productions.[/more]

[more=Technical info]
Input File: 03 - ..mp3
Channels : 2
Sample Rate : 44100
Precision : 16-bit
Duration : 00:02:34.19 = 6799603 samples = 11564 CDDA sectors
File Size : 6.23M
Bit Rate : 323k
Sample Encoding: MPEG audio (layer I, II or III)
Comments :
Title=.
Artist=Amnutseba
Album=Emanatism
Tracknumber=3
Year=2020
Genre=Black Metal

[/more]

Register
(34) 1968_janeart, AlexSmith, alikkon, atavist, Bzth, Doooomed, exorcist1969, fuoco, Gylve, infiltrator, kim666, laTERNentrager, milosdjor, morbidangelo, Mortuusinfernus, nemx, nsk2008, Occultas, Olethros, ondrazevsi, Ostinato, randumbum, robertho777, sabr, sethurius, SilentNidhogg, stub888, toly1917, undeadlich, VALERY, varlam4, vasiljev_sergej, Velmi, yuratroll,
Mar 28 2020, 01:17:40 Witchbones - Goety (2020)


*Artist: Witchbones
*Album: Goety
*Year: 2020
*Genre: Black/Death Metal
*Country: United States
*Format: mp3@CBR320kbps
*Size: 101MB

Tracklist:
1. Aglaos Wolves 03:34
2. Queen of The Crossroads 04:13
3. Snow-It-Beautifies 04:56
4. Goddess of Black Magick 03:10
5. There is Thunder in Our Hearts 04:33
6. Why Have You Killed Them.. The Beautiful Flowers? 05:50
7. Summon What Once Was 03:48
8. Ghosts of Fallen Wolves 00:58
9. When Blood Runs Black 04:47
10. Erblicket Die Tochter Des Firmaments (Burzum Tribute) 08:21
******************************
Total playing time: 44:10



[more=Extended info]-Note from Vardlokker:

"This will be the last release under the Witchbones name. My time with this project has come to an end. I appreciate all the loyal fans new and old. This project was never about anyone else other than myself and now I'd much rather burn it down and walk away. Thanks for the constant support. I'm not done with writing dark music. There is more to come, but not under this name. Stay tuned."[/more]

[more=Technical info]
Input File: 04 - Goddess Of Black Magick.mp3
Channels : 2
Sample Rate : 44100
Precision : 16-bit
Duration : 00:03:11.05 = 8425173 samples = 14328.5 CDDA sectors
File Size : 7.70M
Bit Rate : 322k
Sample Encoding: MPEG audio (layer I, II or III)
Comments :
Title=Goddess of Black Magick
Artist=Witchbones
Album=Goety
Tracknumber=4
Year=2020
Genre=Death/Black Metal

[/more]

Register
(17) AlexSmith, alikkon, andreikun, atavist, exorcist1969, infiltrator, kim666, metala, morbidangelo, multizwilling, Sanctus, SilentNidhogg, stub888, VALERY, vasiljev_sergej, Velmi, wn129aa,
Mar 27 2020, 20:58:46 Graven Hag - Satanik Kuntkrusher [ep] (2019)


*Artist: Graven Hag
*Album: Satanik Kuntkrusher [ep]
*Year: 2019
*Genre: Black/Thrash Metal
*Country: United States
*Format: mp3@CBR320kbps
*Size: 46MB

Tracklist:
1. Whores Of Gore 03:05
2. Perverted Blasphemy 03:49
3. Luciferian Lust 02:04
4. Skullfukker 03:28
5. Angel Bitch 04:04
6. Die Bomb 03:29
******************************
Total playing time: 19:59



[more=Technical info]
Input File: 03 - Luciferian Lust.mp3
Channels : 2
Sample Rate : 44100
Precision : 16-bit
Duration : 00:02:04.54 = 5491994 samples = 9340.13 CDDA sectors
File Size : 5.08M
Bit Rate : 326k
Sample Encoding: MPEG audio (layer I, II or III)
Comments :
Title=Luciferian Lust
Artist=Graven Hag
Album=Satanik KuntKrusher
Tracknumber=3
Year=2019
Genre=Black/Thrash Metal

[/more]

Register
(15) Asketto, boby9052, Bzth, craP_cillA, infiltrator, morbidangelo, multizwilling, Olethros, Samaritianin, sergsazan, SilentNidhogg, stumpheavyrock, Styx, vasiljev_sergej, wgs73,
Mar 27 2020, 20:35:13 Nerve Saw - Call Of The Casket [ep] (2017)


*Artist: Nerve Saw
*Album: Call Of The Casket [ep]
*Year: 2017
*Genre: Death Metal
*Country: Finland
*Format: mp3@CBR320kbps
*Size: 37MB

Tracklist:
1. Call Of The Casket 04:01
2. They Ride The Sky 03:33
3. We, The People 03:07
4. Art Of Empty 04:33
******************************
Total playing time: 15:14



[more=Technical info]
Input File: 03 - We, The People.mp3
Channels : 2
Sample Rate : 44100
Precision : 16-bit
Duration : 00:03:08.07 = 8293843 samples = 14105.2 CDDA sectors
File Size : 7.62M
Bit Rate : 324k
Sample Encoding: MPEG audio (layer I, II or III)
Comments :
Title=We, The People
Artist=Nerve Saw
Album=Call Of The Casket
Tracknumber=3
Year=2020
Genre=Death Metal

[/more]

Register
(7) cist, infiltrator, morbidangelo, nord6666, Olethros, Ostinato, VALERY,
Mar 27 2020, 20:22:23 Devil Worshipper - Godforsaken [ep] (2019)


*Artist: Devil Worshipper
*Album: Godforsaken [ep]
*Year: 2019
*Genre: Psychedelic/Avant-Garde/Black Metal
*Country: International
*Format: mp3@CBR320kbps
*Size: 72MB

Tracklist:
1. Oremus 02:11
2. Godforsaken 09:19
3. Flagellation 09:19
4. To My Grave 10:25
******************************
Total playing time: 31:14



[more=Technical info]
Input File: 02 - Godforsaken.mp3
Channels : 2
Sample Rate : 44100
Precision : 16-bit
Duration : 00:09:19.86 = 24690002 samples = 41989.8 CDDA sectors
File Size : 22.5M
Bit Rate : 321k
Sample Encoding: MPEG audio (layer I, II or III)
Comments :
Title=Godforsaken
Artist=Devil Worshipper
Album=Godforsaken
Tracknumber=2
Year=2019
Genre=Psychedelic/Avant-Garde/Black Metal

[/more]

Register
(17) cist, craP_cillA, Doooomed, dunkelheit, infiltrator, Irimias, kimkayoung, marilin, morbidangelo, oldvarg, Olethros, Ostinato, Sanctus, VALERY, vasiljev_sergej, wtk.412, yuratroll,
Mar 26 2020, 15:34:54 Demonastramágissargon - Hex [ep] (2019)


*Artist: Demonastramágissargon
*Album: Hex [ep]
*Year: 2019
*Genre: Psychedelic/Atmospheric Black Metal
*Country: France
*Format: mp3@CBR320kbps
*Size: 73MB

Tracklist:
1. Golgotha 06:12
2. Et Sublimis Satanas 07:59
3. Justórum Ánimæ In Inferno Ardere 05:37
4. Hex 11:52
******************************
Total playing time: 31:40



[more=Technical info]
Input File: 03 - Justorum Animae In Inferno Ardere.mp3
Channels : 2
Sample Rate : 44100
Precision : 16-bit
Duration : 00:05:37.79 = 14896319 samples = 25333.9 CDDA sectors
File Size : 13.6M
Bit Rate : 322k
Sample Encoding: MPEG audio (layer I, II or III)
Comments :
Title=Justórum Animæ In Inferno Ardere
Artist=Demonastramágissargon
Album=Hex
Tracknumber=3
Year=2019
Genre=Psychedelic/Atmospheric Black Metal

[/more]

Register
(9) Goatlord666, infiltrator, marilin, Olethros, robertho777, senecazm, stub888, VALERY, vasiljev_sergej,
Mar 26 2020, 15:28:01 Demonastramágissargon - Anticosmos [ep] (2019)


*Artist: Demonastramágissargon
*Album: Anticosmos [ep]
*Year: 2019
*Genre: Psychedelic/Atmospheric Black Metal
*Country: France
*Format: mp3@CBR320kbps
*Size: 55MB

Tracklist:
1. Svarta Kirkan 05:57
2. Anticosmos I 03:51
3. Anticosmos II 04:26
4. Qaa. Zodorejr, Lape Ζodiredo Noco Mada, Ηoathahe Saitan ! 05:12
5. Abyssum 04:29
******************************
Total playing time: 23:55



[more=Technical info]
Input File: 02 - Anticosmos I.mp3
Channels : 2
Sample Rate : 44100
Precision : 16-bit
Duration : 00:03:51.17 = 10194729 samples = 17338 CDDA sectors
File Size : 9.33M
Bit Rate : 323k
Sample Encoding: MPEG audio (layer I, II or III)
Comments :
Title=Anticosmos I
Artist=Demonastramágissargon
Album=Anticosmos
Tracknumber=2
Year=2019
Genre=Psychedelic/Atmospheric Black Metal

[/more]

Register
(12) cist, Evilded, Goatlord666, infiltrator, LEGION69, marilin, Olethros, Ostinato, senecazm, stub888, VALERY, vasiljev_sergej,
Mar 24 2020, 18:47:31 Dionysian Rites - Kriegsanleihe [demo] (2020)


*Artist: Dionysian Rites
*Album: Kriegsanleihe [demo]
*Year: 2020
*Genre: Doom/Black/Death Metal
*Country: International
*Format: mp3@CBR320kbps
*Size: 29MB

Tracklist:
1. Cerebral Poison 04:17
2. War On Angels 03:03
3. Slaves Of Divinity 05:13
******************************
Total playing time: 12:33



[more=Extended info]Limited to 60 copies.
4 panel j card including lyrics.
Includes logo stickers.[/more]

[more=Technical info]
Input File: 02 - War On Angels.mp3
Channels : 2
Sample Rate : 44100
Precision : 16-bit
Duration : 00:03:03.84 = 8107212 samples = 13787.8 CDDA sectors
File Size : 7.44M
Bit Rate : 324k
Sample Encoding: MPEG audio (layer I, II or III)
Comments :
Title=War On Angels
Artist=Dionysian Rites
Album=Kriegsanleihe
Tracknumber=2/3
Year=2020
Genre=Doom/Black/Death Metal
Discnumber=1/1

[/more]

Register
(15) Bzth, Doooomed, infiltrator, morbidangelo, Olethros, Ostinato, randumbum, Sanctus, satanist666, sergsazan, SilentNidhogg, thenecromancer, VALERY, vasiljev_sergej, Wail,
Mar 24 2020, 18:21:21 Ageless Summoning - Demo Mmxviii [demo] (2018)


*Artist: Ageless Summoning
*Album: Demo Mmxviii [demo]
*Year: 2018
*Genre: Death Metal
*Country: United Kingdom
*Format: mp3@CBR320kbps
*Size: 28MB

Tracklist:
1. Usurper Of The Void 05:19
2. Salvation In Ash 06:31
******************************
Total playing time: 11:50




[more=Extended info]Crown And Throne Ltd.
Limited edition cassette of 100 copies.[/more]

[more=Technical info]
Input File: 01 - Usurper Of The Void.mp3
Channels : 2
Sample Rate : 44100
Precision : 16-bit
Duration : 00:05:19.92 = 14108296 samples = 23993.7 CDDA sectors
File Size : 12.9M
Bit Rate : 322k
Sample Encoding: MPEG audio (layer I, II or III)
Comments :
Title=Usurper Of The Void
Artist=Ageless Summoning
Album=Demo MMXVIII
Tracknumber=1
Year=2018
Genre=Death Metal

[/more]

Register
(10) Bzth, infiltrator, morbidangelo, Occultas, Olethros, Ostinato, raattent, varlam4, wanderer73, wn129aa,
Mar 24 2020, 13:33:34 Iskalde Morket - Metaphysics Of Mass Murder (2020)


*Artist: Iskalde Morket
*Album: Metaphysics Of Mass Murder
*Year: 2020
*Genre: Progressive/Technical Black Metal
*Country: United Kingdom
*Format: mp3@CBR320kbps
*Size: 71MB

Tracklist:
1. Escalera De La Muerte 05:25
2. Metaphysics Of Mass Murder 07:11
3. North Walsham Misanthropia 03:01
4. Introverts Doedskvad 08:06
5. Apotheosis 07:36
******************************
Total playing time: 31:19



[more=Technical info]
Input File: 03 - North Walsham Misanthropia.mp3
Channels : 2
Sample Rate : 44100
Precision : 16-bit
Duration : 00:03:01.28 = 7994272 samples = 13595.7 CDDA sectors
File Size : 7.33M
Bit Rate : 323k
Sample Encoding: MPEG audio (layer I, II or III)
Comments :
Title=North Walsham Misanthropia
Artist=Iskalde Morket
Album=Metaphysics Of Mass Murder
Tracknumber=3
Year=2020
Genre=Progressive/Experimental Black Metal

[/more]

Register
(12) atavist, cesar, cist, infiltrator, kimkayoung, metala, morbidangelo, Olethros, Ostinato, SatanicPanzer, VALERY, vasiljev_sergej,
Mar 24 2020, 13:14:29 Omnikinetic - Kinesis [ep] (2020)


*Artist: Omnikinetic
*Album: Kinesis [ep]
*Year: 2020
*Genre: Black/Death Metal
*Country: United States
*Format: mp3@CBR320kbps
*Size: 48MB

Tracklist:
1. The Wolves Ascend 03:51
2. Leading The Pack 02:50
3. Silently I'll Suffer, Patiently I'll Wait 04:00
4. Raised-Leg Urination 04:06
5. Absolutakinesis (In Control) 03:51
6. Chronokinesis (Time Control) 03:37
******************************
Total playing time: 22:15



[more=Extended info]- 6 panel j-card printed in CMYK 4/4 on 170g coated paper.
- Plastic shell with on-body print.
- High quality case (norelco).
- Limited to 50 handnumbered copies.[/more]

[more=Technical info]
Input File: 02 - Leading The Pack.mp3
Channels : 2
Sample Rate : 44100
Precision : 16-bit
Duration : 00:02:50.45 = 7516757 samples = 12783.6 CDDA sectors
File Size : 6.35M
Bit Rate : 298k
Sample Encoding: MPEG audio (layer I, II or III)
Comments :
Title=Leading The Pack
Artist=Omnikinetic
Album=Kinesis
Tracknumber=2
Year=2020
Genre=Black/Death Metal

[/more]

Register
(9) Goatlord666, infiltrator, lunaraurora, morbidangelo, Olethros, Sanctus, SilentNidhogg, vasiljev_sergej, wanderer73,
Mar 24 2020, 13:09:44 Omnikinetic - Omnikinetic [demo] (2020)


*Artist: Omnikinetic
*Album: Omnikinetic [demo]
*Year: 2020
*Genre: Black/Death Metal
*Country: United States
*Format: mp3@CBR320kbps
*Size: 24MB

Tracklist:
1. Absolutakinesis 03:51
2. Chronokinesis 03:37
3. Antikinesis 02:21
******************************
Total playing time: 9:49



[more=Technical info]
Input File: 03 - Antikinesis.mp3
Channels : 2
Sample Rate : 44100
Precision : 16-bit
Duration : 00:02:21.67 = 6247779 samples = 10625.5 CDDA sectors
File Size : 5.85M
Bit Rate : 330k
Sample Encoding: MPEG audio (layer I, II or III)
Comments :
Title=Antikinesis
Artist=Omnikinetic
Album=Omnikinetic
Tracknumber=3
Year=2020
Genre=Black/Death Metal

[/more]

Register
(9) Goatlord666, infiltrator, lunaraurora, morbidangelo, Olethros, SilentNidhogg, VALERY, vasiljev_sergej, wanderer73,

28 Pages V   1 2 3 > » 
- Lo-Fi Version Support form
Copyrights and abuse reports form
Time is now: 4th April 2020 - 13:09:14