Welcome Guest ( Log In | Register )

История благодарностей участнику Panacea ::: Спасибо сказали: 6048 раз(а)
Дата поста: В теме: За сообщение: Спасибо сказали:
Oct 13 2019, 15:04:58 Azmodan - Evil Obscurity (1998)
CBR 320 kbps
Register
(1) Wail,
Oct 12 2019, 22:30:48 Thou & The Body - Everyday, Things Are Getting Worse (Live At Roadburn 2018) [collaboration] (2019)


*Artist: Thou & The Body
*Album: Everyday, Things Are Getting Worse (Live At Roadburn 2018) [collaboration]
*Year: 2019
*Genre: Sludge/Drone/Post/Doom Metal | Sludge/Noise/Post/Doom Metal
*Country: United States | United States
*Format: mp3@VBR280kbps
*Size: 95MB

Tracklist:
1. He Returns To The Place Of His Inequity 00:48
2. Her Strongholds Unvanquishable 06:56
3. Beyond The Realms Of Dream, That Fleeting Shade Under The Circus Of Vanity 03:55
4. Diaphonous Shift 01:53
5. Well Fed Fuck 04:44
6. Skinwalker 03:34
7. A Prayer To God 02:39
8. The Devils Of Trust Steal The Should Of The Free 02:04
9. In Meeting Hearts Beat Closer 05:15
10. I Apologize 15:20
******************************
Total playing time: 47:08



[more=Technical info]
Input File: 03 - Beyond The Realms Of Dream, That Fleeting Shade Under The Circus Of Vanity.mp3
Channels : 2
Sample Rate : 48000
Precision : 16-bit
Duration : 00:03:55.42 = 11299968 samples ~ 17656.2 CDDA sectors
File Size : 8.53M
Bit Rate : 290k
Sample Encoding: MPEG audio (layer I, II or III)
Comments :
Title=Beyond The Realms Of Dream, That Fleeting Shade Under The Circus Of Vanity
Artist=Thou / The Body
Album=Everyday, Things Are Getting Worse (Live at Roadburn 2018)
Tracknumber=03
Year=2019
Genre=Sludge

[/more]

Register
(15) artscald, BERZERK, Cruor, Den_M, gena, infiltrator, marilin, MEmethuselah, Olethros, Ostinato, Rosen, sorgnatt, stub888, Tyrone, zobero,
Oct 3 2019, 21:04:02 Sárcwide - Demo [demo] (2019)


*Artist: Sárcwide
*Album: Demo [demo]
*Year: 2019
*Genre: Black Metal
*Country: United Kingdom
*Format: mp3@CBR320kbps
*Size: 27MB

Tracklist:
1. To Wish To Forget 03:39
2. Welkin 02:05
3. Mist Burial 03:24
******************************
Total playing time: 9:08



[more=Technical info]
Input File: 02 - Welkin.mp3
Channels : 2
Sample Rate : 44100
Precision : 16-bit
Duration : 00:02:05.89 = 5551925 samples = 9442.05 CDDA sectors
File Size : 5.18M
Bit Rate : 329k
Sample Encoding: MPEG audio (layer I, II or III)
Comments :
Title=Welkin
Artist=Sárcwide
Album=Demo
Tracknumber=2
Year=2019
Genre=Black Metal

[/more]

Register
(11) artscald, kim666, krotovich, Olethros, Ostinato, randumbum, Rosen, SilentNidhogg, stub888, thenecromancer, vasiljev_sergej,
Oct 3 2019, 20:03:20 Dungeönhammer - Infernal Moon (2018)


*Artist: Dungeönhammer
*Album: Infernal Moon
*Year: 2018
*Genre: Black/Thrash Metal
*Country: International
*Format: mp3@CBR320kbps
*Size: 105MB

Tracklist:
1. Infernal Moon 04:18
2. Sworn In Blood 02:11
3. Empire De La Mort 03:38
4. Solitudinem Mysteriis 06:11
5. Perpetual Funeral Winds 05:51
6. Stigma Diaboli 06:48
7. Oracle Of Death 02:19
8. Ad Infinitum 07:10
******************************
Total playing time: 38:26



[more=Technical info]
Input File: 03 - Empire De La Mort.mp3
Channels : 2
Sample Rate : 44100
Precision : 16-bit
Duration : 00:03:38.87 = 9652123 samples = 16415.2 CDDA sectors
File Size : 10.8M
Bit Rate : 395k
Sample Encoding: MPEG audio (layer I, II or III)
Comments :
Title=Empire de la Mort
Artist=DungeönHammer
Album=Infernal Moon
Tracknumber=3/8
Year=2018
Genre=Black/Thrash Metal

[/more]

Register
(18) artscald, Asketto, atavist, Beazth, BlazonStone, boby9052, Brann, CORPSEMIXA, kauyumari, multizwilling, Olethros, Ostinato, Rosen, SilentNidhogg, stumpheavyrock, vasiljev_sergej, wanderer73, wgs73,
Oct 2 2019, 22:56:39 The Black Mysteries - Lemegeton (2018)
FLAC 255MB
Register
(5) infiltrator, Occultas, Olethros, thenecromancer, vasiljev_sergej,
Oct 2 2019, 21:00:38 The Black Mysteries - Lemegeton (2018)


*Artist: The Black Mysteries
*Album: Lemegeton
*Year: 2018
*Genre: Black Metal
*Country: Netherlands
*Format: mp3@CBR320kbps
*Size: 81MB

Tracklist:
1. Lemegeton 05:48
2. Temple Lord Of The Necromanteion 05:34
3. Serpent Of The Black Sun 07:22
4. Beyond The Dark Gate 06:22
5. An Ancient Spiritdance 05:31
6. Night Of Burning Temples 06:41
******************************
Total playing time: 37:18




[more=Technical info]
Input File: 04 - Beyond The Dark Gate.mp3
Channels : 2
Sample Rate : 44100
Precision : 16-bit
Duration : 00:06:22.01 = 16846729 samples = 28650.9 CDDA sectors
File Size : 15.3M
Bit Rate : 320k
Sample Encoding: MPEG audio (layer I, II or III)
Comments :
Title=Beyond The Dark Gate
Artist=The Black Mysteries
Album=Lemegeton
Tracknumber=4
Year=2018
Genre=Black Metal

[/more]

Register
(14) 1968_janeart, artscald, atavist, infiltrator, kefka, kim666, Occultas, Olethros, Rosen, stub888, thenecromancer, tim47, VALERY, vovenom,
Sep 30 2019, 22:45:33 Throneum & Stormvold - Fifth Column Of Sheol [split] (2018)


*Artist: Throneum & Stormvold
*Album: Fifth Column Of Sheol [split]
*Year: 2018
*Genre: Black/Death Metal | Black/Death Metal
*Country: Poland | Spain
*Format: mp3@CBR320kbps
*Size: 81MB

Tracklist:
Throneum:
1. Above 04:37
2. To The Great Matter 03:47
3. The Immutable Illusion 03:59
4. And Blood I Bleed 03:59
5. Awakening 02:56
Stormvold:
6. Heil Destrukcion 04:36
7. Extermania 04:09
8. Nekro-Actitud 04:40
9. Bestribucio 04:02
******************************
Total playing time: 36:45



[more=Technical info]
Input File: 06 - Stormvold-Heil Destrukcion.mp3
Channels : 2
Sample Rate : 44100
Precision : 16-bit
Duration : 00:04:37.07 = 12218919 samples = 20780.5 CDDA sectors
File Size : 11.1M
Bit Rate : 320k
Sample Encoding: MPEG audio (layer I, II or III)
Comments :
Title=Heil Destrukcion
Artist=Stormvold
Album=Fifth Column Of Sheol
Tracknumber=6
Year=2018
Genre=Black/Death Metal

[/more]

Register
(19) artscald, Beerbaron, Boozer, FUDEDOR, infiltrator, kim666, Lanceatum, marilin, Ostinato, Rosen, sacrut, SilentNidhogg, Tino, VALERY, vasiljev_sergej, wgs73, wolverine, wtk.412, Герб,
Sep 30 2019, 22:41:07 Throneum - Organic Death Temple (Mmxvi) (2016)


*Artist: Throneum
*Album: Organic Death Temple (Mmxvi)
*Year: 2016
*Genre: Black/Death Metal
*Country: Poland
*Format: mp3@CBR320kbps
*Size: 81MB

Tracklist:
1. I 06:52
2. II 04:08
3. III 04:03
4. IV 06:00
5. V 04:50
6. VI 07:40
7. VII 08:33
******************************
Total playing time: 42:06



[more=Technical info]
Input File: 03 - III.mp3
Channels : 2
Sample Rate : 44100
Precision : 16-bit
Duration : 00:04:03.00 = 10716300 samples = 18225 CDDA sectors
File Size : 9.72M
Bit Rate : 320k
Sample Encoding: MPEG audio (layer I, II or III)
Comments :
Title=III
Artist=Throneum
Album=Organic Death Temple (MMXVI)
Tracknumber=3
Year=2016
Genre=Black/Death Metal

[/more]

Register
(23) ahp, artscald, atavist, Beerbaron, Boozer, FUDEDOR, infiltrator, lldma, marilin, metala, MP101M, Olethros, Ostinato, Pinhead666, Rosen, Sanctus, SilentNidhogg, supremo, Tino, VALERY, vasiljev_sergej, wolverine, wtk.412,
Sep 26 2019, 14:26:02 Goatpenis & Kurgaall - Satanic Terror Weapons [split] (2016)
[youtube]cfh1wvavRAk[/youtube]
(1) Weltenfeind666,
Sep 25 2019, 22:08:24 Horse Drawn Death Machine - Horse Drawn Death Machine [ep] (2012)


*Artist: Horse Drawn Death Machine
*Album: Horse Drawn Death Machine [ep]
*Year: 2012
*Genre: Sludge/Black Metal
*Country: United States
*Format: mp3@CBR320kbps
*Size: 35MB

Tracklist:
1. Pulling Teeth 02:42
2. Livid 03:25
3. Unraveling 04:03
4. Mammoths Overhead 04:05
5. Remorse (Outro) 01:27
******************************
Total playing time: 15:42



[more=Extended info]In 2016 the band changed their name to Horse Drawn.[/more]

[more=Technical info]
Input File: 01 - Pulling Teeth.mp3
Channels : 2
Sample Rate : 44100
Precision : 16-bit
Duration : 00:02:42.94 = 7185522 samples = 12220.3 CDDA sectors
File Size : 6.60M
Bit Rate : 324k
Sample Encoding: MPEG audio (layer I, II or III)
Comments :
Title=Pulling Teeth
Artist=Horse Drawn Death Machine
Album=Horse Drawn Death Machine
Tracknumber=1
Year=2012
Genre=Black/Sludge Metal

[/more]

Register
(8) ahp, artscald, Hell_Is_Here, marilin, Olethros, Rosen, vasiljev_sergej, wreak,
Sep 25 2019, 18:56:56 Serpent Rider - Pour Forth Surquidous [demo] (2019)


*Artist: Serpent Rider
*Album: Pour Forth Surquidous [demo]
*Year: 2019
*Genre: Epic Heavy/Doom Metal
*Country: International
*Format: mp3@CBR320kbps
*Size: 21MB

Tracklist:
1. Portent Of Doom 04:57
2. Pour Forth Surquidous 04:17
******************************
Total playing time: 9:14



[more=Technical info]
Input File: 02 - Pour Forth Surquidous.mp3
Channels : 2
Sample Rate : 44100
Precision : 16-bit
Duration : 00:04:17.92 = 11374448 samples = 19344.3 CDDA sectors
File Size : 10.4M
Bit Rate : 322k
Sample Encoding: MPEG audio (layer I, II or III)
Comments :
Title=Pour Forth Surquidous
Artist=Serpent Rider
Album=Pour Forth Surquidous
Tracknumber=2
Year=2019
Genre=Epic Heavy/Doom Metal

[/more]

Register
(10) ahp, artscald, Beazth, EpicDoomLord, marilin, Olethros, Rosen, stumpheavyrock, thenecromancer, wreak,
Sep 25 2019, 18:37:27 Goatpenis & Kurgaall - Satanic Terror Weapons [split] (2016)


*Artist: Goatpenis & Kurgaall
*Album: Satanic Terror Weapons [split]
*Year: 2016
*Genre: Black/Death Metal | Black Metal
*Country: Brazil | Italy
*Format: mp3@CBR320kbps
*Size: 36MB

Tracklist:
Goatpenis:
1. Carnivorous Ability 04:32
2. Allucinatory Sirens 04:03
Kurgaall:
3. Terror 04:55
4. Heretic Weapons 04:36
******************************
Total playing time: 18:06

[more=Technical info]
Input File: 02 - Goatpenis-Allucinatory Sirens.mp3
Channels : 2
Sample Rate : 44100
Precision : 16-bit
Duration : 00:04:02.79 = 10706819 samples = 18208.9 CDDA sectors
File Size : 9.70M
Bit Rate : 320k
Sample Encoding: MPEG audio (layer I, II or III)
Comments :
Title=Allucinatory Sirens
Artist=Goatpenis
Album=Satanic Terror Weapons
Tracknumber=2
Year=2016
Genre=Black/Death Metal

[/more]

Register
(18) artscald, Hell_Is_Here, kim666, Lanceatum, LazarShadow, Ludwig Hagen, metal73, Pinhead666, Reverend, Rosen, SilentNidhogg, Styx, the_cleanser, uk82, vasiljev_sergej, wgs73, wreak, wtk.412,
Sep 25 2019, 18:30:45 Defecrator - Satanic Martyrdom [ep] (2016)


*Artist: Defecrator
*Album: Satanic Martyrdom [ep]
*Year: 2016
*Genre: Black/Death Metal
*Country: United States
*Format: mp3@CBR320kbps
*Size: 18MB

Tracklist:
1. Satanic Martyrdom 04:19
2. Contractionem Diaboli 03:41
******************************
Total playing time: 8:00



[more=Technical info]
Input File: 02 - Contractionem Diaboli.mp3
Channels : 2
Sample Rate : 44100
Precision : 16-bit
Duration : 00:03:41.64 = 9774236 samples = 16622.9 CDDA sectors
File Size : 8.93M
Bit Rate : 322k
Sample Encoding: MPEG audio (layer I, II or III)
Comments :
Title=Contractionem Diaboli
Artist=Defecrator
Album=Satanic Martyrdom
Tracknumber=2
Year=2016
Genre=Death/Black Metal

[/more]

Register
(11) artscald, FUDEDOR, Hell_Is_Here, Olethros, Ostinato, Pinhead666, Rosen, SilentNidhogg, Styx, vasiljev_sergej, wreak,
Sep 22 2019, 12:42:07 Heretic Legion & Heretics & Wayward Dawn & Deadflesh - Carriers Of The Disease [split] (2019)


*Artist: Heretic Legion & Heretics & Wayward Dawn & Deadflesh
*Album: Carriers Of The Disease [split]
*Year: 2019
*Genre: Death Metal | Melodic Death/Thrash Metal | Death Metal | Death Metal
*Country: Sweden | Germany | Denmark | Denmark
*Format: mp3@CBR320kbps
*Size: 141MB

Tracklist:
Heretic Legion:
1. The Purge 05:27
2. Our Hell 05:20
3. Resurrection 06:04
Heretics:
4. Talent For Violence 05:34
5. With Thoughts As Weapons 05:44
6. Ordered Chaos 04:08
Wayward Dawn:
7. In Darkness We Dwell 03:40
8. Ape Of State 04:18
9. March Of Mannequins 06:45
Deadflesh:
10. Iron Mountain 05:02
11. Age Of Treason 04:20
12. Sherman's March 02:18
******************************
Total playing time: 58:40



[more=Technical info]
Input File: 12 - Deadflesh-Sherman's March.mp3
Channels : 2
Sample Rate : 44100
Precision : 16-bit
Duration : 00:02:18.77 = 6119889 samples = 10408 CDDA sectors
File Size : 6.01M
Bit Rate : 346k
Sample Encoding: MPEG audio (layer I, II or III)
Comments :
Title=Sherman's March
Artist=Deadflesh
Album=Carriers Of The Disease - 4-Way Split
Tracknumber=12
Year=2019
Genre=22

[/more]

Register
(9) AHBAnep, artscald, Hell_Is_Here, Ostinato, Rosen, stumpheavyrock, vyacheslav, wreak, Герб,
Sep 21 2019, 21:48:14 Nordvargr - Tantum Melior [compilation] (2019)


*Artist: Nordvargr
*Album: Tantum Melior [compilation]
*Year: 2019
*Genre: Dark Ambient/Black Industrial/Drone/EBM/Experimental/Black Metal
*Country: Sweden
*Format: mp3@CBR320kbps
*Size: 82MB

Tracklist:
1. Into The Cycle Of All And Nothing (MZ. 412 - Rework) 02:46
2. Sweet Death Triumphant (Ordo Rosarius Equilibrio - Rework) 03:23
3. At The Crossroads Of Immortality (Vassafor - Rework) 06:26
4. Invocation For A Malignant Spirit (Visions - Rework) 04:41
5. Sweet Death Triumphant (Kristoffer Oustad - Rework) 04:28
6. Salve Teragmon (Spetsnaz - Rework) 03:37
7. Manifestation (Michael Idehall - Rework) 04:24
8. Sweet Death Triumphant (Thorofon - Rework) 03:56
9. Consolamentum (The Benjolin Codex - Rework) 03:56
******************************
Total playing time: 37:37



[more=Extended info]A Compilation of tracks taken from the 2018 "Metempsychosis" album
and reworked by MZ. 412, Ordo Rosarius Equilibrio, Vassafor, Visions, Kristoffer Oustad, Spetsnaz, Michael Idehall, Thorofon and The Benjolin Codex.

Edition of 500 copies in 4 panel Digisleeve.
Released by Cyclic Law.[/more]

[more=Technical info]
Input File: 01 - Into The Cycle Of All And Nothing (MZ.412 - Rework).mp3
Channels : 2
Sample Rate : 44100
Precision : 16-bit
Duration : 00:02:46.75 = 7353719 samples = 12506.3 CDDA sectors
File Size : 6.67M
Bit Rate : 320k
Sample Encoding: MPEG audio (layer I, II or III)
Comments :
Title=Into The Cycle Of All And Nothing (MZ.412 - Rework)
Artist=Nordvargr
Album=Tantum Melior
Tracknumber=01/09
Year=2019
Genre=Dark Ambient/Black Industrial/Drone/EBM/Experimental/Black Metal

[/more]

Register
(19) A.L.Rapsod, artscald, FUDEDOR, gena, Hell_Is_Here, Infidel, Kalnasra, kimkayoung, morve, Olethros, Ostinato, robertho777, Rosen, spiritualdecay666, thenecromancer, vasiljev_sergej, Wolfera, wreak, wtk.412,
Sep 12 2019, 20:23:24 Exorcisme - Visceral Lifestyles [demo] (2019)


*Artist: Exorcisme
*Album: Visceral Lifestyles [demo]
*Year: 2019
*Genre: Black/Speed Metal/Punk
*Country: United States
*Format: mp3@CBR320kbps
*Size: 18MB

Tracklist:
1. Enter The Flames 03:08
2. Behold Eternity 03:52
******************************
Total playing time: 7:00



[more=Technical info]
Input File: 01 - Enter The Flames.mp3
Channels : 2
Sample Rate : 44100
Precision : 16-bit
Duration : 00:03:08.88 = 8329520 samples = 14165.9 CDDA sectors
File Size : 7.72M
Bit Rate : 327k
Sample Encoding: MPEG audio (layer I, II or III)
Comments :
Title=Enter The Flames
Artist=Exorcisme
Album=Visceral Lifestyles
Tracknumber=1
Year=2019
Genre=Black/Speed Metal/Punk

[/more]

Register
(12) artscald, Asketto, infiltrator, lunaraurora, marilin, Olethros, Rosen, stumpheavyrock, vasiljev_sergej, Wail, wgs73, wreak,
Sep 8 2019, 20:44:14 Naervaer - Skiftninger (2001)
CBR 320 kbps
Register
(2) thenecromancer, wendigo,
Aug 31 2019, 17:18:42 Graveview - Demo '18 [demo] (2018)


*Artist: Graveview
*Album: Demo '18 [demo]
*Year: 2018
*Genre: Death Metal
*Country: United States
*Format: mp3@CBR320kbps
*Size: 28MB

Tracklist:
1. Selective Mortality 04:13
2. Grotesquery 02:26
3. Descent Into Filth 02:57
******************************
Total playing time: 9:36



[more=Extended info]"Demos '18-'19" physical copies:

Redefining Darkness Records (US)
graveview-us.bandcamp.com/album/graveview-demos-18-19

Raw Skull Recordz (Europe)
rawskullrecordz.bandcamp.com/album/graveview-demos-18-19[/more]

[more=Technical info]
Input File: 02 - Grotesquery.mp3
Channels : 2
Sample Rate : 44100
Precision : 16-bit
Duration : 00:02:26.30 = 6451654 samples = 10972.2 CDDA sectors
File Size : 5.97M
Bit Rate : 326k
Sample Encoding: MPEG audio (layer I, II or III)
Comments :
Title=Grotesquery
Artist=Graveview
Album=Demo '18
Tracknumber=2
Year=2018
Genre=22

[/more]

Register
(7) artscald, FUDEDOR, Hell_Is_Here, infiltrator, Olethros, Rosen, wreak,
Aug 31 2019, 17:13:08 Graveview - Demo '19 [demo] (2019)


*Artist: Graveview
*Album: Demo '19 [demo]
*Year: 2019
*Genre: Death Metal
*Country: United States
*Format: mp3@CBR320kbps
*Size: 28MB

Tracklist:
1. Inconceivable Possession 03:53
2. Unrivaled Punishment 03:32
3. Amalgamation Of Insanity 04:20
******************************
Total playing time: 11:45



[more=Extended info]"Demos '18-'19" physical copies:

Redefining Darkness Records (US)
graveview-us.bandcamp.com/album/graveview-demos-18-19

Raw Skull Recordz (Europe)
rawskullrecordz.bandcamp.com/album/graveview-demos-18-19[/more]

[more=Technical info]
Input File: 02 - Unrivaled Punishment.mp3
Channels : 2
Sample Rate : 44100
Precision : 16-bit
Duration : 00:03:32.39 = 9366399 samples = 15929.2 CDDA sectors
File Size : 8.61M
Bit Rate : 324k
Sample Encoding: MPEG audio (layer I, II or III)
Comments :
Title=Unrivaled Punishment
Artist=Graveview
Album=Demo '19
Tracknumber=2
Year=2019
Genre=22

[/more]

Register
(7) artscald, FUDEDOR, Hell_Is_Here, infiltrator, Rosen, wreak, Герб,
Aug 16 2019, 16:41:43 Blood Torrent - Torrent Of Hatred (2012)


*Artist: Blood Torrent
*Album: Torrent Of Hatred
*Year: 2012
*Genre: Black Metal/Black 'n' Roll
*Country: Germany
*Format: mp3@CBR320kbps
*Size: 100MB

Tracklist:
1. Day 0 01:48
2. Torrent Of Hatred 05:37
3. Lycanthropic Spell 05:21
4. Madness Prevails 06:33
5. L.C.U. 07:12
6. Knives And Spikes 07:48
7. And It Marches Ahead 04:58
8. Anæmic 06:40
******************************
Total playing time: 45:57



[more=Technical info]
Input File: 02 - Torrent Of Hatred.mp3
Channels : 2
Sample Rate : 44100
Precision : 16-bit
Duration : 00:05:37.81 = 14897465 samples = 25335.8 CDDA sectors
File Size : 13.5M
Bit Rate : 320k
Sample Encoding: MPEG audio (layer I, II or III)
Comments :
Title=Torrent Of Hatred
Artist=Blood Torrent
Album=Torrent Of Hatred
Tracknumber=2
Year=2012
Genre=Black Metal/Black 'n' Roll

[/more]

Register
(10) artscald, Olethros, Ostinato, Razorbladeswaltz, Rosen, satanist666, stumpheavyrock, VALERY, vasiljev_sergej, wreak,
Aug 12 2019, 20:11:48 Today Is The Day - In The Eyes Of God (1999)
CBR 320 kbps (2010, Remastered, Reissue with 6 bonus tracks)
Register
(1) Герб,
Aug 8 2019, 17:40:49 Gravatus - Et Omnis Insipientia Aperuit Os Suum (2019)


*Artist: Gravatus
*Album: Et Omnis Insipientia Aperuit Os Suum
*Year: 2019
*Genre: Atmospheric Black Metal/Ambient
*Country: Romania
*Format: mp3@CBR320kbps
*Size: 71MB

Tracklist:
1. Vitam Impendere Desperatio 08:20
2. Mors Omnibus Lucet 05:19
3. Nostrum Desiderium Mortis 06:57
4. Nulla Salus 07:14
5. Comedia Finita Est 03:08
******************************
Total playing time: 30:58



[more=Technical info]
Input File: 02 - Mors Omnibus Lucet.mp3
Channels : 2
Sample Rate : 44100
Precision : 16-bit
Duration : 00:05:19.42 = 14086422 samples = 23956.5 CDDA sectors
File Size : 12.9M
Bit Rate : 323k
Sample Encoding: MPEG audio (layer I, II or III)
Comments :
Title=Mors Omnibus Lucet
Artist=Gravatus
Album=Et Omnis Insipientia Aperuit Os Suum
Tracknumber=2
Year=2019
Genre=Atmospheric Black Metal/Ambient

[/more]

Register
(11) artscald, blacky66, Doooomed, kim666, Olethros, robertho777, Rosen, SilentNidhogg, stub888, vasiljev_sergej, wreak,
Aug 4 2019, 19:29:13 Bethel - Northern Despondency [demo] (2017)


*Artist: Bethel
*Album: Northern Despondency [demo]
*Year: 2017
*Genre: Melodic Black Metal
*Country: Finland
*Format: mp3@CBR320kbps
*Size: 44MB

Tracklist:
1. Return To The Lands Of Dark & Frost 19:00
******************************
Total playing time: 19:00

[more=Extended info]20 years after “Northern Supremacy” Bethel return with their second demo![/more]

[more=Technical info]
Input File: 01 - Return To The Lands Of Dark & Frost.mp3
Channels : 2
Sample Rate : 44100
Precision : 16-bit
Duration : 00:19:00.39 = 50291155 samples = 85529.2 CDDA sectors
File Size : 45.6M
Bit Rate : 320k
Sample Encoding: MPEG audio (layer I, II or III)
Comments :
Title=Return To The Lands Of Dark & Frost
Artist=Bethel
Album=Northern Despondency
Tracknumber=1
Year=2017
Genre=Black Metal

[/more]

Register
(16) artscald, cancer1974, craP_cillA, Grev, Ildjarn, kim666, Olethros, princeshr, Rosen, satanist666, senecazm, Strid, thenecromancer, vasiljev_sergej, wreak, zargonath,
Aug 4 2019, 18:13:30 Dodenbezweerder - Zwarte Sluiers [ep] (2019)


*Artist: Dodenbezweerder
*Album: Zwarte Sluiers [ep]
*Year: 2019
*Genre: Black Metal
*Country: Netherlands
*Format: mp3@CBR320kbps
*Size: 28MB

Tracklist:
1. Verstenigd En Verdelgd 07:00
2. Zwarte Sluiers Over Dode Gezichten 05:07
******************************
Total playing time: 12:07



[more=Technical info]
Input File: 02 - Zwarte Sluiers Over Dode Gezichten.mp3
Channels : 2
Sample Rate : 44100
Precision : 16-bit
Duration : 00:05:07.64 = 13566836 samples = 23072.9 CDDA sectors
File Size : 12.5M
Bit Rate : 324k
Sample Encoding: MPEG audio (layer I, II or III)
Comments :
Title=Zwarte Sluiers Over Dode Gezichten
Artist=Dodenbezweerder
Album=Zwarte Sluiers
Tracknumber=2
Year=2019
Genre=Black Metal

[/more]

Register
(15) 1968_janeart, artscald, Beazth, Hell_Is_Here, Ildjarn, kim666, Olethros, robertho777, Rosen, satanist666, SilentNidhogg, stub888, Tyrone, vasiljev_sergej, wreak,
Jul 20 2019, 16:11:07 Arditi - Exaltation Of The Past [compilation] (2019)


*Artist: Arditi
*Album: Exaltation Of The Past [compilation]
*Year: 2019
*Genre: Martial Industrial/Modern Classical/Ambient
*Country: Sweden
*Format: mp3@CBR320kbps
*Size: 108MB

Tracklist:
1. Ploughshares Into Swords 04:32
2. Sieg Durch Zwecksetzung 04:29
3. Legionaries 05:43
4. Ploughshares Into Swords Part II 04:42
5. Volunteers 04:11
6. Nicht Mehr Schande 04:43
7. Blood Firmament 04:47
8. Palingenesis 03:39
9. The Sinking Ship 06:17
10. Standards Of Triumph 04:21
******************************
Total playing time: 47:24



[more=Extended info]Compilation of tracks from the first era of Arditi.
LP limited to 100 copies released by Steinklang Industries.

Tracks 1, 3, 9 and 10 were originally released on "Standards Of Triumph".
Tracks 2, 6, 7 and 8 were originally released on "Spirit Of Sacrifice".
Track 5 was originally released on "Leading The Iron Resistance".
Track 4 was previously unreleased.

All tracks have been reworked and remastered in 2018.[/more]

[more=Technical info]
Input File: 10 - Standards Of Triumph.mp3
Channels : 2
Sample Rate : 44100
Precision : 16-bit
Duration : 00:04:21.58 = 11535722 samples = 19618.6 CDDA sectors
File Size : 10.5M
Bit Rate : 321k
Sample Encoding: MPEG audio (layer I, II or III)
Comments :
Title=Standards Of Triumph
Artist=Arditi
Album=Exaltation Of The Past
Tracknumber=10
Year=2019
Genre=Martial Industrial

[/more]

Register
(12) A.L.Rapsod, artscald, cancer1974, Emhyr var Emreis, Evgen79, EvgeniusLongus, kauyumari, Olethros, sethurius, Wizard_in_Black, wolverine, wtk.412,

25 Pages V   1 2 3 > » 
- Lo-Fi Version Support form
Copyrights and abuse reports form
Time is now: 20th October 2019 - 01:47:20