Welcome Guest ( Log In | Register )

История благодарностей участнику Panacea ::: Спасибо сказали: 10930 раз(а)
Дата поста: В теме: За сообщение: Спасибо сказали:
Nov 24 2021, 21:07:23 Congenital Deformity - Sacrifice [demo] (2020)


*Artist: Congenital Deformity
*Album: Sacrifice [demo]
*Year: 2020
*Genre: Death Metal
*Country: Italy
*Format: mp3@CBR320kbps
*Size: 39MB

Tracklist:
1. Chainsaw Surgery 04:01
2. Sacrifice 04:26
3. Funeral Torments 04:01
4. Despising Life 04:02
******************************
Total playing time: 16:30




[more=Technical info]
Input File: 01 - Chainsaw Surgery.mp3
Channels : 2
Sample Rate : 44100
Precision : 16-bit
Duration : 00:04:01.36 = 10644020 samples = 18102.1 CDDA sectors
File Size : 9.75M
Bit Rate : 323k
Sample Encoding: MPEG audio (layer I, II or III)
Comments :
Title=Chainsaw Surgery
Artist=Congenital Deformity
Album=Sacrifice
Tracknumber=1
Year=2020
Genre=Death Metal

[/more]

Register
(11) artscald, caro, GorAtheist, Hell_Is_Here, julianotidre, lordsloth, Marek, Nascutmort, Wail, wanderer73, wreak,
Nov 24 2021, 21:02:43 Graves - Ascensão Do Impiedoso [demo] (2019)


*Artist: Graves
*Album: Ascensão Do Impiedoso [demo]
*Year: 2019
*Genre: Black Metal
*Country: Portugal
*Format: mp3@CBR320kbps
*Size: 56MB

Tracklist:
1. Ventos Negros Da Morte 04:26
2. Destruição Da Sagrada Mentira 04:11
3. Ascensão Do Impiedoso 03:31
4. Mórbido Amanhecer 04:26
5. Profanação Eterna 05:10
6. Alquimia Do Sofrimento 02:56
7. Pela Luz Negra 07:48
******************************
Total playing time: 32:28



[more=Extended info]Limited edition cassette of 100 copies.
Released by War Arts Productions.[/more]

[more=Technical info]
Input File: 06 - Alquimia Do Sofrimento.mp3
Channels : 2
Sample Rate : 44100
Precision : 16-bit
Duration : 00:02:55.89 = 7756529 samples = 13191.4 CDDA sectors
File Size : 7.03M
Bit Rate : 320k
Sample Encoding: MPEG audio (layer I, II or III)
Comments :
Title=Alquimia Do Sofrimento
Artist=Graves
Album=Ascensao Do Impiedoso
Tracknumber=6
Year=2019
Genre=Black Metal

[/more]

Register
(13) artscald, Carcharoth, caro, Hell_Is_Here, julianotidre, kim666, stormhatt, thenecromancer, VALERY, varlam4, vasiljev_sergej, Wail, wreak,
Nov 14 2021, 12:09:18 Wagner Ödegård - Gryte Ok Bodher [ep] (2021)
[youtube]H6qouIW1jec[/youtube]
(2) arkaik, Carcharoth,
Nov 13 2021, 11:53:51 Wagner Ödegård - Gryte Ok Bodher [ep] (2021)


*Artist: Wagner Ödegård
*Album: Gryte Ok Bodher [ep]
*Year: 2021
*Genre: Black Metal
*Country: Sweden
*Format: mp3@CBR192kbps
*Size: 11MB

Tracklist:
1. Gryt 03:27
2. Bodha 03:34
******************************
Total playing time: 7:01

[more=Extended info]Hand numbered copies.
Co-released by Brugmanziah and Urkraft Fanzine #6.[/more]

[more=Technical info]
Input File: 01 - Gryt.mp3
Channels : 2
Sample Rate : 44100
Precision : 16-bit
Duration : 00:03:27.46 = 9149074 samples = 15559.6 CDDA sectors
File Size : 4.98M
Bit Rate : 192k
Sample Encoding: MPEG audio (layer I, II or III)
Comments :
Title=Gryt
Artist=Wagner Ödegård
Album=Gryte Ok Bodher
Tracknumber=1
Year=2021
Genre=Black Metal
Discnumber=1/1

[/more]

Register
(28) Alexis The Best, artscald, Asketto, Bzth, Carcharoth, caro, christopher_l, dermarsoran, ent404, Hell_Is_Here, Hexer, judaz, julianotidre, kim666, Lord Noctua, Moonshtook, nemx, Olethros, Qliphoth, raaf, Sanctus, smes, stormhatt, VALERY, varlam4, vasiljev_sergej, Vidder242, zhol,
Nov 12 2021, 20:54:04 Horda Profana - Beyond The Boundaries Of Death (2019)


*Artist: Horda Profana
*Album: Beyond The Boundaries Of Death
*Year: 2019
*Genre: Black/Death Metal
*Country: Argentina
*Format: mp3@CBR320kbps
*Size: 98MB

Tracklist:
1. Intro + Summoning 08:02
2. Absence Of Light 06:20
3. Raping The Illusions Of Man 05:05
4. Reaching Primordial Darkness 05:46
5. Words Of Immortal Fire 07:03
6. Rite Of Transformation 05:32
7. A Coldness Curse 03:56
******************************
Total playing time: 41:44



[more=Technical info]
Input File: 07 - A Coldness Curse.mp3
Channels : 2
Sample Rate : 44100
Precision : 16-bit
Duration : 00:03:56.42 = 10426298 samples = 17731.8 CDDA sectors
File Size : 9.61M
Bit Rate : 325k
Sample Encoding: MPEG audio (layer I, II or III)
Comments :
Title=A Coldness Curse
Artist=Horda Profana
Album=Beyond The Boundaries Of Death
Tracknumber=7
Year=2019
Genre=Black/Death Metal

[/more]

Register
(13) AHBAnep, AlexSmith, artscald, caro, Hell_Is_Here, julianotidre, metala, Olethros, rebornflms95, supremo, VALERY, vasiljev_sergej, wreak,
Nov 12 2021, 19:36:01 Septage - Septisk Eradikasyon [ep] (2021)


*Artist: Septage
*Album: Septisk Eradikasyon [ep]
*Year: 2021
*Genre: Death Metal/Goregrind
*Country: Denmark
*Format: mp3@VBR257kbps
*Size: 23MB

Tracklist:
1. Of Gangrene Limbs 03:05
2. Perpetual Fetid Odor 02:42
3. Sick Possessions 01:55
4. Simmered In Mephitis 03:59
******************************
Total playing time: 11:41




[more=Technical info]
Input File: 03 - Sick Possessions.mp3
Channels : 2
Sample Rate : 44100
Precision : 16-bit
Duration : 00:01:55.17 = 5079129 samples = 8637.97 CDDA sectors
File Size : 4.01M
Bit Rate : 279k
Sample Encoding: MPEG audio (layer I, II or III)
Comments :
Title=Sick Possessions
Artist=Septage
Album=Septisk Eradikasyon
Tracknumber=3
Year=2021
Genre=Death Metal/Goregrind

[/more]

Register
(11) Ambercandle, caro, chipsgott, julianotidre, METALHUNTER, Nascutmort, Olethros, sludge666, Unknown, vyacheslav, wreak,
Nov 11 2021, 00:32:24 Phrenelith - Chimaera (2021)


*Artist: Phrenelith
*Album: Chimaera
*Year: 2021
*Genre: Death Metal
*Country: Denmark
*Format: mp3@CBR320kbps
*Size: 66MB

Tracklist:
1. Awakening Titans 07:07
2. Chimaerian Offspring - Part 1 04:21
3. Phlegethon 04:09
4. Gorgonhead 03:58
5. Kykytos 02:31
6. Χίμαιρα 01:27
7. Chimaerian Offspring - Part 2 07:45
******************************
Total playing time: 31:18



[more=Extended info]Nuclear Winter Records.

CD and Tape versions shall be released on December 10th while the vinyl version is scheduled for late 2022.[/more]

[more=Technical info]
Input File: 04 - Gorgonhead.mp3
Channels : 2
Sample Rate : 44100
Precision : 16-bit
Duration : 00:03:58.63 = 10523407 samples = 17897 CDDA sectors
File Size : 9.58M
Bit Rate : 321k
Sample Encoding: MPEG audio (layer I, II or III)
Comments :
Title=Gorgonhead
Artist=Phrenelith
Album=Chimaera
Tracknumber=4
Genre=Death Metal

[/more]

Register
(35) Ambercandle, andreikun, artscald, Bzth, caro, guidanner, Hell_Is_Here, helvetestoner, infozahist, jollo, julianotidre, kalmametallinen, kauyumari, Lux, madera, Marek, marilin, metala, Metalass, Mist13Signifier, MrSatanislav, Occultas, older68, Olethros, raattent, Samaritianin, smes, stumpheavyrock, THROWER666, Tino, VALERY, vitosdemon, vyacheslav, wreak, wtk.412,
Nov 10 2021, 23:15:22 Ofermod - Mysterium Iniquitatis (2021)


*Artist: Ofermod
*Album: Mysterium Iniquitatis
*Year: 2021
*Genre: Black/Death Metal
*Country: Sweden
*Format: mp3@CBR320kbps
*Size: 108MB

Tracklist:
1. Mysterium Iniquitatis 07:12
2. Inax Ya Lil 05:51
3. When The Blacksmith Killed The Shepherd 06:02
4. Arteria Uterina 05:38
5. Sacrosanctus 03:27
6. Poraios De Rejectis 07:30
7. Consecration 07:22
8. Loyal To Belial 06:23
******************************
Total playing time: 49:25



[more=Extended info]Shadow Records (distributed & marketed by Regain Records).

Release date:
December 3rd (CD/MC/digital).
March 29th 2022 (Vinyl).[/more]

[more=Technical info]
Input File: 05 - Sacrosanctus.mp3
Channels : 2
Sample Rate : 44100
Precision : 16-bit
Duration : 00:03:26.29 = 9097521 samples = 15472 CDDA sectors
File Size : 8.30M
Bit Rate : 322k
Sample Encoding: MPEG audio (layer I, II or III)
Comments :
Title=Sacrosanctus
Artist=Ofermod
Album=Mysterium Iniquitatis
Tracknumber=5
Year=2021
Genre=Black/Death Metal

[/more]

Register
(68) AHBAnep, ALEXSATHANAS, AlexSmith, andivi, Antichrist, artscald, BERZERK, Black Cat, caro, Chasm, DarkHorde, dcatagua, dermarsoran, ent404, grimoir, guidanner, Hell_Is_Here, Henmik, Hexer, judaz, julianotidre, kauyumari, Kazoth, kim666, kupiszcze, Legacy100, LEGION69, Luminous, madera, MAPhilosopher, mardak666, marilin, Mencae77, metala, Metalass, milosdjor, Mortuusinfernus, NachtWulf, nadin85, nemx, nsk2008, older68, oldvarg, Olethros, princeshr, Qliphoth, rammstein888, rimfrost, SadistikSlayer, SaintVitus, Shadechaser, smes, soulskinner681, StabWound, stumpheavyrock, TeamatSE, thenecromancer, tim47, Tino, VALERY, Vidder242, vov7609, wanderer73, wreak, wtk.412, yuratroll, zuiozuio, Варяг,
Nov 9 2021, 23:15:44 Lindemann - Live In Moscow [live] (2021)


*Artist: Lindemann
*Album: Live In Moscow [live]
*Year: 2021
*Genre: Industrial Metal
*Country: Germany
*Format: mp3@CBR320kbps
*Size: 231MB

Tracklist:
1. Skills In Pills 04:30
2. Ladyboy 03:22
3. Fat 04:17
4. Frau & Mann 03:46
5. Ich Weiss Es Nicht 04:58
6. Allesfresser 04:00
7. Knebel 04:28
8. Home Sweet Home 04:45
9. Cowboy 04:01
10. Golden Shower 04:39
11. Blut 04:49
12. Platz Eins 05:17
13. Praise Abort 05:01
14. Fish On 04:39
15. Ach So Gern 04:21
16. Gummi 04:13
17. Steh Auf 04:06
******************************
Total playing time: 1:15:12

[more=Extended info]Full Moscow VTB Arena concert On 15 March 2020.[/more]

[more=Technical info]
Input File: 02 - Ladyboy.mp3
Channels : 2
Sample Rate : 44100
Precision : 16-bit
Duration : 00:03:22.00 = 8908200 samples = 15150 CDDA sectors
File Size : 8.25M
Bit Rate : 327k
Sample Encoding: MPEG audio (layer I, II or III)
Comments :
Title=Ladyboy (Live)
Artist=Lindemann
Album=Live In Moscow
Tracknumber=2
Year=2021
Genre=Industrial Metal

[/more]

Register
(3) Aresson, Cartman223, Olethros,
Nov 8 2021, 00:31:31 Sadness - _____ (2021)


*Artist: Sadness
*Album: _____
*Year: 2021
*Genre: Depressive/Shoegaze/Atmospheric Post-Metal
*Country: United States
*Format: mp3@CBR320kbps
*Size: 84MB

Tracklist:
1. See You In The Orange Light 06:44
2. Orange Love 06:49
3. On A Green 07:06
4. I Can't Say Goodbye 16:20
******************************
Total playing time: 36:59



[more=Technical info]
Input File: 02 - Orange Love.mp3
Channels : 2
Sample Rate : 44100
Precision : 16-bit
Duration : 00:06:49.19 = 18045059 samples = 30688.9 CDDA sectors
File Size : 16.4M
Bit Rate : 320k
Sample Encoding: MPEG audio (layer I, II or III)
Comments :
Title=Orange Love
Artist=Sadness
Album=_____
Tracknumber=2
Year=2021
Genre=Depressive/Shoegaze/Atmospheric Post-Metal

[/more]

Register
(26) A.L.Rapsod, aleon, AlexSmith, alikkon, artscald, Branis, caro, christopher_l, Hexer, HMHamster, kim666, kimkayoung, Mencae77, Metalass, murian, obituarydark, Olethros, Orkkh, princeshr, robertho777, Shadechaser, stormhatt, supremo, VALERY, wreak, ZambuL,
Nov 7 2021, 16:05:15 The Amenta - Solipschism [ep] (2021)


*Artist: The Amenta
*Album: Solipschism [ep]
*Year: 2021
*Genre: Industrial Death Metal
*Country: Australia
*Format: mp3@CBR320kbps
*Size: 18MB

Tracklist:
1. Solipschism 04:40
2. Labourinth 03:10
******************************
Total playing time: 7:50



[more=Technical info]
Input File: 01 - Solipschism.mp3
Channels : 2
Sample Rate : 44100
Precision : 16-bit
Duration : 00:04:40.08 = 12351396 samples = 21005.8 CDDA sectors
File Size : 11.6M
Bit Rate : 331k
Sample Encoding: MPEG audio (layer I, II or III)
Comments :
Title=Solipschism
Artist=The Amenta
Album=Solipschism
Tracknumber=1/2
Year=2021
Genre=Atmospheric/Industrial Death Metal
Discnumber=1/1

[/more]

Register
(16) artscald, caro, chipsgott, gwar, Hell_Is_Here, julianotidre, kimkayoung, maochen, Olethros, Shadechaser, VALERY, Vitald, Winner, wreak, yuratroll, Zenial,
Nov 7 2021, 15:31:35 Laster - Stadsluik [ep] (2019)


*Artist: Laster
*Album: Stadsluik [ep]
*Year: 2019
*Genre: Avantgarde/Atmospheric Post-Metal
*Country: Netherlands
*Format: mp3@CBR320kbps
*Size: 33MB

Tracklist:
1. De Klinkers Los 07:05
2. Betonnen Ballonnen 07:59
******************************
Total playing time: 15:04



[more=Extended info]Bonus 2-track EP that featured with the 2CD limited Artbook edition of "Het Wassen Oog".[/more]

[more=Technical info]
Input File: 01 - De Klinkers Los.mp3
Channels : 2
Sample Rate : 44100
Precision : 16-bit
Duration : 00:07:05.69 = 18772709 samples = 31926.4 CDDA sectors
File Size : 17.5M
Bit Rate : 328k
Sample Encoding: MPEG audio (layer I, II or III)
Comments :
Title=De Klinkers Los
Artist=Laster
Album=Stadsluik
Tracknumber=1/2
Year=2019
Genre=Avantgarde/Atmospheric Post-Metal
Discnumber=1/1

[/more]

Register
(7) artscald, caro, Mencae77, Olethros, wreak, yuratroll, ___NIHIL___,
Nov 6 2021, 20:04:41 Proscriptor Mcgovern’s Apsû - Proscriptor Mcgovern’s Apsû (2021)


*Artist: Proscriptor Mcgovern’s Apsû
*Album: Proscriptor Mcgovern’s Apsû
*Year: 2021
*Genre: Progressive/Black/Thrash Metal
*Country: United States
*Format: mp3@CBR320kbps
*Size: 101MB

Tracklist:
1. Amenta: Accelerando: Azyn Including Hierophantasmal Expounder 03:52
2. Esoterically Excoriating The Exoteric 04:35
3. Quasaric Pestilence 03:28
4. Mirroracles 03:56
5. In-Betweeness Gateway Commuters 05:26
6. Jupiter In Capricornus 01:46
7. Dedicated To Thoth, But Azathoth Wasn’t Listening (A Necroloquy) 03:27
8. Caliginous Whorl 03:23
9. The Coagulating Respite 02:43
10. Prana: Therion: Akasha 02:47
11. Tantrums Of Azag-Kkû 03:09
12. Every Watchtower Within Is The Axis Of A Watchtower Without including Totemic Thresholds 05:45
******************************
Total playing time: 44:17



[more=Extended info]Releases November 26, 2021 by Agonia Records.
Recorded at various studios around the world.
Mixed in Dallas, Texas.
Mastered in Sweden.

Formats:
- Jewelcase CD
- Digi Slipcase CD
- Clam–Shell Box CD (Limited To 1000 Numbered Copies With Pin & Front Cover Flag)
- Black LP
- Swamp Green LP
- Gold LP
- Mercurial Silver LP
- Ultra Clear LP
- Picture LP
- Mephitic Vapour Splatter LP
- Cassette
- Digital[/more]

[more=Technical info]
Input File: 09 - The Coagulating Respite.mp3
Channels : 2
Sample Rate : 44100
Precision : 16-bit
Duration : 00:02:43.79 = 7223007 samples = 12284 CDDA sectors
File Size : 7.20M
Bit Rate : 352k
Sample Encoding: MPEG audio (layer I, II or III)
Comments :
Title=The Coagulating Respite
Artist=Proscriptor McGovern’s Apsu
Album=Proscriptor McGovern’s Apsu
Tracknumber=9/12
Year=2021
Genre=Black/Thrash Metal
Discnumber=1/1

[/more]

Register
(80) acerbus, AlexSmith, alikkon, Antichrist, artscald, babanguida, Black Cat, boby9052, Brann, Bzth, canadaspaceman, cancer1974, caro, dcatagua, desekrator, ENDSMOUTH, Fenrirsson, ForzaMinardi1977, fuoco, garml2, gena, ger_man_thorn, grimoir, gusto24191, Hell_Is_Here, Henmik, Hexer, JantoHadez, John Beak, julianotidre, K-61082, kalmametallinen, kauyumari, kefka, kimkayoung, lucifix, lunaraurora, Lux, madera, MEmethuselah, metala, Metalass, METALHUNTER, milosdjor, Mist13Signifier, Moonshtook, multizwilling, Narasimha, Necrodictator, nihility, Occultas, Olethros, Panzerfaust, Paradayz, princeshr, raattent, Reverend, SadistikSlayer, SaintVitus, Scorpi, Scuns, Shadechaser, Sky7Daemon, stumpheavyrock, supremo, TheVoidReturned, Tino, Trelledorn, troll_swamp, Tular, Unknown, VALERY, Vidder242, Vitald, Winter Funeral, Winterdark, wrath082, wreak, yuratroll, Хеймдалль,
Nov 6 2021, 07:38:01 Circle Of Ouroborus - Kiromantia (2021)
FLAC 525MB
Register


[youtube]3vw9BJbCAGU[/youtube]
(8) acerbus, lestllk, Mencae77, nemx, Olethros, Sky7Daemon, wreak, zekliek,
Nov 6 2021, 07:37:35 Blood Magic - Medieval Dark Arts [demo] (2020)
[youtube]LXnB6d6bD3o[/youtube]
(1) Occultas,
Nov 5 2021, 22:55:01 Circle Of Ouroborus - Kiromantia (2021)


*Artist: Circle Of Ouroborus
*Album: Kiromantia
*Year: 2021
*Genre: Experimental Black Metal
*Country: Finland
*Format: mp3@CBR320kbps
*Size: 113MB

Tracklist:
1. Harson Lapi 05:04
2. Valokeihas 04:58
3. Syyskoti 05:46
4. Kiromantia 03:52
5. Aaveet Saapuvat 04:08
6. Leviaminen 05:53
7. Muurin Varjossa 04:04
8. Kuume 02:38
9. Niin Paljon Kuin Vuodan 04:56
10. Torni 05:07
******************************
Total playing time: 46:26



[more=Technical info]
Input File: 08 - Kuume.mp3
Channels : 2
Sample Rate : 44100
Precision : 16-bit
Duration : 00:02:38.08 = 6971240 samples = 11855.9 CDDA sectors
File Size : 6.42M
Bit Rate : 325k
Sample Encoding: MPEG audio (layer I, II or III)
Comments :
Title=Kuume
Artist=Circle Of Ouroborus
Album=Kiromantia
Tracknumber=8
Year=2021
Genre=Experimental Black Metal

[/more]

Register
(46) AlexSmith, ambre, artscald, as71, Buregon, caro, Chasm, eisigerwind, ent404, Femto, FUDEDOR, gena, grimoir, Hell_Is_Here, judaz, julianotidre, kim666, kimkayoung, Korpse, lucifix, Mencae77, metala, mexp, NathanSS, nemx, nihility, oldvarg, Qliphoth, Reverend, robertho777, SaintVitus, smes, stormhatt, Strygaldwir, supremo, the_cleanser, Tyrone, Valdmaar, VALERY, vasiljev_sergej, Vitald, Winter Funeral, wreak, xska, ZamanFu, ZambuL,
Nov 5 2021, 20:51:43 Blood Magic - Medieval Dark Arts [demo] (2020)


*Artist: Blood Magic
*Album: Medieval Dark Arts [demo]
*Year: 2020
*Genre: Raw Black Metal
*Country: United States
*Format: mp3@CBR320kbps
*Size: 80MB

Tracklist:
1. Necromantic Psychick Attak 04:47
2. Spell Cast On Combatant Camp 04:32
3. Medieval Dark Arts 04:21
4. Village Burns On Castle Siege 02:06
5. Vampyric Treaty On Burning Ash 03:59
6. War Horn Blasts In Blood Moon Light 04:26
7. Secret Paths to Sorcery 07:06
8. Funeral Winds Across Citadel Walls 03:03
******************************
Total playing time: 34:20



[more=Extended info]Released on Cassette by Spiritual Disease.
Released on Vinyl / CD by Black Gangrene Productions.[/more]

[more=Technical info]
Input File: 05 - Vampyric Treaty On Burning Ash.mp3
Channels : 2
Sample Rate : 48000
Precision : 16-bit
Duration : 00:03:59.43 = 11492496 samples ~ 17957 CDDA sectors
File Size : 9.71M
Bit Rate : 324k
Sample Encoding: MPEG audio (layer I, II or III)
Comments :
Title=Vampyric Treaty On Burning Ash
Artist=Blood Magic
Album=Medieval Dark Arts
Tracknumber=5/08
Year=2020
Genre=Raw Black Metal

[/more]

Register
(12) artscald, caro, Hell_Is_Here, INDARKNESS, julianotidre, kim666, lestllk, Olethros, stormhatt, thenecromancer, vasiljev_sergej, wreak,
Nov 5 2021, 00:47:37 Black Candle Wax - Bog Oak Haunting [demo] (2021)


*Artist: Black Candle Wax
*Album: Bog Oak Haunting [demo]
*Year: 2021
*Genre: Black Metal
*Country: United States
*Format: mp3@CBR320kbps
*Size: 61MB

Tracklist:
1. Clock Bones 01:37
2. Indescribable Dark 02:46
3. Severed Head On Fire 03:20
4. The Blind One 01:46
5. Blood Creep 02:20
6. Hiding A Body 02:47
7. Night Disease 03:28
8. Bog Corpse 01:51
9. Drinking Poison 02:30
10. Grave Machine 03:24
******************************
Total playing time: 25:49



[more=Extended info]Tapes available from Night Rhythms.[/more]

[more=Technical info]
Input File: 10 - Grave Machine.mp3
Channels : 2
Sample Rate : 44100
Precision : 16-bit
Duration : 00:03:24.55 = 9020787 samples = 15341.5 CDDA sectors
File Size : 8.25M
Bit Rate : 322k
Sample Encoding: MPEG audio (layer I, II or III)
Comments :
Title=Grave Machine
Artist=Black Candle Wax
Album=Bog Oak Haunting
Tracknumber=10
Year=2021
Genre=Black Metal

[/more]

Register
(15) Alexis The Best, artscald, caro, ent404, grimoir, Hell_Is_Here, INDARKNESS, julianotidre, kim666, Olethros, SilentNidhogg, stormhatt, stub888, VALERY, wreak,
Nov 3 2021, 23:37:19 Necromutilator - Eucharistic Mutilations (2014)


*Artist: Necromutilator
*Album: Eucharistic Mutilations
*Year: 2014
*Genre: Black/Death/Thrash Metal
*Country: Italy
*Format: mp3@CBR320kbps
*Size: 76MB

Tracklist:
1. Steams Of Armageddon 04:49
2. Fuck With Darkness 02:53
3. Horned Rites Of Bestiality 02:33
4. Deathblast 03:03
5. Wounds After The Nightmare 03:42
6. Sadistik Nekromancer 03:53
7. Black Punishment 03:12
8. Hell's Blackest Fire 03:27
9. 13 Candles 05:27
******************************
Total playing time: 32:59




[more=Technical info]
Input File: 02 - Fuck With Darkness.mp3
Channels : 2
Sample Rate : 44100
Precision : 16-bit
Duration : 00:02:53.31 = 7642927 samples = 12998.2 CDDA sectors
File Size : 6.93M
Bit Rate : 320k
Sample Encoding: MPEG audio (layer I, II or III)
Comments :
Title=Fuck With Darkness
Artist=Necromutilator
Album=Eucharistic Mutilations
Tracknumber=2
Year=2014
Genre=Black/Death/Thrash Metal

[/more]

Register
(17) artscald, boby9052, BugEyes, caro, julianotidre, madera, METALHUNTER, Olethros, sagratan, sergsazan, stumpheavyrock, supremo, Svafrlami, thenecromancer, uncolored, VALERY, wreak,
Nov 3 2021, 14:39:09 Nächtlich - Satanas Solum Initium Est (2021)
[youtube]bn1rjL8Y4EM[/youtube]
(1) rominow,
Nov 2 2021, 00:07:42 Nächtlich - Satanas Solum Initium Est (2021)


*Artist: Nächtlich
*Album: Satanas Solum Initium Est
*Year: 2021
*Genre: Raw Black Metal
*Country: Canada
*Format: mp3@CBR320kbps
*Size: 76MB

Tracklist:
1. Intro: Sphere Of Etheric Ambivalence 03:39
2. Satanas Solum Initium Est 03:52
3. Frenetic Procreation Of Yeqon 03:17
4. Autosarcophagic Ascension 04:08
5. Galloping Through Tenebrae 05:01
6. Death Beyond The Oblivions 06:10
7. Reveal The Final Key 08:34
******************************
Total playing time: 34:41



[more=Extended info]Released by Black Gangrene Productions.[/more]

[more=Technical info]
Input File: 02 - Satanas Solum Initium Est.mp3
Channels : 2
Sample Rate : 44100
Precision : 16-bit
Duration : 00:03:52.98 = 10274594 samples = 17473.8 CDDA sectors
File Size : 9.42M
Bit Rate : 323k
Sample Encoding: MPEG audio (layer I, II or III)
Comments :
Title=Satanas Solum Initium Est
Artist=Nächtlich
Album=Satanas Solum Initium Est
Tracknumber=2/7
Year=2021
Genre=Black Metal
Discnumber=1/1

[/more]

Register
(18) AlexSmith, artscald, caro, christopher_l, ent404, Hell_Is_Here, Hexer, judaz, julianotidre, kim666, Nascutmort, Olethros, rominow, stormhatt, supremo, vasiljev_sergej, wreak, yarrsuaa,
Oct 26 2021, 14:35:08 Veštac - Kolo - Dancing Through The Ascetic Fire [ep] (2021)


*Artist: Veštac
*Album: Kolo - Dancing Through The Ascetic Fire [ep]
*Year: 2021
*Genre: Raw Black Metal
*Country: Unknown
*Format: mp3@CBR320kbps
*Size: 26MB

Tracklist:
1. Born From The Secret Fire 06:36
2. Feast Upon My Sorcery 04:39
******************************
Total playing time: 11:15

[more=Extended info]Released by ASRAR as a limited edition 7'' violet vinyl EP including insert.[/more]

[more=Technical info]
Input File: 02 - Feast Upon My Sorcery.mp3
Channels : 2
Sample Rate : 44100
Precision : 16-bit
Duration : 00:04:39.46 = 12324054 samples = 20959.3 CDDA sectors
File Size : 10.4M
Bit Rate : 299k
Sample Encoding: MPEG audio (layer I, II or III)
Comments :
Title=Feast Upon My Sorcery
Artist=Vestac
Album=Kolo - Dancing Through The Ascetic Fire
Tracknumber=02/2
Year=2021
Genre=Raw Black Metal
Discnumber=1/1

[/more]

Register
(14) Alexis The Best, artscald, Bzth, Carcharoth, caro, ChaosArcana, julianotidre, kim666, murian, nemx, Olethros, stormhatt, vasiljev_sergej, wreak,
Oct 26 2021, 13:46:32 Echushkya - Earth And Sea [compilation] (2020)


*Artist: Echushkya
*Album: Earth And Sea [compilation]
*Year: 2020
*Genre: Atmospheric Black Metal
*Country: United States
*Format: mp3@CBR320kbps
*Size: 172MB

Tracklist:
1. Ara I: The Moss-Grown Pillar 01:19
2. Early Star 05:16
3. Boreal Apparition 08:40
4. Imbalance 08:06
5. The Sunken Pantheon 12:53
6. Ara II: The Baths Of Ðirona 11:08
7. Blazing Pool Of The Gold-Limned Conch 09:41
8. Mouth Of The Dragon 07:00
9. Rider Of The Maned Sea (Bonus Track) 06:18
10. To The Isle Of Dreams (Bonus Track) 05:16
******************************
Total playing time: 1:15:37




[more=Extended info]Compilation of the first two Echushkya releases "Dust And Ethers" and "Ara II".
Features two bonus tracks exclusive to this release.
CD released by Schattenkult Produktionen.[/more]

[more=Technical info]
Input File: 09 - Rider Of The Maned Sea (Bonus Track).mp3
Channels : 2
Sample Rate : 44100
Precision : 16-bit
Duration : 00:06:18.59 = 16695819 samples = 28394.2 CDDA sectors
File Size : 15.2M
Bit Rate : 321k
Sample Encoding: MPEG audio (layer I, II or III)
Comments :
Title=Rider Of The Maned Sea (Bonus Track)
Artist=Echushkya
Album=Earth And Sea
Tracknumber=09/10
Year=2020
Genre=Atmospheric Black Metal

[/more]

Register
(15) aleon, artscald, blacky66, caro, demonosz, dermarsoran, julianotidre, kim666, Olethros, Ostinato, robertho777, stormhatt, supremo, vasiljev_sergej, wreak,
Oct 26 2021, 13:40:57 Lachryma - The Paint Which Drips From Off The Seams [ep] (2021)


*Artist: Lachryma
*Album: The Paint Which Drips From Off The Seams [ep]
*Year: 2021
*Genre: Black Metal/Neofolk
*Country: United States
*Format: mp3@CBR320kbps
*Size: 44MB

Tracklist:
1. Catharsis Decorates The Walls 05:12
2. As Magdalene Wept, Between Two Candles 06:44
3. The Transience Of A Tabula Rasa 02:55
4. ...And They Pleasured Themselves On The Blood Of Infants 05:08
******************************
Total playing time: 19:59

[more=Extended info]Limited edition of 33 cassette copies.
Released by Extinctionist Records.[/more]

[more=Technical info]
Input File: 03 - The Transience Of A Tabula Rasa.mp3
Channels : 2
Sample Rate : 44100
Precision : 16-bit
Duration : 00:02:54.90 = 7713178 samples = 13117.6 CDDA sectors
File Size : 7.00M
Bit Rate : 320k
Sample Encoding: MPEG audio (layer I, II or III)
Comments :
Title=The Transience Of A Tabula Rasa
Artist=Lachryma
Album=The Paint Which Drips from Off the Seams
Tracknumber=3
Year=2021
Genre=Black Metal/Neofolk

[/more]

Register
(12) artscald, caro, julianotidre, kim666, nemx, Olethros, robertho777, SileniusLegard, stormhatt, vasiljev_sergej, wreak, zhol,
Oct 26 2021, 13:37:34 The Wakedead Gathering & Ecferus - The Wakedead Gathering/Ecferus [split] (2017)


*Artist: The Wakedead Gathering & Ecferus
*Album: The Wakedead Gathering/Ecferus [split]
*Year: 2017
*Genre: Death Metal | Black Metal
*Country: United States | United States
*Format: mp3@CBR320kbps
*Size: 56MB

Tracklist:
The Wakedead Gathering:
1. The Blind Abyss 11:01
Ecferus:
2. Unto Chaos Unraveling 04:36
3. Author of Destruction 04:44
4. Cerebral Inferno (Madness Reigns) 03:58
******************************
Total playing time: 24:19





[more=Technical info]
Input File: 04 - Ecferus - Cerebral Inferno (Madness Reigns).mp3
Channels : 2
Sample Rate : 44100
Precision : 16-bit
Duration : 00:03:57.60 = 10478160 samples = 17820 CDDA sectors
File Size : 9.56M
Bit Rate : 322k
Sample Encoding: MPEG audio (layer I, II or III)
Comments :
Title=Cerebral Inferno (Madness Reigns)
Artist=Ecferus
Album=The Wakedead Gathering/Ecferus
Tracknumber=4
Year=2017
Genre=Black Metal

[/more]

Register
(13) artscald, Boozer, caro, Hell_Is_Here, Ildjarn, julianotidre, Lanceatum, Marek, Ostinato, stormhatt, vasiljev_sergej, wanderer73, wreak,

35 Pages V   1 2 3 > » 
- Lo-Fi Version Support form
Copyrights and abuse reports form
Time is now: 29th November 2021 - 22:18:51