Welcome Guest ( Log In | Register )

История благодарностей участнику Panacea ::: Спасибо сказали: 6703 раз(а)
Дата поста: В теме: За сообщение: Спасибо сказали:
Today, 12:58:27 Deathwards - Towards Death [demo] (2018)


*Artist: Deathwards
*Album: Towards Death [demo]
*Year: 2018
*Genre: Death/Thrash Metal
*Country: Chile
*Format: mp3@CBR320kbps
*Size: 58MB

Tracklist:
1. In Death I Become 04:19
2. The Hierarchist 03:46
3. Epitaph From The Underworld 04:44
4. Impending Prophecies 04:11
5. Overlord (Infernal Majesty Cover) 05:59
******************************
Total playing time: 22:59




[more=Technical info]
Input File: 02 - The Hierarchist.mp3
Channels : 2
Sample Rate : 44100
Precision : 16-bit
Duration : 00:03:47.07 = 10013875 samples = 17030.4 CDDA sectors
File Size : 9.19M
Bit Rate : 324k
Sample Encoding: MPEG audio (layer I, II or III)
Comments :
Title=The Hierarchist
Artist=Deathwards
Album=Towards Death
Tracknumber=2
Year=2018
Genre=Death/Thrash Metal

[/more]

Register
(2) Olethros, stumpheavyrock,
Jan 12 2020, 22:55:25 Ordeals & Daethorn - Ordeals/Daethorn [split] (2018)


*Artist: Ordeals & Daethorn
*Album: Ordeals/Daethorn [split]
*Year: 2018
*Genre: Black/Death Metal | Black Metal
*Country: United States | France
*Format: mp3@CBR320kbps
*Size: 43MB

Tracklist:
Ordeals:
1. Intro / Night Of The Ghoul / Deadly Slumber (Daethorn Cover) / Bereft (Outro) 10:00
Daethorn:
2. Pervasive Corruption / Beyond The Shroud / Inevitable Demise 09:03
******************************
Total playing time: 19:03




[more=Technical info]
Input File: 02 - Daethorn - Pervasive Corruption-Beyond The Shroud-Inevitable Demise.mp3
Channels : 2
Sample Rate : 44100
Precision : 16-bit
Duration : 00:09:03.17 = 23953665 samples = 40737.5 CDDA sectors
File Size : 21.7M
Bit Rate : 320k
Sample Encoding: MPEG audio (layer I, II or III)
Comments :
Title=Pervasive Corruption / Beyond The Shroud / Inevitable Demise
Artist=Daethorn
Album=Ordeals / Daethorn
Tracknumber=2
Year=2018
Genre=Black Metal

[/more]

Register
(13) ASkyThatBurns, infiltrator, kim666, morbidangelo, Ostinato, Rosen, SilentNidhogg, stub888, thenecromancer, VALERY, varlam4, vasiljev_sergej, Wail,
Jan 12 2020, 22:04:52 Seventh Circle - Cycle Of Violence [demo] (2019)


*Artist: Seventh Circle
*Album: Cycle Of Violence [demo]
*Year: 2019
*Genre: Doom/Black/Death Metal
*Country: United States
*Format: mp3@CBR320kbps
*Size: 30MB

Tracklist:
1. Death Mask 04:14
2. Dwelling Lucifer 06:00
3. Babalon 02:51
******************************
Total playing time: 13:05



[more=Extended info]CD and cassette editions of "Cycle Of Violence" released through Caligari Records.[/more]

[more=Technical info]
Input File: 03 - Babalon.mp3
Channels : 2
Sample Rate : 44100
Precision : 16-bit
Duration : 00:02:51.09 = 7544981 samples = 12831.6 CDDA sectors
File Size : 6.92M
Bit Rate : 324k
Sample Encoding: MPEG audio (layer I, II or III)
Comments :
Title=Babalon
Artist=Seventh Circle
Album=Cycle Of Violence
Tracknumber=3/3
Year=2019
Genre=Black/Death Metal
Discnumber=1/1

[/more]

Register
(14) ASkyThatBurns, Doooomed, fallen, infiltrator, marilin, morbidangelo, Olethros, Ostinato, Rosen, SilentNidhogg, VALERY, varlam4, vasiljev_sergej, Wail,
Jan 11 2020, 00:10:00 Prisoner Of War - Rot [ep] (2016)


*Artist: Prisoner Of War
*Album: Rot [ep]
*Year: 2016
*Genre: Death Metal
*Country: New Zealand
*Format: mp3@CBR320kbps
*Size: 61MB

Tracklist:
1. Slow And Painful Death By Gas 04:54
2. Evil Sky 04:31
3. Purgatorial Shadow 03:44
4. Twisted Mass Of Burnt Decay 02:07
5. Rot 05:45
******************************
Total playing time: 21:01



[more=Technical info]
Input File: 03 - Purgatorial Shadow.mp3
Channels : 2
Sample Rate : 44100
Precision : 16-bit
Duration : 00:03:44.36 = 9894056 samples = 16826.6 CDDA sectors
File Size : 12.5M
Bit Rate : 447k
Sample Encoding: MPEG audio (layer I, II or III)
Comments :
Title=Purgatorial Shadow
Artist=Prisoner Of War
Album=Rot
Tracknumber=3
Year=2016
Genre=Death Metal

[/more]

Register
(9) ASkyThatBurns, infiltrator, Olethros, Rosen, VALERY, varlam4, vyacheslav, wanderer73, wreak,
Jan 11 2020, 00:05:17 Temple Koludra - Tooth And Nail [ep] (2019)


*Artist: Temple Koludra
*Album: Tooth And Nail [ep]
*Year: 2019
*Genre: Black Metal
*Country: Germany
*Format: mp3@CBR320kbps
*Size: 49MB

Tracklist:
1. Tooth And Nail 05:56
2. Annutara 07:48
3. Unhallowed (Dissection Cover) 07:49
******************************
Total playing time: 21:33



[more=Technical info]
Input File: 01 - Tooth And Nail.mp3
Channels : 2
Sample Rate : 44100
Precision : 16-bit
Duration : 00:05:56.62 = 15726942 samples = 26746.5 CDDA sectors
File Size : 14.3M
Bit Rate : 322k
Sample Encoding: MPEG audio (layer I, II or III)
Comments :
Title=Tooth And Nail
Artist=Temple Koludra
Album=Tooth And Nail
Tracknumber=1
Year=2019
Genre=Black Metal

[/more]

Register
(18) 1968_janeart, ASkyThatBurns, Doooomed, Frozenkult, infiltrator, kim666, Olethros, Ostinato, peppuzzo, robertho777, Rosen, SilentNidhogg, stub888, VALERY, varlam4, vasiljev_sergej, wreak, yuratroll,
Jan 11 2020, 00:00:06 Burnt Decay - Demo 2019 [demo] (2019)


*Artist: Burnt Decay
*Album: Demo 2019 [demo]
*Year: 2019
*Genre: Death Metal/Grindcore
*Country: United States
*Format: mp3@CBR320kbps
*Size: 14MB

Tracklist:
1. Endless War 00:59
2. Rotten Corpse Of Humanity 00:50
3. Life Of Suffering 01:06
4. Deceiver 01:04
5. Total Genocide 00:52
******************************
Total playing time: 4:51



[more=Extended info]Pro dubbed cassette tape released by Headsplit Records.[/more]

[more=Technical info]
Input File: 03 - Life Of Suffering.mp3
Channels : 2
Sample Rate : 44100
Precision : 16-bit
Duration : 00:01:06.62 = 2937898 samples = 4996.43 CDDA sectors
File Size : 2.85M
Bit Rate : 342k
Sample Encoding: MPEG audio (layer I, II or III)
Comments :
Title=Life Of Suffering
Artist=Burnt Decay
Album=Demo 2019
Tracknumber=3
Year=2019
Genre=Death Metal/Grindcore

[/more]

Register
(6) FUDEDOR, infiltrator, Olethros, Rosen, varlam4, wreak,
Jan 7 2020, 23:26:17 Distant Fear - Mortal Column [demo] (2019)


*Artist: Distant Fear
*Album: Mortal Column [demo]
*Year: 2019
*Genre: Black Metal/Crust
*Country: New Zealand
*Format: mp3@CBR320kbps
*Size: 38MB

Tracklist:
1. Crude Sanctum 05:56
2. Mortal Column 04:14
3. Fatal Displeasure 05:56
******************************
Total playing time: 16:06



[more=Extended info]Professionally duplicated cassette tapes with hand printed, cut, triple stamped and folded/assembled j-cards and labels.[/more]

[more=Technical info]
Input File: 02 - Mortal Column.mp3
Channels : 2
Sample Rate : 44100
Precision : 16-bit
Duration : 00:04:14.32 = 11215468 samples = 19073.9 CDDA sectors
File Size : 10.4M
Bit Rate : 326k
Sample Encoding: MPEG audio (layer I, II or III)
Comments :
Title=Mortal Column
Artist=Distant Fear
Album=Mortal Column
Tracknumber=2
Year=2019
Genre=Black Metal

[/more]

Register
(12) 1968_janeart, ASkyThatBurns, EvgeniusLongus, infiltrator, Ludwig Hagen, marilin, morbidangelo, Olethros, Rosen, sludge666, vasiljev_sergej, Авел,
Jan 7 2020, 22:41:33 Encoffinate - Cimmerian Corpse Dungeon [demo] (2019)


*Artist: Encoffinate
*Album: Cimmerian Corpse Dungeon [demo]
*Year: 2019
*Genre: Death Metal
*Country: Canada
*Format: mp3@CBR320kbps
*Size: 55MB

Tracklist:
1. Man Eater 06:52
2. Autointerment 04:41
3. Black Skies Of Terror 05:49
4. Beneath The Wheels Of Blades 05:22
******************************
Total playing time: 22:44




[more=Extended info]Physical Copies Out by Caligari Records.
Limited to 200 copies. Pro Tapes / Pro Covers.[/more]

[more=Technical info]
Input File: 03 - Black Skies Of Terror.mp3
Channels : 2
Sample Rate : 44100
Precision : 16-bit
Duration : 00:05:49.59 = 15417051 samples = 26219.5 CDDA sectors
File Size : 14.3M
Bit Rate : 327k
Sample Encoding: MPEG audio (layer I, II or III)
Comments :
Title=Black Skies Of Terror
Artist=Encoffinate
Album=Cimmerian Corpse Dungeon
Tracknumber=3/4
Year=2019
Genre=Death Metal

[/more]

Register
(14) ASkyThatBurns, FUDEDOR, fuoco, infiltrator, Ludwig Hagen, marilin, morbidangelo, multizwilling, nord6666, Olethros, Ostinato, Rosen, vyacheslav, wanderer73,
Jan 7 2020, 22:35:22 Foul - Of Worms [ep] (2019)


*Artist: Foul
*Album: Of Worms [ep]
*Year: 2019
*Genre: Doom/Death Metal
*Country: United States
*Format: mp3@CBR320kbps
*Size: 66MB

Tracklist:
1. Effigy Of Tredecuple Emaciation 07:45
2. Sorceress Of Worms 08:54
3. Writhing Tectonic Bicephalith 06:11
4. Feculent Unbirth 04:32
******************************
Total playing time: 27:22





[more=Extended info]Digisleeve CD limited to 1000 copies by Chaos Records.
Cassette edition limited to 200 copies by Caligari Records.[/more]

[more=Technical info]
Input File: 04 - Feculent Unbirth.mp3
Channels : 2
Sample Rate : 44100
Precision : 16-bit
Duration : 00:04:32.48 = 12016148 samples = 20435.6 CDDA sectors
File Size : 11.4M
Bit Rate : 336k
Sample Encoding: MPEG audio (layer I, II or III)
Comments :
Title=Feculent Unbirth
Artist=Foul
Album=Of Worms
Tracknumber=4/4
Year=2019-18-20
Genre=Doom/Death Metal
Discnumber=1/1

[/more]

Register
(14) ASkyThatBurns, FUDEDOR, infiltrator, Ludwig Hagen, marilin, metala, morbidangelo, Olethros, Ostinato, Rosen, sergsazan, stumpheavyrock, VALERY, vyacheslav,
Jan 5 2020, 14:50:38 Grave Infestation - Infesticide [demo] (2019)


*Artist: Grave Infestation
*Album: Infesticide [demo]
*Year: 2019
*Genre: Death Metal
*Country: Canada
*Format: mp3@CBR320kbps
*Size: 55MB

Tracklist:
1. Dead Wrong 03:39
2. Mortality Rate 03:51
3. Death Bait 04:32
4. Sudden Death 06:48
5. Still Birth... Still Life 04:50
******************************
Total playing time: 23:40



[more=Extended info]Physical Copies Available via the following labels in March 2019:
INVICTUS RECORDS
PARASITIC RECORDS[/more]

[more=Technical info]
Input File: 02 - Mortality Rate.mp3
Channels : 2
Sample Rate : 44100
Precision : 16-bit
Duration : 00:03:51.36 = 10202800 samples = 17351.7 CDDA sectors
File Size : 9.35M
Bit Rate : 323k
Sample Encoding: MPEG audio (layer I, II or III)
Comments :
Title=Mortality Rate
Artist=Grave Infestation
Album=Infesticide
Tracknumber=2
Year=2019
Genre=Death Metal

[/more]

Register
(11) ASkyThatBurns, craP_cillA, FUDEDOR, infiltrator, Olethros, Ostinato, Rosen, sacrut, VALERY, wanderer73, wreak,
Jan 5 2020, 14:46:46 Grave Infestation - Infestation Of Rotting Death [demo] (2019)


*Artist: Grave Infestation
*Album: Infestation Of Rotting Death [demo]
*Year: 2019
*Genre: Death Metal
*Country: Canada
*Format: mp3@CBR320kbps
*Size: 34MB

Tracklist:
1. Eternal Oblivion 04:48
2. Human Jigsaw Puzzle 04:58
3. But Life Goes On (Entombed Cover) 03:13
4. Outro 01:18
******************************
Total playing time: 14:17



[more=Technical info]
Input File: 03 - But Life Goes On (Entombed Cover).mp3
Channels : 2
Sample Rate : 44100
Precision : 16-bit
Duration : 00:03:13.32 = 8525412 samples = 14499 CDDA sectors
File Size : 7.84M
Bit Rate : 325k
Sample Encoding: MPEG audio (layer I, II or III)
Comments :
Title=But Life Goes On (Entombed Cover)
Artist=Grave Infestation
Album=Infestation Of Rotting Death
Tracknumber=3
Year=2019
Genre=Death Metal

[/more]

Register
(11) ASkyThatBurns, craP_cillA, FUDEDOR, infiltrator, Olethros, Ostinato, Rosen, sacrut, scorpionmk, wanderer73, wreak,
Jan 5 2020, 00:57:02 Ritual Genocide - Ritual Genocide (2017)


*Artist: Ritual Genocide
*Album: Ritual Genocide
*Year: 2017
*Genre: Black/Death Metal
*Country: United States
*Format: mp3@CBR320kbps
*Size: 63MB

Tracklist:
1. Weaponized Fear 04:01
2. Conflict Retaliation 02:26
3. Deceiver Beheading 04:29
4. Extinction Protocol 02:35
5. Doom Sanction 04:20
6. Barbwire Noose 02:51
7. Kataclysmic Overkill 02:33
8. Ascention Holocaust 04:41
******************************
Total playing time: 27:56



[more=Technical info]
Input File: 02 - Conflict Retaliation.mp3
Channels : 2
Sample Rate : 44100
Precision : 16-bit
Duration : 00:02:26.90 = 6478114 samples = 11017.2 CDDA sectors
File Size : 5.88M
Bit Rate : 320k
Sample Encoding: MPEG audio (layer I, II or III)
Comments :
Title=Conflict Retaliation
Artist=Ritual Genocide
Album=Ritual Genocide
Tracknumber=2
Year=2017
Genre=Black/Death Metal

[/more]

Register
(23) ASkyThatBurns, atavist, biroutios, FlammenTod666, infiltrator, kim666, lestllk, marilin, multizwilling, obituarydark, Olethros, Rosen, RUSP73, sacrut, Shadechaser, SilentNidhogg, varg-38ru, vasiljev_sergej, Wail, wgs73, wolverine, wreak, wtk.412,
Dec 31 2019, 17:02:34 Niflheim - Myrkvid (1997)
CBR 192 kbps
Register
(2) goxther, troll_swamp,
Dec 30 2019, 21:30:25 Freezing Blood - Baal [ep] (2017)


*Artist: Freezing Blood
*Album: Baal [ep]
*Year: 2017
*Genre: Black/Death Metal
*Country: Poland
*Format: mp3@CBR320kbps
*Size: 25MB

Tracklist:
1. Hail To Infernal Power 02:32
2. Prayer 02:34
3. Seven Gates Of Chaos & Destruction 04:19
4. Sheep Slaughterer - Worshiper Of Goat 03:06
******************************
Total playing time: 12:31



[more=Technical info]
Input File: 01 - Hail To Infernal Power.mp3
Channels : 2
Sample Rate : 44100
Precision : 16-bit
Duration : 00:02:32.84 = 6740068 samples = 11462.7 CDDA sectors
File Size : 6.12M
Bit Rate : 320k
Sample Encoding: MPEG audio (layer I, II or III)
Comments :
Title=Hail To Infernal Power
Artist=Freezing Blood
Album=Baal
Tracknumber=1
Year=2017
Genre=Black/Death Metal

[/more]

Register
(10) infiltrator, kim666, morbidangelo, Occultas, Olethros, Rosen, varlam4, vasiljev_sergej, wanderer73, wolverine,
Dec 30 2019, 00:17:31 Nihilsect - Verge Of Collapse [ep] (2019)


*Artist: Nihilsect
*Album: Verge Of Collapse [ep]
*Year: 2019
*Genre: Black Metal/Crust
*Country: Greece
*Format: mp3@CBR320kbps
*Size: 33MB

Tracklist:
1. Ashes Of Hope 03:46
2. Truth Is Foolproof 03:54
3. Verge Of Collapse 06:26
******************************
Total playing time: 14:06



[more=Technical info]
Input File: 01 - Ashes Of Hope.mp3
Channels : 2
Sample Rate : 44100
Precision : 16-bit
Duration : 00:03:46.31 = 9980447 samples = 16973.5 CDDA sectors
File Size : 9.11M
Bit Rate : 322k
Sample Encoding: MPEG audio (layer I, II or III)
Comments :
Title=Ashes Of Hope
Artist=Nihilsect
Album=Verge Of Collapse
Tracknumber=1
Year=2019
Genre=Black Metal

[/more]

Register
(15) ASkyThatBurns, atavist, DOOMORDER, Hell_Is_Here, infiltrator, lestllk, maochen, morbidangelo, Olethros, Rosen, sludge666, VALERY, vasiljev_sergej, volostakoeto, Wail,
Dec 27 2019, 11:51:32 Blasphemy - Desecration Of Belo Horizonte - Live In Brazilian Ritual Fifth Attack [live] (2019)


*Artist: Blasphemy
*Album: Desecration Of Belo Horizonte - Live In Brazilian Ritual Fifth Attack [live]
*Year: 2019
*Genre: Black/Death Metal
*Country: Canada
*Format: mp3@CBR320kbps
*Size: 112MB

Tracklist:
1. Ross Bay Intro - War Command - Blasphemous Attack - Gods Of War 03:45
2. Darkness Prevails 03:45
3. Desecration 02:24
4. Nocturnal Slayer 03:21
5. Emperor Of The Black Abyss 03:04
6. Hording Of Evil Vengeance 02:21
7. Goddess Of Perversity 03:34
8. Weltering In Blood 02:25
9. Blasphemy 03:42
10. Winds Of The Black Godz (Intro) - Fallen Angel Of Doom 05:15
11. The Desolate One 03:21
12. Demoniac - Atomic Nuclear Desolation 04:05
13. Empty Chalice 01:46
14. Ritual 05:05
******************************
Total playing time: 47:53



[more=Technical info]
Input File: 02 - Darkness Prevails.mp3
Channels : 2
Sample Rate : 44100
Precision : 16-bit
Duration : 00:03:45.22 = 9932070 samples = 16891.3 CDDA sectors
File Size : 9.22M
Bit Rate : 328k
Sample Encoding: MPEG audio (layer I, II or III)
Comments :
Title=Darkness Prevails
Artist=Blasphemy
Album=Desecration Of Belo Horizonte - Live In Brazilian Ritual Fifth Attack
Tracknumber=2
Year=2019
Genre=Black/Death Metal

[/more]

Register
(34) Alexis The Best, atom72, babanguida, biroutios, craP_cillA, Daale, detonated, FUDEDOR, heinz88, Hell_Is_Here, infiltrator, Leshiy666, lestllk, lordbathor, marilin, mirotvorets, Mortuusinfernus, multizwilling, Olethros, Rosen, Styx, supremo, thenecromancer, the_cleanser, VALERY, varlam4, vasiljev_sergej, Vidder242, Wail, Wolftribes, wolverine, wtk.412, ZA670, Zaephar,
Dec 25 2019, 15:54:01 Malum - Possessed Years [compilation] (2019)


*Artist: Malum
*Album: Possessed Years [compilation]
*Year: 2019
*Genre: Black Metal
*Country: Finland
*Format: mp3@CBR320kbps
*Size: 147MB

Tracklist:
1. Blessed By The Devil's Blood 09:30
2. Night Of The Luciferian Light 06:14
3. Wrath To Tear Down The Prophecies 06:30
4. I Am The Vessel Of The Unholy Fire 06:52
5. Lucifer Forever 08:17
6. Void 10:13
7. Opening The Gates Of Cursed Dimension 09:14
8. Possessed 02:59
9. Desecrating The False Temples 04:31
******************************
Total playing time: 1:04:20



[more=Extended info]All tracks taken from Malum's songs on the Splits:
Luciferian Dimensions (with Insane Vesper 2017),
Luciferian Nightfall (with Lathspell 2018),
Trinity of Luciferian Illumination (with Sarkrista, Sacrificium Carmen 2018).[/more]

[more=Technical info]
Input File: 08 - Possessed.mp3
Channels : 2
Sample Rate : 44100
Precision : 16-bit
Duration : 00:02:59.21 = 7903293 samples = 13441 CDDA sectors
File Size : 7.24M
Bit Rate : 323k
Sample Encoding: MPEG audio (layer I, II or III)
Comments :
Title=Possessed
Artist=Malum
Album=Possessed Years
Tracknumber=8
Year=2019
Genre=Black Metal

[/more]

Register
(35) 1968_janeart, alikkon, andeimon, andivi, craP_cillA, DarkHorde, fuoco, garmonbozia, gena, Hell_Is_Here, Ildjarn, infiltrator, kim666, Lanceatum, lestllk, marilin, morbidangelo, multizwilling, nsk2008, older68, Olethros, Ostinato, pothead, rimfrost, ripper33, Rosen, SaintVitus, stub888, supremo, VALERY, vasiljev_sergej, Victim of fate, vovenom, Wail, ZambuL,
Dec 22 2019, 20:10:58 Canis Dirus - Das Leben Ist Fur Die Lebenden, Der Tod Ist Fur Alle [ep] (2019)


*Artist: Canis Dirus
*Album: Das Leben Ist Fur Die Lebenden, Der Tod Ist Fur Alle [ep]
*Year: 2019
*Genre: Acoustic/Neofolk/Black Metal
*Country: United States
*Format: mp3@CBR320kbps
*Size: 43MB

Tracklist:
1. Das Leben Ist Fur Die Lebenden, Der Tod Ist Fur Alle 10:26
2. Garden Of Death (Acoustic Version) 08:41
******************************
Total playing time: 19:07



[more=Technical info]
Input File: 01 - Das Leben Ist Fur Die Lebenden, Der Tod Ist Fur Alle.mp3
Channels : 2
Sample Rate : 44100
Precision : 16-bit
Duration : 00:10:26.53 = 27630061 samples = 46989.9 CDDA sectors
File Size : 25.1M
Bit Rate : 321k
Sample Encoding: MPEG audio (layer I, II or III)
Comments :
Title=Das Leben Ist Fur Die Lebenden, Der Tod Ist Fur Alle
Artist=Canis Dirus
Album=Das Leben Ist Fur Die Lebenden, Der Tod Ist Fur Alle
Tracknumber=1
Year=2019
Genre=Acoustic/Neofolk/Black Metal

[/more]

Register
(12) ASkyThatBurns, Cartman223, chipsgott, fuoco, infiltrator, Krosis, lestllk, Olethros, Rosen, senecazm, Stutthof, vasiljev_sergej,
Dec 22 2019, 13:10:09 Blood Storm - Pestilence From The Dragonstar (1999)
CBR 320 kbps
Register
(2) stumpheavyrock, varlam4,
Dec 22 2019, 12:58:18 Malignant Altar - Ceremonial Decapitator [demo] (2019)


*Artist: Malignant Altar
*Album: Ceremonial Decapitator [demo]
*Year: 2019
*Genre: Death Metal
*Country: United States
*Format: mp3@CBR320kbps
*Size: 27MB

Tracklist:
1. Ceremonial Decapitator 06:44
2. Procreation Of The Wicked (Celtic Frost Cover) 05:03
******************************
Total playing time: 11:47



[more=Extended info]Edition of 50 copies.
Rehearsal demo recorded for the first live show.[/more]

[more=Technical info]
Input File: 02 - Procreation Of The Wicked (Celtic Frost Cover).mp3
Channels : 2
Sample Rate : 44100
Precision : 16-bit
Duration : 00:05:03.85 = 13399785 samples = 22788.8 CDDA sectors
File Size : 12.3M
Bit Rate : 324k
Sample Encoding: MPEG audio (layer I, II or III)
Comments :
Title=Procreation Of The Wicked (Celtic Frost Cover)
Artist=Malignant Altar
Album=Ceremonial Decapitator
Tracknumber=2
Year=2019
Genre=Death Metal

[/more]

Register
(10) Ambercandle, ASkyThatBurns, Beazth, Boozer, Hell_Is_Here, infiltrator, METALHUNTER, Olethros, Rosen, wanderer73,
Dec 21 2019, 12:33:12 Bölzer - Lese Majesty [ep] (2019)
FLAC 348MB
Register
(1) Olethros,
Dec 14 2019, 09:43:36 Goatpenis & Defecrator - Bloodpact In Cataclysmic Warfare [split] (2019)


*Artist: Goatpenis & Defecrator
*Album: Bloodpact In Cataclysmic Warfare [split]
*Year: 2019
*Genre: Black/Death Metal | Black/Death Metal
*Country: Brazil | United States
*Format: mp3@CBR320kbps
*Size: 24MB

Tracklist:
Goatpenis:
1. The Pugnacious Force that Devours All Reason 02:47
2. Diagnose Schizophrenia 02:33
Defecrator:
3. Holocaustic Nuclear Rites 02:59
4. Pyrocumulus Baphomet 02:37
******************************
Total playing time: 10:56



[more=Extended info]Nuclear War Now! Productions.
Regular Version: Black vinyl 7″, foldover cover.
Die Hard Version: Gold vinyl 7″, foldover cover, two patches.[/more]

[more=Technical info]
Input File: 02 - Goatpenis - Diagnose Schizophrenia.mp3
Channels : 2
Sample Rate : 44100
Precision : 16-bit
Duration : 00:02:33.06 = 6750078 samples = 11479.7 CDDA sectors
File Size : 6.12M
Bit Rate : 320k
Sample Encoding: MPEG audio (layer I, II or III)
Comments :
Title=Diagnose Schizophrenia
Artist=Goatpenis
Album=Bloodpact In Cataclysmic Warfare
Tracknumber=2
Year=2019
Genre=Black/Death Metal

[/more]

Register
(26) acerbus, AHBAnep, ASkyThatBurns, atom72, Doooomed, eternald, Fryz, FUDEDOR, Hell_Is_Here, INDARKNESS, Lanceatum, LazarShadow, metal73, MP101M, Rosen, satanas, SilentNidhogg, smysl, the_cleanser, varlam4, vasiljev_sergej, VerminGhost, Wail, wanderer73, WarmasterChorus, wtk.412,
Dec 9 2019, 18:21:48 Ritual Chalice - The Scorn Of Knowledge [ep] (2019)


*Artist: Ritual Chalice
*Album: The Scorn Of Knowledge [ep]
*Year: 2019
*Genre: Melodic Black Metal
*Country: United States
*Format: mp3@CBR320kbps
*Size: 34MB

Tracklist:
1. Host Of The Nightmare (A Call Beyond) 04:52
2. Beneath The Ice Of Enceladus 05:22
3. The Dirge Of Dionysus 04:01
******************************
Total playing time: 14:15



[more=Technical info]
Input File: 03 - The Dirge Of Dionysus.mp3
Channels : 2
Sample Rate : 44100
Precision : 16-bit
Duration : 00:04:01.47 = 10648651 samples = 18110 CDDA sectors
File Size : 9.75M
Bit Rate : 323k
Sample Encoding: MPEG audio (layer I, II or III)
Comments :
Title=The Dirge Of Dionysus
Artist=Ritual Chalice
Album=The Scorn Of Knowledge
Tracknumber=3
Year=2019
Genre=Melodic Black Metal

[/more]

Register
(18) ahp, BugEyes, kim666, kimkayoung, krotovich, Mogozoz, morbidangelo, Olethros, rammmirez, Rosen, Sanctus, senecazm, sergsazan, Shadechaser, SilentNidhogg, Styx, VALERY, vasiljev_sergej,
Dec 8 2019, 20:56:41 Haeiresis - Emanations [ep] (2019)


*Artist: Haeiresis
*Album: Emanations [ep]
*Year: 2019
*Genre: Avant-Garde/Progressive/Black Metal
*Country: Lithuania
*Format: mp3@CBR320kbps
*Size: 51MB

Tracklist:
1. Contorted Transcendental Origins 07:06
2. Abrasive Emanations 06:35
3. Putrescinecclesia (Nekrokatarsis) 08:41
******************************
Total playing time: 22:22




[more=Extended info]Released via GHIA organization as a limited edition golden cassette of 50 units.[/more]

[more=Technical info]
Input File: 02 - Abrasive Emanations.mp3
Channels : 2
Sample Rate : 44100
Precision : 16-bit
Duration : 00:06:35.05 = 17421617 samples = 29628.6 CDDA sectors
File Size : 15.8M
Bit Rate : 321k
Sample Encoding: MPEG audio (layer I, II or III)
Comments :
Title=Abrasive Emanations
Artist=Haeiresis
Album=Emanations
Tracknumber=02
Year=2019
Genre=Avant-garde/Progressive/Black Metal

[/more]

Register
(13) 1968_janeart, Hell_Is_Here, kimkayoung, metala, mirotvorets, MMMMM, Olethros, Rosen, Sanctus, satanist666, VALERY, vasiljev_sergej, yuratroll,
Nov 30 2019, 23:21:12 Decayed Mutilation - World Of Carrion (2017)


*Artist: Decayed Mutilation
*Album: World Of Carrion
*Year: 2017
*Genre: Death/Black/Thrash Metal
*Country: United States
*Format: mp3@CBR320kbps
*Size: 70MB

Tracklist:
1. Born Infested 04:20
2. World Of Carrion 03:32
3. Corpses Of The Gallows 03:50
4. Destruction 03:22
5. Serpent Crown 03:07
6. Constrictor Of The Light 03:53
7. God Blood 04:55
8. Enthroned In The Cosmic Wastelands 04:55
******************************
Total playing time: 31:54



[more=Technical info]
Input File: 05 - Serpent Crown.mp3
Channels : 2
Sample Rate : 44100
Precision : 16-bit
Duration : 00:03:07.08 = 8250052 samples = 14030.7 CDDA sectors
File Size : 7.48M
Bit Rate : 320k
Sample Encoding: MPEG audio (layer I, II or III)
Comments :
Title=Serpent Crown
Artist=Decayed Mutilation
Album=World Of Carrion
Tracknumber=5
Year=2017
Genre=Death/Black/Thrash Metal

[/more]

Register
(12) 666kolobok666, atavist, boby9052, jollo, metala, multizwilling, Olethros, Ostinato, Rosen, satanist666, wgs73, wreak,

26 Pages V   1 2 3 > » 
- Lo-Fi Version Support form
Copyrights and abuse reports form
Time is now: 18th January 2020 - 23:57:29