Welcome Guest ( Log In | Register )

История благодарностей участнику Panacea ::: Спасибо сказали: 5803 раз(а)
Дата поста: В теме: За сообщение: Спасибо сказали:
May 29 2019, 22:04:21 Dracul - Order Of The Dragon (1999)


*Artist: Dracul
*Album: Order Of The Dragon
*Year: 1999
*Genre: Ritual/Neo-Classical/Dark Ambient
*Country: United States
*Format: mp3@CBR192kbps
*Size: 96MB

Tracklist:
1. Pondering Of Darkness 07:08
2. Blood Stained Chalice 07:24
3. Rise Of Tiamat 04:43
4. Call From Beyond The Dismal Trench 06:58
5. Astral Predator 07:03
6. Sacrifice Of The Lamb 03:54
7. Pondering Of Darkness (Instrumental Version) 07:08
8. Blood Stained Chalice (Instrumental Version) 07:24
9. Rise Of Tiamat (Instrumental Version) 04:43
10. Call From Beyond The Dismal Trench (Instrumental Version) 06:58
11. Astral Predator (Instrumental Version) 07:03
******************************
Total playing time: 1:10:26

[more=Extended info]Dracul (aka Dracul Order Of The Dragon) was a ritual/dark ambient/neoclassical project from the United States.
The project included as members Faunus Amadeus Loki (Mastema, Endoki Forest etc.), Mephistopheles and Deacon Damien.
In 1999 they released their only album entitled "Order Of The Dragon" (aka "Rites Of The Apocalypse") on a limited CDR,
featuring ritual incantations spoken by Mephistopheles and instrumentation's performed by Faunus Amadeus Loki.
Dracul also performed live in 1997 in New York City.[/more]

[more=Technical info]
Input File: 06 - Sacrifice Of The Lamb.mp3
Channels : 2
Sample Rate : 44100
Precision : 16-bit
Duration : 00:03:54.77 = 10353533 samples = 17608 CDDA sectors
File Size : 5.71M
Bit Rate : 195k
Sample Encoding: MPEG audio (layer I, II or III)
Comments :
Title=Sacrifice Of The Lamb
Artist=Dracul
Album=Order Of The Dragon
Tracknumber=6
Year=1999
Genre=Ritual/Classical/Dark Ambient

[/more]

Register
(7) HviteGuden, Olethros, Svafrlami, Vandclash, wendigo, Wolftribes, wtk.412,
May 27 2019, 23:08:12 Ayyur - The Lunatic Creature [ep] (2018)


*Artist: Ayyur
*Album: The Lunatic Creature [ep]
*Year: 2018
*Genre: Black Metal
*Country: Tunisia
*Format: mp3@CBR320kbps
*Size: 49MB

Tracklist:
1. Lugubrious Fields 05:55
2. The Outcast 05:12
3. The Lunatic Creature 06:06
4. He, Who Dwells In The Trenches 04:05
******************************
Total playing time: 21:18



[more=Technical info]
Input File: 04 - He, Who Dwells In The Trenches.mp3
Channels : 2
Sample Rate : 44100
Precision : 16-bit
Duration : 00:04:05.33 = 10819141 samples = 18399.9 CDDA sectors
File Size : 9.91M
Bit Rate : 323k
Sample Encoding: MPEG audio (layer I, II or III)
Comments :
Title=He, Who Dwells In The Trenches
Artist=Ayyur
Album=The Lunatic Creature
Tracknumber=4
Year=2018
Genre=Black Metal

[/more]

Register
(14) 1968_janeart, acerbus, Hell_Is_Here, kim666, lestllk, Olethros, Orgasmik, Ostinato, Precaria, Rosen, SilentNidhogg, VALERY, vasiljev_sergej, wreak,
May 26 2019, 11:47:10 Death Worship - End Times [ep] (2019)


*Artist: Death Worship
*Album: End Times [ep]
*Year: 2019
*Genre: Black/Death Metal
*Country: Canada
*Format: mp3@CBR320kbps
*Size: 31MB

Tracklist:
1. Stand Witness To Atrocity 02:26
2. The Poisoned Chalice 04:35
3. Slaughtersiege 04:08
4. Masters And Monolith 02:50
******************************
Total playing time: 13:59



[more=Technical info]
Input File: 04 - Masters And Monolith.mp3
Channels : 2
Sample Rate : 44100
Precision : 16-bit
Duration : 00:02:50.94 = 7538630 samples = 12820.8 CDDA sectors
File Size : 6.85M
Bit Rate : 321k
Sample Encoding: MPEG audio (layer I, II or III)
Comments :
Title=Masters And Monolith
Artist=Death Worship
Album=End Times
Tracknumber=4/4
Year=2019-01-01
Genre=Black/Death Metal
Discnumber=1/1

[/more]

Register
(31) acerbus, Ambercandle, babanguida, biroutios, Boozer, desekrator, Doooomed, FUDEDOR, garmonbozia, Hell_Is_Here, lestllk, lordbathor, LVXXVL, marilin, metal73, Olethros, Ostinato, rebornflms95, Rosen, RUSP73, sacrut, SadistikSlayer, Shadechaser, SilentNidhogg, soulskinner681, VALERY, vasiljev_sergej, Vidder242, wolverine, wreak, wtk.412,
May 11 2019, 21:48:28 God's Bastard - Last Standing Village [ep] (2019)


*Artist: God's Bastard
*Album: Last Standing Village [ep]
*Year: 2019
*Genre: Black Metal/Crust
*Country: United States
*Format: mp3@CBR320kbps
*Size: 46MB

Tracklist:
1. Chaos Apologist 03:53
2. God Raise The Sea 08:08
3. To The Last Standing Village 07:59
******************************
Total playing time: 20:00



[more=Technical info]
Input File: 01 - Chaos Apologist.mp3
Channels : 2
Sample Rate : 44100
Precision : 16-bit
Duration : 00:03:53.55 = 10299555 samples = 17516.2 CDDA sectors
File Size : 9.45M
Bit Rate : 324k
Sample Encoding: MPEG audio (layer I, II or III)
Comments :
Title=Chaos Apologist
Artist=God's Bastard
Album=Last Standing Village
Tracknumber=1
Year=2019
Genre=Black Metal/Crust

[/more]

Register
(9) 1968_janeart, dermarsoran, metala, Olethros, Ostinato, Rosen, VALERY, vasiljev_sergej, wreak,
May 11 2019, 21:28:13 Dratna - An Cath (The Battle) [ep] (2019)


*Artist: Dratna
*Album: An Cath (The Battle) [ep]
*Year: 2019
*Genre: Black Metal
*Country: Ireland
*Format: mp3@CBR320kbps
*Size: 66MB

Tracklist:
1. Shadow Of The Mountain 08:56
2. An Cath (The Battle) 06:42
3. He Is Born Of Fire 08:00
4. Seasons Of The Eel 04:28
******************************
Total playing time: 28:06



[more=Technical info]
Input File: 04 - Seasons Of The Eel.mp3
Channels : 2
Sample Rate : 44100
Precision : 16-bit
Duration : 00:04:28.27 = 11830663 samples = 20120.2 CDDA sectors
File Size : 10.8M
Bit Rate : 322k
Sample Encoding: MPEG audio (layer I, II or III)
Comments :
Title=Seasons Of The Eel
Artist=Dratna
Album=An Cath (The Battle)
Tracknumber=4
Year=2019
Genre=Black Metal

[/more]

Register
(13) 1968_janeart, kim666, Ludwig Hagen, marilin, Olethros, Ostinato, Rosen, SilentNidhogg, stub888, suseka, VALERY, vasiljev_sergej, wreak,
May 11 2019, 20:41:27 Pa Vesh En - Cryptic Rites Of Necromancy [ep] (2019)


*Artist: Pa Vesh En
*Album: Cryptic Rites Of Necromancy [ep]
*Year: 2019
*Genre: Raw Black Metal
*Country: Belarus
*Format: mp3@CBR320kbps
*Size: 29MB

Tracklist:
1. Chants For The Deceased 00:58
2. The Witness Of Ceremonial Witchery 03:17
3. Raised From The Grave 02:29
4. Entwined With Snakes 06:14
******************************
Total playing time: 12:58



[more=Extended info]- 300gsm cardboard Jacket with Greyscale print.
- 42g Black 7'' Vinyl.
- Limited to 200 copies.

Iron Bonehead Productions.[/more]

[more=Technical info]
Input File: 04 - Entwined With Snakes.mp3
Channels : 2
Sample Rate : 44100
Precision : 16-bit
Duration : 00:06:14.67 = 16523035 samples = 28100.4 CDDA sectors
File Size : 15.1M
Bit Rate : 323k
Sample Encoding: MPEG audio (layer I, II or III)
Comments :
Title=Entwined With Snakes
Artist=Pa Vesh En
Album=Cryptic Rites Of Necromancy
Tracknumber=4
Year=2019
Genre=Raw Black Metal

[/more]

Register
(25) 1968_janeart, artscald, bka, Boozer, Daale, dermarsoran, Evilded, gena, Hell_Is_Here, Ildjarn, kim666, lestllk, mirotvorets, nemx, Olethros, peppuzzo, plagueofflies, Rosen, sethurius, SilentNidhogg, smysl, Tyrone, VALERY, vasiljev_sergej, wreak,
May 11 2019, 20:10:02 Devoid Of Thought - Cosmic Apoptosis [demo] (2019)


*Artist: Devoid Of Thought
*Album: Cosmic Apoptosis [demo]
*Year: 2019
*Genre: Experimental/Death Metal
*Country: Italy
*Format: mp3@CBR320kbps
*Size: 41MB

Tracklist:
1. Necronaut 05:40
2. Tomb Marauders Horde 04:56
3. Stargrave 07:35
******************************
Total playing time: 18:11



[more=Extended info]Limited to 200 copies. Pro Tapes / Pro Covers.
Caligari Records.[/more]

[more=Technical info]
Input File: 02 - Tomb Marauders Horde.mp3
Channels : 2
Sample Rate : 44100
Precision : 16-bit
Duration : 00:04:56.09 = 13057613 samples = 22206.8 CDDA sectors
File Size : 11.9M
Bit Rate : 322k
Sample Encoding: MPEG audio (layer I, II or III)
Comments :
Title=Tomb Marauders Horde
Artist=Devoid Of Thought
Album=Cosmic Apoptosis
Tracknumber=2
Year=2019
Genre=Death Metal

[/more]

Register
(7) Evilded, metala, Olethros, Ostinato, Rosen, VALERY, wreak,
Apr 27 2019, 21:33:52 Furnace - Cremated Souls [ep] (1992)


*Artist: Furnace
*Album: Cremated Souls [ep]
*Year: 1992
*Genre: Industrial/Grindcore/Death Metal
*Country: United States
*Format: mp3@VBR189kbps
*Size: 16MB

Tracklist:
1. Cremated Souls 04:57
2. Nerve 03:42
3. Vagus 02:35
******************************
Total playing time: 11:14

[more=Extended info]Furnace, the brain child of DJ Resin aka Brian Artwick (member of Absu, Equimanthorn, Equitant),
was created in early 1992 when he recruited Incarnus (aka Shaftiel of Dolmen, Absu, Equitant etc.) for vocals.
Shortly after Toxin, Radium, and Ortho joined on guitars.
Furnace immediately created their first self-titled demo which was released on Chamber Noise Recordings.
It was at that time that DJ Resin coined the term "Cybergrind" to describe their new mix of computer generated grindcore. After hearing the debut Furnace release, Gothic Records re-released it as a 7" vinyl EP entitled "Cremated Souls."
In early 1993 Furnace went through a complete facelift as DJ Resin replaced all other members of the group.
At this point Synthetic joined on vocals and shortly after #6 also joined on guitar.
It was at this time that Furnace abandoned the grindcore elements in their music
and switched to a noise/industrial format and incorporated mass visuals in their live shows.[/more]

[more=Technical info]
Input File: 2 - Nerve.mp3
Channels : 2
Sample Rate : 44100
Precision : 16-bit
Duration : 00:03:42.01 = 9790817 samples = 16651 CDDA sectors
File Size : 5.18M
Bit Rate : 186k
Sample Encoding: MPEG audio (layer I, II or III)
Comments :
Title=Nerve
Artist=Furnace
Album=Cremated Souls
Tracknumber=2/3
Year=1992-00-00
Genre=Industrial/Grindcore/Death Metal
Discnumber=1/1

[/more]

Register
(8) Evilded, gwar, pichileon, Rosen, Sickrites, warrr, Герб, Селезнёв,
Apr 7 2019, 09:13:09 Offenbarung - Jaguar Levitation [demo] (2019)


*Artist: Offenbarung
*Album: Jaguar Levitation [demo]
*Year: 2019
*Genre: Atmospheric Black Metal/Ambient
*Country: Argentina
*Format: mp3@CBR320kbps
*Size: 51MB

Tracklist:
1. Jaguar Levitation (I Towards Cosmic Enslavement , II Oniric Tension , III Face Of The Forgotten Sun) 22:37
******************************
Total playing time: 22:37



[more=Technical info]
Input File: 01 - Jaguar Levitation (I Towards Cosmic Enslavement , II Oniric Tension , III Face Of The Forgotten Sun).mp3
Channels : 2
Sample Rate : 44100
Precision : 16-bit
Duration : 00:22:37.71 = 59875187 samples = 101829 CDDA sectors
File Size : 54.3M
Bit Rate : 320k
Sample Encoding: MPEG audio (layer I, II or III)
Comments :
Title=Jaguar Levitation (I Towards Cosmic Enslavement , II Oniric Tension , III Face Of The Forgotten Sun)
Artist=Offenbarung
Album=Demo II (Jaguar Levitation)
Tracknumber=1
Year=2019
Genre=Atmospheric Black Metal/Ambient

[/more]

Register
(12) 1968_janeart, artscald, blacky66, Doooomed, kim666, lestllk, LVXXVL, Olethros, Rosen, Tarkron, udt4050, vasiljev_sergej,
Apr 7 2019, 09:03:24 Huszar - Los Nuevos Absolutos De Todos Los Días Quemados (2016)


*Artist: Huszar
*Album: Los Nuevos Absolutos De Todos Los Días Quemados
*Year: 2016
*Genre: Atmospheric Black Metal/Blackgaze
*Country: Argentina
*Format: mp3@CBR320kbps
*Size: 100MB

Tracklist:
1. Ceres , La Angustia & Yo 17:26
2. Plutón Va A Tener Su Venganza En El Estero de Agosto Parte 1 : Stygeros 21:01
3. Leave Me Alone (New Order Cover , Bonus Track) 05:06
******************************
Total playing time: 43:33



[more=Technical info]
Input File: 03 - Leave Me Alone (New Order Cover , Bonus Track).mp3
Channels : 2
Sample Rate : 44100
Precision : 16-bit
Duration : 00:05:07.01 = 13539185 samples = 23025.8 CDDA sectors
File Size : 12.4M
Bit Rate : 322k
Sample Encoding: MPEG audio (layer I, II or III)
Comments :
Title=Leave Me Alone (New Order Cover , Bonus Track)
Artist=Huszar
Album=Los Nuevos Absolutos De Todos Los Días Quemados
Tracknumber=3
Year=2016
Genre=Atmospheric Black Metal/Blackgaze

[/more]

Register
(10) 0x13, 1968_janeart, blacky66, Doooomed, kim666, lestllk, Olethros, Rosen, SilentNidhogg, vasiljev_sergej,
Apr 7 2019, 08:12:06 Anarhichas - Decay [ep] (2018)


*Artist: Anarhichas
*Album: Decay [ep]
*Year: 2018
*Genre: Black Metal
*Country: Norway
*Format: mp3@CBR320kbps
*Size: 46MB

Tracklist:
1. Bleak 06:00
2. Decay 05:19
3. Horn Of Iron 05:19
4. Wolfsrudel 03:31
******************************
Total playing time: 20:09



[more=Extended info]Limited edition Cassette available at Corpse Torture Records.[/more]

[more=Technical info]
Input File: 04 - Wolfsrudel.mp3
Channels : 2
Sample Rate : 44100
Precision : 16-bit
Duration : 00:03:31.58 = 9330678 samples = 15868.5 CDDA sectors
File Size : 8.52M
Bit Rate : 322k
Sample Encoding: MPEG audio (layer I, II or III)
Comments :
Title=Wolfsrudel
Artist=Anarhichas
Album=Decay
Tracknumber=4
Year=2018
Genre=Black Metal

[/more]

Register
(12) 1968_janeart, cancer1974, kim666, kryptor, Olethros, Ostinato, Rosen, SilentNidhogg, Sjelekval, stub888, VALERY, vasiljev_sergej,
Mar 28 2019, 13:30:28 Sabaism - The Unborn Dawn [demo] (1996)
CBR 320 kbps (MCD Version)
Register
(1) thenecromancer,
Mar 14 2019, 20:05:42 Deicide - Deny The Cross [bootleg] (1992)
CBR 320 kbps
Register
(1) FUDEDOR,
Mar 13 2019, 14:17:07 Förgjord - Mors Fennico More Eli Kuolema Suomalaiseen Tapaan [compilation] (2018)
[youtube]DS26QKRu6Eo[/youtube]
(2) Fess, RENыч,
Mar 12 2019, 18:55:31 Förgjord - Mors Fennico More Eli Kuolema Suomalaiseen Tapaan [compilation] (2018)


*Artist: Förgjord
*Album: Mors Fennico More Eli Kuolema Suomalaiseen Tapaan [compilation]
*Year: 2018
*Genre: Black Metal
*Country: Finland
*Format: mp3@VBR301kbps
*Size: 58MB

Tracklist:
1. Stigmat 04:37
2. Halloween Theme 01:34
3. Kaksitoista Puukoniskua 05:11
4. Epätoivon Virta 07:27
5. Itseensä Kahlittu 08:21
******************************
Total playing time: 27:10

[more=Extended info]A compilation of 5 re-recorded tracks from unreleased demo "Mors Fennico More" (tracks 1-4) and full-length "Ajasta Ikuisuuteen" (track 5).[/more]

[more=Technical info]
Input File: 01 - Stigmat.mp3
Channels : 2
Sample Rate : 48000
Precision : 16-bit
Duration : 00:04:36.60 = 13276800 samples ~ 20745 CDDA sectors
File Size : 10.7M
Bit Rate : 309k
Sample Encoding: MPEG audio (layer I, II or III)
Comments :
Title=Stigmat
Artist=Forgjord
Album=Mors Fennico More Eli Kuolema Suomalaiseen Tapaan
Tracknumber=01
Year=2018
Genre=138

[/more]

Register
(26) 1968_janeart, andivi, artscald, elsunga, Fryz, garmonbozia, gena, Ildjarn, Infidel, kim666, lestllk, nsk2008, Olethros, Ostinato, Premature_Devotion, Razorbladeswaltz, ripper33, Rosen, RUSP73, SilentNidhogg, stub888, Tino, VALERY, vasiljev_sergej, wreak, Абигор,
Mar 12 2019, 00:06:11 Lamentation - Grabens Symphonie (The Years Of 1994​-​1996) [compilation] (2018)


*Artist: Lamentation
*Album: Grabens Symphonie (The Years Of 1994​-​1996) [compilation]
*Year: 2018
*Genre: Dungeon Synth/Dark Ambient
*Country: Greece
*Format: mp3@CBR320kbps
*Size: 226MB

Tracklist:
1. Intro (Eine Symphonie Der Nacht, 1994) 00:27
2. The Strange High House In The Mist (Eine Symphonie Der Nacht, 1994) 03:33
3. Eine Symphonie Der Nacht (Eine Symphonie Der Nacht, 1994) 07:13
4. Voices From The Other Side (Eine Symphonie Der Nacht, 1994) 04:42
5. Dark Lord In Infinity (Eine Symphonie Der Nacht, 1994) 03:57
6. Outro (Eine Symphonie Der Nacht, 1994) 01:07
7. Fullmoon Over Faerhaaven (Fullmoon Over Faerhaaven, 1995) 05:07
8. Visions Of A Dark Dominion (Fullmoon Over Faerhaaven, 1995) 07:44
9. Transilvania (Land Beyond Eternal Black Forests) (Fullmoon Over Faerhaaven, 1995) 08:31
10. Winds Sweep Zachtonia (Fullmoon Over Faerhaaven, 1995) 07:34
11. Dungeons Of The Carpathian Tower (Fullmoon Over Faerhaaven, 1995) 08:43
12. Mist Hides My Land (Fullmoon Over Faerhaaven, 1995) 08:19
13. As Twilight Marks My Path (As ShadowKingdom Comes To My Sight, 1996) 05:12
14. Night Fell Upon The Woods (As ShadowKingdom Comes To My Sight, 1996) 06:17
15. Hear The Distant Roar Of The Upcoming Storm (As ShadowKingdom Comes To My Sight, 1996) 04:58
16. Upon The Hills (As ShadowKingdom Comes To My Sight, 1996) 05:55
17. Facing The Ugliness Of The Strigoi (As ShadowKingdom Comes To My Sight, 1996) 04:40
18. Silence Evades On The Carpathian Mountains (As ShadowKingdom Comes To My Sight, 1996) 04:34
******************************
Total playing time: 1:38:33



[more=Extended info]t's time to leave the present behind, forget the significance of time and go back into the glorious past that lay in the fog... Back in the early 90's through the ruins, mist and old myths of ancient glorious Hellas, there were two unknown shadows known as "Count Wrathven" and "Prince Locathah", who hold the flame of wisdom from the dark. From the knowledge of darkness their creations took place under the banner of LAMENTATION, which channeled their spell through a chalice that was a musical ritual of dark ambient and dungeon synth. Between 1994 and 1996 LAMENTATION created three rituals that were available on cassette back in those days: "Eine Symphonie Der Nacht" (1994), "Fullmoon Over Faerhaaven" (1995) and "As ShadowKingdom Comes To My Sight" (1996). Those three releases became very known for people who were into the dark realms of dungeon synth, especially in the underground. Now, more than 20 years later, we are proud to present you a evenly matched and more fully dedicated release:

The deluxe-box which include all three releases on noble black cassette with silver print:

* "Eine Symphonie Der Nacht" (1994)

* "Fullmoon Over Faerhaaven" (1995)

* "As ShadowKingdom Comes To My Sight" (1996)

* Logo Metal-Pin (Zinc alloy with silver plating)

* Poster (A2 format)

* Logo sticker

* A huge booklet in DIN-LANG format, including old photos and interviews

Limited to 150 handnumbered boxes.[/more]

[more=Technical info]
Input File: 02 - The Strange High House In The Mist (Eine Symphonie Der Nacht, 1994).mp3
Channels : 2
Sample Rate : 44100
Precision : 16-bit
Duration : 00:03:33.72 = 9425140 samples = 16029.1 CDDA sectors
File Size : 8.60M
Bit Rate : 322k
Sample Encoding: MPEG audio (layer I, II or III)
Comments :
Title=The Strange High House In The Mist (Eine Symphonie Der Nacht, 1994)
Artist=Lamentation
Album=Grabens Symphonie (The Years Of 1994-1996)
Tracknumber=2
Year=2018

[/more]

Register
(11) Angry_Chair, Boozer, Borderline1991, FUDEDOR, KKK1488, Olethros, rammmirez, recber, thenecromancer, vosmidesijatye, Герб,
Mar 10 2019, 16:12:08 Abraded - Descendants Of The Swamp [demo] (2018)


*Artist: Abraded
*Album: Descendants Of The Swamp [demo]
*Year: 2018
*Genre: Death Metal/Grindcore
*Country: United States
*Format: mp3@CBR320kbps
*Size: 34MB

Tracklist:
1. Veracity Of Disease 02:34
2. Entranced In Halucinosis 02:14
3. An Act Of Cruelty 02:32
4. The Bogwitch 02:20
5. Hacked Up (And Fed To Slime) 01:51
6. Wormheaven 02:32
******************************
Total playing time: 14:03



[more=Technical info]
Input File: 01 - Veracity Of Disease.mp3
Channels : 2
Sample Rate : 44100
Precision : 16-bit
Duration : 00:02:34.84 = 6828400 samples = 11612.9 CDDA sectors
File Size : 6.36M
Bit Rate : 329k
Sample Encoding: MPEG audio (layer I, II or III)
Comments :
Title=Veracity Of Disease
Artist=Abraded
Album=Descendants Of The Swamp
Tracknumber=1
Year=2018
Genre=Death Metal/Grindcore

[/more]

Register
(8) artscald, Hell_Is_Here, METALHUNTER, Olethros, Rosen, varlam4, wreak, Герб,
Mar 10 2019, 12:37:28 Scourge Lair - One Hundred Eyes One Hundred Arms [demo] (2019)


*Artist: Scourge Lair
*Album: One Hundred Eyes One Hundred Arms [demo]
*Year: 2019
*Genre: Black/Death Metal
*Country: Finland
*Format: mp3@CBR320kbps
*Size: 57MB

Tracklist:
1. Red Maw 06:12
2. Poisonous One 03:09
3. Burning Veins 03:12
4. Cthonic Spirit 08:50
5. Transgression 02:43
******************************
Total playing time: 24:06



[more=Technical info]
Input File: 03 - Burning Veins.mp3
Channels : 2
Sample Rate : 44100
Precision : 16-bit
Duration : 00:03:12.59 = 8493131 samples = 14444.1 CDDA sectors
File Size : 7.87M
Bit Rate : 327k
Sample Encoding: MPEG audio (layer I, II or III)
Comments :
Title=Burning Veins
Artist=Scourge Lair
Album=One Hundred Eyes One Hundred Arms
Tracknumber=3
Year=2019
Genre=Black/Death Metal

[/more]

Register
(9) artscald, Hell_Is_Here, marilin, Olethros, Rosen, SilentNidhogg, VALERY, vasiljev_sergej, wreak,
Mar 10 2019, 12:14:32 Various Artists - Monomaniac Vol​.​4 [compilation] (2014)


*Artist: Various Artists
*Album: Monomaniac Vol​.​4 [compilation]
*Year: 2014
*Genre: Experimental/Rock/Noise/Grindcore/Thrash/Black/Death Metal
*Country: Many
*Format: mp3@CBR320kbps
*Size: 109MB

Tracklist:
1. Deathcult - Summoned 01:35
2. Bölzer - The Eternal Monarch 01:28
3. Archagathus - Expensive Solution 01:22
4. Holy Measure - None Immune 00:41
5. Holy Measure - Old Dawn 00:34
6. Swollen Organs - Natural Causes 00:59
7. Abyssus - Phobos 01:12
8. Trepanation - Strike With Chaos (Monomaniac version) 01:20
9. Vacantfield - The Yarn 01:22
10. Σπλαχνα - Άγνωστη Τροχιά 01:00
11. Ναφθαlyn - Education 01:03
12. Vuyvr - Elevation 00:58
13. Column Of Heaven - Reunion With The Divine 00:56
14. Head Hits Concrete - Colony Collapse (demo) 01:26
15. Impure Worship - Herald Of Famine And Pestilence 01:14
16. Lobotomized - Streams Of Aquavit 01:05
17. Faithreat - Supremacy Of Stupidity 01:26
18. Nunripper - Funeral Pestilence 01:07
19. The You And What Army Faction - Legs 01:00
20. Awe - This Nature Is Not Of Yours 01:42
21. Spectral Lore - The Cosmic Suicide 01:30
******************************
Total playing time: 25:00



[more=Extended info]Blastbeat Mailmurder presents Monomaniac vol.4
=============================================
Monomaniac Vol.4 is the most vicious and eerie installment of the series.

The concept of short, one minute songs, continues to be implemented by radical black/death/grind units but is also embraced by more experimental acts, providing a unique capture of the international underground’s vibes.

It is pressed on black, 12” vinyl playing at 45 RPM, packaged in 300 gsm jackets with black print inside and 3mm spine, and will ship in PVC overbags.Edition of 500.[/more]

[more=Technical info]
Input File: 02 - Bolzer - The Eternal Monarch.mp3
Channels : 2
Sample Rate : 44100
Precision : 16-bit
Duration : 00:01:28.07 = 3883711 samples = 6604.95 CDDA sectors
File Size : 3.69M
Bit Rate : 335k
Sample Encoding: MPEG audio (layer I, II or III)
Comments :
Title=The Eternal Monarch
Artist=Bolzer
Album=Monomaniac Vol.4
Tracknumber=2
Year=2014
Genre=Experimental/Rock/Noise/Grindcore/Thrash/Black/Death Metal

[/more]

Register
(6) artscald, Hell_Is_Here, marilin, Rosen, ZA670, Герб,
Mar 6 2019, 22:01:44 Damnation Lust - Black Book Of Necromancer [demo] (2019)


*Artist: Damnation Lust
*Album: Black Book Of Necromancer [demo]
*Year: 2019
*Genre: Black/Death Metal
*Country: United States
*Format: mp3@CBR320kbps
*Size: 26MB

Tracklist:
1. Sathanas Decree (Introduction) 01:24
2. Devastator 04:21
3. Malefic Bliss 03:11
4. Black Book Of Necromancer 03:26
******************************
Total playing time: 12:22



[more=Extended info]Hand-dubbed cassettes available from NVNM.[/more]

[more=Technical info]
Input File: 03 - Malefic Bliss.mp3
Channels : 2
Sample Rate : 44100
Precision : 16-bit
Duration : 00:03:11.33 = 8437829 samples = 14350 CDDA sectors
File Size : 7.74M
Bit Rate : 324k
Sample Encoding: MPEG audio (layer I, II or III)
Comments :
Title=Malefic Bliss
Artist=Damnation Lust
Album=Black Book Of Necromancer
Tracknumber=3
Year=2019
Genre=Black/Death Metal

[/more]

Register
(15) artscald, Daale, dad, Doooomed, FUDEDOR, Hell_Is_Here, marilin, Olethros, Ostinato, Rosen, sacrut, SilentNidhogg, vasiljev_sergej, Velmi, wreak,
Mar 3 2019, 22:38:47 Gwoid - V: Oiwei Fuat In D'nacht [demo] (2019)


*Artist: Gwoid
*Album: V: Oiwei Fuat In D'nacht [demo]
*Year: 2019
*Genre: Raw Black Metal/Noise/Ambient
*Country: Germany
*Format: mp3@CBR320kbps
*Size: 57MB

Tracklist:
1. XVII - Oiwei Fuat In d'Nacht/A Nachtwanderung 18:08
2. XVIII - Da Woid Und s'Bluat 07:18
******************************
Total playing time: 25:26



[more=Technical info]
Input File: 02 - XVIII - Da Woid Und s\'Bluat.mp3
Channels : 2
Sample Rate : 44100
Precision : 16-bit
Duration : 00:07:18.94 = 19357078 samples = 32920.2 CDDA sectors
File Size : 17.7M
Bit Rate : 322k
Sample Encoding: MPEG audio (layer I, II or III)
Comments :
Title=XVIII - Da Woid Und s'Bluat
Artist=Gwoid
Album=V - Oiwei Fuat In d'Nacht
Tracknumber=2
Year=2019
Genre=Raw Black Metal/Noise/Ambient

[/more]

Register
(13) 1968_janeart, artscald, craP_cillA, Hell_Is_Here, kim666, Krosis, Olethros, Rosen, SilentNidhogg, stub888, Tyrone, varlam4, vasiljev_sergej,
Mar 3 2019, 15:31:19 Abyssal Vacuum - MMXVIII [ep] (2019)
QUOTE(yuratroll @ Mar 3 2019, 16:03:36) *
Может кто отзеркалить?

Mediafire link added.
(1) yuratroll,
Mar 3 2019, 13:08:24 Abyssal Vacuum - MMXVIII [ep] (2019)


*Artist: Abyssal Vacuum
*Album: MMXVIII [ep]
*Year: 2019
*Genre: Black/Death Metal
*Country: France
*Format: mp3@CBR320kbps
*Size: 61MB

Tracklist:
1. IV 05:49
2. V 07:09
3. VI 07:39
4. Untitled (Rhinocervs Cover) 02:23
******************************
Total playing time: 23:00



[more=Extended info]Wooden Box "Oopart / Out of Place Artifact" Handmade

Strictly limited to 25copies, designed wooden box wich contains:
- The remastered first chapter - "MMXVII"
- The second chapter - "MMXVIII"
- Three raw cardboard postal cards with cave designs ("La Grotte de la Salamandre", Occitania, FRANCE. By Carl Neomalthusian.
- Raw ammonites "Ammonoidea" fossil
- Incense

This wooden box was manufactured by a local craftsman, completely handmade by "Ebénisterie Balarucoise" (presence on Facebook under this name).[/more]

[more=Technical info]
Input File: 03 - VI.mp3
Channels : 2
Sample Rate : 44100
Precision : 16-bit
Duration : 00:07:40.07 = 20289131 samples = 34505.3 CDDA sectors
File Size : 18.6M
Bit Rate : 324k
Sample Encoding: MPEG audio (layer I, II or III)
Comments :
Title=VI
Artist=Abyssal Vacuum
Album=MMXVIII
Tracknumber=3
Year=2019
Genre=Black/Death Metal

[/more]

Register
(19) artscald, Doooomed, Evilded, Hell_Is_Here, kim666, Lord_Eurynome, MMMMM, Olethros, Ostinato, Pinhead666, robertho777, Rosen, SilentNidhogg, Tyrone, VALERY, varlam4, vasiljev_sergej, wreak, yuratroll,
Feb 28 2019, 20:32:52 Babylon Whores - Deggael [ep] (1998)


*Artist: Babylon Whores
*Album: Deggael [ep]
*Year: 1998
*Genre: Gothic/Death Rock/Heavy Metal
*Country: Finland
*Format: mp3@CBR320kbps
*Size: 42MB

Tracklist:
1. Dog Star A 0:33
2. Sol Niger 03:56
3. Somniferum 04:05
4. Omega Therion 03:56
5. Emerald Green 03:42
6. Deggael: A Rat's God 04:44
******************************
Total playing time: 20:56

[more=Technical info]
Input File: 03 - Somniferum.mp3
Channels : 2
Sample Rate : 44100
Precision : 16-bit
Duration : 00:04:05.58 = 10830078 samples = 18418.5 CDDA sectors
File Size : 9.86M
Bit Rate : 321k
Sample Encoding: MPEG audio (layer I, II or III)
Comments :
Title=Somniferum
Artist=Babylon Whores
Album=Deggael
Tracknumber=3
Year=1998
Genre=Death Rock/Heavy Metal

[/more]

Register
(11) artscald, Cartman223, marilin, Olethros, Ostinato, pichileon, robertho777, Rosen, satanist666, varlam4, wreak,
Feb 28 2019, 20:31:04 Babylon Whores - Trismegistos [ep] (1996)


*Artist: Babylon Whores
*Album: Trismegistos [ep]
*Year: 1996
*Genre: Death Rock/Heavy Metal
*Country: Finland
*Format: mp3@CBR320kbps
*Size: 41MB

Tracklist:
1. Love Under Will 03:38
2. Hellboy 03:27
3. Speed Doll 04:23
4. Beyond The Sun 03:44
5. Trismegistos 03:04
******************************
Total playing time: 18:16

[more=Technical info]
Input File: 01 - Love Under Will.mp3
Channels : 2
Sample Rate : 44100
Precision : 16-bit
Duration : 00:03:38.74 = 9646346 samples = 16405.4 CDDA sectors
File Size : 8.76M
Bit Rate : 320k
Sample Encoding: MPEG audio (layer I, II or III)
Comments :
Title=Love Under Will
Artist=Babylon Whores
Album=Trismegistos
Tracknumber=1/5
Year=1996
Genre=Death Rock/Heavy Metal

[/more]

Register
(10) artscald, marilin, Olethros, Ostinato, pichileon, robertho777, Rosen, satanist666, varlam4, wreak,

24 Pages V  < 1 2 3 4 > » 
- Lo-Fi Version Support form
Copyrights and abuse reports form
Time is now: 15th September 2019 - 23:03:09