Welcome Guest ( Log In | Register )

История благодарностей участнику Panacea ::: Спасибо сказали: 7745 раз(а)
Дата поста: В теме: За сообщение: Спасибо сказали:
Mar 27 2020, 20:35:13 Nerve Saw - Call Of The Casket [ep] (2017)


*Artist: Nerve Saw
*Album: Call Of The Casket [ep]
*Year: 2017
*Genre: Death Metal
*Country: Finland
*Format: mp3@CBR320kbps
*Size: 37MB

Tracklist:
1. Call Of The Casket 04:01
2. They Ride The Sky 03:33
3. We, The People 03:07
4. Art Of Empty 04:33
******************************
Total playing time: 15:14



[more=Technical info]
Input File: 03 - We, The People.mp3
Channels : 2
Sample Rate : 44100
Precision : 16-bit
Duration : 00:03:08.07 = 8293843 samples = 14105.2 CDDA sectors
File Size : 7.62M
Bit Rate : 324k
Sample Encoding: MPEG audio (layer I, II or III)
Comments :
Title=We, The People
Artist=Nerve Saw
Album=Call Of The Casket
Tracknumber=3
Year=2020
Genre=Death Metal

[/more]

Register
(10) cist, Hell_Is_Here, infiltrator, morbidangelo, nord6666, Olethros, Ostinato, VALERY, vyacheslav, wreak,
Mar 27 2020, 20:22:23 Devil Worshipper - Godforsaken [ep] (2019)


*Artist: Devil Worshipper
*Album: Godforsaken [ep]
*Year: 2019
*Genre: Psychedelic/Avant-Garde/Black Metal
*Country: International
*Format: mp3@CBR320kbps
*Size: 72MB

Tracklist:
1. Oremus 02:11
2. Godforsaken 09:19
3. Flagellation 09:19
4. To My Grave 10:25
******************************
Total playing time: 31:14



[more=Technical info]
Input File: 02 - Godforsaken.mp3
Channels : 2
Sample Rate : 44100
Precision : 16-bit
Duration : 00:09:19.86 = 24690002 samples = 41989.8 CDDA sectors
File Size : 22.5M
Bit Rate : 321k
Sample Encoding: MPEG audio (layer I, II or III)
Comments :
Title=Godforsaken
Artist=Devil Worshipper
Album=Godforsaken
Tracknumber=2
Year=2019
Genre=Psychedelic/Avant-Garde/Black Metal

[/more]

Register
(20) cist, craP_cillA, Doooomed, dunkelheit, Hell_Is_Here, infiltrator, Irimias, kimkayoung, lestllk, marilin, morbidangelo, oldvarg, Olethros, Ostinato, Sanctus, VALERY, vasiljev_sergej, wreak, wtk.412, yuratroll,
Mar 26 2020, 15:34:54 Demonastramágissargon - Hex [ep] (2019)


*Artist: Demonastramágissargon
*Album: Hex [ep]
*Year: 2019
*Genre: Psychedelic/Atmospheric Black Metal
*Country: France
*Format: mp3@CBR320kbps
*Size: 73MB

Tracklist:
1. Golgotha 06:12
2. Et Sublimis Satanas 07:59
3. Justórum Ánimæ In Inferno Ardere 05:37
4. Hex 11:52
******************************
Total playing time: 31:40



[more=Technical info]
Input File: 03 - Justorum Animae In Inferno Ardere.mp3
Channels : 2
Sample Rate : 44100
Precision : 16-bit
Duration : 00:05:37.79 = 14896319 samples = 25333.9 CDDA sectors
File Size : 13.6M
Bit Rate : 322k
Sample Encoding: MPEG audio (layer I, II or III)
Comments :
Title=Justórum Animæ In Inferno Ardere
Artist=Demonastramágissargon
Album=Hex
Tracknumber=3
Year=2019
Genre=Psychedelic/Atmospheric Black Metal

[/more]

Register
(11) Goatlord666, Hell_Is_Here, infiltrator, marilin, Olethros, robertho777, senecazm, stub888, VALERY, vasiljev_sergej, wreak,
Mar 26 2020, 15:28:01 Demonastramágissargon - Anticosmos [ep] (2019)


*Artist: Demonastramágissargon
*Album: Anticosmos [ep]
*Year: 2019
*Genre: Psychedelic/Atmospheric Black Metal
*Country: France
*Format: mp3@CBR320kbps
*Size: 55MB

Tracklist:
1. Svarta Kirkan 05:57
2. Anticosmos I 03:51
3. Anticosmos II 04:26
4. Qaa. Zodorejr, Lape Ζodiredo Noco Mada, Ηoathahe Saitan ! 05:12
5. Abyssum 04:29
******************************
Total playing time: 23:55



[more=Technical info]
Input File: 02 - Anticosmos I.mp3
Channels : 2
Sample Rate : 44100
Precision : 16-bit
Duration : 00:03:51.17 = 10194729 samples = 17338 CDDA sectors
File Size : 9.33M
Bit Rate : 323k
Sample Encoding: MPEG audio (layer I, II or III)
Comments :
Title=Anticosmos I
Artist=Demonastramágissargon
Album=Anticosmos
Tracknumber=2
Year=2019
Genre=Psychedelic/Atmospheric Black Metal

[/more]

Register
(14) cist, Evilded, Goatlord666, Hell_Is_Here, infiltrator, LEGION69, marilin, Olethros, Ostinato, senecazm, stub888, VALERY, vasiljev_sergej, wreak,
Mar 24 2020, 18:47:31 Dionysian Rites - Kriegsanleihe [demo] (2020)


*Artist: Dionysian Rites
*Album: Kriegsanleihe [demo]
*Year: 2020
*Genre: Doom/Black/Death Metal
*Country: International
*Format: mp3@CBR320kbps
*Size: 29MB

Tracklist:
1. Cerebral Poison 04:17
2. War On Angels 03:03
3. Slaves Of Divinity 05:13
******************************
Total playing time: 12:33



[more=Extended info]Limited to 60 copies.
4 panel j card including lyrics.
Includes logo stickers.[/more]

[more=Technical info]
Input File: 02 - War On Angels.mp3
Channels : 2
Sample Rate : 44100
Precision : 16-bit
Duration : 00:03:03.84 = 8107212 samples = 13787.8 CDDA sectors
File Size : 7.44M
Bit Rate : 324k
Sample Encoding: MPEG audio (layer I, II or III)
Comments :
Title=War On Angels
Artist=Dionysian Rites
Album=Kriegsanleihe
Tracknumber=2/3
Year=2020
Genre=Doom/Black/Death Metal
Discnumber=1/1

[/more]

Register
(16) Bzth, Doooomed, infiltrator, morbidangelo, Olethros, Ostinato, randumbum, Sanctus, satanist666, sergsazan, SilentNidhogg, thenecromancer, VALERY, vasiljev_sergej, Wail, wreak,
Mar 24 2020, 18:21:21 Ageless Summoning - Demo Mmxviii [demo] (2018)


*Artist: Ageless Summoning
*Album: Demo Mmxviii [demo]
*Year: 2018
*Genre: Death Metal
*Country: United Kingdom
*Format: mp3@CBR320kbps
*Size: 28MB

Tracklist:
1. Usurper Of The Void 05:19
2. Salvation In Ash 06:31
******************************
Total playing time: 11:50




[more=Extended info]Crown And Throne Ltd.
Limited edition cassette of 100 copies.[/more]

[more=Technical info]
Input File: 01 - Usurper Of The Void.mp3
Channels : 2
Sample Rate : 44100
Precision : 16-bit
Duration : 00:05:19.92 = 14108296 samples = 23993.7 CDDA sectors
File Size : 12.9M
Bit Rate : 322k
Sample Encoding: MPEG audio (layer I, II or III)
Comments :
Title=Usurper Of The Void
Artist=Ageless Summoning
Album=Demo MMXVIII
Tracknumber=1
Year=2018
Genre=Death Metal

[/more]

Register
(11) Bzth, infiltrator, morbidangelo, Occultas, Olethros, Ostinato, raattent, varlam4, wanderer73, wn129aa, wreak,
Mar 24 2020, 13:33:34 Iskalde Morket - Metaphysics Of Mass Murder (2020)


*Artist: Iskalde Morket
*Album: Metaphysics Of Mass Murder
*Year: 2020
*Genre: Progressive/Technical Black Metal
*Country: United Kingdom
*Format: mp3@CBR320kbps
*Size: 71MB

Tracklist:
1. Escalera De La Muerte 05:25
2. Metaphysics Of Mass Murder 07:11
3. North Walsham Misanthropia 03:01
4. Introverts Doedskvad 08:06
5. Apotheosis 07:36
******************************
Total playing time: 31:19



[more=Technical info]
Input File: 03 - North Walsham Misanthropia.mp3
Channels : 2
Sample Rate : 44100
Precision : 16-bit
Duration : 00:03:01.28 = 7994272 samples = 13595.7 CDDA sectors
File Size : 7.33M
Bit Rate : 323k
Sample Encoding: MPEG audio (layer I, II or III)
Comments :
Title=North Walsham Misanthropia
Artist=Iskalde Morket
Album=Metaphysics Of Mass Murder
Tracknumber=3
Year=2020
Genre=Progressive/Experimental Black Metal

[/more]

Register
(14) atavist, cesar, cist, Hell_Is_Here, infiltrator, kimkayoung, metala, morbidangelo, Olethros, Ostinato, SatanicPanzer, VALERY, vasiljev_sergej, wreak,
Mar 24 2020, 13:14:29 Omnikinetic - Kinesis [ep] (2020)


*Artist: Omnikinetic
*Album: Kinesis [ep]
*Year: 2020
*Genre: Black/Death Metal
*Country: United States
*Format: mp3@CBR320kbps
*Size: 48MB

Tracklist:
1. The Wolves Ascend 03:51
2. Leading The Pack 02:50
3. Silently I'll Suffer, Patiently I'll Wait 04:00
4. Raised-Leg Urination 04:06
5. Absolutakinesis (In Control) 03:51
6. Chronokinesis (Time Control) 03:37
******************************
Total playing time: 22:15



[more=Extended info]- 6 panel j-card printed in CMYK 4/4 on 170g coated paper.
- Plastic shell with on-body print.
- High quality case (norelco).
- Limited to 50 handnumbered copies.[/more]

[more=Technical info]
Input File: 02 - Leading The Pack.mp3
Channels : 2
Sample Rate : 44100
Precision : 16-bit
Duration : 00:02:50.45 = 7516757 samples = 12783.6 CDDA sectors
File Size : 6.35M
Bit Rate : 298k
Sample Encoding: MPEG audio (layer I, II or III)
Comments :
Title=Leading The Pack
Artist=Omnikinetic
Album=Kinesis
Tracknumber=2
Year=2020
Genre=Black/Death Metal

[/more]

Register
(12) Boozer, Goatlord666, Hell_Is_Here, infiltrator, lunaraurora, morbidangelo, Olethros, Sanctus, SilentNidhogg, vasiljev_sergej, wanderer73, wreak,
Mar 24 2020, 13:09:44 Omnikinetic - Omnikinetic [demo] (2020)


*Artist: Omnikinetic
*Album: Omnikinetic [demo]
*Year: 2020
*Genre: Black/Death Metal
*Country: United States
*Format: mp3@CBR320kbps
*Size: 24MB

Tracklist:
1. Absolutakinesis 03:51
2. Chronokinesis 03:37
3. Antikinesis 02:21
******************************
Total playing time: 9:49



[more=Technical info]
Input File: 03 - Antikinesis.mp3
Channels : 2
Sample Rate : 44100
Precision : 16-bit
Duration : 00:02:21.67 = 6247779 samples = 10625.5 CDDA sectors
File Size : 5.85M
Bit Rate : 330k
Sample Encoding: MPEG audio (layer I, II or III)
Comments :
Title=Antikinesis
Artist=Omnikinetic
Album=Omnikinetic
Tracknumber=3
Year=2020
Genre=Black/Death Metal

[/more]

Register
(12) Boozer, Goatlord666, Hell_Is_Here, infiltrator, lunaraurora, morbidangelo, Olethros, SilentNidhogg, VALERY, vasiljev_sergej, wanderer73, wreak,
Mar 23 2020, 23:20:42 Wudeliguhi - Diyosvhi Ganodu (2014)


*Artist: Wudeliguhi
*Album: Diyosvhi Ganodu
*Year: 2014
*Genre: Depressive Black Metal
*Country: United States
*Format: mp3@CBR320kbps
*Size: 97MB

Tracklist:
1. Hymn I 08:15
2. Hymn II 05:55
3. Hymn III 07:31
4. Hymn IV 05:20
5. Hymn V 02:01
6. Hymn VI 05:23
7. Hymn VII 08:20
8. Hymn VIII 03:40
******************************
Total playing time: 46:25



[more=Extended info]Razed Soul Productions.
Limited edition CD of 500 copies.[/more]

[more=Technical info]
Input File: 04 - Hymn IV.mp3
Channels : 2
Sample Rate : 44100
Precision : 16-bit
Duration : 00:05:22.27 = 14212063 samples = 24170.2 CDDA sectors
File Size : 12.9M
Bit Rate : 320k
Sample Encoding: MPEG audio (layer I, II or III)
Comments :
Title=Hymn IV
Artist=Wudeliguhi
Album=Diyosvhi Ganodu
Tracknumber=4/8
Year=2014
Genre=Depressive Black Metal

[/more]

Register
(20) 1968_janeart, HMHamster, Ildjarn, infiltrator, kim666, Misanthrope@, Moonshtook, morbidangelo, multizwilling, Olethros, Ostinato, randumbum, satanist666, senecazm, SilentNidhogg, stub888, Vados, VALERY, vasiljev_sergej, wreak,
Mar 21 2020, 21:56:41 Ahna - Crimson Dawn (2020)


*Artist: Ahna
*Album: Crimson Dawn
*Year: 2020
*Genre: Death Metal/Crust
*Country: Canada
*Format: mp3@CBR320kbps
*Size: 85MB

Tracklist:
1. Run For Your Life 06:54
2. In Death's Grip 04:25
3. Crimson Dawn 04:48
4. Sick Waste 03:25
5. Despot 04:02
6. Dead Gods 06:05
7. My Brother's Blood 07:07
******************************
Total playing time: 36:46




[more=Extended info]Limited to 150 copies.
Caligari Records.[/more]

[more=Technical info]
Input File: 02 - In Death\'s Grip.mp3
Channels : 2
Sample Rate : 44100
Precision : 16-bit
Duration : 00:04:25.29 = 11699333 samples = 19896.8 CDDA sectors
File Size : 10.8M
Bit Rate : 324k
Sample Encoding: MPEG audio (layer I, II or III)
Comments :
Title=In Death's Grip
Artist=Ahna
Album=Crimson Dawn
Tracknumber=2
Year=2020
Genre=Death Metal/Crust

[/more]

Register
(20) andreikun, Asketto, atavist, bloodwind, chipsgott, desekrator, EvilPiet, infiltrator, jollo, Leshiy666, marilin, morbidangelo, multizwilling, Olethros, Ostinato, Sabbathian, varlam4, Wail, wn129aa, wreak,
Mar 20 2020, 19:25:48 Blasphamagoatachrist - Bastardizing The Purity (2020)


*Artist: Blasphamagoatachrist
*Album: Bastardizing The Purity
*Year: 2020
*Genre: Black/Death Metal
*Country: International
*Format: mp3@CBR320kbps
*Size: 65MB

Tracklist:
1. Intro (50 Cal. Demonic Chant) 02:32
2. Bastardizing The Purity 02:24
3. Black Nuclear Shadows 03:19
4. Abysmal Commands 02:55
5. Intro (Weapons Of Fire And Steel) 00:30
6. The Final Blood Orgy 02:30
7. Death Alchemy 02:54
8. Genocide Evocation 03:18
9. Intro (Apocalyptic Battlefields) 01:35
10. Fire Demons Of Blokula 03:00
11. Evil Revelation 03:10
******************************
Total playing time: 28:07



[more=Extended info]Debut album featuring members of Blasphemy, Goatpenis and Antichrist.[/more]

[more=Technical info]
Input File: 03 - Black Nuclear Shadows.mp3
Channels : 2
Sample Rate : 44100
Precision : 16-bit
Duration : 00:03:21.81 = 8899821 samples = 15135.8 CDDA sectors
File Size : 8.19M
Bit Rate : 325k
Sample Encoding: MPEG audio (layer I, II or III)
Comments :
Title=Black Nuclear Shadows
Artist=Blasphamagoatachrist
Album=Bastardizing The Purity
Tracknumber=3/11
Year=2020
Genre=Black/Death Metal

[/more]

Register
(47) acerbus, Alexis The Best, alikkon, andreikun, atavist, atom72, babanguida, biroutios, boba, Boozer, Bzth, cist, craP_cillA, Daale, DarkHorde, dermarsoran, desekrator, gena, infiltrator, kauyumari, marilin, metal73, Metalass, MMMMM, Moonshtook, Mortuusinfernus, multizwilling, Olethros, Ostinato, randumbum, rebornflms95, RUSP73, sacrut, satanist666, Shadechaser, SilentNidhogg, thenecromancer, Tino, VALERY, vasiljev_sergej, vyacheslav, WarmasterChorus, Wolftribes, wolverine, wreak, wtk.412, ZambuL,
Mar 3 2020, 18:58:49 Hot Graves - Haunted Graves [ep] (2020)


*Artist: Hot Graves
*Album: Haunted Graves [ep]
*Year: 2020
*Genre: Thrash/Death/Black Metal/Crust
*Country: United States
*Format: mp3@CBR320kbps
*Size: 26MB

Tracklist:
1. Haunted Graves 03:29
2. Sewage Communion 02:45
3. Ruination Supremacy 02:03
4. Rotted 02:55
******************************
Total playing time: 11:12



[more=Technical info]
Input File: 03 - Ruination Supremacy.mp3
Channels : 2
Sample Rate : 44100
Precision : 16-bit
Duration : 00:02:03.73 = 5456273 samples = 9279.38 CDDA sectors
File Size : 5.22M
Bit Rate : 337k
Sample Encoding: MPEG audio (layer I, II or III)
Comments :
Title=Ruination Supremacy
Artist=Hot Graves
Album=Haunted Graves
Tracknumber=3
Year=2020-02-28
Genre=Death/Black/Thrash Metal/Crust
Discnumber=1

[/more]

Register
(18) Asketto, ASkyThatBurns, boby9052, Boozer, caro, EvgeniusLongus, infiltrator, marilin, Niknne, Olethros, Ostinato, sludge666, varlam4, vasiljev_sergej, Wail, wgs73, Wolftribes, wreak,
Mar 2 2020, 16:39:38 Equitant - The Great Lands Of Minas Ithil [compilation] (2019)
[youtube]5gQgkppGjqc[/youtube]
(2) emogrinder, infiltrator,
Mar 2 2020, 14:10:30 Equitant - The Great Lands Of Minas Ithil [compilation] (2019)


*Artist: Equitant
*Album: The Great Lands Of Minas Ithil [compilation]
*Year: 2019
*Genre: Dark Ambient/Dungeon Synth
*Country: United States
*Format: mp3@CBR320kbps
*Size: 110MB

Tracklist:
1. The Fallen Walls Of Agurak (A Time Of Misery) Part I - Remix 09:38
2. The Fallen Walls Of Agurak (A New Beginning) Part II - Remix 08:27
3. Love Poem For Elizabeth Bathory 06:23
4. When The Istari Wizards Appeared In Middle Earth (The Days Of The Kings Had Come To An End) 06:16
5. Dorchacht (Unreleased) 10:12
6. Ruins (Unreleased) 01:52
7. Unsere Rache (Unreleased) 03:06
8. Tá Mé An Ceann Amháin A Mhaireann (Unreleased) 03:59
******************************
Total playing time: 49:53

[more=Extended info]Reissue of the second demo digitally restored from the original master cassette tapes and remastered.
Includes the original 4 tracks + 4 unreleased tracks.
Personnel:
Equitant – Voice & Narration, FX, Synthesizers, Percussion & Lyrics
Black Massith - FX, Synthesizers & Percussion
Shaftiel – Voice & Narration
Released by Frost And Fire.[/more]

[more=Technical info]
Input File: 06 - Ruins (Unreleased).mp3
Channels : 2
Sample Rate : 44100
Precision : 16-bit
Duration : 00:01:51.93 = 4936201 samples = 8394.9 CDDA sectors
File Size : 4.48M
Bit Rate : 320k
Sample Encoding: MPEG audio (layer I, II or III)
Comments :
Title=Ruins (Unreleased)
Artist=Equitant
Album=The Great Lands Of Minas Ithil
Tracknumber=6
Year=2019
Genre=Dark Ambient/Dungeon Synth

[/more]

Register
(2) infiltrator, Olethros,
Mar 2 2020, 14:08:18 Equitant - The Circle Of Agurak [compilation] (2018)


*Artist: Equitant
*Album: The Circle Of Agurak [compilation]
*Year: 2018
*Genre: Dark Ambient/Dungeon Synth
*Country: United States
*Format: mp3@CBR320kbps
*Size: 111MB

Tracklist:
1. The Fallen Walls Of Agurak (A Time Of Misery) Part I 07:54
2. The Fallen Walls Of Agurak (A New Beginning) Part II 07:31
3. De Occulta Philosophia 04:13
4. The Finrir Wolf 02:47
5. Legenden Von Feuer Und Stahl 01:50
6. The Return Of Agurak (Vanadurin) 02:20
7. Across The Sea Avagon 05:02
8. The Spell Of Ubrik Mandrak Star 06:02
9. Myrkenstone 06:55
10. With Blood And Gold We Are Now Bound 02:57
******************************
Total playing time: 47:31



[more=Extended info]The first US dungeon synth recording back from 1993 by Equitant, formerly a member of Absu.
The album in fact features his former bandmates Proscriptor (flute) and Shaftiel (voice).
Original demo tracks + unreleased tracks from 1993.
Limited CD edition in a 6-panel gloss-laminated Digipak in 300 copies.
The special edition comes with two (black / white) T-Shirts and an exclusive front cover A3 folded poster.
Released by Old Captain.[/more]

[more=Technical info]
Input File: 04 - The Finrir Wolf.mp3
Channels : 2
Sample Rate : 44100
Precision : 16-bit
Duration : 00:02:48.06 = 7411358 samples = 12604.4 CDDA sectors
File Size : 6.93M
Bit Rate : 330k
Sample Encoding: MPEG audio (layer I, II or III)
Comments :
Title=The Finrir Wolf
Artist=Equitant
Album=The Circle Of Agurak
Tracknumber=4
Year=2018
Genre=Dark Ambient/Dungeon Synth

[/more]

Register
(3) emogrinder, infiltrator, Olethros,
Mar 1 2020, 12:54:01 Ptahil - Pan-Daemon-Aeon (2016)


*Artist: Ptahil
*Album: Pan-Daemon-Aeon
*Year: 2016
*Genre: Psychedelic/Thrash/Doom/Black Metal
*Country: United States
*Format: mp3@CBR320kbps
*Size: 108MB

Tracklist:
1. From The Deep Death - I. (Reflective Shamanism) 02:09
2. From The Deep Death - II. (Psychedelic Menstrual Rhythm) 01:53
3. From The Deep Death - III. (Supernal Ceremony) 09:03
4. Priesthood Of The Elite Solar Season - I. (Savior Of Suffering Flesh) 04:37
5. Desacralizing In The Name Of A Monotheistic And Monetized God - I. (Genocide And Suppression) 07:02
6. Kaos Rising - I. (Technological Hallucinations Within The Kaos Ritual) 15:55
7. Kaos Rising - II. (Rejecting The Future) 06:05
******************************
Total playing time: 46:44



[more=Technical info]
Input File: 01 - From The Deep Death - I. (Reflective Shamanism).mp3
Channels : 2
Sample Rate : 44100
Precision : 16-bit
Duration : 00:02:09.81 = 5724709 samples = 9735.9 CDDA sectors
File Size : 5.37M
Bit Rate : 331k
Sample Encoding: MPEG audio (layer I, II or III)
Comments :
Title=From The Deep Death - I. (Reflective Shamanism)
Artist=Ptahil
Album=Pan-Daemon-Aeon
Tracknumber=01/7
Year=2016
Genre=Psychedelic/Thrash/Doom/Black Metal
Discnumber=1/1

[/more]

Register
(14) ASkyThatBurns, boby9052, Der_Hexer, infiltrator, kipelov999, Olethros, Rosen, sacredserenity, stub888, stumpheavyrock, VALERY, varlam4, vasiljev_sergej, wreak,
Mar 1 2020, 12:51:44 Ptahil - Born Against (2014)


*Artist: Ptahil
*Album: Born Against
*Year: 2014
*Genre: Thrash/Doom/Black Metal
*Country: United States
*Format: mp3@CBR320kbps
*Size: 80MB

Tracklist:
1. Born Against 06:59
2. Don't Drink From The Waters Of Lethe 03:12
3. Beyond The Pale 06:52
4. Witches' Lust (Sluts Of Satan) 06:01
5. Eulogy Of The Gods Of Illumination Who Embellish The Darkness 11:31
******************************
Total playing time: 34:35



[more=Technical info]
Input File: 02 - Don\'t Drink From The Waters Of Lethe.mp3
Channels : 2
Sample Rate : 44100
Precision : 16-bit
Duration : 00:03:14.65 = 8584153 samples = 14598.9 CDDA sectors
File Size : 8.03M
Bit Rate : 330k
Sample Encoding: MPEG audio (layer I, II or III)
Comments :
Title=Don't Drink From The Waters Of Lethe
Artist=Ptahil
Album=Born Against
Tracknumber=02/5
Year=2014
Genre=Thrash/Doom/Black Metal
Discnumber=1/1

[/more]

Register
(9) boby9052, infiltrator, metala, Olethros, Rosen, satanist666, stumpheavyrock, varlam4, vasiljev_sergej,
Feb 29 2020, 19:50:22 Kyprian's Circle - Noitatulen Vartija (ep) (1999)
CBR 320 kbps
Register
(5) Angry_Chair, makkara123, thenecromancer, vasiljev_sergej, wendigo,
Feb 23 2020, 10:52:40 Naartz - Sombre [ep] (2020)


*Artist: Naartz
*Album: Sombre [ep]
*Year: 2020
*Genre: Atmospheric Post-Black Metal
*Country: Canada
*Format: mp3@CBR320kbps
*Size: 43MB

Tracklist:
1. Dernier Souffle 04:58
2. L'autre Joue 05:13
3. Pleure Ta Terre 05:00
4. La Marche 03:40
******************************
Total playing time: 18:51



[more=Technical info]
Input File: 04 - La Marche.mp3
Channels : 2
Sample Rate : 44100
Precision : 16-bit
Duration : 00:03:41.01 = 9746585 samples = 16575.8 CDDA sectors
File Size : 8.93M
Bit Rate : 323k
Sample Encoding: MPEG audio (layer I, II or III)
Comments :
Title=La Marche
Artist=Naartz
Album=Sombre
Tracknumber=4
Year=2020
Genre=Atmospheric Post-Black Metal

[/more]

Register
(17) 1968_janeart, ASkyThatBurns, exorcist1969, infiltrator, kim666, krotovich, Olethros, randumbum, robertho777, Rosen, satanist666, senecazm, Tyrone, VALERY, varlam4, vasiljev_sergej, wreak,
Feb 23 2020, 10:38:56 Conifère - Noblesse D'épée [demo] (2020)


*Artist: Conifère
*Album: Noblesse D'épée [demo]
*Year: 2020
*Genre: Black Metal/Dungeon Synth
*Country: Canada
*Format: mp3@CBR320kbps
*Size: 69MB

Tracklist:
1. Seigneur Sans Terres 09:04
2. Assouvir l'Avarice 03:54
3. La Genèse de l'Ordre 04:26
4. Écraser l'Infâme 08:26
5. Le Pont des Trois Arches 10:00
******************************
Total playing time: 35:50



[more=Technical info]
Input File: 02 - Assouvir l\'Avarice.mp3
Channels : 2
Sample Rate : 44100
Precision : 16-bit
Duration : 00:03:54.07 = 10322619 samples = 17555.5 CDDA sectors
File Size : 9.49M
Bit Rate : 324k
Sample Encoding: MPEG audio (layer I, II or III)
Comments :
Title=Assouvir l'Avarice
Artist=Conifère
Album=Noblesse d'Épée
Tracknumber=2
Year=2020
Genre=Black Metal/Dungeon Synth

[/more]

Register
(23) 1968_janeart, ASkyThatBurns, craP_cillA, exorcist1969, fuoco, horss, Ildjarn, infiltrator, kim666, LEGION69, Ludwig Hagen, nemx, Olethros, robertho777, Rosen, Rudolfo_Metal, satanist666, Tarkron, thenecromancer, vasiljev_sergej, Velmi, Wolftribes, wreak,
Feb 18 2020, 23:10:54 Anhedonist & Spectral Voice - Abject Darkness/Ineffable Winds [split] (2020)


*Artist: Anhedonist & Spectral Voice
*Album: Abject Darkness/​Ineffable Winds [split]
*Year: 2020
*Genre: Death/Doom Metal | Death/Doom Metal
*Country: United States | United States
*Format: mp3@CBR320kbps
*Size: 32MB

Tracklist:
Anhedonist:
1. Abject Darkness 06:15
Spectral Voice:
2. Ineffable Winds 07:25
******************************
Total playing time: 13:40



[more=Extended info]Dark Descent Records.
Co-released with Parasitic Records.
Available on black vinyl or transparent blue vinyl.

Anhedonist: "Abject Darkness” was recorded during the same session as their only album "Netherwards" in the Winter of 2011. Initially slated to appear on an aborted split EP with Knelt Rote

Spectral Voice: Recorded in the winter of 2019.[/more]

[more=Technical info]
Input File: 01 - Anhedonist-Abject Darkness.mp3
Channels : 2
Sample Rate : 44100
Precision : 16-bit
Duration : 00:06:15.98 = 16580630 samples = 28198.4 CDDA sectors
File Size : 15.2M
Bit Rate : 324k
Sample Encoding: MPEG audio (layer I, II or III)
Comments :
Title=Abject Darkness
Artist=Anhedonist
Album=Abject Darkness/Ineffable Winds
Tracknumber=1
Year=2020
Genre=Death/Doom Metal

[/more]

Register
(26) AHBAnep, Angry_Chair, ASkyThatBurns, Boozer, caro, doomTemplar, FUDEDOR, GFW, Hell_Is_Here, helvetestoner, infiltrator, lacrimoza, Lecter7, marilin, Mist13Signifier, Occultas, Rosen, sacredserenity, sergsazan, singrad, stumpheavyrock, VALERY, valgalder, varlam4, vyacheslav, Wail,
Feb 18 2020, 19:30:57 Crypt Dagger - Tales Of Torment [ep] (2019)


*Artist: Crypt Dagger
*Album: Tales Of Torment [ep]
*Year: 2019
*Genre: Black/Speed/Thrash Metal
*Country: Germany
*Format: mp3@CBR320kbps
*Size: 30MB

Tracklist:
1. Death To All 03:31
2. Rape From The Grave 02:37
3. The Cruel Reign 03:27
4. Six Horned Pervertor 02:48
******************************
Total playing time: 12:23

[more=Extended info]Limited edition cassette to 50 hand-numbered copies released by Screaming Skull Records.[/more]

[more=Technical info]
Input File: 02 - Rape From The Grave.mp3
Channels : 2
Sample Rate : 44100
Precision : 16-bit
Duration : 00:02:37.58 = 6949366 samples = 11818.6 CDDA sectors
File Size : 6.39M
Bit Rate : 324k
Sample Encoding: MPEG audio (layer I, II or III)
Comments :
Title=Rape From The Grave
Artist=Crypt Dagger
Album=Tales Of Torment
Tracknumber=2
Year=2019
Genre=Black/Speed/Thrash Metal

[/more]

Register
(18) artscald, Asketto, ASkyThatBurns, boby9052, caro, cast_iron, cist, Darkness, infiltrator, Mogozoz, Olethros, Rosen, satanist666, sergsazan, stumpheavyrock, Styx, vasiljev_sergej, Wail,
Feb 7 2020, 00:39:55 Spite - Winds Of Luciferian Æther [live] (2019)


*Artist: Spite
*Album: Winds Of Luciferian Æther [live]
*Year: 2019
*Genre: Black Metal
*Country: United States
*Format: mp3@CBR320kbps
*Size: 79MB

Tracklist:
1. Winds Of Luciferian Æther 32:41
******************************
Total playing time: 32:41



[more=Extended info]Recorded live at Saint Vitus Bar in Brooklyn, NY on August 30, 2019.
Recorded, mixed, & mastered by Jamie Elton.
Photographs by Arno Tsay.

Setlist:
1. Countless Blasphemy
2. The Shield Of Abraham
3. Vision Of The Merkabah
4. Trapped In The Pentagram
5. The Devil's Minyan
6. Antimoshiach
7. Desecration Rites[/more]

[more=Technical info]
Input File: 01 - Winds Of Luciferian AEther.mp3
Channels : 2
Sample Rate : 44100
Precision : 16-bit
Duration : 00:32:41.31 = 86493639 samples = 147098 CDDA sectors
File Size : 78.5M
Bit Rate : 320k
Sample Encoding: MPEG audio (layer I, II or III)
Comments :
Title=Winds of Luciferian AEther
Artist=Spite
Album=Winds of Luciferian Æther
Tracknumber=1
Year=2019
Genre=Black Metal

[/more]

Register
(16) 1968_janeart, Bzth, Hell_Is_Here, helvetestoner, infiltrator, lobosolitario, milosdjor, morbidangelo, Occultas, Olethros, Rosen, stub888, VALERY, vasiljev_sergej, Wail, wreak,
Feb 6 2020, 22:07:07 Black Curse - Endless Wound [demo] (2019)
[youtube]jR5UtaCOGsg[/youtube]
(1) Occultas,

29 Pages V  < 1 2 3 4 > » 
- Lo-Fi Version Support form
Copyrights and abuse reports form
Time is now: 5th June 2020 - 03:29:08