Welcome Guest ( Log In | Register )

История благодарностей участнику Panacea ::: Спасибо сказали: 5806 раз(а)
Дата поста: В теме: За сообщение: Спасибо сказали:
Jun 16 2013, 18:29:27 Oracle Of The Void - In Darkness Is Found The Greater Enlightenment [demo] (1995)
256 VBR
Register
(4) jorgeguldur, mety666, rom666, varlam4,
Jun 16 2013, 18:25:54 The Call Of The Four Gates - Host Of Chaos [demo] (1996)
128 kbps
Register
(1) Borderline1991,
May 14 2013, 22:04:28 Mortiis - Crypt Of The Wizard (1996)
320 kbps
Register
(4) Amadeus, Narasimha, undeadlich, zlvd,
May 11 2013, 00:43:46 Wind Of The Black Mountains - Sing Thou Unholy Servants (1996)
320 kbps
Register
(8) BATON-duBASSic, cist, gena, stub888, SyncestrA, Timekiller_again, V_poiskah, warrr,
Mar 3 2013, 12:00:58 Choronzon - Magog Agog (1998)
320 kbps
Register
(6) artscald, awersed, Nadja, varlam4, warrr, zlvd,
Feb 12 2013, 15:14:26 Equimanthorn - Nindinugga Nimshimshargal Enlillara (1994)
224 kbps
Register


(1) scrimiums,
Nov 15 2012, 15:22:15 Proscriptor - The Venus Bellona (1995)
256 VBR
Mediafire
(3) Eichmann, MEmethuselah, tireheb,
Oct 10 2012, 13:51:08 Imperium - Imperium [demo] (1996)
Ok... i dont know what i am doing wrong since i posted the link for this release twice and got deleted both times...
If anyone wants to download this go check my blog...
(1) rammmirez,
Oct 4 2012, 17:46:54 Burial Hordes - Descent [ep] (2012)
metaler.gif
(1) Styx,
Aug 21 2012, 20:41:07 Wampyre ShadowWolf - Wampyricon (1996)


*Artist: Wampyre ShadowWolf
*Album: Wampyricon
*Year: 1996
*Genre: Dark Wave, Gothic Rock
*Country: Greece
*Format: mp3@CBR320kbps
*Size: 93MB

Tracklist:
1. Invocation Of My Demon Brother 03:43
2. In My Dominion I Am All 05:19
3. We Shall Rise 04:48
4. Deepest Sea Swallow Me 07:34
5. Princess Of Darkness 06:38
6. Stargates 05:40
7. In My Dominion I Am All (Funeral Mix) 06:11
8. Demeter / Frost 04:21
******************************
Total playing time: 44:14

[more=Extended info]Including members of Necromantia and Vanity. Guest vocals on opening track by Ian Read (Fire And Ice, ex-Current 93, ex-Sol Invictus).


Input File: 01 - Invocation Of My Demon Brother.mp3
Channels : 2
Sample Rate : 44100
Precision : 16-bit
Duration : 00:03:43.21 = 9843737 samples = 16741 CDDA sectors
File Size : 8.93M
Bit Rate : 320k
Sample Encoding: MPEG audio (layer I, II or III)
Comments :
Title=Invocation Of My Demon Brother
Artist=Wampyre ShadowWolf
Album=Wampyricon
Tracknumber=1
Year=1996
Genre=Gothic

[/more]

Register
(10) Cartman223, gwar, komhs, Mist13Signifier, satanist666, sperminator, tireheb, v.v.m, varlam4, Velkaarn,
Jul 27 2012, 13:44:28 Black Sunrise - Under A Moonlight Sky [demo] (1996)


*Artist: Black Sunrise
*Album: Under A Moonlight Sky [demo]
*Year: 1996
*Genre: Melodic Black Metal
*Country: Italy
*Format: mp3@CBR320kbps
*Size: 44MB

Tracklist:
1. Black Sunrise 03:33
2. Silvanthropy: A Tale from the Dark Woods 06:25
3. Armageddon 02:51
4. Bad Moon Ballad 06:36
******************************
Total playing time: 19:25

[more=Extended info]The cover is from the re-released version.

[youtube]http://youtu.be/pskTC8F6Cbc[/youtube]


Input File: 03 - Armageddon.mp3
Channels : 2
Sample Rate : 44100
Precision : 16-bit
Duration : 00:02:51.77 = 7575233 samples = 12883 CDDA sectors
File Size : 6.87M
Bit Rate : 320k
Sample Encoding: MPEG audio (layer I, II or III)
Comments :
Title=Armageddon
Artist=Black Sunrise
Album=Under A Moonlight Sky
Tracknumber=3
Year=1996
Genre=12

[/more]

Register
(19) ALBIGON, ancientlair, artscald, Darkthronefoad, dermarsoran, Evilded, General, gwynnbleid, Ildjarn, kim666, lestllk, Ostinato, satanist666, socrates9, tont, Tundra, varlam4, vasiljev_sergej, wreak,
Jul 25 2012, 11:36:17 Mortiis - Crypt Of The Wizard (1996)
320 kbps
mediafire
(1) Wolftribes,
Jul 14 2012, 15:57:58 Bestiis Dare - Promo [demo] (2010)
Someone to re-up this ?
(1) dermarsoran,
Jul 8 2012, 15:05:26 Diabolos Rising - Blood Vampirism & Sadism (1994)
320 kbps
Register
(2) mardak666, varlam4,
Jul 8 2012, 14:49:09 Danse Macabre - Totentanz (1998)
320 kbps
mediafire
(6) kramer820, Maniakk, Pustota, VALERY, varlam4, Vranakrik,
Jun 11 2012, 14:23:49 N.A.O.S. - The Final Harvest (1995)
256 kbps.
mediafire
(1) Witchlord,

24 Pages V  « < 22 23 24
- Lo-Fi Version Support form
Copyrights and abuse reports form
Time is now: 17th September 2019 - 15:15:48