Welcome Guest ( Log In | Register )

История благодарностей участнику Panacea ::: Спасибо сказали: 7742 раз(а)
Дата поста: В теме: За сообщение: Спасибо сказали:
Jan 22 2017, 17:00:41 Ancient Sign Glorify - Thy Unholy Celebration [demo] (1995)
CBR 160 kbps
Register

The sound quality of course is not as good as Borderline1991 rip but here are included all four tracks.
(5) kim666, morbidangelo, Ostinato, thenecromancer, varg-38ru,
Jan 22 2017, 14:40:56 Xathrites - My Last Day Story (2013)


*Artist: Xathrites
*Album: My Last Day Story
*Year: 2013
*Genre: Depressive Black Metal
*Country: Iraq
*Format: mp3@CBR256kbps
*Size: 67MB

Tracklist:
1. My Last Day Story 05:13
2. Suicide Was My End 03:48
3. Screaming From Inside 06:01
4. The Sounds Of Heaven 03:08
5. Life Complicated 04:28
6. Destruction Of Humanity 04:25
7. Nostalgia (Nocturnal Depression Cover) 03:52
8. The Dark World 05:48
******************************
Total playing time: 36:43



Register
(14) 1968_janeart, kim666, MaXL, metaljinie, Misanthrope@, morbidangelo, Ostinato, RENыч, Rosen, satanist666, tont, umnaxtet, varlam4, vasiljev_sergej,
Jan 21 2017, 01:22:38 Demonicvlt - Conjuring Ancient Evil [ep] (2014)


*Artist: Demonicvlt
*Album: Conjuring Ancient Evil [ep]
*Year: 2014
*Genre: Black Metal
*Country: Canada
*Format: mp3@CBR192kbps
*Size: 23MB

Tracklist:
1. Conjuring Ancient Evil 04:20
2. Circle Of Sacrifice 04:20
3. Summoning The Master 04:20
4. Outro 04:20
******************************
Total playing time: 17:20


Preview 2

[more=Extended info]Hand-numbered copies.
The last track is a hidden outro.[/more]

Register
(17) 1968_janeart, Buregon, Darkthronefoad, kim666, LordOvDarkness, METALHUNTER, morbidangelo, Ostinato, rom666, Rosen, RUSP73, satanist666, stub888, tont, varlam4, vasiljev_sergej, vov7609,
Jan 21 2017, 01:21:30 Majestic Ritual - Majestic Ritual Demo I [demo] (2014)


*Artist: Majestic Ritual
*Album: Majestic Ritual Demo I [demo]
*Year: 2014
*Genre: Raw Black Metal
*Country: Canada
*Format: mp3@CBR192kbps
*Size: 16MB

Tracklist:
1. The Xiith Seal 03:14
2. Gates Of Vith 03:58
3. The First Coven 04:39
******************************
Total playing time: 11:51



[more=Extended info]Limited cassette edition of 50 copies.
Side B contains the same three songs played backwards.[/more]

Register
(18) 1968_janeart, Borderline1991, Darkthronefoad, El_Chibo, kim666, morbidangelo, Ostinato, rom666, Rosen, RUSP73, satanist666, stub888, thenecromancer, tont, varg-38ru, varlam4, vasiljev_sergej, Velkaarn,
Jan 18 2017, 22:08:03 Filthdigger - Demo 4 [demo] (2016)


*Artist: Filthdigger
*Album: Demo 4 [demo]
*Year: 2016
*Genre: Death Metal
*Country: Norway
*Format: mp3@CBR320kbps
*Size: 38MB

Tracklist:
1. The Living Dead 05:29
2. Ended Life 03:36
3. Rapid Descend 04:30
4. Nagasaki Nightmare 03:16
******************************
Total playing time: 16:51



[more=Extended info]Recorded and mixed 30.01.2015 by Nekromizör.
Mastered by Mr. Møkk.
Music and lyrics by Nekromizör.[/more]

[more=Technical info]
Input File: 04 - Nagasaki Nightmare.mp3
Channels : 2
Sample Rate : 44100
Precision : 16-bit
Duration : 00:03:16.25 = 8654757 samples = 14719 CDDA sectors
File Size : 7.99M
Bit Rate : 326k
Sample Encoding: MPEG audio (layer I, II or III)
Comments :
Title=Nagasaki Nightmare
Artist=Filthdigger
Album=Demo 4
Tracknumber=4
Year=2016
Genre=Death Metal

[/more]

Register
(10) artscald, Asle, cancer1974, Darkthronefoad, morbidangelo, Rosen, rpa, RUSP73, varlam4, Wail,
Jan 18 2017, 21:19:24 Coscradh - Demo MMXVI [demo] (2016)
CBR 320 kbps
Register
(10) artscald, Doooomed, gena, kim666, RajvsarN, satanist666, thenecromancer, Tino, Tyrone, Wail,
Jan 11 2017, 00:32:28 Cryptic Wintermoon - Voyage Dans La Lune [demo] (1995)
CBR 192 kbps
Register
(3) kim666, kimkayoung, thenecromancer,
Jan 9 2017, 19:04:00 Swordmaster - Wraths Of Time [ep] (1995)
CBR 320 kbps
Register
(4) RUSP73, thenecromancer, wolverine, Wotanwatch,
Dec 15 2016, 00:15:12 Auramoth - Hadha' Yah Amon Quasahi Vampyre [demo] (1994)


*Artist: Auramoth
*Album: Hadha' Yah Amon Quasahi Vampyre [demo]
*Year: 1994
*Genre: Black Metal
*Country: Italy
*Format: mp3@CBR192kbps
*Size: 18MB

Tracklist:
1. Will Of The Whip (Intro) 01:28
2. Iaida Qliphoth Satana 04:46
3. De Soliloquium Sub Larvae Incarnis (Sodomy Magicka) 03:43
4. The Next Millenium Is Ours (Outro) 03:25
******************************
Total playing time: 13:22

Register
(26) 1968_janeart, Borderline1991, Darkthronefoad, dermarsoran, Evilded, Ildjarn, kim666, lestllk, morbidangelo, NachtWulf, Ostinato, rom666, Rosen, RunningWild_AT, RUSP73, satanist666, stub888, sumeriarising, thenecromancer, tont, varlam4, vasiljev_sergej, Velkaarn, wgs73, zargonath, Спектр,
Dec 10 2016, 01:49:04 Iasma - Le Messe Noir [demo] (2011)


*Artist: Iasma
*Album: Le Messe Noir [demo]
*Year: 2011
*Genre: Black Metal
*Country: Greece
*Format: mp3@CBR192kbps
*Size: 21MB

Tracklist:
1. Intro 01:29
2. Into the Mirrors of Infinity 04:10
3. The Goat of Liberty 03:47
4. Le Messe Noir 03:47
5. The Black Veil 02:28
******************************
Total playing time: 15:41



[more=Extended info]Recorded in July 2011 at EZG chamber.
All music and lyrics by Iasma.
Limited edition of 100 copies.[/more]

Register
(18) 1968_janeart, Borderline1991, Darkthronefoad, Hell_Is_Here, Ildjarn, kim666, morbidangelo, Ostinato, rom666, Rosen, RUSP73, satanist666, sksxxx, tont, varg-38ru, varlam4, vasiljev_sergej, Спектр,
Dec 8 2016, 17:31:56 Primeval Mass & Iasma - Transcendence [split] (2013)


*Artist: Primeval Mass & Iasma
*Album: Transcendence [split]
*Year: 2013
*Genre: Black Metal | Black Metal
*Country: Greece | Greece
*Format: mp3@VBR311kbps
*Size: 70MB

Tracklist:
Primeval Mass:
1. Incubation 02:29
2. Rites Of Transcendence 05:59
3. Adostiis Microcosmus 04:03
4. Werewolves On The Hunt (Stormwitch cover) 04:03
Iasma:
5. Intro 01:50
6. The Firmament Of Fire 03:37
7. Into The Mirrors Of Infinity 04:19
8. Transcendence 05:16
******************************
Total playing time: 31:36

[myspace]https://myspace.com/primevalmass[/myspace]
[myspace]https://myspace.com/iasma666[/myspace]

[more=Technical info]
Input File: 05 - Iasma - Intro.mp3
Channels : 2
Sample Rate : 48000
Precision : 16-bit
Duration : 00:01:48.05 = 5186304 samples ~ 8103.6 CDDA sectors
File Size : 4.13M
Bit Rate : 306k
Sample Encoding: MPEG audio (layer I, II or III)
Comments :
Title=Intro
Artist=Iasma
Album=Transcendence
Tracknumber=5
Year=2013
Genre=Black Metal

[/more]

Register
(17) 1968_janeart, Darkthronefoad, ddarkthrone, Hell_Is_Here, Ildjarn, kim666, lestllk, morbidangelo, Ostinato, rom666, Rosen, satanist666, SyncestrA, tont, VALERY, varlam4, vasiljev_sergej,
Nov 29 2016, 22:54:34 Godless - Zωή Χαριcάμενη (2014)


*Artist: Godless
*Album: Zωή Χαριcάμενη
*Year: 2014
*Genre: Death Metal
*Country: Greece
*Format: mp3@VBR196kbps
*Size: 53MB

Tracklist:
1. Masochistic Nirvana 05:06
2. Akra Tapinosis 05:46
3. Exo I Hristianoi 05:14
4. Silent Night 03:34
5. On A Month Of Sundays 04:20
6. Atheistikos Evagelismos 04:10
7. I Theousa 05:00
8. Easter Song 04:48
******************************
Total playing time: 37:58




[more=Extended info]Godless is a dark progressive death metal band from Thessaloniki/Greece.
It was founded on February 1994 by Chris Muimbwa.
The band released 5 demos from 1996 to 2006 with various line ups or as a one man band. 61 minute long demo 2001 entitled "Let there be Darkness" did well for the band abroad.
In detail,it brought about 40 very favorable reviews, 10 very unfavorable, 15 interviews and eventually a record offer that the band failed to utilize, due to some affair of bad luck that went on for years.
Short duration roughly made DVD 2006 entitled "2 Fuckin' Wicked" brought the band for the first time to local attention or perhaps notoriety for being the most... godless.
The act was put on a hold from 2007 to 2011 and during this time it gained die hard local fans while faded from foreign attention.
In September 2012 Ek Nekron Productions releashed their last 2 demos on a 12" vynil Ep. The current line up consists of Chris Muimbwa (guitar) Odysseas Kotinoudis (guitar) and Aggelos Papaoikonomou (vocals), Antonis Roditis (bass)[/more]

Register
(17) andreikun, Buregon, Darkthronefoad, Hell_Is_Here, jollo, metala, METALHUNTER, Mist13Signifier, MMMMM, morbidangelo, Ostinato, Rosen, satanist666, SymbyoticEntity, VALERY, varlam4, vyacheslav,
Nov 20 2016, 20:10:43 Russian Circles - Geneva (2009)
CBR 320 kbps
Register
(1) varlam4,
Nov 20 2016, 19:59:33 Russian Circles - Empros (2011)
CBR 320 kbps
Register
(2) Tyrone, varlam4,
Nov 20 2016, 19:35:13 Toreva - Skryte Brany Do Neznamych Svetov... [demo] (2008)
CBR 192 kbps
Register
(3) obituarydark, varg-38ru, vovenom,
Nov 20 2016, 15:33:31 Sonichaos Aeon - Heavy Metal Antichrist (2002)
CBR 192 kbps
Register
(1) gratsim,
Nov 20 2016, 15:32:53 Sonichaos Aeon - Chocolat Mexicain: An Extraordinary Tale Of Heroinism [demo] (2006)
CBR 192 kbps
Register
(1) gratsim,
Nov 19 2016, 01:27:35 Himinbjorg - Wyrd (2015)
CBR 320 kbps
Register
(3) Eisbar, GAS, tt2008,
Nov 19 2016, 01:10:22 Midnight Odyssey - Shards Of Silver Fade (2015)
CBR 320 kbps
Register
(8) kim666, maochen, Narasimha, peppuzzo, souldeathtoxic, varg-38ru, Zenial, Авел,
Nov 19 2016, 00:17:47 Mortuus Umbra - Catechism [ep] (2015)
CBR 128 kbps
Register
(4) kim666, SyncestrA, thenecromancer, vazerdou,
Nov 19 2016, 00:09:03 Tempel - The Moon Lit Our Path (2015)


*Artist: Tempel
*Album: The Moon Lit Our Path
*Year: 2015
*Genre: Progressive Metal/Post-Metal
*Country: United States
*Format: mp3@CBR320kbps
*Size: 120MB

Tracklist:
1. Carvings In The Door 08:22
2. The Moon Lit Our Path 09:33
3. Descending Into The Labyrinth 12:20
4. Tomb Of The Ancients 09:59
5. Dawn Breaks Over The Ruins 12:03
******************************
Total playing time: 52:17

[more=Extended info]Temple is an instrumental metal duo from Phoenix, AZ. Formed in 2003 by Ryan Wenzel (Guitars, Keys) and Rich Corle (Drums).[/more]

[more=Technical info]
Input File: 01 - Carvings In The Door.mp3
Channels : 2
Sample Rate : 44100
Precision : 16-bit
Duration : 00:08:21.91 = 22134407 samples = 37643.5 CDDA sectors
File Size : 20.5M
Bit Rate : 327k
Sample Encoding: MPEG audio (layer I, II or III)
Comments :
Title=Carvings In The Door
Artist=Tempel
Album=The Moon Lit Our Path
Tracknumber=01/05
Year=2015
Genre=Progressive Metal

[/more]

Register
(7) Buregon, Ostinato, Requiescat, Rosen, varlam4, veselchak_u, партизан,
Nov 17 2016, 21:02:36 Monstraat - The One Eternal [ep] (2015)
CBR 320 kbps
Register
(11) 1968_janeart, Anhra Mainyu, artscald, kim666, obituarydark, satanist666, Skog1349, Storky, SyncestrA, Tino, varlam4,
Nov 17 2016, 21:00:03 Ethereal Shroud - They Became The Falling Ash (2015)
CBR 320 kbps
Register
(3) blacky66, Doooomed, RawBlack,
Nov 17 2016, 20:56:09 Cvltist - Demo I (Tape) [demo] (2015)
CBR 320 kbps
Register
(4) Blackvomito, deadterror, kim666, varlam4,
Nov 17 2016, 20:55:04 Old Graves - This Ruin Beneath Snowfall [ep] (2015)
CBR 320 kbps
Register
(2) eternald, kim666,

29 Pages V  « < 23 24 25 26 27 > » 
- Lo-Fi Version Support form
Copyrights and abuse reports form
Time is now: 2nd June 2020 - 06:25:45