Welcome Guest ( Log In | Register )

История благодарностей участнику Black Cat ::: Спасибо сказали: 2877 раз(а)
Дата поста: В теме: За сообщение: Спасибо сказали:
Sep 16 2019, 21:21:45 Iamthemorning - The Bell (2019)


*Artist: Iamthemorning
*Album: The Bell
*Year: 2019
*Genre: Progressive Rock/Camber Folk
*Country: Russian Federation
*Format: mp3@CBR320kbps
*Size: 105MB

Tracklist:
1 Freak Show 7:09
2 Sleeping Beauty 3:42
3 Blue Sea 3:08
4 Black and Blue 3:58
5 Six Feet 3:56
6 Ghost of a Story 3:58
7 Song of Psyche 3:20
8 Lilies 4:28
9 Salute 7:27
10 The Bell 5:04
******************************
Total playing time: 46:10



[more=Technical info]
Input File: 02 - Sleeping Beauty.mp3
Channels : 2
Sample Rate : 44100
Precision : 16-bit
Duration : 00:03:42.08 = 9793816 samples = 16656.1 CDDA sectors
File Size : 8.97M
Bit Rate : 323k
Sample Encoding: MPEG audio (layer I, II or III)
Comments :
Title=Sleeping Beauty
Artist=Iamthemorning
Album=The Bell
Tracknumber=02
Year=2019
Genre=Progressive Rock/Camber Folk

[/more]

Register
(2) A.L.Rapsod, lucifix,
Sep 3 2019, 12:45:39 Mgła - Age Of Excuse (2019)
ЦИТАТА(vosmidesijatye @ Sep 3 2019, 07:44:19) *
Зачем че то новое открывать, ведь народец и так ведётся, баблишко в кассу заносит

Бляха, ну ты сам себе еще не надоел? 21.gif
(18) 6666666, Baudolino, BleedingSun, Deze, Exorcist, garmonbozia, Infidel, infiltrator, ivanasyanin, karut, kim666, Kwaad, m00n1ight, Nemez, Old Vyaine, oLdBoy, Tular, Vardlokkur,
Aug 26 2019, 21:56:18 Rammstein - Reise, Reise (2004)
Петросямбо.
(2) Deze, plfan93,
Aug 24 2019, 11:00:39 Alcest - Protection [single] (2019)
ЦИТАТА(Dreamtale @ Aug 24 2019, 11:49:52) *
Так и не было никогда, не? ��
Не.
[youtube]mRymk_ncSwg[/youtube]
(1) garmonbozia,
Aug 23 2019, 16:32:53 System Of A Down - Toxicity (2001)
ЦИТАТА(vosmidesijatye @ Aug 23 2019, 14:47:06) *
не можешь мимо пройти просто.
Сказал автор едва ли не половины постов форума. 1488.gif
ЦИТАТА(vosmidesijatye @ Aug 23 2019, 17:05:51) *
Успокойся уже.
https://memepedia.ru/wp-content/uploads/201...т-оригинал.jpeg
(2) Deze, plfan93,
Aug 23 2019, 12:03:29 System Of A Down - Toxicity (2001)
ЦИТАТА(vosmidesijatye @ Aug 22 2019, 20:40:19) *
Зря гонишь волну, Ангар чуть ли не единственный на форуме кто шарит в нюхе и мафаке больше остальных, слушающих пару-тройку самых известных групп.

Ну так а я что-то противоположное этому сказал?
(2) Deze, infiltrator,
Aug 22 2019, 19:34:12 System Of A Down - Toxicity (2001)
ЦИТАТА(Anger @ Aug 22 2019, 19:24:57) *
нафиг, вообще, смотреть на оценки...

что фильмы, что музыка. хочешь - будешь слушать-смотреть. а мнения и оценки всяких додиков не должны волновать совершенно. у меня такой подход

Да можно конечно не смотреть. Да и мнения всяких додиков на форумах можно не читать. Тем более додиков, которые не в теме по сути.
Ну а с другой стороны, а че бы и нет? popcorn.gif
(2) Exorcist, infiltrator,
Aug 22 2019, 17:41:29 System Of A Down - Toxicity (2001)
ЦИТАТА(Old Vyaine @ Aug 21 2019, 19:25:51) *
ХЗ, мне и два первых ЛП не стыдно навернуть под настроение.
Ну я тоже могу как раз первые два навернуть, когда на ностальгию по школоло годам тянет (прадва, лучше ранний КоЯп). Но это не то. К СОАД именно интересно вернуться и сегодня, после прослушки достаточного количества всякой разной другой, не только тяжелой музыки. Новые грани, вот это все. Это действительно интересное музло, в котором есть что расслушивать даже при наличии альтернативы в виде запыра ВООБЩЕ ЛЮБОГО другого альбома мировой музыки (ну ОК, вероятно любого хоть сколько-то годного), чего не было в доинтернетные времена, когда приходилось слушать только то, что смог достать.
ЦИТАТА(Anger @ Aug 21 2019, 19:43:36) *
Nothingface
Static-X
Dry Kill Logic
American Head Charge
Otep

Downthesun (это, вообще, одно из самых сумасшедших и по-хорошему ипанутых явлений в такой музыке. своим единственным альбомом они уже вынесли башку)
Motograter
Ill Nino
Mushroomhead


это помимо всяких слипов, мадвейнов...
Ну не то, что бы вот прямо стыдно, но...
[youtube]n6FyhHBEeFE[/youtube]
ЦИТАТА(Anger @ Aug 21 2019, 19:43:36) *
а всякие СОАДы, просто, сильно стали популярны в совке, поэтому уже в начале нулевых каждый второй додик их гонял на плеере. а группы выше хоть и были коммерческими, но до нас дошли не сразу. и на МТВ их клипы показывали в общем-то не слишком часто (ну по сравнению с корнами, писькетами, соадами и другим надоевшим дерьмом)
Да вообще плевать на популярность, тем более в (пост)совке. Просто одни делают действительно интересно, причем не только для своей тусовочки, а другие норм, но по сути только для нее родимой.
Хотя то, что банды с изначально коммерчески ориентированным музлом добиваются признания на уровне с даже не первыми позициями самых раскрученных экстремальных групп (у которых изначально есть потолок популярности, ввиду стилистики), несколько иронично конечно. 1488.gif
Ну и отдельно в виде пруфов каких-никаких, думаю стоит отметить, что на rym'чике, где "надоевшее дерьмо, которое каждый второй додик гонял на плеере" любят опускать даже слишком низко, СОАД не только не захейтили, но и выдали топовые оценки 3 из 5-ти альбомов. У конкурентов за звание самой популярной мазафаки (окромя Deftones, которых почти не слушал, и ничего не скажу), почему-то ничего такого нет и близко.
Да почти ни у какой мазафаки нет.
(3) BleedingSun, infiltrator, plfan93,
Aug 21 2019, 18:11:15 System Of A Down - Toxicity (2001)
Единственная по-настоящему хорошая и интересная мазафачная группа, которую ни разу не стыдно навернуть даже когда ты уже закончил среднюю школу.
(6) BleedingSun, Deze, Emm Human, infiltrator, Nemez, plfan93,
Aug 21 2019, 11:25:48 Draconian - Turning Season Within (2008)
ЦИТАТА(Exorcist @ Aug 19 2019, 21:01:13) *
10/12.
А я бы тут внезапно все 11/12 поставил.
ЦИТАТА(Exorcist @ Aug 19 2019, 21:01:13) *
P.S. Интересно, почему клавишник, игравший на всех предыдущих работах группы (включая древние демо), на этом альбоме вдруг стал сессионщиком.
Дык завязать видимо решил, а посоны уломали в записи в последний раз поучаствовать наверняка.
(1) Exorcist,
Aug 16 2019, 16:35:17 Клипы (не просто, а ЛУЧШИЕ). Обсуждение с объяснением
Самый любимый. Идеальное на мой взгляд соответствие того, что представляется при прослушивании музыки, и картинки реального клипа:
[youtube]FpuwbyM5BKc[/youtube]
[more=Другие примеры подобного имхового соответствия, или где-то рядом:]
[youtube]me6jwsEPKXc[/youtube]
[youtube]QmYLjQhQL3g[/youtube]
[youtube]WXBWFRY4LUc[/youtube]
[youtube]yusLqIOoKmk[/youtube]
[youtube]tMTAkIDRHiA[/youtube]
[youtube]W9bMRTvmvQQ[/youtube]
[youtube]IGCp3xcrybI[/youtube]
[youtube]zBXWBj7hIzg[/youtube]
[youtube]D0cDmm7Cz_k[/youtube]
[youtube]nRJwTS_2M5M[/youtube]
[youtube]V7DipwzfPOM[/youtube]
[youtube]PsGErp0xLnA[/youtube]
И конечно же Тул. Правда тут видосы откровенно первичны, с них с группой и познакомился. Но подобная дичь после них представляется практически под весь репертуар.
[youtube]yMMz2VwbhVI[/youtube]
[youtube]_z2O289Jemo[/youtube]
[/more][more=Просто мой личный топ-1 клип евер без привязки к музлу:]
[youtube]NeQM1c-XCDc[/youtube]
[/more][more=Лучший неформат:]
[youtube]7jMlFXouPk8[/youtube]
[/more][more=Другие клевые штуки, не подходящие под предыдущие категории, но которые хотелось бы отметить:]
[youtube]karDU2TpDT0[/youtube]
[youtube]067YF8KHdTM[/youtube]
[youtube]u4XevlloPY4[/youtube]
[youtube]eJlN9jdQFSc[/youtube]
[youtube]0zF-ysYpjgk[/youtube]
[youtube]IJkMrl4AG8w[/youtube]
[/more]
(3) Lux, plfan93, Tular,
Jul 27 2019, 09:39:56 Russian Circles - Blood Year (2019)
ЦИТАТА(avather @ Jul 27 2019, 01:07:40) *
Судя по названиям песен, про Россию все?!

Не, про хоккей все. Оттуда термин.
А группа отличная, все там правильно размазывает.
(1) Wizard_in_Black,
Jul 27 2019, 09:31:48 Rosalie Cunningham - Rosalie Cunningham (2019)


*Artist: Rosalie Cunningham
*Album: Rosalie Cunningham
*Year: 2019
*Genre: Psychedelic Rock
*Country: United Kingdom
*Format: mp3@CBR320kbps
*Size: 99MB

Tracklist:
01. Ride On My Bike 04:56
02. Fuck Love 04:59
03. House Of The Glass Red 04:01
04. Dethroning Of The Party Queen 04:20
05. Nobody Hears 04:51
06. Riddles And Games 04:02
07. Butterflies 02:49
08. A Yarn From The Wheel 13:44
******************************
Total playing time: 43:42



[more=Extended info]ex-Purson[/more]

[more=Technical info]
Input File: 01 - Ride On My Bike.mp3
Channels : 2
Sample Rate : 44100
Precision : 16-bit
Duration : 00:04:56.09 = 13057613 samples = 22206.8 CDDA sectors
File Size : 11.9M
Bit Rate : 322k
Sample Encoding: MPEG audio (layer I, II or III)
Comments :
Title=Ride On My Bike
Artist=Rosalie Cunningham
Album=Rosalie Cunningham
Tracknumber=01
Year=2019
Genre=Psychedelic Rock

[/more]

Register
(10) artscald, avkruchinin, Bruce, judaz, MEmethuselah, Olethros, stub888, tormoz, VALERY, vosmidesijatye,
Jul 18 2019, 13:18:53 Magdalene Ju-Nen - Jingai​-​kitan (2018)


*Artist: Magdalene Ju-Nen
*Album: Jingai​-​kitan
*Year: 2018
*Genre: Stoner/Doom Metal
*Country: Japan
*Format: mp3@CBR320kbps
*Size: 113MB

Tracklist:
1. ちりぬるを chirinuruwo 05:18
2. 地獄椅子 Hellchair 06:35
3. 羅生節 Rashou-Bushi 16:31
4. かたわのこひわずらひ Deformed man die in love 08:17
5. 憂国 Grief 04:09
6. 百鬼夜行 Veritable pandemonium 09:07
******************************
Total playing time: 49:57



[more=Technical info]
Input File: 02 - Hellchair.mp3
Channels : 2
Sample Rate : 44100
Precision : 16-bit
Duration : 00:06:35.21 = 17428541 samples = 29640.4 CDDA sectors
File Size : 15.9M
Bit Rate : 322k
Sample Encoding: MPEG audio (layer I, II or III)
Comments :
Title=Hellchair
Artist=Magdalene Ju-nen
Album=Jingai-Kitan
Tracknumber=02
Year=2018
Genre=Stoner/Doom Metal

[/more]

Register
(7) artscald, infiltrator, marilin, Olethros, Rosen, VALERY, wreak,
Jul 11 2019, 22:46:23 Bong - Idle Days On The Yann (2013)
320 кбит/сек:
Register
(1) gena,
Jul 11 2019, 21:16:23 Rammstein - Reise, Reise (2004)
ЦИТАТА(vosmidesijatye @ Jul 11 2019, 23:02:57) *
Но именно массового характера это не имело уже.

Да астанавись уже.
Полно примеров крупно хайпанувших однодневок, продававших в 90-х/00-х платиновые альбомы, которые сейчас нафиг не нужны никому. Сабж явно не из них. Наоборот, именно после Муттер хайп вокруг них уже даже не зависел от новых работ.
ЦИТАТА(Anger @ Jul 11 2019, 23:06:49) *
вот так и тут - в 90-х, когда раммы были 25-летними

Когда раммы были 25-летними, не было еще ни самих раммов, ни 90-х. 1488.gif
(1) Ghostb,
Jul 11 2019, 11:38:21 Batushka - Hospodi (2019)
ЦИТАТА(vosmidesijatye @ Jul 11 2019, 11:52:10) *
Третий пащёл, нащальникин.

Кадило крутится - лавэха мутится.

Посмотрим, насколько еще хватит хайпа.

Ой, даже фантазии на коммент, который бы сюжетом отличалась от любого другого твоего коммента не хватило facessspalm.png
(1) garmonbozia,
Jul 5 2019, 21:05:11 Nile - Annihilation Of The Wicked (2005)
ЦИТАТА(FullofHate @ Feb 5 2016, 21:28:00) *
Последний из эпохальных альбомов великой группы Nile, нет восточных наворотов в привычной концентрации, есть кристально чистый и дико техничный death. Крутой альбом.
ЦИТАТА(quicksand @ Jul 5 2019, 19:34:33) *
Что же касается сабжа, то, как уже замечено ранее, на нем присутствует лишь дет
Ну хз, я от Найла фанатею в первую очередь из-за атмосферы, и этот у меня самый любимый.
Я бы сказал, что с может с 2009-го стало менее атмосферно, да и то, исключительно из-за снизившегося количества эпиков.
ЦИТАТА(quicksand @ Jul 5 2019, 19:34:33) *
Хотя с другой стороны, для меня имеет не меньшее значение тексты их песен, переносящие слушателя на 3-4 тысячи лет к истокам зарождения человеческой цивилизации, в его колыбель, Древний Египет
Кстати, у них полно текстов не о Египте. Навскидку даже с половину.
ЦИТАТА(6666666 @ Jul 5 2019, 20:05:34) *
Ужасный альбом даже по меркам этой ужасной группы.
Ужасный комментарий даже по меркам твоих обычных ужасных комментариев. 1488.gif
(1) Foneg,
Jul 5 2019, 15:09:05 Slipknot - Vol.3: (the Subliminal Verses) (2004)
Самый адекватный их альбом в контексте "стула посередине". Вроде и просраца местами еще дают нормально (открывашка про блистер в первую очередь), хотя и не так, как на лучших вещах с прошлых, но и треканы для мтвишной части прихожан в основном весьма сносны (Вермилион вообще прям хорошая), в отличие от более ранних потуг. Баллады еще классные, но они и дальше неплохими будут. Кароч, так чтоб откровенно выкинуть, бы здесь только от Duality избавился.
Звук еще нормальный. На первых двух конечно более сырой и типа "экстремальный" был, но сильно не добирал в жирности и фигачило все это дело высокими. Никогда не понимал такого. Здесь же хоть и вылизано, но сбалансировано.
(1) BleedingSun,
Jul 3 2019, 20:18:40 Baroness - Gold & Grey (2019)
ЦИТАТА(vosmidesijatye @ Jun 18 2019, 23:33:52) *
Устоявшийся? С каких пор?
Доброе утро. 21.gif Ну я навскидку как лет 12 назад об этой теме всей узнал, все устоявшимся было уже тогда.
Да и все эти 100500 примеров использования этого злосчастного тега, под которыми ты не устаешь включать капитана очевидность и разъяснять за "настоящий сладж", тебя не смущают?
Можешь еще, кстати, побегать по темам с пост-панковыми релизами, и рассказать посонам, что это не настоящий панк, и вообще такое название неподходящее совсем. Или что неофолк не фолк, тоже никто не в курсе наверняка. Да дофига еще возможностей, дерзай.
ЦИТАТА(vosmidesijatye @ Jun 18 2019, 23:33:52) *
Вот к ним еще цепляют тэг "Artcore" - вот это уже ближе к истине, сей гибрид. Ибо это артистичный хардкор такой. Но никак не сладж.
Хз что тут ближе. Арт рок + хардкор панк типа? Еще дальше от сути.
Хотя я совсем не против и такого тега, совершенно плевать как назвать, главное же что понятно какая музыка имеется ввиду. Тут вопрос в другом, используется он прямо ваще в разы реже.
ЦИТАТА(adeptus_custodes @ Jun 25 2019, 14:01:30) *
Есть понятие - пост митал. Всё, хватит. Не плодите сущностей.
Ну, во-первых, этих сущностей уже наплодили и без нас. А во-вторых, "пост-метал" более широкое понятие.
(1) Deze,
Jun 19 2019, 18:09:35 Amorphis - Queen Of Time (2018)
ЦИТАТА(vosmidesijatye @ Jun 19 2019, 18:52:28) *
Редко когда коммерческая, казалось бы музыка, способна в чем то перещеголять метал.

headcrab.png
(1) Deze,
Jun 18 2019, 21:27:59 Baroness - Gold & Grey (2019)
ЦИТАТА(vosmidesijatye @ Jun 18 2019, 21:14:15) *
Сладжем (атмсоферным) зовут и Изис и Неурозис и прочих а ведь это не то.

̶Н̶е̶у̶л̶о̶в̶и̶м̶ы̶й̶ ̶Д̶ж̶о̶ ̶ Тру воен истинного сладжа снова с нами. 21.gif
А еще вот думом (дет/-) зовут и МДБ, и ранних ПЛ и прочих, а ведь это не то, что Саббат, Сэинт Вайтус, Пентаграм, Кэнделмасс и все в этом духе...
Атмосладж уже давно устоявшийся отдельный тег, которым называют музыку в духе Неврозис и Айзис. И имеет такая музыка какое-то отношение к тому сладжу, который Гриф и Айрон Манки, или нет, уже совершенно не важно.
А то, что на сабже и в помине нет никакого сладжа: ни трушного, ни атмосферного, уже отдельный вопрос.
(1) Deze,
Jun 17 2019, 21:20:19 Батюшка - Панихида (2019)
ЦИТАТА(Aresson @ Jun 17 2019, 21:56:28) *
слушать
ЦИТАТА
vosmidesijatye

Ой, ну ты будто вчера родился, ей богу...
(8) 6666666, Arseniy, Deze, Exorcist, infiltrator, Old Vyaine, plfan93, Vardlokkur,
Jun 8 2019, 13:12:27 Стожар - Холодом Битв В Объятья Зимы (2019)
Подсолнечное масло у них лучше было. 1488.gif
Честно говоря, не думал, что такое еще кто-то играет. headcrab.png
ЦИТАТА(Faust_Vulkan_16 @ Jun 8 2019, 13:34:14) *
Земляки!
Хороший альбом.
А твои земляки хоть иногда выпускают плохие альбомы? Ну чисто для разнообразия?
ЗЫ отмечу, что клавиши просто отвратительные. 22.gif
(2) Deze, infiltrator,
Jun 8 2019, 12:59:40 Nocturnus AD - Paradox (2019)
ЦИТАТА(adeptus_custodes @ Jun 3 2019, 22:07:42) *
Павер с безладовым басом про космос.

Будто что-то плохое.
(3) 6666666, Exorcist, infiltrator,

29 Pages V   1 2 3 > » 
- Lo-Fi Version Support form
Copyrights and abuse reports form
Time is now: 18th September 2019 - 12:32:39