Welcome Guest ( Log In | Register )

История благодарностей участнику Black Cat ::: Спасибо сказали: 2805 раз(а)
Дата поста: В теме: За сообщение: Спасибо сказали:
Jul 18 2019, 13:18:53 Magdalene Ju-Nen - Jingai​-​kitan (2018)


*Artist: Magdalene Ju-Nen
*Album: Jingai​-​kitan
*Year: 2018
*Genre: Stoner/Doom Metal
*Country: Japan
*Format: mp3@CBR320kbps
*Size: 113MB

Tracklist:
1. ちりぬるを chirinuruwo 05:18
2. 地獄椅子 Hellchair 06:35
3. 羅生節 Rashou-Bushi 16:31
4. かたわのこひわずらひ Deformed man die in love 08:17
5. 憂国 Grief 04:09
6. 百鬼夜行 Veritable pandemonium 09:07
******************************
Total playing time: 49:57



[more=Technical info]
Input File: 02 - Hellchair.mp3
Channels : 2
Sample Rate : 44100
Precision : 16-bit
Duration : 00:06:35.21 = 17428541 samples = 29640.4 CDDA sectors
File Size : 15.9M
Bit Rate : 322k
Sample Encoding: MPEG audio (layer I, II or III)
Comments :
Title=Hellchair
Artist=Magdalene Ju-nen
Album=Jingai-Kitan
Tracknumber=02
Year=2018
Genre=Stoner/Doom Metal

[/more]

Register
(4) infiltrator, marilin, Olethros, VALERY,
Jul 11 2019, 22:46:23 Bong - Idle Days On The Yann (2013)
320 кбит/сек:
Register
(1) gena,
Jul 11 2019, 21:16:23 Rammstein - Reise, Reise (2004)
ЦИТАТА(vosmidesijatye @ Jul 11 2019, 23:02:57) *
Но именно массового характера это не имело уже.

Да астанавись уже.
Полно примеров крупно хайпанувших однодневок, продававших в 90-х/00-х платиновые альбомы, которые сейчас нафиг не нужны никому. Сабж явно не из них. Наоборот, именно после Муттер хайп вокруг них уже даже не зависел от новых работ.
ЦИТАТА(Anger @ Jul 11 2019, 23:06:49) *
вот так и тут - в 90-х, когда раммы были 25-летними

Когда раммы были 25-летними, не было еще ни самих раммов, ни 90-х. 1488.gif
(1) Ghostb,
Jul 11 2019, 11:38:21 Batushka - Hospodi (2019)
ЦИТАТА(vosmidesijatye @ Jul 11 2019, 11:52:10) *
Третий пащёл, нащальникин.

Кадило крутится - лавэха мутится.

Посмотрим, насколько еще хватит хайпа.

Ой, даже фантазии на коммент, который бы сюжетом отличалась от любого другого твоего коммента не хватило facessspalm.png
(1) garmonbozia,
Jul 5 2019, 21:05:11 Nile - Annihilation Of The Wicked (2005)
ЦИТАТА(FullofHate @ Feb 5 2016, 21:28:00) *
Последний из эпохальных альбомов великой группы Nile, нет восточных наворотов в привычной концентрации, есть кристально чистый и дико техничный death. Крутой альбом.
ЦИТАТА(quicksand @ Jul 5 2019, 19:34:33) *
Что же касается сабжа, то, как уже замечено ранее, на нем присутствует лишь дет
Ну хз, я от Найла фанатею в первую очередь из-за атмосферы, и этот у меня самый любимый.
Я бы сказал, что с может с 2009-го стало менее атмосферно, да и то, исключительно из-за снизившегося количества эпиков.
ЦИТАТА(quicksand @ Jul 5 2019, 19:34:33) *
Хотя с другой стороны, для меня имеет не меньшее значение тексты их песен, переносящие слушателя на 3-4 тысячи лет к истокам зарождения человеческой цивилизации, в его колыбель, Древний Египет
Кстати, у них полно текстов не о Египте. Навскидку даже с половину.
ЦИТАТА(6666666 @ Jul 5 2019, 20:05:34) *
Ужасный альбом даже по меркам этой ужасной группы.
Ужасный комментарий даже по меркам твоих обычных ужасных комментариев. 1488.gif
(1) Foneg,
Jul 3 2019, 20:18:40 Baroness - Gold & Grey (2019)
ЦИТАТА(vosmidesijatye @ Jun 18 2019, 23:33:52) *
Устоявшийся? С каких пор?
Доброе утро. 21.gif Ну я навскидку как лет 12 назад об этой теме всей узнал, все устоявшимся было уже тогда.
Да и все эти 100500 примеров использования этого злосчастного тега, под которыми ты не устаешь включать капитана очевидность и разъяснять за "настоящий сладж", тебя не смущают?
Можешь еще, кстати, побегать по темам с пост-панковыми релизами, и рассказать посонам, что это не настоящий панк, и вообще такое название неподходящее совсем. Или что неофолк не фолк, тоже никто не в курсе наверняка. Да дофига еще возможностей, дерзай.
ЦИТАТА(vosmidesijatye @ Jun 18 2019, 23:33:52) *
Вот к ним еще цепляют тэг "Artcore" - вот это уже ближе к истине, сей гибрид. Ибо это артистичный хардкор такой. Но никак не сладж.
Хз что тут ближе. Арт рок + хардкор панк типа? Еще дальше от сути.
Хотя я совсем не против и такого тега, совершенно плевать как назвать, главное же что понятно какая музыка имеется ввиду. Тут вопрос в другом, используется он прямо ваще в разы реже.
ЦИТАТА(adeptus_custodes @ Jun 25 2019, 14:01:30) *
Есть понятие - пост митал. Всё, хватит. Не плодите сущностей.
Ну, во-первых, этих сущностей уже наплодили и без нас. А во-вторых, "пост-метал" более широкое понятие.
(1) Deze,
Jun 19 2019, 18:09:35 Amorphis - Queen Of Time (2018)
ЦИТАТА(vosmidesijatye @ Jun 19 2019, 18:52:28) *
Редко когда коммерческая, казалось бы музыка, способна в чем то перещеголять метал.

headcrab.png
(1) Deze,
Jun 18 2019, 21:27:59 Baroness - Gold & Grey (2019)
ЦИТАТА(vosmidesijatye @ Jun 18 2019, 21:14:15) *
Сладжем (атмсоферным) зовут и Изис и Неурозис и прочих а ведь это не то.

̶Н̶е̶у̶л̶о̶в̶и̶м̶ы̶й̶ ̶Д̶ж̶о̶ ̶ Тру воен истинного сладжа снова с нами. 21.gif
А еще вот думом (дет/-) зовут и МДБ, и ранних ПЛ и прочих, а ведь это не то, что Саббат, Сэинт Вайтус, Пентаграм, Кэнделмасс и все в этом духе...
Атмосладж уже давно устоявшийся отдельный тег, которым называют музыку в духе Неврозис и Айзис. И имеет такая музыка какое-то отношение к тому сладжу, который Гриф и Айрон Манки, или нет, уже совершенно не важно.
А то, что на сабже и в помине нет никакого сладжа: ни трушного, ни атмосферного, уже отдельный вопрос.
(1) Deze,
Jun 17 2019, 21:20:19 Батюшка - Панихида (2019)
ЦИТАТА(Aresson @ Jun 17 2019, 21:56:28) *
слушать
ЦИТАТА
vosmidesijatye

Ой, ну ты будто вчера родился, ей богу...
(8) 6666666, Arseniy, Deze, Exorcist, infiltrator, Old Vyaine, plfan93, Vardlokkur,
Jun 8 2019, 12:59:40 Nocturnus AD - Paradox (2019)
ЦИТАТА(adeptus_custodes @ Jun 3 2019, 22:07:42) *
Павер с безладовым басом про космос.

Будто что-то плохое.
(2) 6666666, Exorcist,
May 27 2019, 13:27:25 Батюшка - Панихида (2019)
Зеркало, 320:
Register
(33) 1968_janeart, avkruchinin, BERZERK, boby9052, Demonologist, dma-09, DMIYUR, gena, Guns, infiltrator, Koscheyushka, Kwaad, LazarShadow, NachtWulf, nekrokilldozer, neoatheist, Nerevar, Rarog, recber, Reverend, sandr666, sergsazan, Skogvaktar, soulskinner681, StoneTemple, Taragorm, thenecromancer, Torlof, trabantfan, vam1972, vasiljev_sergej, wn129aa, yuratroll,
May 21 2019, 11:02:40 Rammstein - Rammstein (2019)
ЦИТАТА(Arseniy @ May 15 2019, 21:04:03) *
Конечно вряд ли, там три первых уже в топ-3 обосновались. Но этот идёт сразу после них.

Как человек, отслушавший в свое время первые три, а потом четвертый и пятый альбомы просто неприличное количество раз, ответственно заявляю, что выделять как "тот самый настоящий Раммштайн" стоит не первые три, а четыре альбома. Причем 2004-ый строго на втором месте, после Муттер, на мой субъективный. 2005-ый уже да, раммштайновский релоад с бисайдами от "Райзе, Райзе".
По сабжу - не могу сказать, что последние 10 лет как-то особо его ждал, к группе окончательно охладаел примерно в первые месяцы подключения к интернету. Да и прошлый 10 лет назад практически полностю оставил равнодушным, даже с поправкой на какие-то потенциальные ностальгические эмоции (тем более, ну кто же лучшую телегу на бонусный диск задвигает?). Но теоретически все равно было интересно, да и в любом случае, новый альбом от группы, привившей когда-то сам по себе интерес к музыке, хотя-бы для галочки прослушать надо было. Тем более удивительным был приятный сюрприз в виде первого сингла, отметившегося, конечно, в первую очередь крутейшим клипом, но и сам трек, надо отдать ему должное, оказался первым действительно зацепившим у них аж со времен 2004-го года. Второй сингл оставил равнодушным, но выход альбома теперь вполне официально ждал.
В итоге помимо открывашки пока могу выделить Ауслендера и Пуппе, балладу (хоть и не доделанную в полноценный трек) и действительно отдающую Лакримозой закрывашку. Остальное нормальное такое нестыдное дополнение к шлягерам. Три по сути одинаковых припева только немного сбивают с толку (1, 2, 5).
Звук нормальный вполне, достаточно жирный, просто гитары задвинуты. На прошлом (переслушал тут за компанию) наоборот был сбалансированный, но больно легковесный.
Буду слушать еще, но не то, чтобы особо упорно. Если б не бурные школьные годы, смотря правде в глаза, ограничилось бы все всего одной прослушкой и шифтделейтом. Хотя видос заценил бы в любом случае. Вообще, поддержу выше звучавшее мнение, что вне перфоманса воспринимать их уже давно некорректно. Это как судить фильм только по саундтреку.
ЗЫ немного огорчил отход от традиции наличия заглавного трека, до последнего думал, что это рабочее название. Благо хоть самих треков как всегда 11.
(1) Tular,
May 20 2019, 20:31:49 Major Kong - Doom Machine (2014)
320 kbps
Register
(2) LuGaL, thenecromancer,
May 15 2019, 18:45:24 Rammstein - Rammstein (2019)
Вангую много убогих комментов от частых юзеров (ввиду отсутствия нужного вещества). 1488.gif
(5) 6666666, Deze, infiltrator, neoatheist, recber,
May 7 2019, 11:46:13 Cult Of Luna - The Silent Man [ep] (2019)
Да, обычный предальбомный затравочный сингл, не миник.
Сам трекан отличный, как всегда.
(1) Ghostb,
May 7 2019, 00:21:49 Океан Мессиобожателей на Невском, или Голосовалка за лучший альбом 2018 года, Плэй-офф
ЦИТАТА(Arseniy @ May 6 2019, 23:07:51) *
И вот это-то почти отделяет гениальный и эпохальный «Потоп» от неплохой пластинки с огромными претензиями, которые она не реализовала.
Норм песенка, но не хит.

Че-то уж больно большой разрыв какой-то для почти. 1488.gif
Потоп, мне кажется, круче на это самое "почти" в основном из-за этой своей эпохальности. Воин же, хоть и расслушал его далеко не сразу, лично для меня практически идеальное продолжение Мабула, после которого ожидания завышены были больше некуда. Таки да, открывашка больно слащавая (но действительно хороша), и треки после Нового Иерусалима и до предпоследнего включительно какие-то сумбурные. Но это как раз и есть едиственный минус, из-за которого ORwarriOR почти такой же крутой, как Потоп. Благо, из-за почти 80-ти минутной продолжительности, полноценных ништяков там все равно на не самый короткий полноформат.
(2) Ghostb, infiltrator,
May 6 2019, 21:05:45 Океан Мессиобожателей на Невском, или Голосовалка за лучший альбом 2018 года, Плэй-офф
ORwarriOR почти такой же крутой, как Потоп.
(1) Ghostb,
May 2 2019, 19:57:38 Игра: отгадай группу по картинке
Iron Monkey
(3) Anger, comradEnemy, infiltrator,
Apr 21 2019, 21:16:36 Porcupine Tree - Deadwing (2005)
Плюсуюсь. Всегда в контексте любимого разрывался между этим и следующим, но сейчас, пожалуй, склоняюсь с сабжу.
(2) Ghostb, Ingvar,
Apr 19 2019, 22:11:19 Nokturnal Mortum - Істина (2017)
ЦИТАТА(Goldassault @ Apr 19 2019, 14:25:25) *
Читать историю надо усерднее

Ох, как я обожаю этот наброс. crazy.gif
(6) Baudolino, Exorcist, Faust_Vulkan_16, infiltrator, Metalass, neoatheist,
Apr 18 2019, 21:07:21 Nokturnal Mortum - Істина (2017)
ЦИТАТА(Goldassault @ Apr 18 2019, 22:59:10) *
Про национализм: любой высер в сторону "Славы Украине" уже NS.

headcrab.png
Все, что не анархия - то фашизм! (с)
(6) Baudolino, Exorcist, Metalass, neoatheist, randyhermit, suseka,
Apr 5 2019, 15:33:16 Новости Black-направления
ЦИТАТА(Daale @ Apr 5 2019, 17:06:43) *
И он

ЦИТАТА(Daale @ Apr 5 2019, 17:06:43) *
у меня есть.

У меня тоже. Со дня объевления треклиста. 1488.gif
(2) Daale, infiltrator,
Mar 26 2019, 14:59:05 Жалобная книга Сатурналий
Ничего не открыл, потому что пользовался сатурналиями не по назначению, и практически ничего незнакомого не дослушивал. Но было интересно однозначно, Deze форум подрастормошил. 9.gif
ЦИТАТА(Deze @ Mar 26 2019, 10:29:50) *
Убрать минусовые оценки вообще и оставить только "0" - ну, допустим, но математически нет никакой разницы. Баллы сами по себе увеличатся, но соотношение между ними останется тем же.

Это если бы все голосовали за каждый альбом не было бы разницы. А так кто-то, как я, неотслушанные альбомы пропускает, а кто-то "хейтит", и ставит минусы всему подряд, что не его. Разница принципиальная в итоговых результатах из-за этого наверняка.
(2) Ghostb, Язва,
Mar 24 2019, 22:23:42 Primordial - Exile Amongst The Ruins (2018)
ЦИТАТА(Goldassault @ Mar 24 2019, 22:21:21) *
Теперь примусь слушать дискографию полностью.

Охохо, сколько интересного вас еще ждет. smile3.gif
ЦИТАТА(Goldassault @ Mar 24 2019, 22:21:21) *
да и как высказался один товарищ в комментариях, стонер тоже присутствует...
Глупость товарищ высказал.
normal_Homerdisgust3.png
(1) Lux,
Mar 22 2019, 16:50:52 Altın Gün - On (2018)


*Artist: Altın Gün
*Album: On
*Year: 2018
*Genre: Psychedelic/Folk Rock
*Country: Netherlands
*Format: mp3@CBR320kbps
*Size: 89MB

Tracklist:
1. Tatli Dile Guler Yuze 02:44
2. Kirsehirin Gulleri 03:24
3. Goca Dunya 04:00
4. Halkali Seker 03:41
5. Caney 04:41
6. Sad Olup Gulmedim 04:01
7. Cemalim 04:02
8. Cicekler Ekiliyor 03:25
9. Kaymakamın Kizlari 02:52
10. Seker Oglan 06:15
******************************
Total playing time: 39:05



[more=Technical info]
Input File: 03 - Goca Dunya.mp3
Channels : 2
Sample Rate : 44100
Precision : 16-bit
Duration : 00:04:00.19 = 10592203 samples = 18014 CDDA sectors
File Size : 9.73M
Bit Rate : 324k
Sample Encoding: MPEG audio (layer I, II or III)
Comments :
Title=Goca Dünya
Artist=Altın Gün
Album=On
Tracknumber=03
Year=2018
Genre=Psychedelic/Folk Rock

[/more]

Register
(14) avkruchinin, Brann, Cartman223, CryptOn, gwar, Mplast, Olethros, sarcophagus, scorn33, stub888, SyncestrA, VALERY, Луч, Нигилист,

28 Pages V   1 2 3 > » 
- Lo-Fi Version Support form
Copyrights and abuse reports form
Time is now: 22nd July 2019 - 19:37:07