Welcome Guest ( Log In | Register )

История благодарностей участнику Black Cat ::: Спасибо сказали: 3347 раз(а)
Дата поста: В теме: За сообщение: Спасибо сказали:
Sep 16 2020, 10:25:07 Khors - Where The Word Acquires Eternity (2020)
ЦИТАТА(Mick Dundee @ Sep 16 2020, 00:59:54) *
ПесТня номер восемь. Это просто какой то сюр. Кого они воспевают ? Как им приходит это в голову ? Этим гордиться .Вернее - было бы кем.
Ну и кого они воспевают? Альбом посвящен этому явлению, инфа находится в гугле в два клика. ̶М̶е̶р̶з̶о̶с̶т̶ь̶ ̶к̶а̶к̶а̶я̶.̶ Да, возможно, это и не самая важная часть мировой культуры, тут уже вкусовщина. Но безусловно, чуваку с обрыганом на аватарке, поющим песенки про цунарефов и ниггеррепэтокалов, явно же лучше знать кому кого правильно воспевать, и кем гордиться.
(9) 6666666, Baudolino, Exorcist, gena, goxther, infiltrator, Nattfodd, nekrodaemon, suseka,
Sep 4 2020, 10:51:51 Katavasia - Magnus Venator (2020)
Спасибо, ждал, дебют был кайф и марожено.
(2) Daale, infiltrator,
Aug 28 2020, 10:03:17 Darkwood - Twilight Garden (2020)


*Artist: Darkwood
*Album: Twilight Garden
*Year: 2020
*Genre: Neofolk
*Country: Germany
*Format: mp3@CBR320kbps
*Size: 104MB

Tracklist:
01. One-Eyed God
02. The Sixth Night
03. Cherry Blossom
04. The Last Wolf
05. Twilight
06. Lucid Dream
07. Chased by the Swans
08. Night Was Golden
09. The Wolf's Word
10. Emma in Winter
******************************
Total playing time: 45:41

[more=Technical info]
Input File: 02 - The Sixth Night.mp3
Channels : 2
Sample Rate : 44100
Precision : 16-bit
Duration : 00:05:22.19 = 14208535 samples = 24164.2 CDDA sectors
File Size : 12.9M
Bit Rate : 320k
Sample Encoding: MPEG audio (layer I, II or III)
Comments :
Title=The Sixth Night
Artist=Darkwood
Album=Twilight Garden
Tracknumber=02
Year=2020
Genre=Neofolk

[/more]

Register
(12) Cartman223, comradEnemy, folker, Forest Silence, fylopaloma, gwar, infiltrator, Krosis, Olethros, pfk505, Strygaldwir, tOmV,
Aug 25 2020, 21:24:14 Precambrian - Tectonics (2020)
Очень крепкий альбом, как собсно всегда у Саенко с сайд-проектами.
По поводу, нафига было менять вывеску - тоже не совсем понимаю. Понятно, концепция другая, но если с Блад оф Кингу вполне оправдано, то почему про доисторическую геологию не позаливать под вывеской Хейт Форест, не совсем ясно. ХФ у меня всегда как раз с какой-то такой первобытностью ассоциировался.
ЦИТАТА(Fryz @ Aug 24 2020, 10:19:13) *
Да это стандартная практика для проектов Саенко.
Да не особо. На самом последнем ХФ, плюс на части треканов из дебютника такое было только, если не изменяет память.
(3) infiltrator, nsk2008, StabWound,
Aug 22 2020, 23:46:02 Blues Pills - Holy Moly! (2020)


*Artist: Blues Pills
*Album: Holy Moly!
*Year: 2020
*Genre: Psychedelic/Blues Rock
*Country: Sweden
*Format: mp3@CBR320kbps
*Size: 94MB

Tracklist:
01. Proud Woman 03:34
02. Low Road 03:17
03. Dreaming My Life Away 02:43
04. California 03:10
05. Rhythm In The Blood 03:49
06. Dust 03:50
07. Kiss My Past Goodbye 03:01
08. Wish I'd Known 04:27
09. Bye Bye Birdy 04:03
10. Song From A Mourning Dove 05:34
11. Longest Lasting Friend 03:57
******************************
Total playing time: 41:25




[more=Technical info]
Input File: 02 - Low Road.mp3
Channels : 2
Sample Rate : 44100
Precision : 16-bit
Duration : 00:03:17.84 = 8724700 samples = 14837.9 CDDA sectors
File Size : 8.01M
Bit Rate : 324k
Sample Encoding: MPEG audio (layer I, II or III)
Comments :
Title=Low Road
Artist=Blues Pills
Album=Holy Moly!
Tracknumber=02
Year=2020
Genre=Psychedelic/Blues Rock

[/more]

Register
(15) BladeOvDarkness, Boozer, CryptOn, Galactus, Ghostb, infiltrator, marilin, multizwilling, Olethros, Phlebotomized, rammmirez, Tular, Vastich, vosmidesijatye, xska,
Aug 17 2020, 21:04:28 Steve Von Till - No Wilderness Deep Enough (2020)
ЦИТАТА(Ghostb @ Aug 17 2020, 20:46:40) *
Волшебный альбом
+1
(1) Ghostb,
Aug 9 2020, 11:06:41 Selbst - Relatos De Angustia (2020)
ЦИТАТА(Vidyadharov @ Aug 9 2020, 12:22:31) *
Там местами даже ощущается, что парень был под впечатлением от последнего Ulcerate. smile1.gif
Дык это скорей сами Ulcerate творят "под впечатлением" от одного широкоизвестного в узких кругах французского ансамбля. Альбома с четвертого (этого самого ансамбля в смысле, не своего) smile3.gif
(2) Deze, Metalass,
Aug 9 2020, 09:47:58 Selbst - Relatos De Angustia (2020)
ЦИТАТА(Vidyadharov @ Aug 9 2020, 09:52:07) *
Больше на прогрессив дэт похоже, чем на блэк. Эталонный блэк — Mayhem и Darkthrone 94-го и Marduk 96-го годов — явно стилистически иная музыка.
Только проблема в том, что на прогрессив дэт это похоже КУДА МЕНЬШЕ, чем на твои примеры "эталонного блека".
(6) acerbus, Deze, Exorcist, infiltrator, Metalass, Starseeker,
Aug 7 2020, 13:59:50 Selbst - Relatos De Angustia (2020)
Один из самых ожидаемых альбомов года.
(3) Daale, infiltrator, NOMIDIMON,
Aug 5 2020, 20:57:40 Demonibus - Да Сгорят Все Божественные Еврейсике Черви [demo] (2001)
Под впечатлением от облоги и названий треканов, залез на архивы ради еще большего количества лузлов, и таки не прогадал, обнаружив там совершенно феерическое интервью (там, кстати, еще и интервьюер жжет почти так же). Зарядился позитивом на весь день, всем рекомендую. Это ж как "Аццкая сотона", только на серьезных щщах. true_black.gif
(1) Deze,
Aug 3 2020, 10:58:34 De Mysteriis Dom Sathanas
ЦИТАТА(vosmidesijatye @ Aug 3 2020, 12:36:29) *
Thanx. This new version of hardcore classix will be super interesting to listen to true_black.gif

But it's only for the sake of bablishko! nono.gif
(1) Faust_Vulkan_16,
Jul 23 2020, 10:07:43 Exocrine - Molten Giant (2018)
320 kbps:
Register
(1) quicksand,
Jul 14 2020, 10:48:33 Икотка - Заговор (2020)
ЦИТАТА(Aresson @ Jul 13 2020, 16:56:15) *
80-like fix

И в конце обязательно:
Метализды, налетай отваливать баблишка, мои хорошие.
(2) judaz, Kwaad,
Jun 26 2020, 20:42:48 Falconer - From A Dying Ember (2020)
Вполне себе годный альбом, хз. Не самый хитовый наверное, да, но все остальное на месте.
И обложка нормальная, у них минимум одна намного хуже есть.
(1) Ghostb,
Jun 5 2020, 21:18:18 Burshtyn - Чортория (2020)


*Artist: Burshtyn
*Album: Чортория
*Year: 2020
*Genre: Black Metal
*Country: Ukraine
*Format: mp3@CBR128kbps
*Size: 42MB

Tracklist:
1. Нехрещений Яр 08:16
2. Її натхнення пектораль 07:15
3. Урвища Безміру 09:01
4. Хапун 04:56
5. Закохана відьма та рудий чорт 07:40
6. Сатанів 08:52
******************************
Total playing time: 46:00



[more=Technical info]
Input File: 01 - Нехрещений Яр.mp3
Channels : 2
Sample Rate : 44100
Precision : 16-bit
Duration : 00:08:16.24 = 21884272 samples = 37218.1 CDDA sectors
File Size : 7.94M
Bit Rate : 128k
Sample Encoding: MPEG audio (layer I, II or III)
Comments :
Title=Нехрещений Яр
Artist=Burshtyn
Album=Чортория
Tracknumber=01
Year=2020
Genre=Black Metal

[/more]

Register
(14) 1968_janeart, Brann, infiltrator, infozahist, Lukittaz, Maximvs, Olethros, pfk505, satanist666, Tular, VALERY, vasiljev_sergej, wolverine, Авел,
May 31 2020, 14:27:26 Лучший советчик МА - Часть 7 (Фолк) - Тур 2, Рейтингование
Aes Dana - Formors 1
Aiumeen Basoa - Iraganeko bide malkartsutik 2
Arafel - For Battles Once Fought 2
Boreal Hymn - Tundra (demo) 3 (не знал)
Ch'aska - Pururauca 2
Dirty Shirt - Letchology 2
Eldiarn (pre-Хрен) - Безудержное Счастье 3 (знал)
Elvarhøi - Fjellet Faller Aldri (EP) 1
Guahaihoque - The Return Of The Ancient Gods 2
Haeredium - Aurora 2
Hyubris - Hyubris 2
Irminsul - Irminsul 1
Lunatic Gods - Vlnobytie 3 (знал)
Marțolea - Noaptea Dihaniilor 2
Midvinterblot - Skymning 2
Motanka - Motanka 1
Obtest - Auka Seniems Dievams 1
Quest for Blood - Quest for Blood 1
Sand Aura - Elegy of the Orient 1
Stangala - Boued Tousek Hag Traou Mat All 2
Tenochtitlan - Tezcatl 2
Valuatir - Exobnos 2
Yasru - Ant Kadehi 1
Во Скорбях - Во Скорбях 3 (знал)
Хрен - Поле Чудес в Стране Дураков 2
(3) acerbus, Deze, infiltrator,
May 28 2020, 20:54:44 Satyricon - Deep Calleth Upon Deep (2017)
Блин, я по ходу теперь видел все. 17.gif
(2) maxmagmas, Фо,
May 19 2020, 21:18:48 Лучший советчик МА - Часть 7 (Фолк) - Тур 2, Рейтингование
ЦИТАТА(hammer @ May 19 2020, 21:59:53) *
это тогда не правильный фолк.
ЦИТАТА(Фо @ May 19 2020, 22:06:12) *
Storm
ЦИТАТА(hammer @ May 19 2020, 22:10:37) *
я не слышал его.
Ну о чем мы тогда вообще говорим? Это как рассуждать о "правильном треше" не слушав, например, Слеер.
(5) 6666666, Arseniy, Starseeker, Tular, Фо,
May 13 2020, 20:47:19 Альбом 2019 года в жанре technical / progressive death. Финал
Блин, вчера думал проголосовать, но еще один альбом дослушать решил.
Blood Incantation не рядом были, надеюсь?

ЗЫ, сцуко, как раз моих 2 балов и не хватило =(

Да, голосую за Найл, конечно же.
(1) Язва,
May 13 2020, 00:25:10 Новости Folk/Pagan/Viking
Из НМ все, окромя Гапона свалили в очередной раз. Мордокнига:
ЦИТАТА
Another circle is closed. Since the beginning of 2020 Jurgis, Rutnar and Bairoth are no longer involved in Nokturnal Mortum. They are not a part of band anymore, but they are a part of our history. We thank them for their contribution to our legacy and wish them all the best in their lives.
New Nokturnal Mortum line-up is already completed and will be announced soon.
(2) infiltrator, Thiarnan,
May 11 2020, 19:16:57 Satyricon
ЦИТАТА(Vidyadharov @ May 11 2020, 20:03:05) *
Я это прочитал когда-то в книге Пьера Виймара "Крестовые походы: миф и реальность священной войны".
Можно точнее? Поиск по тексту ключевыми словами ничего не дал. Особенно вот этот момент интересует:
ЦИТАТА(Vidyadharov @ May 11 2020, 20:03:05) *
юридически
ЦИТАТА(Vidyadharov @ May 11 2020, 20:03:05) *
не были монахами
Чую тут либо мсье Пьер дал маху, либо...
Но в любом случае, так голословно о чем-либо заявлять и спорить вторую страницу, основываясь всего на одной прочитанной "когда-то" книге на косвенную тему... ну вообще такое, не находите?
ЗЫ такое нашел зато:
ЦИТАТА
Великий магистр ордена Жирар де Ридфор, попавший в плен при Хаттине и необъяснимым образом избежавший расправы, постигшей остальных монахов...
(с) Пьер Виймар - Крестовые походы. Миф и реальность священной войны
1488.gif
(2) acerbus, Old Vyaine,
May 11 2020, 17:51:30 Satyricon
ЦИТАТА(Vidyadharov @ May 11 2020, 19:32:33) *
Не были они монахами. Это были миряне, которые брали на себя дополнительные обеты благочестия для укрепления воинской дисциплины.
Офигительный агрумент. По-нашенски так, ребром, в духе - сам дурак!
Пруфы может какие-то будут?
То, что реальность жизни рыцарей орденов отличалась от вашего наивного идеалистического представления о "сути монашества" в средневековье - так никто и не спорит. Вас послушать, так и большинство "обычных" монахов не были монахами.
(4) 6666666, Baudolino, Exorcist, Фо,
May 10 2020, 19:14:40 Satyricon
ЦИТАТА(d88med @ May 10 2020, 18:39:08) *
Весь блэк-метал? Разве что всякие симфо и прочие позёры.
Да нет уже никаких симф практически, ни в успешной, ни в неуспешной части метал-музыки. 21.gif
Как и срачиков про позеров, хосспади.
(1) Exorcist,
May 10 2020, 19:06:21 Nytt Land - Cvlt (2020)
Register
(3) Druidir, Feyd, nadin85,
May 9 2020, 18:10:47 Green Carnation - Leaves Of Yesteryear (2020)
ЦИТАТА(Faust_Vulkan_16 @ May 7 2020, 21:06:00) *
Учитывая то что комплименты мне делают два человека в этой жизни
А кто второй?
(1) Deze,

34 Pages V   1 2 3 > » 
- Lo-Fi Version Support form
Copyrights and abuse reports form
Time is now: 19th September 2020 - 23:13:55