Welcome Guest ( Log In | Register )

История благодарностей участнику Black Cat ::: Спасибо сказали: 2945 раз(а)
Дата поста: В теме: За сообщение: Спасибо сказали:
Nov 18 2019, 23:31:40 Nile - Vile Nilotic Rites (2019)
ЦИТАТА(Lux @ Nov 18 2019, 20:42:19) *
Кто то ахинею написал, кто то отспасибил... так и живём.
Забавно, одни и те же люди многократно повторяют, что альбом "ненужен, неалё, не понял, никогданелюбилгруппу, кака, дрэг" и т.д., как будто одного раза недостаточно и кто то не постиг эту аксиому.
Плюс миллион просто.
Я вообще человек простой, вижу комменты в теме о новом Найле - захожу читать. А тут в сотый раз повторение и передергивание одного и того же от одних и тех же. Это ж насколько нечем больше заняться людям. 21.gif
(2) BleedingSun, plfan93,
Nov 1 2019, 20:25:30 Nile - Vile Nilotic Rites (2019)
Дослушал тут. Господи Осирисе, "не то что, зашло, а прям залетело" (с) pray.gif
Пока ни один новый для меня альбом Найла так не заходил с первого раза (2007-ой не в счет, он вышел почти сразу после моего знакомства с группой).
Звук самый годный минимум со времен 2009-го. Действительно чуть тише, чем на прошлых, но это скорей от того, что высокие приглушили.
Новый вокалист (вокалисты? на архивах указано, что и новый гитарист и басила вокалят) хороший, под Далласа явно работает, часто даже забываешь, что он свалил.
Немного по первой прослушке смутили некоторые нехарактерные ранее атмосферности не то под Септифлеш, не то вообще, не знаю, под КОФ, прости господи.
В целом, думаю, изменения в составе на пользу и пошли. Либо новый гитарист чего внес, либо Карл без Далласа так расстарался. Вроде по частям и все как всегда, а в целом куда симпатичнее смотрится, чем было в последнее время.
Единственное, что я бы автора облог сменил бы наконец. Не ужасно конечно, но на ранних альбомах куда более душевно смотрелось. Хотя, не исключаю, что это в полномочиях лейбла вообще.
ЦИТАТА(6666666 @ Nov 1 2019, 21:04:57) *
Нет, они субъективны
Пофиксил, не благодари.
(7) BleedingSun, Exorcist, Lux, mirotvorets, Old Vyaine, plfan93, Thiarnan,
Nov 1 2019, 18:48:55 Nile - Vile Nilotic Rites (2019)
ЦИТАТА(6666666 @ Nov 1 2019, 20:36:26) *
Нет, прошлый лучше позапрошлого и звуком, и материалом.
smile4.gif
ЦИТАТА(Black Cat @ Nov 1 2019, 20:34:22) *
все эти "сильные отличия" ты себе сам напридумывал. [2]
(1) Deze,
Oct 22 2019, 12:54:12 Логос - Что Наша Жизнь? (2019)
ЦИТАТА(plfan93 @ Oct 22 2019, 11:35:49) *
Игра.

Капитан.
(1) Old Vyaine,
Oct 13 2019, 12:23:12 Aklash - Aklash (2013)
Пожалуйста:
Register
(1) kimkayoung,
Oct 9 2019, 19:26:45 Wolcensmen - Fire In The White Stone (2019)


*Artist: Wolcensmen
*Album: Fire In The White Stone
*Year: 2019
*Genre: Neofolk
*Country: United Kingdom
*Format: mp3@CBR320kbps
*Size: 111MB

Tracklist:
1 Foreboden & a Gainsaying 5:23
2 Lorn and Loath 7:35
3 Hunted 4:21
4 The Woodwose 0:50
5 Of Thralls and Throes 5:12
6 The Swans of Gar's Edge 6:32
7 Maidens of the Rimeland 3:47
8 Fellowship 1:47
9 Sprig to Spear 5:42
10 Fire in the White Stone 8:26
******************************
Total playing time: 49:35



[more=Technical info]
Input File: 01 - Foreboden & A Gainsaying.mp3
Channels : 2
Sample Rate : 44100
Precision : 16-bit
Duration : 00:05:23.75 = 14277507 samples = 24281.5 CDDA sectors
File Size : 13.0M
Bit Rate : 320k
Sample Encoding: MPEG audio (layer I, II or III)
Comments :
Title=Foreboden & A Gainsaying
Artist=Wolcensmen
Album=Fire In The White Stone
Tracknumber=01
Year=2019
Genre=Neofolk

[/more]

Register
(10) ahp, Boozer, Cartman223, fylopaloma, garml2, Konst, NordicSaga, Olethros, Raw1488, tOmV,
Oct 4 2019, 18:00:40 Лучший советчик МА - Часть 1 (Дэт) - Тур 2
Вот:
ЦИТАТА
Convulse - World Without God 3 (не знал)
Crusher - Corporal Punishment с натяжкой 1
Deathevokation - The Chalice of Ages 3 (не знал)
Decomposed - The Funeral Obsession (EP) 2
Depravity - Silence of the Centuries (EP) 1
Disharmonic Orchestra - Expositionsprophylaxe 1
Domains - Sinister Ceremonies 2
Eternal Solstice - Horrible Within 2
Gorement - The Ending Quest 3 (знал раньше)
Heads For The Dead - Serpent's Curse 2
Interment - Into the Crypts of Blasphemy 2
Internal Decay - A Forgotten Dream 2
Kaamos - Lucifer Rising 2
Nervecell - Preaching Venom 2
Pyre - Human Hecatomb 2
Slaughterday - Nightmare Vortex 2
The Now Noise - Raging Mad Insanity 1
Torture Division - Evighetens Darar 2
Vaginalmassaker - Pervers 2

Остальное по нулям.
(1) Deze,
Sep 30 2019, 18:07:47 Лучший советчик МА - Часть 2 (Дум) - Тур 1, Общий сбор
Crypt Sermon - Out Of The Garden
(1) Lux,
Sep 29 2019, 13:14:21 Deathevokation - Chalice Of Ages (2007)
Вот это очень круто. banana.gif
Флакорип:
Register
(3) infiltrator, Pinhead666, TeamatSE,
Sep 27 2019, 21:50:07 Лучший советчик МА - Часть 1 (Дэт) - Тур 2
ЦИТАТА(Фо @ Sep 27 2019, 21:46:44) *
египетской музыки никто не слышал из живых людей

Очевидно, речь же о древнеегипетской музыке?
Насколько помню, минимум из эпохи Нового царства что-то точно сохранилось. Пруф не дам, искать долго.
Ну и есть такие Ensemble De Organographia, позиционируют себя реконструкторами всякой древней музыки, в том числе египетской. Это вполне серьезный проект, правда не исключаю, что их египетский материал основан на Эллинистическом периоде (основная специализация у них греческая).
Ну а то, что Найл на это не похож, да, никто не спорит.
(1) mirotvorets,
Sep 22 2019, 21:17:01 Rosalie Cunningham - Rosalie Cunningham (2019)
320 kbps
Register
(4) ENDSMOUTH, metaljosue, SyncestrA, UlvhedinGrom,
Sep 22 2019, 20:36:12 Blut Aus Nord - Hallucinogen (2019)
ЦИТАТА(Baarin @ Sep 22 2019, 19:59:18) *
ТЫ УЧИЛСЯ ТАМ ГДЕ Я ПРЕПОДАВАЛ

Игорь Валерьевич, залогиньтесь.
(4) Exorcist, infiltrator, mittal, tormoz,
Sep 20 2019, 20:43:09 Blut Aus Nord - Hallucinogen (2019)
ЦИТАТА(Daale @ Sep 20 2019, 22:16:16) *
Как и в 99% случаев, когда термин "авангардный" используют к блэк-металу. Раз и навсегда: Jute Gyte — авангардный бм, Blut aus Nord — экспериментальный бм

https://www.metal-archives.com/bands/Blut_aus_Nord/2371
https://www.metal-archives.com/bands/Jute_Gyte/3540308568
Забавно. 1488.gif
(3) Daale, infiltrator, randyhermit,
Sep 18 2019, 17:43:17 Хуковые песни - 2018 (финал состоялся)
Primordial - Stolen Years
Orphaned Land - Chains Fall to Gravity
Urfaust - Trail Of The Conscience Of The Dead
(1) randyhermit,
Sep 16 2019, 21:21:45 Iamthemorning - The Bell (2019)


*Artist: Iamthemorning
*Album: The Bell
*Year: 2019
*Genre: Progressive Rock/Camber Folk
*Country: Russian Federation
*Format: mp3@CBR320kbps
*Size: 105MB

Tracklist:
1 Freak Show 7:09
2 Sleeping Beauty 3:42
3 Blue Sea 3:08
4 Black and Blue 3:58
5 Six Feet 3:56
6 Ghost of a Story 3:58
7 Song of Psyche 3:20
8 Lilies 4:28
9 Salute 7:27
10 The Bell 5:04
******************************
Total playing time: 46:10



[more=Technical info]
Input File: 02 - Sleeping Beauty.mp3
Channels : 2
Sample Rate : 44100
Precision : 16-bit
Duration : 00:03:42.08 = 9793816 samples = 16656.1 CDDA sectors
File Size : 8.97M
Bit Rate : 323k
Sample Encoding: MPEG audio (layer I, II or III)
Comments :
Title=Sleeping Beauty
Artist=Iamthemorning
Album=The Bell
Tracknumber=02
Year=2019
Genre=Progressive Rock/Camber Folk

[/more]

Register
(9) A.L.Rapsod, Cartman223, EvgeniusLongus, gwar, lucifix, oldvarg, Olethros, tOmV, Yarri,
Sep 3 2019, 12:45:39 Mgła - Age Of Excuse (2019)
ЦИТАТА(vosmidesijatye @ Sep 3 2019, 07:44:19) *
Зачем че то новое открывать, ведь народец и так ведётся, баблишко в кассу заносит

Бляха, ну ты сам себе еще не надоел? 21.gif
(19) 6666666, Baudolino, BleedingSun, Deze, Exorcist, garmonbozia, Infidel, infiltrator, ivanasyanin, karut, kim666, Kwaad, m00n1ight, Nemez, Old Vyaine, oLdBoy, tormoz, Tular, Vardlokkur,
Aug 26 2019, 21:56:18 Rammstein - Reise, Reise (2004)
Петросямбо.
(2) Deze, plfan93,
Aug 24 2019, 11:00:39 Alcest - Protection [single] (2019)
ЦИТАТА(Dreamtale @ Aug 24 2019, 11:49:52) *
Так и не было никогда, не? ��
Не.
[youtube]mRymk_ncSwg[/youtube]
(1) garmonbozia,
Aug 23 2019, 16:32:53 System Of A Down - Toxicity (2001)
ЦИТАТА(vosmidesijatye @ Aug 23 2019, 14:47:06) *
не можешь мимо пройти просто.
Сказал автор едва ли не половины постов форума. 1488.gif
ЦИТАТА(vosmidesijatye @ Aug 23 2019, 17:05:51) *
Успокойся уже.
https://memepedia.ru/wp-content/uploads/201...т-оригинал.jpeg
(2) Deze, plfan93,
Aug 23 2019, 12:03:29 System Of A Down - Toxicity (2001)
ЦИТАТА(vosmidesijatye @ Aug 22 2019, 20:40:19) *
Зря гонишь волну, Ангар чуть ли не единственный на форуме кто шарит в нюхе и мафаке больше остальных, слушающих пару-тройку самых известных групп.

Ну так а я что-то противоположное этому сказал?
(2) Deze, infiltrator,
Aug 22 2019, 19:34:12 System Of A Down - Toxicity (2001)
ЦИТАТА(Anger @ Aug 22 2019, 19:24:57) *
нафиг, вообще, смотреть на оценки...

что фильмы, что музыка. хочешь - будешь слушать-смотреть. а мнения и оценки всяких додиков не должны волновать совершенно. у меня такой подход

Да можно конечно не смотреть. Да и мнения всяких додиков на форумах можно не читать. Тем более додиков, которые не в теме по сути.
Ну а с другой стороны, а че бы и нет? popcorn.gif
(2) Exorcist, infiltrator,
Aug 22 2019, 17:41:29 System Of A Down - Toxicity (2001)
ЦИТАТА(Old Vyaine @ Aug 21 2019, 19:25:51) *
ХЗ, мне и два первых ЛП не стыдно навернуть под настроение.
Ну я тоже могу как раз первые два навернуть, когда на ностальгию по школоло годам тянет (прадва, лучше ранний КоЯп). Но это не то. К СОАД именно интересно вернуться и сегодня, после прослушки достаточного количества всякой разной другой, не только тяжелой музыки. Новые грани, вот это все. Это действительно интересное музло, в котором есть что расслушивать даже при наличии альтернативы в виде запыра ВООБЩЕ ЛЮБОГО другого альбома мировой музыки (ну ОК, вероятно любого хоть сколько-то годного), чего не было в доинтернетные времена, когда приходилось слушать только то, что смог достать.
ЦИТАТА(Anger @ Aug 21 2019, 19:43:36) *
Nothingface
Static-X
Dry Kill Logic
American Head Charge
Otep

Downthesun (это, вообще, одно из самых сумасшедших и по-хорошему ипанутых явлений в такой музыке. своим единственным альбомом они уже вынесли башку)
Motograter
Ill Nino
Mushroomhead


это помимо всяких слипов, мадвейнов...
Ну не то, что бы вот прямо стыдно, но...
[youtube]n6FyhHBEeFE[/youtube]
ЦИТАТА(Anger @ Aug 21 2019, 19:43:36) *
а всякие СОАДы, просто, сильно стали популярны в совке, поэтому уже в начале нулевых каждый второй додик их гонял на плеере. а группы выше хоть и были коммерческими, но до нас дошли не сразу. и на МТВ их клипы показывали в общем-то не слишком часто (ну по сравнению с корнами, писькетами, соадами и другим надоевшим дерьмом)
Да вообще плевать на популярность, тем более в (пост)совке. Просто одни делают действительно интересно, причем не только для своей тусовочки, а другие норм, но по сути только для нее родимой.
Хотя то, что банды с изначально коммерчески ориентированным музлом добиваются признания на уровне с даже не первыми позициями самых раскрученных экстремальных групп (у которых изначально есть потолок популярности, ввиду стилистики), несколько иронично конечно. 1488.gif
Ну и отдельно в виде пруфов каких-никаких, думаю стоит отметить, что на rym'чике, где "надоевшее дерьмо, которое каждый второй додик гонял на плеере" любят опускать даже слишком низко, СОАД не только не захейтили, но и выдали топовые оценки 3 из 5-ти альбомов. У конкурентов за звание самой популярной мазафаки (окромя Deftones, которых почти не слушал, и ничего не скажу), почему-то ничего такого нет и близко.
Да почти ни у какой мазафаки нет.
(3) BleedingSun, infiltrator, plfan93,
Aug 21 2019, 18:11:15 System Of A Down - Toxicity (2001)
Единственная по-настоящему хорошая и интересная мазафачная группа, которую ни разу не стыдно навернуть даже когда ты уже закончил среднюю школу.
(6) BleedingSun, Deze, Emm Human, infiltrator, Nemez, plfan93,
Aug 21 2019, 11:25:48 Draconian - Turning Season Within (2008)
ЦИТАТА(Exorcist @ Aug 19 2019, 21:01:13) *
10/12.
А я бы тут внезапно все 11/12 поставил.
ЦИТАТА(Exorcist @ Aug 19 2019, 21:01:13) *
P.S. Интересно, почему клавишник, игравший на всех предыдущих работах группы (включая древние демо), на этом альбоме вдруг стал сессионщиком.
Дык завязать видимо решил, а посоны уломали в записи в последний раз поучаствовать наверняка.
(1) Exorcist,
Aug 16 2019, 16:35:17 Клипы (не просто, а ЛУЧШИЕ). Обсуждение с объяснением
Самый любимый. Идеальное на мой взгляд соответствие того, что представляется при прослушивании музыки, и картинки реального клипа:
[youtube]FpuwbyM5BKc[/youtube]
[more=Другие примеры подобного имхового соответствия, или где-то рядом:]
[youtube]me6jwsEPKXc[/youtube]
[youtube]QmYLjQhQL3g[/youtube]
[youtube]WXBWFRY4LUc[/youtube]
[youtube]yusLqIOoKmk[/youtube]
[youtube]tMTAkIDRHiA[/youtube]
[youtube]W9bMRTvmvQQ[/youtube]
[youtube]IGCp3xcrybI[/youtube]
[youtube]zBXWBj7hIzg[/youtube]
[youtube]D0cDmm7Cz_k[/youtube]
[youtube]nRJwTS_2M5M[/youtube]
[youtube]V7DipwzfPOM[/youtube]
[youtube]PsGErp0xLnA[/youtube]
И конечно же Тул. Правда тут видосы откровенно первичны, с них с группой и познакомился. Но подобная дичь после них представляется практически под весь репертуар.
[youtube]yMMz2VwbhVI[/youtube]
[youtube]_z2O289Jemo[/youtube]
[/more][more=Просто мой личный топ-1 клип евер без привязки к музлу:]
[youtube]NeQM1c-XCDc[/youtube]
[/more][more=Лучший неформат:]
[youtube]7jMlFXouPk8[/youtube]
[/more][more=Другие клевые штуки, не подходящие под предыдущие категории, но которые хотелось бы отметить:]
[youtube]karDU2TpDT0[/youtube]
[youtube]067YF8KHdTM[/youtube]
[youtube]u4XevlloPY4[/youtube]
[youtube]eJlN9jdQFSc[/youtube]
[youtube]0zF-ysYpjgk[/youtube]
[youtube]IJkMrl4AG8w[/youtube]
[/more]
(3) Lux, plfan93, Tular,

30 Pages V   1 2 3 > » 
- Lo-Fi Version Support form
Copyrights and abuse reports form
Time is now: 21st November 2019 - 06:48:34