Welcome Guest ( Log In | Register )

История благодарностей участнику rewa ::: Спасибо сказали: 5608 раз(а)
Дата поста: В теме: За сообщение: Спасибо сказали:
Jun 29 2020, 17:53:27 Shallow Waters - Bed Of Snakes (2020)
Как по мне это мелодик-дум финский конца 90-х начала 00-х. Мягкий, нежный и зефирный. Ну и что-то в стиле Clouds проскальзывает в звучании. Блэка почти не нашёл
(1) MeatWolf,
Jun 27 2020, 05:47:15 Mushroomhead - A Wonderful Life (2020)
Отличная шутка тегать пост-гранж авангардом и эксперименталом.

Не слушайте. Не стоит вообще ни минуты вашего времени.
(4) Deze, Ghostb, infiltrator, Starseeker,
Jun 24 2020, 11:26:11 Sombre Héritage - Alpha Ursae Minoris (2020)


*Artist: Sombre Héritage
*Album: Alpha Ursae Minoris
*Year: 2020
*Genre: Black Metal
*Country: Canada
*Format: mp3@CBR320kbps
*Size: 89MB

Tracklist:
1. Polaris 05:22
2. Sombre Héritage 06:32
3. Nature Souillée 07:15
4. Déchéance 04:24
5. Dissidence 06:08
6. Ténèbres 07:07
******************************
Total playing time: 36:48



[more=Extended info]Personal purchase.

Side project from Exu(Hak-ed Damm(QC)).
Sepulchral Productions.[/more]

[more=Technical info]
Input File: Sombre Héritage - Alpha Ursae Minoris - 01 Polaris.mp3
Channels : 2
Sample Rate : 44100
Precision : 16-bit
Duration : 00:05:22.26 = 14211842 samples = 24169.8 CDDA sectors
File Size : 13.0M
Bit Rate : 323k
Sample Encoding: MPEG audio (layer I, II or III)
Comments :
Title=Polaris
Artist=Sombre Héritage
Album=Alpha Ursae Minoris
Tracknumber=1
Year=2020

[/more]

Register
(40) 1968_janeart, alikkon, andivi, atavist, Borya_Tvorogov, Daale, El_Chibo, fuoco, grimoir, Ildjarn, Indamage, infernallord, infiltrator, Jorn777, kalysto, kim666, Kodel, Korpse, Lamby90, LEGION69, lestllk, Moonshtook, Mortuusinfernus, multizwilling, murian, nemx, nsk2008, Olethros, Ostinato, pahail, rammmirez, rimfrost, robertho777, SilentNidhogg, smes, stub888, supremo, VALERY, varlam4, vasiljev_sergej,
Jun 24 2020, 10:53:27 Serment - Chante, Ô Flamme De La Liberté (2020)


*Artist: Serment
*Album: Chante, Ô Flamme De La Liberté
*Year: 2020
*Genre: Atmospheric Black Metal
*Country: Canada
*Format: mp3@CBR320kbps
*Size: 95MB

Tracklist:
1. Ouverture 01:47
2. Sonne, le Glas Funèbre 07:17
3. Par-Delà Collines et Rivières 08:00
4. Flamme Hivernale 07:53
5. Avant que ne Meure la Gloire 08:59
6. Hymne pour la Patrie 06:46
******************************
Total playing time: 40:42



[more=Extended info]Chante, Ô Flamme de la Liberté est le premier album du projet solo de Moribond (Forteresse, Ephemer), Serment. l'opus est un album concept racontant la légende d'un pacte avec le diable et la quête d'un héritage perdu, un voyage sombre et épique au cœur des forêts québécoises enneigées, enfouies par-delà les neiges des époques. Musicalement, bien que la signature épique et grandiose propre à Moribond soit aussi présente que toujours, Serment explore des avenues plus crues et symphoniques que Forteresse. Une superbe nouvelle entrée au sein du panthéon du Métal Noir Québécois!

Personal purchase[/more]

[more=Technical info]
Input File: Serment - Chante, Ô Flamme de la Liberté - 01 Ouverture.mp3
Channels : 2
Sample Rate : 44100
Precision : 16-bit
Duration : 00:01:47.40 = 4736120 samples = 8054.63 CDDA sectors
File Size : 4.45M
Bit Rate : 332k
Sample Encoding: MPEG audio (layer I, II or III)
Comments :
Title=Ouverture
Artist=Serment
Album=Chante, Ô Flamme de la Liberté
Tracknumber=1
Year=2020

[/more]

Register
(49) 1968_janeart, AlexSmith, alikkon, Borya_Tvorogov, Daale, dasreichss, grimoir, Grogro, igore2911, Ildjarn, Indamage, infiltrator, kim666, Kodel, Korpse, Kuratsu, Kwaad, LEGION69, lestllk, Lucju, Ludwig Hagen, Maximvs, metala, Moonshtook, Mortuusinfernus, murian, nemx, nsk2008, Olethros, Ostinato, pahail, rammmirez, robertho777, Sathana, senecazm, sergsazan, Shadechaser, SilentNidhogg, skeletron215, sludge666, smes, Storky, stub888, VALERY, varlam4, vasiljev_sergej, Velmi, Vraithee, Авел,
Jun 13 2020, 14:26:44 October Falls - A Fall Of An Epoch (2020)
mp3 320CBR CD-Rip 108Mb
Register


FLAC (tracks) lossless CD-Rip 323Mb
Register
(2) AndreasS, VLADISLAV_V_K,
Jun 6 2020, 18:49:18 Assassination - Seeds Of The Master (2020)


*Artist: Assassination
*Album: Seeds Of The Master
*Year: 2020
*Genre: Psychedelic Rock/Black Metal
*Country: Germany
*Format: mp3@CBR320kbps
*Size: 91MB

Tracklist:
1. Seeds of the master 05:02
2. Demigods in black 05:02
3. Nostalgia 04:18
4. Old mother serpent 05:25
5. Nowadays 06:31
6. Plague revival 05:19
7. A ballad you have been waiting for 06:24
******************************
Total playing time: 38:01




[more=Extended info]Personal purchase[/more]

[more=Technical info]
Input File: Assassination - Seeds of the master - 01 Seeds of the master.mp3
Channels : 2
Sample Rate : 44100
Precision : 16-bit
Duration : 00:05:02.10 = 13322434 samples = 22657.2 CDDA sectors
File Size : 12.3M
Bit Rate : 325k
Sample Encoding: MPEG audio (layer I, II or III)
Comments :
Title=Seeds of the master
Artist=Assassination
Album=Seeds of the master
Tracknumber=1
Year=2020

[/more]

Register
(34) acerbus, ahp, Boozer, Buregon, Bzth, chipsgott, Daale, Der_Hexer, gena, grimoir, infiltrator, judaz, Korpse, Lukittaz, Moonshtook, oldvarg, Olethros, ondrazevsi, Ostinato, Raw1488, robertho777, Rosen, russ777, SatanicPanzer, skinnyboo, soulskinner681, stub888, tormoz, varlam4, vasiljev_sergej, Wail, Wotanwatch, xska, yuratroll,
Jun 1 2020, 20:37:55 Akolyth - Akolyth (2020)


*Artist: Akolyth
*Album: Akolyth
*Year: 2020
*Genre: Black Metal
*Country: Unknown
*Format: mp3@CBR320kbps
*Size: 86MB

Tracklist:
1. A Work Of Ages 09:01
2. The Night, The Fog 09:08
3. What Dwells Between Fractured Worlds 09:18
4. To Become His Doorway 09:18
******************************
Total playing time: 36:45



[more=Extended info]Written and recorded during 2019/2020 by Sphere with session for additional instruments, arrangements and production by D.

Recorded, mixed and mastered at Opus Magnum Studios, Brussels.
Released by Amor Fati Productions

Спектр - особенность релиза. Взято с официальной страницы bandcamp.[/more]

[more=Technical info]
Input File: Akolyth - Akolyth - 01 A Work Of Ages.mp3
Channels : 2
Sample Rate : 44100
Precision : 16-bit
Duration : 00:09:01.29 = 23870757 samples = 40596.5 CDDA sectors
File Size : 21.9M
Bit Rate : 323k
Sample Encoding: MPEG audio (layer I, II or III)
Comments :
Title=A Work Of Ages
Artist=Akolyth
Album=Akolyth
Tracknumber=1
Year=2020

[/more]

Register
(30) 1968_janeart, Alexis The Best, alikkon, atavist, Doooomed, exorcist1969, frostdomain, Hell_Is_Here, infiltrator, kim666, Lamby90, legion01, lestllk, Ludwig Hagen, multizwilling, murian, nemx, Occultas, Olethros, randumbum, robertho777, Rosen, SilentNidhogg, smes, Tino, VALERY, varlam4, vasiljev_sergej, Velmi, Wail,
May 30 2020, 18:11:48 Yfel 1710 - Willa Wisielców (2020)


*Artist: Yfel 1710
*Album: Willa Wisielców
*Year: 2020
*Genre: Black Metal
*Country: Poland
*Format: mp3@CBR320kbps
*Size: 99MB

Tracklist:
1. Szpital Przemienienia - KORTAU 07:57
2. Warszawska 107 07:14
3. Dead Landscape 08:17
4. Zachowaj mnie 05:46
5. 1710 08:00
6. Barczewskie Noce 03:58
******************************
Total playing time: 41:12



[more=Extended info]Personal purchase.

The past is alive thanks to albums like Yfel1710’s debut full length.
6 tracks of oppressive, possessed and clearly evil black metal delivered by Klimorh (Non Opus Dei) and his new band. Sickening and imbued with old horrors of Varmia, “Willa Wisielców” summons the ghosts of long gone days by paying tribute to the genre’s second wave, but on the other hand shines with its own pitch-black identity that makes it extremely relevant in this day and age.

The stellar artwork done by Robert A. von Ritter only adds to the final effect.[/more]

[more=Technical info]
Input File: YFEL 1710 - Willa Wisielców - 01 Szpital Przemienienia - KORTAU.mp3
Channels : 2
Sample Rate : 44100
Precision : 16-bit
Duration : 00:07:57.28 = 21048180 samples = 35796.2 CDDA sectors
File Size : 19.4M
Bit Rate : 325k
Sample Encoding: MPEG audio (layer I, II or III)
Comments :
Title=Szpital Przemienienia - KORTAU
Artist=YFEL 1710
Album=Willa Wisielców
Tracknumber=1
Year=2020

[/more]

Register
(27) 0x13, 1968_janeart, alikkon, atavist, Branis, Bzth, infiltrator, kim666, Lamby90, legion01, lestllk, multizwilling, nsk2008, Olethros, Orkkh, randumbum, robertho777, Rosen, SilentNidhogg, toly1917, VALERY, vasiljev_sergej, Velmi, vov7609, wolverine, wtk.412, yuratroll,
May 29 2020, 19:34:12 Weresoul - Weresoul (2020)
FLAC 241Mb
Register

YFEL 1710 - Willa Wisielców (2020) will be soon in HQ.
(4) Evilded, infiltrator, Olethros, wtk.412,
May 29 2020, 18:34:06 Weresoul - Weresoul (2020)


*Artist: Weresoul
*Album: Weresoul
*Year: 2020
*Genre: Black/Heavy Metal
*Country: Poland
*Format: mp3@CBR320kbps
*Size: 82MB

Tracklist:
1. Requiem for a Weresoul 05:00
2. The Beast 03:54
3. Hexit 05:52
4. Eight Houses of Might 04:54
5. Til Nothing Remains 06:33
6. Shell Trader 07:05
******************************
Total playing time: 33:18



[more=Extended info]Personal purchase.

Malignant Voices[/more]

[more=Technical info]
Input File: WERESOUL - Weresoul - 01 Requiem for a Weresoul.mp3
Channels : 2
Sample Rate : 44100
Precision : 16-bit
Duration : 00:05:00.09 = 13233749 samples = 22506.4 CDDA sectors
File Size : 12.2M
Bit Rate : 326k
Sample Encoding: MPEG audio (layer I, II or III)
Comments :
Title=Requiem for a Weresoul
Artist=WERESOUL
Album=Weresoul
Tracknumber=1
Year=2020

[/more]

Register
(24) atavist, BugEyes, Bzth, Evilded, fuoco, infiltrator, lestllk, Lukittaz, metala, multizwilling, Olethros, Ostinato, randumbum, Rosen, sabr, sergsazan, stumpheavyrock, VALERY, vasiljev_sergej, vov7609, Wail, wolverine, wtk.412, yuratroll,
May 29 2020, 15:49:53 Bethor - Natas Liah (2020)
ЦИТАТА(Alexis The Best @ May 29 2020, 13:28:10) *
please re-up
download link don't work correctly


mp3 320kbps
Register
(3) Alexis The Best, ondrazevsi, robertho777,
May 28 2020, 16:59:41 Ciel Nordique - Ii [ep] (2020)
ЦИТАТА(isvili @ May 28 2020, 16:18:06) *
Это не ЕР, а Full-length

По таймингам релиза не тянет на полноценный full lenght, да и ссылаться на МА в 2020 - ну такое себе. Сами артисты говорят следующее на своём Facebook: "Après 15 ans d'absence, en cette journée nationale des patriotes, voici notre nouveau EP intitulé "II''."


Думаю, на этом спор о принадлежности релиза к LP/EP можно считать закрытым.

ЦИТАТА(Dark_Viking @ May 28 2020, 12:51:37) *
Может у автора этой публикации найдется)

Этот релиз я покупал вообще не для себя, а для и по просьбе Руслана из Frozenwoods. Собственно он его и постил в блэкволе.

ЦИТАТА(Dark_Viking @ May 28 2020, 12:04:33) *
Отлично! Спасибо, залейте лося по возможности, пожалуйста.

Завтра утром, может, сделаю.

FLAC 320Mb
Register
(4) Daale, Dark_Viking, Lukittaz, Olethros,
May 28 2020, 07:22:10 Ciel Nordique - Ii [ep] (2020)


*Artist: Ciel Nordique
*Album: Ii [ep]
*Year: 2020
*Genre: Atmospheric Black Metal
*Country: Canada
*Format: mp3@CBR320kbps
*Size: 64MB

Tracklist:
1. Mon fils 04:48
2. Bleu ciel 05:30
3. La Ouelle 05:06
4. Ciel étoilé 04:15
5. Ne m'oublie pas 04:32
6. Plus fort que tout 03:12
******************************
Total playing time: 27:23



[more=Extended info]Personal purchase.

Métal Noir Québécois[/more]

[more=Technical info]
Input File: Ciel Nordique - II - 01 Mon fils.mp3
Channels : 2
Sample Rate : 44100
Precision : 16-bit
Duration : 00:04:48.09 = 12704945 samples = 21607 CDDA sectors
File Size : 11.6M
Bit Rate : 321k
Sample Encoding: MPEG audio (layer I, II or III)
Comments :
Title=Mon fils
Artist=Ciel Nordique
Album=II
Tracknumber=1
Year=2020

[/more]

Register
(40) 1968_janeart, aleon, Corpuscul, Daale, Dark_Viking, dasreichss, Druidir, gav-gafi, gnosiis, HMHamster, infiltrator, kim666, Kodel, kryptor, lestllk, Lukittaz, multizwilling, murian, nemx, nsk2008, Olethros, Ostinato, peppuzzo, rammmirez, randumbum, robertho777, Rosen, russ777, SaintVitus, senecazm, sergsazan, Shadechaser, SilentNidhogg, smes, stub888, TeamatSE, VALERY, vasiljev_sergej, zbysio, Авел,
May 28 2020, 07:13:12 Bašmu - The Encircling (2020)


*Artist: Bašmu
*Album: The Encircling
*Year: 2020
*Genre: Raw Black Metal
*Country: Canada
*Format: mp3@CBR320kbps
*Size: 98MB

Tracklist:
1. The Encircling 07:16
2. Summoning Lesser Demons 02:51
3. Rite Of Transformation 03:11
4. The Depths Of Infinity 06:13
5. Banishing Ritual 03:53
6. Power Over Perception 03:42
7. Underwater Crypts 03:16
8. Spells Of Fury 02:56
9. Astral Parasites 05:05
10. Through Winding Labyrinths 03:43
******************************
Total playing time: 42:06



[more=Extended info]Personal purchase[/more]

[more=Technical info]
Input File: Bašmu - The Encircling - 01 The Encircling.mp3
Channels : 2
Sample Rate : 44100
Precision : 16-bit
Duration : 00:07:16.87 = 19265923 samples = 32765.2 CDDA sectors
File Size : 17.7M
Bit Rate : 324k
Sample Encoding: MPEG audio (layer I, II or III)
Comments :
Title=The Encircling
Artist=Bašmu
Album=The Encircling
Tracknumber=1
Year=2020

[/more]

Register
(28) 1968_janeart, aleon, Alexis The Best, alikkon, atavist, exorcist1969, Hell_Is_Here, HviteGuden, infiltrator, judaz, kim666, Lamby90, lestllk, Ludwig Hagen, multizwilling, nemx, Olethros, Orkkh, randumbum, Rosen, SilentNidhogg, smysl, stub888, supremo, Tyrone, VALERY, varlam4, vasiljev_sergej,
May 22 2020, 17:59:56 Árstíðir Lífsins - Saga Á Tveim Tungum Ii: Eigi Fjǫll Né Firðir (2020)
FLAC 457Mb
Register
(18) AHBAnep, andivi, Andr, AndreasS, Daemoniacvs, Farung, igore2911, Kongsblod, kranger, Lux, Mares, Maximvs, MetalAreola, mlnt, nemx, Olethros, sTerLingaz, toto,
May 22 2020, 10:26:15 Árstíðir Lífsins - Saga Á Tveim Tungum Ii: Eigi Fjǫll Né Firðir (2020)


*Artist: Árstíðir Lífsins
*Album: Saga Á Tveim Tungum Ii: Eigi Fjǫll Né Firðir
*Year: 2020
*Genre: Folk Black Metal
*Country: International
*Format: mp3@CBR320kbps
*Size: 172MB

Tracklist:
1. Ek býð þik velkominn 06:10
2. Bróðir, var þat þín hǫnd 03:52
3. Sem járnklær nætr dragask nærri 10:09
4. Gamalt ríki faðmar þá grænu ok svǫrtu hringi lífs ok aldrslita 07:59
5. Um nætr reika skepnr 05:54
6. Heiftum skal mána kveðja 05:30
7. Er hin gullna stjarna skýjar slóðar rennr rauð 08:42
8. nóttu, mér dreymir þursa þjóðar sjǫt brennandi 08:19
9. Ek sá halr at Hóars veðri hǫsvan serk Hrísgrísnis bar 17:40
******************************
Total playing time: 1:14:15



[more=Extended info]Personal purchase[/more]

[more=Technical info]
Input File: Árstíðir lífsins - Saga á tveim tungum II- Eigi fjǫll né firðir - 01 Ek býð þik velkominn.mp3
Channels : 2
Sample Rate : 44100
Precision : 16-bit
Duration : 00:06:10.25 = 16328157 samples = 27769 CDDA sectors
File Size : 15.0M
Bit Rate : 324k
Sample Encoding: MPEG audio (layer I, II or III)
Comments :
Title=Ek býð þik velkominn
Artist=Árstíðir lífsins
Album=Saga á tveim tungum II: Eigi fjǫll né firðir
Tracknumber=1
Year=2020

[/more]

Register
(72) 1968_janeart, alikkon, Angeldemon617, Aresson, Black Cat, Boozer, Cartman223, Cavemania, cesar, craP_cillA, d0zer, Daemoniacvs, Druidir, exorcist1969, Fallen Soul, gwar, Hell_Is_Here, Infidel, infiltrator, Irimias, kim666, Korpse, kranger, Lamby90, Lunaris, mart2203, Maximvs, Messian, milosdjor, Mogozoz, Moonshtook, Mortuusinfernus, murian, nadin85, nemx, nsk2008, okarodb, Old Vyaine, Olethros, ondrazevsi, Ostinato, pahail, peppuzzo, r1348, rammmirez, randumbum, robertho777, Rosen, RUDACHUR, SaintVitus, SatanicPanzer, satanist666, Shagarth21, SilentNidhogg, smes, smysl, squall8fr, stub888, Surt, tamerz, terron, toto, VALERY, varlam4, vasiljev_sergej, Velmi, wolverine, xska, yuratroll, zhol, Авел, Сварог Барг,
May 21 2020, 12:15:17 Feral Light - Life Vapor (2020)


*Artist: Feral Light
*Album: Life Vapor
*Year: 2020
*Genre: Black Metal/Black'n'roll
*Country: United States
*Format: mp3@CBR320kbps
*Size: 90MB

Tracklist:
1. Blood in Sand 07:32
2. Assuage 06:36
3. Walking Tomb 07:18
4. Last Grasp Invocation 07:26
5. Hex of Inverses 05:30
6. In Summation 05:03
******************************
Total playing time: 39:25



[more=Technical info]
Input File: 1 - Blood in Sand.mp3
Channels : 2
Sample Rate : 44100
Precision : 16-bit
Duration : 00:07:32.83 = 19969979 samples = 33962.5 CDDA sectors
File Size : 18.1M
Bit Rate : 321k
Sample Encoding: MPEG audio (layer I, II or III)
Comments :
Title=Blood in Sand
Artist=Feral Light
Album=Life Vapor
Tracknumber=1
Year=2020
Genre=Alternative / Indie Rock / Metal
Discnumber=1

[/more]

Register
(18) atavist, Bzth, Hell_Is_Here, infiltrator, Lamby90, lestllk, Olethros, ondrazevsi, Ostinato, randumbum, Rosen, sludge666, supremo, terron, VALERY, varlam4, vasiljev_sergej, Yorker,
May 15 2020, 21:34:29 October Falls - A Fall Of An Epoch (2020)


*Artist: October Falls
*Album: A Fall Of An Epoch
*Year: 2020
*Genre: Atmospheric Black Metal/Neofolk
*Country: Finland
*Format: mp3@CBR320kbps
*Size: 108MB

Tracklist:
1. A Fall Of An Epoch 11:02
2. The Endtimes Rising 10:06
3. The Ruins Of What Once Was 08:09
4. Hammering The Tide 09:32
5. The Flood Of Drought 08:29
******************************
Total playing time: 47:18



[more=Technical info]
Input File: 01 - A Fall of an Epoch.mp3
Channels : 2
Sample Rate : 48000
Precision : 16-bit
Duration : 00:11:00.99 = 31727376 samples ~ 49574 CDDA sectors
File Size : 26.6M
Bit Rate : 322k
Sample Encoding: MPEG audio (layer I, II or III)
Comments :
Title=A Fall of an Epoch
Artist=October Falls
Album=A Fall of an Epoch
Tracknumber=1
Year=2020

[/more]

Register
(83) 1968_janeart, 555, 6666666, 666days, ahp, alikkon, Andr, Angeldemon617, Aresson, Black Cat, blackdeath, Boozer, Borya_Tvorogov, Cartman223, chefo, chromeskull88, cist, craP_cillA, daemonarch, ded_vasja, doomTemplar, exorcist1969, Femto, Fryz, fylopaloma, garml2, Indamage, Infidel, infiltrator, JD666Hellion, Kalnasra, kim666, Korpse, krotovich, Lamby90, lucifix, Lukittaz, Metalass, milosdjor, multizwilling, nadin85, nemx, nikolay81, nsk2008, nsmetalhead, Old Vyaine, oldvarg, Olethros, Olrak, pahail, Painkiller, peppuzzo, Phlebotomized, princeshr, randumbum, recber, Reverend, robertho777, Rosen, RUDACHUR, sacredserenity, SaintVitus, sandr666, SatanicPanzer, satanist666, savatage13, Scuns, senecazm, sergsazan, Shadechaser, singrad, SS2998, stone88, SyncestrA, talismanFS, TeamatSE, troll_swamp, VALERY, varlam4, vasiljev_sergej, yuratroll, zhol, Авел,
May 14 2020, 20:36:00 Acxdc - Satan Is King (2020)


*Artist: Acxdc
*Album: Satan Is King
*Year: 2020
*Genre: Grindcore/Powerviolence
*Country: United States
*Format: mp3@CBR320kbps
*Size: 58MB

Tracklist:
01. Singe
02. Mouth Breather
03. Gorged
04. Satan is King
05. Turncoat
06. Matapacos
07. Copsucker
08. Propaganda of the Deed
09. Exercise in Futility
10. Urban Blight
11. Come out Fighting
12. Revenge
13. Ashes to Ashes
14. Back in Black Bloc
15. Maggot Museum
******************************
Total playing time: 23:13



[more=Technical info]
Input File: 1. Singe.mp3
Channels : 2
Sample Rate : 44100
Precision : 16-bit
Duration : 00:00:55.72 = 2457340 samples = 4179.15 CDDA sectors
File Size : 2.56M
Bit Rate : 367k
Sample Encoding: MPEG audio (layer I, II or III)
Comments :
Title=Singe
Artist=ACxDC
Album=Satan is King
Tracknumber=01
Year=2020
Discnumber=1

[/more]

Register
(14) atavist, Cruor, FUDEDOR, infiltrator, Leolomb, Olethros, Ostinato, Rosen, SatanicPanzer, sludge666, spazm, varlam4, xax, Zhelezjaka,
May 11 2020, 21:07:51 Iku-Turso - Pakana (2020)


*Artist: Iku-Turso
*Album: Pakana
*Year: 2020
*Genre: Black Metal
*Country: Finland
*Format: mp3@CBR320kbps
*Size: 102MB

Tracklist:
1. Kuolematon 06:55
2. Bellum 04:52
3. Ashes 05:35
4. Ultionis 05:20
5. Funus 06:12
6. Suru 01:36
7. Wanderer 05:36
8. Itse 00:57
9. Solace 05:41
******************************
Total playing time: 42:44



[more=Technical info]
Input File: 02 - Bellum.mp3
Channels : 2
Sample Rate : 44100
Precision : 16-bit
Duration : 00:04:51.62 = 12860618 samples = 21871.8 CDDA sectors
File Size : 12.1M
Bit Rate : 333k
Sample Encoding: MPEG audio (layer I, II or III)
Comments :
Title=Bellum
Artist=Iku-Turso
Album=Pakana
Tracknumber=2
Year=2020
Genre=138

[/more]

Register
(41) 1968_janeart, ahp, alexxxandrougs, alikkon, andivi, atavist, Boozer, Bzth, Constantinus I, craP_cillA, Dark_Viking, exorcist1969, Ildjarn, infiltrator, isvili, judaz, kim666, Korpse, Lamby90, MMMMM, Moonshtook, multizwilling, nadin85, nsk2008, Oath19, Old Vyaine, oldvarg, Olethros, peppuzzo, randumbum, robertho777, Rosen, SaintVitus, SilentNidhogg, Strygaldwir, stub888, Surt, VALERY, varlam4, vasiljev_sergej, vovenom,
May 11 2020, 20:54:18 Midnight Odyssey & Igric & Aeon Winds - Ardorem [split] (2020)


*Artist: Midnight Odyssey & Igric & Aeon Winds
*Album: Ardorem [split]
*Year: 2020
*Genre: Atmospheric Black Metal | Pagan/Ambient Black Metal | Atmospheric Black Metal
*Country: Australia | Slovakia | Slovakia
*Format: mp3@CBR320kbps
*Size: 80MB

Tracklist:
Midnight Odyssey:
01. Cold Winds Are a Distant Dream Final
Igric:
02. Senescent Warrior
03. Memories Carved in Stone
Aeon Winds:
04. Under the Matle of Snow
05. Cold Night
06. The Fire of the Gods
******************************
Total playing time: 34:23

[more=Technical info]
Input File: 01 - Midnight Odyssey Cold Winds Are a Distant Dream Final.mp3
Channels : 2
Sample Rate : 44100
Precision : 16-bit
Duration : 00:08:06.87 = 21471143 samples = 36515.5 CDDA sectors
File Size : 19.7M
Bit Rate : 324k
Sample Encoding: MPEG audio (layer I, II or III)
Comments :
Title=Cold Winds Are a Distant Dream Final
Artist=Midnight Odyssey
Album=Ardorem
Tracknumber=1
Year=2020

[/more]

Register
(41) 1968_janeart, ahp, andivi, Der_Hexer, dim0ntius, Druidir, Evjenne, fallen, Fallen Soul, Faust2016, Femto, garml2, gav-gafi, gena, Hell_Is_Here, Henmik, Ildjarn, infiltrator, Kazoth, kim666, Lanceatum, lestllk, lordbathor, Maximvs, nemx, nsk2008, Olethros, randumbum, recber, Reverend, robertho777, Rosen, senecazm, singrad, Slavas, Torop, varlam4, vasiljev_sergej, Wilk666, zargonath, Авел,
May 7 2020, 16:32:39 Secrets Of The Moon - Black House (2020)
Тот самый суровый немецкий блэк в стиле Diary of Dreams
(12) Bloodn Lord, Brann, Daale, dsp, Evjenne, Ghostb, infiltrator, nsk2008, Starseeker, suseka, Thiarnan, Tular,
Apr 30 2020, 20:26:23 An Autumn For Crippled Children - All Fell Silent, Everything Went Quiet (2020)


*Artist: An Autumn For Crippled Children
*Album: All Fell Silent, Everything Went Quiet
*Year: 2020
*Genre: Shoegaze/Post-Black Metal
*Country: Netherlands
*Format: mp3@CBR320kbps
*Size: 91MB

Tracklist:
1. I Became You 04:49
2. Water's Edge 04:49
3. Everlasting 03:28
4. Paths 04:50
5. Silver 03:03
6. None More Pale 03:45
7. All Fell Silent, Everything Went Quiet 03:35
8. The Failing Senses 03:28
9. Craving Silence 04:23
10. Distance 03:23
******************************
Total playing time: 39:33



[more=Technical info]
Input File: 1 - I Became You.mp3
Channels : 2
Sample Rate : 44100
Precision : 16-bit
Duration : 00:04:49.77 = 12778813 samples = 21732.7 CDDA sectors
File Size : 11.6M
Bit Rate : 321k
Sample Encoding: MPEG audio (layer I, II or III)
Comments :
Title=I Became You
Artist=An Autumn for Crippled Children
Album=All Fell Silent, Everything Went Quiet
Tracknumber=1
Year=2020
Genre=Metal
Discnumber=1

[/more]

Register
(32) 0x13, BERZERK, Femto, gena, HMHamster, infiltrator, kim666, lestllk, Lunaris, MMMMM, Moonlover, nemx, Old Vyaine, Olethros, Ostinato, pahail, Paradayz, popen13, randumbum, robertho777, Rosen, SameMan, satanist666, Shadechaser, SilverBeast, sludge666, varlam4, vasiljev_sergej, Velmi, Yorker, yuratroll, Герб,
Apr 27 2020, 08:16:29 Azziard - Exegese (2020)
mp3 320 CBR 103Mb

Register
(4) AlexSmith, Corpuscul, frostdomain, sacramentary,
Apr 24 2020, 19:50:02 Golden Light - Sacred Colour Of The Source Of Light [ep] (2020)


*Artist: Golden Light
*Album: Sacred Colour Of The Source Of Light [ep]
*Year: 2020
*Genre: Black Metal
*Country: United States
*Format: mp3@CBR320kbps
*Size: 74MB

Tracklist:
1. Sceptre of Solar Idolatry 03:45
2. The Western Gate 09:18
3. Dawn of History 07:28
4. Sacred Colour of the Source of Life 11:59
******************************
Total playing time: 32:30



[more=Extended info]A mysterious duo hailing from parts unknown, GOLDEN LIGHT are as unique as their moniker suggests. In a black metalled context, their spectral sorrows shoot a brilliance that's blinding and bellicose in equal measure: a mystical, sun-drenched swarm of sound that embodies and defies black metal simultaneously, orthodoxy UN-done and recast. This golden light radiates through E. Henderson, who handles all instruments and sounds, and vocalist Meghan Wood. But their sonic conjecture will still surprise you...

Or, allow GOLDEN LIGHT to describe themselves thusly: "A procession of the damned. By the damned, I mean the excluded... Battalions of the accursed, captained by pallid data that we have exhumed, will march. You'll read them—or they'll march. Some of them livid and some of them fiery and some of them rotten. Some of them are corpses, skeletons, mummies, twitching, tottering, animated by companions that have been damned alive. There are pale stenches and gaunt superstitions and mere shadows and lively malices: whims and amiabilities. The naïve and the pedantic and the bizarre and the grotesque and the sincere and the insincere, the profound and the puerile. The ultra-respectable, but the condemned, anyway...they will march. We have gone into the outer darkness of scientific and philosophical transactions and proceedings, ultra-respectable, but covered with the dust of disregard. We have descended into abyss and have come back with the quasi-souls of lost data... We will march."

Nightside whispers, vapor trails of shattered melody, glacial pulse, strident minimalism vs. subverted maximalism: so much lurks within Sacred Colour of the Source of Light. In a time-evaporating/expanding 33 minutes, GOLDEN LIGHT conjure forth four tracks of nearly all-epic construction, each one its own canvas of madness and mysticism. New colors, new shapes...old colors, old shapes...the sensations are simultaneously familiar and foreign. IRON BONEHEAD is honored to march alongside GOLDEN LIGHT.[/more]

[more=Technical info]
Input File: 01 - Sceptre of Solar Idolatry.mp3
Channels : 2
Sample Rate : 44100
Precision : 16-bit
Duration : 00:03:45.95 = 9964307 samples = 16946.1 CDDA sectors
File Size : 9.19M
Bit Rate : 326k
Sample Encoding: MPEG audio (layer I, II or III)
Comments :
Title=Sceptre of Solar Idolatry
Artist=Golden Light
Album=Sacred Colour of the Source of Light
Tracknumber=1
Year=2020-04-24
Genre=Alternative; Indie Rock; Metal
Discnumber=1

[/more]

Register
(20) 1968_janeart, dead4, Doooomed, Hell_Is_Here, infiltrator, kim666, lestllk, multizwilling, Olethros, Ostinato, randumbum, robertho777, satanist666, SilentNidhogg, stub888, Tyrone, VALERY, varlam4, vasiljev_sergej, Wolftribes,

11 Pages V   1 2 3 > » 
- Lo-Fi Version Support form
Copyrights and abuse reports form
Time is now: 7th July 2020 - 10:36:07