Welcome Guest ( Log In | Register )

История благодарностей участнику rewa ::: Спасибо сказали: 4514 раз(а)
Дата поста: В теме: За сообщение: Спасибо сказали:
Nov 29 2019, 09:23:07 Toluca - Soras (2019)


*Artist: Toluca
*Album: Soras
*Year: 2019
*Genre: Post Black Metal
*Country: Russian Federation
*Format: mp3@CBR320kbps
*Size: 116MB

Tracklist:
1. Leraje 08:52
2. Orobas 03:31
3. Murmur 03:04
4. Shax 04:43
5. Vassago 05:15
6. Raum 06:51
7. Gusion 06:31
8. Buer 05:29
9. Sallos (feat. Kent Aoki) 06:32
******************************
Total playing time: 50:48



[more=Technical info]
Input File: 1 - Leraje.mp3
Channels : 2
Sample Rate : 44100
Precision : 16-bit
Duration : 00:08:52.90 = 23500934 samples = 39967.6 CDDA sectors
File Size : 21.4M
Bit Rate : 321k
Sample Encoding: MPEG audio (layer I, II or III)
Comments :
Title=Leraje
Artist=Toluca
Album=Soras
Tracknumber=1
Year=2019
Genre=Metal
Discnumber=1

[/more]

Register
(14) 1968_janeart, alikkon, judaz, kim666, MeatWolf, metaljosue, murian, Olethros, Ostinato, robertho777, Rosen, VALERY, vasiljev_sergej, Yanek,
Nov 27 2019, 16:35:03 Andvaka - Andvana (2019)


*Artist: Andvaka
*Album: Andvana
*Year: 2019
*Genre: Death/Doom Metal
*Country: Iceland
*Format: mp3@CBR320kbps
*Size: 96MB

Tracklist:
1. Partur I 08:05
2. Partur II 11:28
3. Partur III 20:34
******************************
Total playing time: 40:07



[more=Extended info]The Melancholic Doom metal trio ANDVAKA have created a truly spectacular work. ANDVAKA meaning the state of insomnia, and direct translation would be spirit invocation, a fitting name for a highly spiritual post doom band.

- The title ANDVANA means stillbirth and it is both its own and its reflection, born without meaning or purpose only for the pain and detriment of their creators, the harrowing feeling of regret and unenlightenment.

ANDVAKA is founded in 2019 in Reykjavík Iceland.[/more]

[more=Technical info]
Input File: Andvaka - Andvana - 01 Partur I.mp3
Channels : 2
Sample Rate : 44100
Precision : 16-bit
Duration : 00:08:05.09 = 21392645 samples = 36382 CDDA sectors
File Size : 19.5M
Bit Rate : 322k
Sample Encoding: MPEG audio (layer I, II or III)
Comments :
Title=Partur I
Artist=Andvaka
Album=Andvana
Tracknumber=1
Year=2019

[/more]

Register
(22) alikkon, andreikun, autumnwood, Den_M, Doooomed, Evilded, infozahist, Lunaris, marilin, multizwilling, Olethros, Ostinato, robertho777, Rosen, RUDACHUR, Samaritianin, Sanctus, sergsazan, Shadechaser, StoneTemple, VALERY, vyacheslav,
Nov 22 2019, 09:51:16 Diploid - Glorify (2019)


*Artist: Diploid
*Album: Glorify
*Year: 2019
*Genre: Powerviolence/Grindcore/Black Metal
*Country: Australia
*Format: mp3@CBR320kbps
*Size: 59MB

Tracklist:
1. Intrusive 01:35
2. One-Minute Cure 00:25
3. Less 01:14
4. A Natural Death 01:06
5. Daisy's Red Room 01:10
6. Glorify 00:55
7. No Funeral 02:01
8. Homicidal Art 02:15
9. Growing, Learning 00:38
10. Skin Separation 01:33
11. No Current Present 01:45
12. Mind Like Clouds, Yet It's Storming 01:04
13. Dissolve Myself 01:51
14. Grandiose Delusions 00:51
15. The Narrator of Suicide 05:19
******************************
Total playing time: 23:42



[more=Technical info]
Input File: 1 - Intrusive.mp3
Channels : 2
Sample Rate : 44100
Precision : 16-bit
Duration : 00:01:35.80 = 4224604 samples = 7184.7 CDDA sectors
File Size : 4.10M
Bit Rate : 343k
Sample Encoding: MPEG audio (layer I, II or III)
Comments :
Title=Intrusive
Artist=Diploid
Album=Glorify
Tracknumber=1
Year=2019
Genre=Rock;Metal
Discnumber=1

[/more]

Register
(7) atavist, Olethros, Rosen, Sanctus, sludge666, VALERY, wgs73,
Nov 15 2019, 17:15:29 Naga - Void Cult Rising (2019)


*Artist: Naga
*Album: Void Cult Rising
*Year: 2019
*Genre: Blackened Sludge/Doom Metal
*Country: Italy
*Format: mp3@CBR320kbps
*Size: 102MB

Tracklist:
1. Only a God Can't Save Us 06:05
2. Melete 07:54
3. Bedim the Sun 05:16
4. Thanatou 05:28
5. Pyre 05:45
6. Void Cult Rising 13:59
******************************
Total playing time: 44:27



[more=Technical info]
Input File: 1 - Only a God Can\'t Save Us.mp3
Channels : 2
Sample Rate : 44100
Precision : 16-bit
Duration : 00:06:05.50 = 16118506 samples = 27412.4 CDDA sectors
File Size : 14.7M
Bit Rate : 322k
Sample Encoding: MPEG audio (layer I, II or III)
Comments :
Title=Only a God Can't Save Us
Artist=Naga
Album=Void Cult Rising
Tracknumber=1
Year=2019
Genre=Metal
Discnumber=1

[/more]

Register
(11) chickenfucker, denver, Hell_Is_Here, marilin, Olethros, Ostinato, robertho777, Rosen, stub888, VALERY, wtk.412,
Nov 15 2019, 16:45:32 Ateiggär - Us D‘R Höll Chunnt Nume Zyt (2019)


*Artist: Ateiggär
*Album: Us D‘R Höll Chunnt Nume Zyt
*Year: 2019
*Genre: Black Metal
*Country: Switzerland
*Format: mp3@CBR320kbps
*Size: 63MB

Tracklist:
1. En Seelefunke 01:15
2. Und d Korybante tanzed in Sturm 07:17
3. Us d’r Höll chunnt nume Zyt 06:06
4. En Blinde namens Duracotus 06:24
5. De Dämon us Levania 06:12
******************************
Total playing time: 27:14



[more=Technical info]
Input File: 1 - En Seelefunke.mp3
Channels : 2
Sample Rate : 44100
Precision : 16-bit
Duration : 00:01:15.11 = 3312175 samples = 5632.95 CDDA sectors
File Size : 3.13M
Bit Rate : 333k
Sample Encoding: MPEG audio (layer I, II or III)
Comments :
Title=En Seelefunke
Artist=Ateiggär
Album=Us d‘r Höll chunnt nume Zyt
Tracknumber=1
Year=2019
Genre=Metal
Discnumber=1

[/more]

Register
(24) 1968_janeart, andivi, atavist, Fryz, fuoco, gena, helvetesrike, isvili, kim666, Korpse, lestllk, murian, Occultas, older68, Olethros, Ostinato, Radek, robertho777, Rosen, SilentNidhogg, stub888, Tankard, VALERY, vasiljev_sergej,
Nov 14 2019, 22:14:23 (Dolch) - Feuer (2019)


*Artist: (Dolch)
*Album: Feuer
*Year: 2019
*Genre: Doom/Black Metal
*Country: Germany
*Format: mp3@CBR320kbps
*Size: 115MB

Tracklist:
1. Burn 05:49
2. Halo (Afraid Of The Sun) 07:12
3. A Funeral Song 07:56
4. A Love Song 04:25
5. Psalm 7 06:13
6. Mahnmal 09:45
7. Feuer 08:59
******************************
Total playing time: 50:19



[more=Technical info]
Input File: 1 - Burn.mp3
Channels : 2
Sample Rate : 44100
Precision : 16-bit
Duration : 00:05:49.88 = 15429576 samples = 26240.8 CDDA sectors
File Size : 14.0M
Bit Rate : 320k
Sample Encoding: MPEG audio (layer I, II or III)
Comments :
Title=Burn
Artist=(DOLCH)
Album=Feuer
Tracknumber=1
Year=2019
Genre=Alternative;Rock
Discnumber=1

[/more]

Register
(50) 1968_janeart, acerbus, ahp, BERZERK, bloodwind, Boozer, chefo, chipsgott, Den_M, Foneg, garmonbozia, gotherion, Hell_Is_Here, Ice Gnoll, judaz, Kodel, Korpse, Krosis, Lanceatum, Lux, marilin, metala, multizwilling, murian, nadin85, nsmetalhead, Olethros, peppuzzo, Premature_Devotion, ripper33, robertho777, Rosen, sarcophagus, satanath, sergsazan, sethurius, Shadechaser, SilentNidhogg, soulskinner681, Strygaldwir, stub888, tim47, tOmV, Torlof, tormoz, Un4given, VALERY, vasiljev_sergej, Winterkalte, yuratroll,
Nov 13 2019, 16:59:03 No Haven - Deep Ends Of Shallow Lives (2019)


*Artist: No Haven
*Album: Deep Ends Of Shallow Lives
*Year: 2019
*Genre: Post-Black Metal/Hardcore/Crust
*Country: Australia
*Format: mp3@CBR320kbps
*Size: 89MB

Tracklist:
1. Nervous Wreck 05:35
2. Arm's Reach 03:56
3. Cesspool 01:54
4. Claw Marks 01:39
5. Less Than Zero 06:05
6. Maladjusted 02:32
7. Sink Holes 03:22
8. Ego Death 02:38
9. Days In Lieu 02:47
10. Driftwood 08:06
******************************
Total playing time: 38:34



[more=Extended info]Mike Nolan - Vocals
Will Robinson - Guitars
Allan Stacey - Guitars
Angus Harvey - Bass
Alex Johnson - Drums[/more]

[more=Technical info]
Input File: 1 - Nervous Wreck.mp3
Channels : 2
Sample Rate : 44100
Precision : 16-bit
Duration : 00:05:35.98 = 14816674 samples = 25198.4 CDDA sectors
File Size : 13.5M
Bit Rate : 322k
Sample Encoding: MPEG audio (layer I, II or III)
Comments :
Title=Nervous Wreck
Artist=No Haven
Album=Deep Ends of Shallow Lives
Tracknumber=1
Year=2019
Genre=Metal
Discnumber=1

[/more]

Register
(6) Korpse, Olethros, Ostinato, Rosen, sludge666, vasiljev_sergej,
Nov 8 2019, 05:24:59 Wells Valley - Reconcile The Antinomy (2019)


*Artist: Wells Valley
*Album: Reconcile The Antinomy
*Year: 2019
*Genre: Blackened Sludge/Post Metal
*Country: Portugal
*Format: mp3@CBR320kbps
*Size: 107MB

Tracklist:
1. Antient 07:25
2. Pleroma 06:45
3. Henosis 07:08
4. Hypostasis 07:38
5. Paragon 07:47
6. Forty Days 10:03
******************************
Total playing time: 46:46



[more=Extended info]Wells Valley is a Portuguese Blackened Avant-Garde Metal trio (Filipe Correia - vocals and guitars / Mau - drums / Pedro Lopes - bass) from Lisbon, formed in October 2011.
The band's distinctive sound draw from Black/Doom-Metal, old Psychedelic Rock to Avant-Garde Music.
Wells Valley recorded the first full length studio album “Matter As Regent” (2015, Digipak) and one EP “The Orphic” (2017, limited edition Vinyl), released by Raging Planet, Bleak Recordings and Chaosphere Recordings.

Wells Valley's lyrical concept is inspired by cosmology, hermeticism and theology.
Through the years the band count numerous shows, sharing stages with several bands such as Jucifer, Bolzer, Mantar, Weedeater, among many others.


This six piece ensemble is the grief of Doom ambience with outbursts of Black-metal malignacy and wrath." Reconcile The Antinomy" it's a spectral torrent of overwhelming feelings and introspective relief."

- Pedro Mau (Drums)
- Filipe Correia (Vocals, Guitars)
- Pedro Lopes (Bass)[/more]

[more=Technical info]
Input File: 1 - Antient.mp3
Channels : 2
Sample Rate : 44100
Precision : 16-bit
Duration : 00:07:26.01 = 19669173 samples = 33451 CDDA sectors
File Size : 17.9M
Bit Rate : 322k
Sample Encoding: MPEG audio (layer I, II or III)
Comments :
Title=Antient
Artist=Wells Valley
Album=Reconcile the Anatomy
Tracknumber=1
Year=2019
Genre=Alternative;Rock
Discnumber=1

[/more]

Register
(7) denver, Moonlover, Olethros, Ostinato, Rosen, vasiljev_sergej, yuratroll,
Nov 8 2019, 05:16:01 Wolfbrigade - The Enemy: Reality (2019)


*Artist: Wolfbrigade
*Album: The Enemy: Reality
*Year: 2019
*Genre: Crust/D-Beat
*Country: Sweden
*Format: mp3@CBR320kbps
*Size: 65MB

Tracklist:
1. Sum of All Vices 02:34
2. Fire Untamed 02:49
3. The Wolfman 02:33
4. Hammer to the Skull 02:49
5. Narcissitic Breed 02:21
6. Nightmare of Wolves 03:13
7. Doomsday Dominion 02:36
8. Wells of Despair 02:13
9. Human Beast 03:41
10. Hunt the Hunter 02:45
******************************
Total playing time: 27:34



[more=Technical info]
Input File: 1 - Sum of All Vices.mp3
Channels : 2
Sample Rate : 44100
Precision : 16-bit
Duration : 00:02:34.55 = 6815567 samples = 11591.1 CDDA sectors
File Size : 6.36M
Bit Rate : 329k
Sample Encoding: MPEG audio (layer I, II or III)
Comments :
Title=Sum of All Vices
Artist=Wolfbrigade
Album=The Enemy: Reality
Tracknumber=1
Year=2019
Genre=Metal
Discnumber=1

[/more]

Register
(25) acerbus, Asketto, bloodwind, Brann, comradEnemy, DarkHorde, Devastator, ENDSMOUTH, FUDEDOR, garml2, Infidel, Konst, marilin, metaljosue, multizwilling, Old Vyaine, Olethros, Purereason, sludge666, spazm, sunkilmoon, Tular, yuratroll, Zhelezjaka, Волос,
Nov 4 2019, 18:12:32 Obliti Devoravit - O.D. [ep] (2019)


*Artist: Obliti Devoravit
*Album: O.D. [ep]
*Year: 2019
*Genre: Post Black Metal
*Country: United States
*Format: mp3@CBR320kbps
*Size: 28MB

Tracklist:
1. Glow 04:35
2. Summer Sun 02:06
3. Only Love 05:24
******************************
Total playing time: 12:05



[more=Extended info]Colloquial Sound Recordings

Three cold, raw tracks from Obliti Devoravit. His first since 2014. When the wolf looks up and locks eyes with you.[/more]

[more=Technical info]
Input File: 1 - Glow.mp3
Channels : 2
Sample Rate : 44100
Precision : 16-bit
Duration : 00:04:35.58 = 12153078 samples = 20668.5 CDDA sectors
File Size : 11.1M
Bit Rate : 323k
Sample Encoding: MPEG audio (layer I, II or III)
Comments :
Title=Glow
Artist=Obliti Devoravit
Album=O.D.
Tracknumber=1
Year=2019
Genre=Metal
Discnumber=1

[/more]

Register
(11) 1968_janeart, gena, kim666, Ludwig Hagen, Olethros, Ostinato, robertho777, Rosen, svartrest, VALERY, vasiljev_sergej,
Nov 4 2019, 18:08:34 Damian Master - Honeyhole [ep] (2019)


*Artist: Damian Master
*Album: Honeyhole [ep]
*Year: 2019
*Genre: Post Black Metal
*Country: United States
*Format: mp3@CBR320kbps
*Size: 34MB

Tracklist:
1. Fugitive of Love 04:13
2. Black Metal 03:21
3. I'm Not So Lonesome Anymore 02:16
4. Flamingo (Demo) 04:37
******************************
Total playing time: 14:27



[more=Extended info]Colloquial Sound Recordings

Thick, sticky, and sweet. Damian Master presents: Honeyhole. Four tracks of swaggering metal cut with industrial, goth, and electronic elements.[/more]

[more=Technical info]
Input File: 1 - Fugitive of Love.mp3
Channels : 2
Sample Rate : 44100
Precision : 16-bit
Duration : 00:04:13.45 = 11177321 samples = 19009 CDDA sectors
File Size : 10.3M
Bit Rate : 325k
Sample Encoding: MPEG audio (layer I, II or III)
Comments :
Title=Fugitive of Love
Artist=Damian Master
Album=Honeyhole
Tracknumber=1
Year=2019
Genre=Metal
Discnumber=1

[/more]

Register
(10) 1968_janeart, JantoHadez, kim666, Ludwig Hagen, Olethros, Ostinato, robertho777, Rosen, svartrest, vasiljev_sergej,
Nov 1 2019, 16:45:07 Gnosis - The Offering Of Seven (2018)


*Artist: Gnosis
*Album: The Offering Of Seven
*Year: 2018
*Genre: Death/Black Metal
*Country: United States
*Format: mp3@CBR320kbps
*Size: 84MB

Tracklist:
1. Intro 01:24
2. Devils and Spirits 04:59
3. Hand Of The Fates 04:24
4. Dark King On The Mount 05:59
5. Golden Wings 05:22
6. Transcendence Pt.1 01:46
7. Evil Spirit (Running Wild Cover) 03:40
8. The Great Storm 04:56
9. Outro 01:51
******************************
Total playing time: 34:21



[more=Extended info]Personal purchase

Terror From Hell is proud to announce the release of Gnosis's second album, which includes nine tracks (a Running Wild “Evil Spirit” cover is summoned too). Following their debut album on Nuclear War Now! and undeniably inspired by the Greek scene of early 90s, Florida-based quintet's Black Metal lead the listener into a realm of mystery and terror, evoking the renowned vibes of acts such as Varathron and Thou Art Lord, as well as Mortuary Drape and Mystifier. Slowered majestic parts, eerie synth-based layers, thundering drumming and simple yet horrifyingly intriguing riffage conjures a solid and evil release which will please both old-school and newer listeners.[/more]

[more=Technical info]
Input File: Gnosis - The Offering of Seven - 02 Devils and Spirits.mp3
Channels : 2
Sample Rate : 44100
Precision : 16-bit
Duration : 00:04:59.72 = 13217608 samples = 22478.9 CDDA sectors
File Size : 12.1M
Bit Rate : 323k
Sample Encoding: MPEG audio (layer I, II or III)
Comments :
Title=Devils and Spirits
Artist=Gnosis
Album=The Offering of Seven
Tracknumber=2
Year=2018

[/more]

Register
(22) Boozer, FlammenTod666, Hell_Is_Here, Korpse, metala, mirotvorets, mizantrophist, MMMMM, multizwilling, Occultas, Olethros, Ostinato, ripper33, Rosen, SilentNidhogg, tim47, Tino, toly1917, VALERY, vasiljev_sergej, Wail, Козлотролль,
Nov 1 2019, 16:41:04 Witchbones - Akasha Iii: Salt, Sea, Blood And Fire [compilation] (2019)


*Artist: Witchbones
*Album: Akasha Iii: Salt, Sea, Blood And Fire [compilation]
*Year: 2019
*Genre: Death/Black Metal
*Country: United States
*Format: mp3@CBR320kbps
*Size: 43MB

Tracklist:
1. 10.31.19 Geoncide On Mankind 04:22
2. Apocalyptic Dragon Wings 02:33
3. There Is Thunder In Our Hearts 666 01:00
4. Pigs In Jars 01:45
5. Invocation Of The Horned God 01:33
6. The Womb Of The Night 02:48
7. Desires Of My Blood 04:33
******************************
Total playing time: 18:34



[more=Extended info]Personal purchase[/more]

[more=Technical info]
Input File: Witchbones - Akasha III- Salt, Sea, Blood and Fire - 01 10.31.19 Geoncide On Mankind.mp3
Channels : 2
Sample Rate : 44100
Precision : 16-bit
Duration : 00:04:22.75 = 11587451 samples = 19706.5 CDDA sectors
File Size : 10.6M
Bit Rate : 322k
Sample Encoding: MPEG audio (layer I, II or III)
Comments :
Title=10.31.19 Geoncide On Mankind
Artist=Witchbones
Album=Akasha III: Salt, Sea, Blood and Fire
Tracknumber=1
Year=2019

[/more]

Register
(12) ahp, alikkon, Hell_Is_Here, luxxul, marilin, obituarydark, Olethros, Ostinato, Rosen, VALERY, vasiljev_sergej, Wail,
Nov 1 2019, 16:37:58 Lifvsleda - Manifest Mmxix [demo] (2019)


*Artist: Lifvsleda
*Album: Manifest Mmxix [demo]
*Year: 2019
*Genre: Black Metal
*Country: Sweden
*Format: mp3@CBR320kbps
*Size: 37MB

Tracklist:
1. I 04:26
2. II 03:52
3. III 05:09
4. IV 02:19
******************************
Total playing time: 15:46



[more=Extended info]Shadow Records (distributed & marketed by Regain Records) is proud to present Lifvsleda´s debut EP "Manifest MMXIX". Featuring 4 songs of death worshipping Swedish Black Metal.
Lifvsleda was spawned to earthly existence with the aim to re-capture the old feeling of early Nordic Black metal, a scene the members, in one way or another and in various constellations, have been involved with since it's glorious beginning. With a strong fascination for death, and the magic of memento mori they summon the spirits of old. Recorded on broken instruments, litterally out in the wild, surrounded by the swedish woods and a creeping darkness. You can feel the murken stench and presence of something great that once was. Black Metal is reborn.[/more]

[more=Technical info]
Input File: 1 - I.mp3
Channels : 2
Sample Rate : 44100
Precision : 16-bit
Duration : 00:04:26.15 = 11737215 samples = 19961.2 CDDA sectors
File Size : 10.8M
Bit Rate : 323k
Sample Encoding: MPEG audio (layer I, II or III)
Comments :
Title=I
Artist=Lifvsleda
Album=Manifest MMXIX
Tracknumber=1
Year=2019
Genre=Metal
Discnumber=1

[/more]

Register
(27) 1968_janeart, ahp, apo1, Beazth, craP_cillA, doomTemplar, dvlz, garmonbozia, Ildjarn, kim666, lestllk, milosdjor, obituarydark, Olethros, Ostinato, robertho777, Rosen, SilentNidhogg, Sjelekval, stub888, Surt, thenecromancer, Tyrone, vasiljev_sergej, Vermyapre, vovenom, ZA670,
Nov 1 2019, 16:31:06 Unrest - Cold (2019)


*Artist: Unrest
*Album: Cold
*Year: 2019
*Genre: Raw Black Metal
*Country: United States
*Format: mp3@CBR320kbps
*Size: 78MB

Tracklist:
1. Grief Tsunami 06:41
2. History's Torment 05:15
3. Lord of Destruction 05:26
4. Paroxysm 05:05
5. Winter's Desolation 11:24
******************************
Total playing time: 33:51



[more=Technical info]
Input File: Unrest - Cold - 01 Grief Tsunami.mp3
Channels : 2
Sample Rate : 44100
Precision : 16-bit
Duration : 00:06:41.24 = 17694508 samples = 30092.7 CDDA sectors
File Size : 16.2M
Bit Rate : 322k
Sample Encoding: MPEG audio (layer I, II or III)
Comments :
Title=Grief Tsunami
Artist=Unrest
Album=Cold
Tracknumber=1
Year=2019

[/more]

Register
(15) 1968_janeart, alikkon, kim666, Krosis, multizwilling, Olethros, Rosen, Rover, SilentNidhogg, stub888, supremo, VALERY, vasiljev_sergej, vovenom, zhol,
Nov 1 2019, 16:28:08 Frostseele - Kalte Leere [ep] (2019)


*Artist: Frostseele
*Album: Kalte Leere [ep]
*Year: 2019
*Genre: Atmospheric Black Metal
*Country: Germany
*Format: mp3@CBR320kbps
*Size: 45MB

Tracklist:
1. Kalt 04:37
2. In Traumhaft 07:39
3. Der dunkle Zenit 04:07
4. [ ] 03:12
******************************
Total playing time: 19:35



[more=Extended info]All instruments, clean vocals, programming, recording, mixing and mastering by FrostSeele.
Harsh vocals by Danny.[/more]

[more=Technical info]
Input File: 1 - Kalt.mp3
Channels : 2
Sample Rate : 44100
Precision : 16-bit
Duration : 00:04:37.88 = 12254464 samples = 20840.9 CDDA sectors
File Size : 11.2M
Bit Rate : 322k
Sample Encoding: MPEG audio (layer I, II or III)
Comments :
Title=Kalt
Artist=FrostSeele
Album=Kalte Leere
Tracknumber=1
Year=2019
Genre=Metal
Discnumber=1

[/more]

Register
(20) 1968_janeart, ahp, craP_cillA, Druidir, ErikGoth, garmonbozia, kim666, Lanceatum, lestllk, murian, Olethros, Olrak, rauhnacht, robertho777, Rosen, Shadechaser, SilentNidhogg, stub888, VALERY, vasiljev_sergej,
Oct 28 2019, 19:33:57 Urschmerz - Misery Plan (2019)


*Artist: Urschmerz
*Album: Misery Plan
*Year: 2019
*Genre: Industrial/Noise/Raw Black Metal
*Country: Germany
*Format: mp3@CBR320kbps
*Size: 100MB

Tracklist:
1. Hate 06:36
2. People 05:23
3. Deny 06:42
4. Birth 06:43
5. Reject 05:22
6. Life 07:16
7. Death 05:38
******************************
Total playing time: 43:40



[more=Extended info]Personal purchase[/more]

[more=Technical info]
Input File: URSCHMERZ - Misery Plan - 01 Hate.mp3
Channels : 2
Sample Rate : 44100
Precision : 16-bit
Duration : 00:06:36.09 = 17467569 samples = 29706.8 CDDA sectors
File Size : 15.9M
Bit Rate : 321k
Sample Encoding: MPEG audio (layer I, II or III)
Comments :
Title=Hate
Artist=URSCHMERZ
Album=Misery Plan
Tracknumber=1
Year=2019

[/more]

Register
(10) 1968_janeart, Corpuscul, Hell_Is_Here, infiltrator, k4zket, Olethros, Rosen, stub888, vasiljev_sergej, Абигор,
Oct 28 2019, 19:28:22 Urschmerz - Melencolia (2017)


*Artist: Urschmerz
*Album: Melencolia
*Year: 2017
*Genre: Atmospheric/Raw Black Metal
*Country: Germany
*Format: mp3@CBR320kbps
*Size: 94MB

Tracklist:
1. Zerstörung 06:07
2. Trübsal 06:05
3. Schwermut 04:02
4. Schmerz 05:04
5. Kummer 04:29
6. Qual 05:39
7. Leid 05:38
8. Verzweiflung 03:56
******************************
Total playing time: 41:00



[more=Extended info]Personal purchase[/more]

[more=Technical info]
Input File: URSCHMERZ - Melencolia - 01 Zerstörung.mp3
Channels : 2
Sample Rate : 44100
Precision : 16-bit
Duration : 00:06:07.15 = 16191095 samples = 27535.9 CDDA sectors
File Size : 14.8M
Bit Rate : 322k
Sample Encoding: MPEG audio (layer I, II or III)
Comments :
Title=Zerstörung
Artist=URSCHMERZ
Album=Melencolia
Tracknumber=1
Year=2017

[/more]

Register
(12) 1968_janeart, Corpuscul, infiltrator, kim666, Olethros, Ostinato, Rosen, SilentNidhogg, stub888, VALERY, vasiljev_sergej, zotyo1975,
Oct 28 2019, 19:20:06 Nox Morbum - |​-​-​-​|​|​|​|​|​|​|​|​|​|​|​|​|​|​|​|​|​-​-​-​-​-​-​- [ep] (2019)


*Artist: Nox Morbum
*Album: |​-​-​-​|​|​|​|​|​|​|​|​|​|​|​|​|​|​|​|​|​-​-​-​-​-​-​- [ep]
*Year: 2019
*Genre: Raw Black Metal
*Country: Canada
*Format: mp3@CBR320kbps
*Size: 49MB

Tracklist:
1. a bacchanalian night 06:36
2. mephistomaniacs 06:44
3. in delirium 04:24
4. trauma 666 03:16
******************************
Total playing time: 21:00



[more=Technical info]
Input File: Nox Morbum - - - 01 a bacchanalian night.mp3
Channels : 2
Sample Rate : 44100
Precision : 16-bit
Duration : 00:06:36.27 = 17475639 samples = 29720.5 CDDA sectors
File Size : 15.9M
Bit Rate : 322k
Sample Encoding: MPEG audio (layer I, II or III)
Comments :
Title=a bacchanalian night
Artist=Nox Morbum
Album=|---|||||||||||||||||-------
Tracknumber=1
Year=2019

[/more]

Register
(16) 1968_janeart, craP_cillA, Hell_Is_Here, infiltrator, k4zket, kim666, lestllk, Ludwig Hagen, Olethros, Ostinato, Rosen, SilentNidhogg, stub888, VALERY, vasiljev_sergej, Авел,
Oct 28 2019, 19:09:53 Wintercearig - To Nowhere [ep] (2019)


*Artist: Wintercearig
*Album: To Nowhere [ep]
*Year: 2019
*Genre: Atmospheric Black Metal
*Country: Canada
*Format: mp3@CBR320kbps
*Size: 82MB

Tracklist:
1. Introduction 02:17
2. Worthless 09:52
3. My Painted Prison 05:02
4. Toska 08:09
5. Nowhere to Go 04:14
6. Nowhere to Go (1st Version Demo) 03:56
******************************
Total playing time: 33:30



[more=Technical info]
Input File: Wintercearig - To Nowhere... - 01 Introduction.mp3
Channels : 2
Sample Rate : 44100
Precision : 16-bit
Duration : 00:02:18.06 = 6088622 samples = 10354.8 CDDA sectors
File Size : 5.64M
Bit Rate : 327k
Sample Encoding: MPEG audio (layer I, II or III)
Comments :
Title=Introduction
Artist=Wintercearig
Album=To Nowhere...
Tracknumber=1
Year=2019

[/more]

Register
(15) 1968_janeart, ahp, Evilded, infiltrator, kim666, Krosis, Olethros, robertho777, Rosen, SilentNidhogg, singrad, stub888, svartrest, VALERY, vasiljev_sergej,
Oct 28 2019, 19:01:07 Врѣмѧ - Temné Sily [ep] (2019)


*Artist: Врѣмѧ
*Album: Temné Sily [ep]
*Year: 2019
*Genre: Pagan Black Metal
*Country: Germany
*Format: mp3@CBR320kbps
*Size: 34MB

Tracklist:
1. Nočný Mráz 03:01
2. Smútok 03:26
3. Zúfalý 06:01
4. Pokrik 01:44
******************************
Total playing time: 14:12



[more=Extended info]Personal purchase[/more]

[more=Technical info]
Input File: Врѣмѧ - Temné Sily - 01 Nočný Mráz.mp3
Channels : 2
Sample Rate : 44100
Precision : 16-bit
Duration : 00:03:01.38 = 7998770 samples = 13603.4 CDDA sectors
File Size : 7.32M
Bit Rate : 323k
Sample Encoding: MPEG audio (layer I, II or III)
Comments :
Title=Nočný Mráz
Artist=Врѣмѧ
Album=Temné Sily
Tracknumber=1
Year=2019

[/more]

Register
(13) 1968_janeart, ahp, Druidir, kim666, metaljosue, Olethros, Rosen, SilentNidhogg, stub888, Surt, VALERY, vasiljev_sergej, Сварог Барг,
Oct 28 2019, 18:57:36 Врѣмѧ - Samotár [ep] (2019)


*Artist: Врѣмѧ
*Album: Samotár [ep]
*Year: 2019
*Genre: Pagan Black Metal
*Country: Germany
*Format: mp3@CBR320kbps
*Size: 48MB

Tracklist:
1. Samotár 04:27
2. Vidina 05:11
3. Tieň 02:53
4. Túra 05:09
5. Lesná Cesta 03:14
******************************
Total playing time: 20:54



[more=Extended info]Personal purchase[/more]

[more=Technical info]
Input File: Врѣмѧ - Samotár - 01 Samotár.mp3
Channels : 2
Sample Rate : 44100
Precision : 16-bit
Duration : 00:04:27.56 = 11799396 samples = 20067 CDDA sectors
File Size : 10.7M
Bit Rate : 320k
Sample Encoding: MPEG audio (layer I, II or III)
Comments :
Title=Samotár
Artist=Врѣмѧ
Album=Samotár
Tracknumber=1
Year=2019

[/more]

Register
(15) 1968_janeart, ahp, DeRectify, Druidir, infiltrator, kim666, Olethros, Ostinato, Rosen, SilentNidhogg, stub888, Surt, VALERY, vasiljev_sergej, Сварог Барг,
Oct 28 2019, 18:54:45 Врѣмѧ - Grmljavina [ep] (2019)


*Artist: Врѣмѧ
*Album: Grmljavina [ep]
*Year: 2019
*Genre: Pagan Black Metal
*Country: Germany
*Format: mp3@CBR320kbps
*Size: 21MB

Tracklist:
1. P. 02:21
2. Nevrijeme 03:52
3. Svršetak 02:58
******************************
Total playing time: 9:11



[more=Extended info]Personal purchase[/more]

[more=Technical info]
Input File: Врѣмѧ - Grmljavina - 02 Nevrijeme.mp3
Channels : 2
Sample Rate : 44100
Precision : 16-bit
Duration : 00:03:52.24 = 10241828 samples = 17418.1 CDDA sectors
File Size : 9.33M
Bit Rate : 321k
Sample Encoding: MPEG audio (layer I, II or III)
Comments :
Title=Nevrijeme
Artist=Врѣмѧ
Album=Grmljavina
Tracknumber=2
Year=2019

[/more]

Register
(13) 1968_janeart, craP_cillA, Druidir, infiltrator, kim666, Olethros, Rosen, SilentNidhogg, stub888, Surt, VALERY, vasiljev_sergej, Сварог Барг,
Oct 28 2019, 18:40:41 Raat - Déraciné [ep] (2019)


*Artist: Raat
*Album: Déraciné [ep]
*Year: 2019
*Genre: Post Black Metal
*Country: India
*Format: mp3@CBR320kbps
*Size: 79MB

Tracklist:
1. Sacrament 09:41
2. Anathema 06:52
3. Déraciné 08:03
4. Unforsaken 10:05
******************************
Total playing time: 34:41



[more=Extended info]All music and lyrics written, performed, and mixed by S.R.
Additional Vocals on Unforsaken by B.M.(Skyforest)
Mastered by Nekkomix[/more]

[more=Technical info]
Input File: 1 - Sacrament.mp3
Channels : 2
Sample Rate : 44100
Precision : 16-bit
Duration : 00:09:41.26 = 25633390 samples = 43594.2 CDDA sectors
File Size : 23.4M
Bit Rate : 322k
Sample Encoding: MPEG audio (layer I, II or III)
Comments :
Title=Sacrament
Artist=Raat
Album=Déraciné
Tracknumber=1
Year=2019
Genre=Metal
Discnumber=1

[/more]

Register
(15) 1968_janeart, ahp, Corpuscul, infiltrator, kim666, metaljosue, Olethros, Ostinato, robertho777, Rosen, SilentNidhogg, VALERY, Vargr, vasiljev_sergej, Авел,
Oct 28 2019, 18:36:02 Vials Of Wrath - Dark Winter Memories (2019)


*Artist: Vials Of Wrath
*Album: Dark Winter Memories
*Year: 2019
*Genre: Atmospheric Black Metal
*Country: United States
*Format: mp3@CBR320kbps
*Size: 95MB

Tracklist:
1. Into the brumal woe 02:10
2. A black bile fog 06:05
3. The cold and the hope 06:36
4. Reflection of an old soul 04:42
5. With distance 07:11
6. Calling upon the ancient one 09:55
7. A Hiemal aura 03:56
******************************
Total playing time: 40:35




[more=Extended info]Guest drums by Josh Thieler of Slaves B.C., Twilight Fauna on tracks 2 & 3*
All songs written, recorded & produced by D.W. Mills at Fallen Oak Recording, Maryville, TN. Feb. 2017 - Jan. 2019
*Recorded by Paul Ravenwood at Ravenwood Recordings, Johnson City, TN.
Mastered by Brad Boatright at Audiosiege, Portland, OR.
Cover illustration by Līga Kļaviņa.[/more]

[more=Technical info]
Input File: Vials of Wrath - Dark Winter Memories - 01 Into the brumal woe.mp3
Channels : 2
Sample Rate : 44100
Precision : 16-bit
Duration : 00:02:10.18 = 5740718 samples = 9763.13 CDDA sectors
File Size : 5.40M
Bit Rate : 332k
Sample Encoding: MPEG audio (layer I, II or III)
Comments :
Title=Into the brumal woe
Artist=Vials of Wrath
Album=Dark Winter Memories
Tracknumber=1
Year=2019

[/more]

Register
(27) 1968_janeart, ahp, aleon, blacky66, dan22, dulak, ErikGoth, infiltrator, karpenka, Kehl05, kim666, Korpse, Ludwig Hagen, Olethros, Ostinato, peppuzzo, robertho777, Rosen, Rover, sergsazan, Shadechaser, SilentNidhogg, singrad, stub888, VALERY, vasiljev_sergej, Авел,

10 Pages V   1 2 3 > » 
- Lo-Fi Version Support form
Copyrights and abuse reports form
Time is now: 9th December 2019 - 19:26:04