Welcome Guest ( Log In | Register )

История благодарностей участнику elsunga ::: Спасибо сказали: 486 раз(а)
Дата поста: В теме: За сообщение: Спасибо сказали:
Apr 17 2020, 23:09:59 Новости Black-направления
not a blackmetal but realy nice track

new single Manes - Young Skeleton

[youtube]https://www.youtube.com/watch?v=xu83nkxE_jo&[/youtube]
(2) infiltrator, yuratroll,
Apr 15 2020, 08:12:44 Новости Black-направления


Hädanfärd - Trauma/Faces of Evil ep

bonus from 5LP discography compilation available in digital at




(2) acerbus, infiltrator,
Mar 25 2020, 18:53:36 Новости Black-направления


Grifteskymfning - Hämndlystan


(4) acerbus, infiltrator, NOMIDIMON, thenecromancer,
Mar 25 2020, 05:56:14 Новости Black-направления
Karhunvartijan Tyhjiö - Our Cosmic Voyage Towards Isolation




(3) infiltrator, rimfrost, thenecromancer,
Mar 7 2020, 07:02:15 Circle Of Ouroborus - Viimeinen Juoksu (2020)
(1) Premature_Devotion,
Mar 6 2020, 14:34:18 Новости Black-направления
Adaestuo - Manalan Virrat out now



(5) Infidel, infiltrator, Occultas, wolverine, yuratroll,
Feb 27 2020, 01:53:43 Новости Black-направления

Armanenschaft - Psychedelic Winter

This raw bm classic is finally available via bandcamp


(1) Occultas,
Feb 21 2020, 07:44:25 Dughpa - III (2020)


*Artist: Dughpa
*Album: III
*Year: 2020
*Genre: Ambient
*Country: Sweden
*Format: mp3@CBR320kbps
*Size: 90MB

Tracklist:
1. Large Observation windows in the stalactite towers 19:35
2. The swimming Projector of black plasmid oval screen 19:31
******************************
Total playing time: 39:06



[more=Extended info]Bandcamp purchase[/more]

[more=Technical info]
Input File: 01. Large Observation Windows In The Stalactite Towers.mp3
Channels : 2
Sample Rate : 44100
Precision : 16-bit
Duration : 00:19:35.13 = 51823409 samples = 88135 CDDA sectors
File Size : 47.2M
Bit Rate : 321k
Sample Encoding: MPEG audio (layer I, II or III)
Comments :
Title=Large Observation Windows In The Stalactite Towers
Artist=Dughpa
Album=III
Tracknumber=1/2
Year=2020
Discnumber=1/1

[/more]

Register
(6) ambre, Angry_Chair, Daale, Der_Hexer, infiltrator, Velmi,
Feb 19 2020, 02:17:12 Новости Black-направления
Invunche - Sacrificio


(2) acerbus, infiltrator,
Feb 18 2020, 11:35:05 Новости Black-направления
Two new albums by Grifteskymfning



(10) abob, acerbus, Antiscum, Daale, dsp, infiltrator, Qliphoth, snorr, suseka, Valdmaar,
Jan 1 2020, 23:43:46 Новости Black-направления
Drave - Terroir (EP, 2019)

Monarque + Forteresse




(2) Daale, infiltrator,
Dec 31 2019, 14:38:39 Новости Black-направления
Absolute Key - The Lost Gesture



(2) infiltrator, Occultas,
Dec 27 2019, 17:27:46 Новости Black-направления

Nadsvest - Kolo ognja i železa (EP, 2019)


(2) infiltrator, vovenom,
Dec 20 2019, 11:39:24 Новости Black-направления
QUOTE(Daale @ Dec 20 2019, 11:23:18) *
Have this one. PTF don't send Full-Length (Nordarikets Strid)


Hope he will put it on Ancient Records bandcamp.
(2) Daale, infiltrator,
Dec 20 2019, 08:33:45 Новости Black-направления
Another Ancient Records related releases


Greve - Nordarikets Strid (LP, 2019)
Greve - Nidingsdåd utav det uråldriga (EP 2019)

(Swartadauþuz + Lik)


[youtube]https://www.youtube.com/watch?v=QJFn4UchGcQ[/youtube]
(4) acerbus, infiltrator, Nattensengel, thenecromancer,
Dec 18 2019, 20:41:39 Новости Black-направления
Jordslået EP III (2019)




(3) infiltrator, Leshiy666, Occultas,
Dec 17 2019, 16:02:42 Новости Black-направления
anyone who has this one?

Lair - Icons of The Impure (2016)


(3) infiltrator, Leshiy666, vovenom,
Dec 12 2019, 00:09:12 Новости Black-направления
2019 version with bonus tracks:

Bekëth Nexëhmü - De Fördolda Klangorna


(7) Antiscum, Chasm, Daale, infiltrator, Occultas, suseka, vovenom,
Dec 12 2019, 00:01:38 Bekëth Nexëhmü - De Fördolda Klangorna [compilation] (2014)
2019 version with bonus tracks:

(3) infiltrator, Occultas, thenecromancer,
Dec 6 2019, 04:27:43 Новости Black-направления
Kringa related project

Brånd - 'Urkraft'






https://foedweg.com/

(2) Daale, infiltrator,
Nov 26 2019, 20:12:20 Новости Black-направления
Käärmekristus - ᚨᚱᚲᚺᚨᛁᚲ ᛋᚺᚨᛗᚨᚾ ᛗᚨᚷᛁᚲ (demo, 2019)




(2) Daale, infiltrator,
Nov 21 2019, 21:15:54 Новости Black-направления (2) acerbus, infiltrator,
Nov 18 2019, 22:02:39 Новости Black-направления
Wagner Ödegård - Om Undergång och de Tretton Järtekn (2019)




(4) acerbus, infiltrator, Qliphoth, vosmidesijatye,
Oct 17 2019, 09:39:41 Новости Black-направления


Förgjord - Syntiinlankeemus ep


(3) gena, infiltrator, suseka,
Sep 22 2019, 05:21:53 Новости Black-направления
Valhalla Bound - Virgin Hearts (Bestial Burst, 2019)

(2) Daale, infiltrator,

4 Pages V   1 2 3 > » 
- Lo-Fi Version Support form
Copyrights and abuse reports form
Time is now: 1st June 2020 - 21:26:59