Welcome Guest ( Log In | Register )

История благодарностей участнику Oath19 ::: Спасибо сказали: 4503 раз(а)
Дата поста: В теме: За сообщение: Спасибо сказали:
Sep 18 2020, 17:38:12 Aran - Veden Varjoista (2020)


*Artist: Aran
*Album: Veden Varjoista
*Year: 2020
*Genre: Atmospheric Black Metal
*Country: Finland
*Format: mp3@CBR320kbps
*Size: 87MB

Tracklist:
1. Melankolia
2. Ikuisuus
3. Elävä
4. Viimeinen Vaeltaja
******************************
Total playing time: 42:02



[more=Technical info]
Input File: 02 - Ikuisuus.mp3
Channels : 2
Sample Rate : 44100
Precision : 16-bit
Duration : 00:08:23.68 = 22212200 samples = 37775.9 CDDA sectors
File Size : 20.2M
Bit Rate : 321k
Sample Encoding: MPEG audio (layer I, II or III)
Comments :
Title=Ikuisuus
Artist=Aran
Album=Veden Varjoista
Tracknumber=2/4
Year=2020-30-08
Genre=Atmospheric Black Metal

[/more]

Register
(30) 1968_janeart, aleon, AlexSmith, alikkon, demonosz, djsema4, EvilPiet, fallen, grimoir, infiltrator, kim666, Lukittaz, Maximvs, metalfaze, Moonshtook, Olethros, Olrak, Ostinato, randumbum, robertho777, Rosen, sergsazan, SilentNidhogg, smes, stub888, system36, VALERY, varlam4, vasiljev_sergej, wreak,
Sep 16 2020, 13:23:25 Kalmankantaja - Viimeinen Virsi Ii: Sairaan Sielun Sanat (2020)


*Artist: Kalmankantaja
*Album: Viimeinen Virsi Ii: Sairaan Sielun Sanat
*Year: 2020
*Genre: Atmospheric Black Metal
*Country: Finland
*Format: mp3@CBR320kbps
*Size: 88MB

Tracklist:
1. Musta Viha Sielussani 15:34
2. Minun On Valta Ja Voima 14:01
3. Lopussa On Vain Kuolema 09:03
******************************
Total playing time: 38:38



[more=Technical info]
Input File: 02 Minun On Valta Ja Voima.mp3
Channels : 2
Sample Rate : 44100
Precision : 16-bit
Duration : 00:14:01.89 = 37127393 samples = 63141.8 CDDA sectors
File Size : 33.7M
Bit Rate : 320k
Sample Encoding: MPEG audio (layer I, II or III)
Comments :
Title=Minun On Valta Ja Voima
Artist=Kalmankantaja
Album=Viimeinen Virsi II: Sairaan Sielun Sanat
Tracknumber=2
Year=2020
Genre=Atmospheric Black Metal

[/more]

Register
(36) 1968_janeart, alikkon, andivi, BERZERK, Boozer, d0zer, Femto, frituz3, GuldenDraak, Hell_Is_Here, Ildjarn, infiltrator, kim666, kimkayoung, lucifix, Lucju, nikolay81, oldvarg, Ostinato, rammstein888, randumbum, Relicario, robertho777, Rosen, Shadechaser, SilentNidhogg, smes, SSWolf88, Surt, VALERY, varlam4, vasiljev_sergej, Victim of fate, wreak, ZA670, Zenial,
Aug 17 2020, 19:50:54 Three Thirteen - Dawn Of The Shred (2016)
320
Register
(3) boby9052, isvili, varlam4,
Aug 17 2020, 19:49:56 Three Thirteen - Overdrive Alive (2013)


*Artist: Three Thirteen
*Album: Overdrive Alive
*Year: 2013
*Genre: Thrash Metal
*Country: United States
*Format: mp3@CBR320kbps
*Size: 116MB

Tracklist:
1. In Heavy We Trust 04:05
2. Among Dead Eyes 03:40
3. Welcome to Delirium 04:37
4. Overdrive Alive 04:03
5. Spaced 04:00
6. Exo-Arachno 03:54
7. Happy Ending 02:56
8. Thicker than Blood 04:13
9. Damaged Down 03:45
10. Los Angeles Burns 03:39
11. Foxy (Intro) 02:37
12. Light 'Em Up 01:21
13. Electric City 01:40
14. Captain Amazing Man 02:20
15. Dark Fly 01:48
16. Foxy (Outro) 02:20
******************************
Total playing time: 50:58

[more=Technical info]
Input File: 07 Happy Ending.mp3
Channels : 2
Sample Rate : 48000
Precision : 16-bit
Duration : 00:02:56.76 = 8484624 samples ~ 13257.2 CDDA sectors
File Size : 7.07M
Bit Rate : 320k
Sample Encoding: MPEG audio (layer I, II or III)
Comments :
Title=Happy Ending
Artist=Three Thirteen
Album=Overdrive Alive
Tracknumber=7/16
Year=2013
Genre=Thrash Metal
Discnumber=1/1

[/more]

Register
(15) after21allD, andreikun, boby9052, caro, chipsgott, gwar, infiltrator, Lukittaz, Mares, Mogozoz, Olethros, Rosen, sergsazan, varlam4, wreak,
Aug 17 2020, 19:47:56 Three Thirteen - Full Tilt (2011)


*Artist: Three Thirteen
*Album: Full Tilt
*Year: 2011
*Genre: Thrash Metal
*Country: United States
*Format: mp3@CBR320kbps
*Size: 88MB

Tracklist:
1. Blaster 03:36
2. One for the Road 04:33
3. Full Tilt 03:58
4. Skool Daze 04:20
5. City of Devils 04:58
6. The Dark of Yesterday 03:40
7. Watch It Go! 04:29
8. Living in Stereo 04:49
9. Death's Head 04:24
******************************
Total playing time: 38:47

[more=Technical info]
Input File: 03 Full Tilt.mp3
Channels : 2
Sample Rate : 48000
Precision : 16-bit
Duration : 00:03:58.20 = 11433744 samples ~ 17865.2 CDDA sectors
File Size : 9.53M
Bit Rate : 320k
Sample Encoding: MPEG audio (layer I, II or III)
Comments :
Title=Full Tilt
Artist=Three Thirteen
Album=Full Tilt
Tracknumber=3/9
Year=2011
Genre=Thrash Metal
Discnumber=1/1

[/more]

Register
(14) after21allD, boby9052, caro, chipsgott, gwar, infiltrator, Mares, Mogozoz, Olethros, Rosen, sergsazan, stumpheavyrock, varlam4, wreak,
Aug 17 2020, 19:46:00 Three Thirteen - Devil Music [ep] (2011)


*Artist: Three Thirteen
*Album: Devil Music [ep]
*Year: 2011
*Genre: Thrash Metal
*Country: United States
*Format: mp3@CBR320kbps
*Size: 61MB

Tracklist:
1. Devil Music Intro 00:27
2. It's a Long Way to the Top (If You Wanna Rock n Roll) 04:40
3. Rocket Ride 04:13
4. Beer Drinkers and Hell Raisers 03:19
5. Caught in a Mosh 05:06
6. Ramble On 04:39
7. We're Not Gonna Take It 03:16
8. Devil Music Outro 01:09
******************************
Total playing time: 26:49

[more=Technical info]
Input File: 02 It\'s a Long Way to the Top (If Yo.mp3
Channels : 2
Sample Rate : 48000
Precision : 16-bit
Duration : 00:04:39.60 = 13420944 samples ~ 20970.2 CDDA sectors
File Size : 11.2M
Bit Rate : 320k
Sample Encoding: MPEG audio (layer I, II or III)
Comments :
Title=It's a Long Way to the Top (If You Wanna Rock N Roll)
Artist=Three Thirteen
Album=Devil Music (EP)
Tracknumber=2/8
Year=2011
Genre=Thrash Metal
Discnumber=1/1

[/more]

Register
(14) after21allD, boby9052, caro, chipsgott, gwar, infiltrator, Mares, Mogozoz, Olethros, Rosen, sergsazan, stumpheavyrock, varlam4, wreak,
Aug 16 2020, 08:25:19 Mercury Circle - The Dawn Of Vitriol [ep] (2020)
Jaska Raatikainen - Drums (eх-Children of Bodom)
(1) krotovich,
Aug 14 2020, 14:05:20 Terminal Nation - Holocene Extinction (2020)
Альбом пушка, заслушиваюсь! pray.gif
(1) Occultas,
Aug 7 2020, 20:25:53 Oathean - The Eyes Of Tremendous Sorrow (1998)


*Artist: Oathean
*Album: The Eyes Of Tremendous Sorrow
*Year: 1998
*Genre: Melodic Black Metal
*Country: South Korea
*Format: mp3@CBR320kbps
*Size: 89MB

Tracklist:
1. Intro
2. The Last Elegy for My Sad Soul
3. Transparent Blue Light, So Too Much Tearful
4. In Fear with Shiver
5. Frigid Space
6. The Eyes of Tremendous Sorrow
7. The Rotten Egg Smell Stuck on My Belly
8. Punishment of Being Alone, Its Cruel Strength Breaks Me Away
******************************
Total playing time: 39:35



[more=Technical info]
Input File: 02. The Last Elegy For My Sad Soul.mp3
Channels : 2
Sample Rate : 44100
Precision : 16-bit
Duration : 00:06:35.94 = 17460778 samples = 29695.2 CDDA sectors
File Size : 15.8M
Bit Rate : 320k
Sample Encoding: MPEG audio (layer I, II or III)
Comments :
Title=The Last Elegy For My Sad Soul
Artist=Oathean
Album=The Eyes Of Tremendeous Sorrow
Tracknumber=02
Year=1998
Genre=Melodic Black Metal

[/more]

Register
(25) 1968_janeart, BugEyes, demonosz, DenisKov, DiegoMassakre, djsema4, Ildjarn, infiltrator, krotovich, legion01, lestllk, metala, Mogozoz, nospeedlimit, Olethros, randumbum, Rosen, sergsazan, SilentNidhogg, Svafrlami, VALERY, varlam4, vasiljev_sergej, zhol, Сварог Барг,
Jul 25 2020, 21:34:31 Väki - Kuolleen Maan Omaksi (2020)


*Artist: Väki
*Album: Kuolleen Maan Omaksi
*Year: 2020
*Genre: Black Metal
*Country: Finland
*Format: flac
*Size: 698MB

Tracklist:
1. Vaisto
2. Kuihtuvan maan puoliso
3. Ennustus
4. Ikiuni
5. Painajaisten syleilyssä
6. Ikuisen kuoleman alttarille
7. Kylmyyden ytimessä
******************************
Total playing time: 52:43




[more=Extended info]Flac + 320[/more]

Register
(16) AndreFrancis, Boozer, infiltrator, Korpse, Krosis, lestllk, Mares, multizwilling, Olethros, Rosen, sabr, sok, thenecromancer, tim47, vasiljev_sergej, wreak,
Jul 24 2020, 21:02:11 Pôhjast - Matused (2014)


*Artist: Pôhjast
*Album: Matused
*Year: 2014
*Genre: Atmospheric Doom Metal
*Country: International
*Format: mp3@CBR320kbps
*Size: 73MB

Tracklist:
1. Till Dawn, till Death
2. Rune of Dissolution
3. The Graveyard Keeper
4. November
5. In the Shadow of the Glass Cross
6. The Final Lullaby
******************************
Total playing time: 32:19



[more=Extended info]Country: Estonia / Finland / Canada[/more]

[more=Technical info]
Input File: 04. November.mp3
Channels : 2
Sample Rate : 44100
Precision : 16-bit
Duration : 00:04:57.03 = 13099067 samples = 22277.3 CDDA sectors
File Size : 12.0M
Bit Rate : 324k
Sample Encoding: MPEG audio (layer I, II or III)
Comments :
Title=November
Artist=Pôhjast
Album=Matused
Tracknumber=4
Year=2014
Genre=Atmosperhic Doom Metal

[/more]

Register
(15) chipsgott, doomasfvck, HMHamster, infiltrator, Kalnasra, Lukittaz, metala, Nattfodd, Necromag, Olethros, randumbum, robertho777, Rosen, VALERY, varlam4,
Jul 24 2020, 20:57:20 Põhjast - Thou Strong, Stern Death (2012)


*Artist: Põhjast
*Album: Thou Strong, Stern Death
*Year: 2012
*Genre: Black Metal/Doom Metal
*Country: International
*Format: mp3@CBR320kbps
*Size: 72MB

Tracklist:
1. The Soundless Music of the Lake
2. A Funeral Procession on the Milky Way
3. The Man from the Past
4. Moorsong
5. Thoughts Most Nocturnal
6. The Three Brothers
******************************
Total playing time: 31:58



[more=Extended info]Country: Estonia / Finland / Canada[/more]

[more=Technical info]
Input File: 02. A Funeral Procession On The Milky Way.mp3
Channels : 2
Sample Rate : 44100
Precision : 16-bit
Duration : 00:04:44.02 = 12525370 samples = 21301.6 CDDA sectors
File Size : 11.5M
Bit Rate : 323k
Sample Encoding: MPEG audio (layer I, II or III)
Comments :
Title=A Funeral Procession On The Milky Way
Artist=Pôhjast
Album=Thou Strong, Stern Death
Tracknumber=2
Year=2012
Genre=Black/Doom Metal

[/more]

Register
(17) 1968_janeart, AlexSmith, HMHamster, infiltrator, Kalnasra, lestllk, Lukittaz, Olethros, randumbum, robertho777, Rosen, sergsazan, Shadechaser, SilentNidhogg, VALERY, varlam4, vasiljev_sergej,
Jul 10 2020, 21:00:02 Black Mass Pervertor - Lux Sodomiticum [ep] (2020)


*Artist: Black Mass Pervertor
*Album: Lux Sodomiticum [ep]
*Year: 2020
*Genre: Black Metal/Punk
*Country: Finland
*Format: mp3@CBR320kbps
*Size: 44MB

Tracklist:
1. Ancient Roman Oil Massage
2. Death Erection
3. Pollute the Minds of Youth
4. Seeking Mortality Among the Mortals
5. Under the Rod
******************************
Total playing time: 19:19



[more=Technical info]
Input File: 01. Ancient Roman Oil Massage.mp3
Channels : 2
Sample Rate : 44100
Precision : 16-bit
Duration : 00:04:06.87 = 10887099 samples = 18515.5 CDDA sectors
File Size : 9.88M
Bit Rate : 320k
Sample Encoding: MPEG audio (layer I, II or III)
Comments :
Title=Ancient Roman Oil Massage
Artist=Black Mass Pervertor
Album=Lux Sodomiticum (EP)
Tracknumber=1
Year=2020
Genre=Black Metal/Punk

[/more]

Register
(22) 1968_janeart, BandR75, infiltrator, kim666, lestllk, lordbathor, Lukittaz, marilin, Olethros, randumbum, Razorbladeswaltz, robertho777, Rosen, Sanctus, SilentNidhogg, stub888, Styx, TeamatSE, VALERY, varlam4, Wail, wreak,
Jun 1 2020, 19:41:31 Grimfist - Ten Steps To Hell (2005)
320 +skans (Flac-Rip)
Register
(1) thenecromancer,
May 8 2020, 09:03:08 Oathbreaker - Ease Me & 4 Interpretations [ep] (2020)
Хренотень. Лучше бы новый альбом сделали, чем плотить ни о чем би-сайды.
(3) ahp, Ghostb, infiltrator,
May 6 2020, 08:14:48 ...And Oceans - Cosmic World Mother (2020)
Хороший альбом, не хватает правда той агрессивности и мракобесия первых работ, но да ладно. Атмосфера и мелодии приятные, слушать стоит. Ждем качества.
(2) infiltrator, recber,
Apr 26 2020, 20:07:01 Archgoat - Black Mass Xxx [live] (2020)


*Artist: Archgoat
*Album: Black Mass Xxx [live]
*Year: 2020
*Genre: Black Metal/Death Metal
*Country: Finland
*Format: mp3@CBR320kbps
*Size: 187MB

Tracklist:
01. Intro: Ripping the Wings
02. Black Messiah
03. Death and Necromancy
04. Rise of the Black Moon
05. Jesus Spawn
06. Satanic Oath
07. Penis Perversor
08. Intro: 1st Invocation
09. Angel of Sodomy
10. Lord of the Void
11. Dawn of the Black Light
12. Whore of Bethlehem
13. Hammer of Satan
14. Outro: The Prophecy
15. Intro: 3rd Invocation
16. Apotheosis of Lucifer
17. Goat and the Moon
18. Blessed Vulva
19. Day of Clouds
20. Intro: Left Hand Path
21. Nuns, Cunts and Darkness
22. The Apocalyptic Triumphator
23. Grand Luciferian Theophany
24. Intrantation
25. Jesus Christ Father of Lies
26. Messiah of Pigs
27. Darkness Has Returned
******************************
Total playing time: 1:21:00



[more=Technical info]
Input File: 5 - Jesus Spawn (Live).mp3
Channels : 2
Sample Rate : 44100
Precision : 16-bit
Duration : 00:01:22.11 = 3621051 samples = 6158.25 CDDA sectors
File Size : 3.37M
Bit Rate : 328k
Sample Encoding: MPEG audio (layer I, II or III)
Comments :
Title=Jesus Spawn (Live)
Artist=Archgoat
Album=Black Mass XXX (Live)
Tracknumber=5
Year=2020
Genre=Black/Death Metal
Discnumber=1

[/more]

Register
(22) acerbus, cancer1974, deadterror, FUDEDOR, gena, infiltrator, LEGION69, lordbathor, marilin, multizwilling, Mutilated, Olethros, rimfrost, Rosen, seadog, stub888, supremo, VALERY, varlam4, Wail, Wolftribes, wtk.412,
Apr 20 2020, 21:27:39 Prismeria - Requiem (2020)


*Artist: Prismeria
*Album: Requiem
*Year: 2020
*Genre: Modern Thrash/Death Metal
*Country: France
*Format: mp3@CBR320kbps
*Size: 80MB

Tracklist:
01. North 04:58
02. Native Spirit 03:19
03. The Ceremony 03:13
04. Irkalla 03:09
05. Life 03:46
06. Passenger 04:38
07. Deep into Dementia 03:32
08. Low Hopes of Men 04:16
09. The Groovy Snake 04:12
******************************
Total playing time: 35:03



[more=Technical info]
Input File: 2 - Native Spirit.mp3
Channels : 2
Sample Rate : 44100
Precision : 16-bit
Duration : 00:03:19.72 = 8807652 samples = 14979 CDDA sectors
File Size : 8.04M
Bit Rate : 322k
Sample Encoding: MPEG audio (layer I, II or III)
Comments :
Title=Native Spirit
Artist=Prismeria
Album=Requiem
Tracknumber=2
Year=2020
Genre=Metal
Discnumber=1

[/more]

Register
(13) atavist, boby9052, chipsgott, infiltrator, kimkayoung, metala, morbidangelo, Olethros, Rosen, sadmannn, serjred, tschunioronbeer, zhol,
Apr 19 2020, 20:33:06 Hellgarden - Making Noise, Living Fast (2020)


*Artist: Hellgarden
*Album: Making Noise, Living Fast
*Year: 2020
*Genre: Thrash Metal
*Country: Brazil
*Format: mp3@CBR320kbps
*Size: 79MB

Tracklist:
01. Spit on Hypocrisy
02. Evolution or Destruction
03. Learned to Play Dirty
04. Fuck the Consequences
05. Brainwash
06. Making Noise, Living Fast
07. Believe in Yourself or Die
08. Possessed by Noise
******************************
Total playing time: 34:30



[more=Technical info]
Input File: 3 - Learned to Play Dirty.mp3
Channels : 2
Sample Rate : 44100
Precision : 16-bit
Duration : 00:04:38.33 = 12274221 samples = 20874.5 CDDA sectors
File Size : 11.2M
Bit Rate : 321k
Sample Encoding: MPEG audio (layer I, II or III)
Comments :
Title=Learned to Play Dirty
Artist=HellgardeN
Album=Making Noise, Living Fast
Tracknumber=3
Year=2020
Genre=Metal
Discnumber=1

[/more]

Register
(9) atavist, boby9052, gwar, infiltrator, metala, Mogozoz, Olethros, sergsazan, stumpheavyrock,
Apr 19 2020, 20:05:38 Oranssi Pazuzu - Mestarin kynsi (2020)
Топ! pray.gif
(2) infiltrator, vosmidesijatye,
Apr 15 2020, 12:39:15 Seeds Of Iblis - Morbid Muhammad (2020)
Уровень VKBM. После первой песни можно выключать и удалять этот дешевый хайп.
(1) Foneg,
Mar 23 2020, 14:58:59 Covid-19 - We All Die (2020)
ЦИТАТА(Dargaud @ Mar 23 2020, 18:39:29) *

О, это ты зря закинул сюда. Сейчас наш "творец" пойдет еще судиться с ними из-за названия 15.gif
(4) Deze, DMIYUR, infiltrator, Kwaad,
Mar 22 2020, 20:07:18 Mørket - Oro (2020)


*Artist: Mørket
*Album: Oro
*Year: 2020
*Genre: Post-Metal/Black Metal/Hardcore
*Country: Finland
*Format: mp3@CBR320kbps
*Size: 80MB

Tracklist:
01. Arkadianmäki
02. Tvenne fiende
03. Oro
04. Kaipuu Järvelle
05. Kadaver pengar
06. Ei Kukaan Kuule
07. Disharmoni
08. Uni
09. Muserra
******************************
Total playing time: 31:42



[more=Technical info]
Input File: 04. Kaipuu Järvelle.mp3
Channels : 2
Sample Rate : 44100
Precision : 16-bit
Duration : 00:03:55.90 = 10403234 samples = 17692.6 CDDA sectors
File Size : 10.3M
Bit Rate : 348k
Sample Encoding: MPEG audio (layer I, II or III)
Comments :
Title=Kaipuu Järvelle
Artist=Mørket
Album=Oro
Tracknumber=4/9
Year=2020
Genre=Hardcore/Post Metal/Black Metal

[/more]

Register
(11) aleon, BandR75, gena, infiltrator, morbidangelo, Olethros, Ostinato, vasiljev_sergej, wreak, yuratroll, zhol,
Mar 22 2020, 18:24:44 Heaven Shall Burn - Of Truth & Sacrifice (2020)
ЦИТАТА

Всегда был топорным говном, но я не устану верить.
Никогда не были, но теперь стали 6.gif

ЦИТАТА
это типичный металкор, мелодэтом тут и не пахнет

Типичный бред. Тут металкора нет, впрочем, как и на предыдущей работе.

Для меня это первый альбом, который разочаровал у немцев, всегда были одной из любимых групп. Когда я вижу у такого рода популярных групп в трек-листе больше 11 песен, то я смело могу быть уверенным, что ничего хорошего ждать не стоит и скорее всего нам вывалят весь накопившийся шлак. В случае с HSB так и вышло. Очень нудно, затянуто и минимум интересных идей. Можно сказать сборная солянка риффов и набросков по атмосфере с предыдущих работ, которые склеили воедино и издали. Эксперименты у них всегда получались, но не в этот раз, реально переборщили. Синглы самые убойные получились, из остальных песенок пару тем неплохих выбрал для себя, опять же с сильным самоплагиатом, и итого штук 6 вменяемых композиций наберется.
(2) infiltrator, Metalass,
Mar 22 2020, 14:53:03 Kneel - Interstice (2019)


*Artist: Kneel
*Album: Interstice
*Year: 2019
*Genre: Post-Hardcore/Mathcore
*Country: Portugal
*Format: mp3@CBR320kbps
*Size: 77MB

Tracklist:
1. Murmurs
2. Amend
3. Occlusion
4. Lessening
5. Absence
6. Cloak
7. Debris
8. Thrall
9. Sovereignty
******************************
Total playing time: 35:52




[more=Technical info]
Input File: 03. Occlusion.mp3
Channels : 2
Sample Rate : 44100
Precision : 16-bit
Duration : 00:04:12.80 = 11148656 samples = 18960.3 CDDA sectors
File Size : 10.2M
Bit Rate : 323k
Sample Encoding: MPEG audio (layer I, II or III)
Comments :
Title=Occlusion
Artist=Kneel
Album=Interstice
Tracknumber=3
Year=2019
Discnumber=1

[/more]

Register
(4) infiltrator, Olethros, Ostinato, sludge666,

17 Pages V   1 2 3 > » 
- Lo-Fi Version Support form
Copyrights and abuse reports form
Time is now: 1st October 2020 - 02:04:56