Welcome Guest ( Log In | Register )

История благодарностей участнику Oath19 ::: Спасибо сказали: 4274 раз(а)
Дата поста: В теме: За сообщение: Спасибо сказали:
May 8 2020, 09:03:08 Oathbreaker - Ease Me & 4 Interpretations [ep] (2020)
Хренотень. Лучше бы новый альбом сделали, чем плотить ни о чем би-сайды.
(3) ahp, Ghostb, infiltrator,
May 6 2020, 08:14:48 ...And Oceans - Cosmic World Mother (2020)
Хороший альбом, не хватает правда той агрессивности и мракобесия первых работ, но да ладно. Атмосфера и мелодии приятные, слушать стоит. Ждем качества.
(2) infiltrator, recber,
Apr 26 2020, 20:07:01 Archgoat - Black Mass Xxx [live] (2020)


*Artist: Archgoat
*Album: Black Mass Xxx [live]
*Year: 2020
*Genre: Black Metal/Death Metal
*Country: Finland
*Format: mp3@CBR320kbps
*Size: 187MB

Tracklist:
01. Intro: Ripping the Wings
02. Black Messiah
03. Death and Necromancy
04. Rise of the Black Moon
05. Jesus Spawn
06. Satanic Oath
07. Penis Perversor
08. Intro: 1st Invocation
09. Angel of Sodomy
10. Lord of the Void
11. Dawn of the Black Light
12. Whore of Bethlehem
13. Hammer of Satan
14. Outro: The Prophecy
15. Intro: 3rd Invocation
16. Apotheosis of Lucifer
17. Goat and the Moon
18. Blessed Vulva
19. Day of Clouds
20. Intro: Left Hand Path
21. Nuns, Cunts and Darkness
22. The Apocalyptic Triumphator
23. Grand Luciferian Theophany
24. Intrantation
25. Jesus Christ Father of Lies
26. Messiah of Pigs
27. Darkness Has Returned
******************************
Total playing time: 1:21:00



[more=Technical info]
Input File: 5 - Jesus Spawn (Live).mp3
Channels : 2
Sample Rate : 44100
Precision : 16-bit
Duration : 00:01:22.11 = 3621051 samples = 6158.25 CDDA sectors
File Size : 3.37M
Bit Rate : 328k
Sample Encoding: MPEG audio (layer I, II or III)
Comments :
Title=Jesus Spawn (Live)
Artist=Archgoat
Album=Black Mass XXX (Live)
Tracknumber=5
Year=2020
Genre=Black/Death Metal
Discnumber=1

[/more]

Register
(20) acerbus, cancer1974, deadterror, FUDEDOR, gena, infiltrator, LEGION69, lordbathor, marilin, multizwilling, Mutilated, Olethros, rimfrost, stub888, supremo, VALERY, varlam4, Wail, Wolftribes, wtk.412,
Apr 20 2020, 21:27:39 Prismeria - Requiem (2020)


*Artist: Prismeria
*Album: Requiem
*Year: 2020
*Genre: Modern Thrash/Death Metal
*Country: France
*Format: mp3@CBR320kbps
*Size: 80MB

Tracklist:
01. North 04:58
02. Native Spirit 03:19
03. The Ceremony 03:13
04. Irkalla 03:09
05. Life 03:46
06. Passenger 04:38
07. Deep into Dementia 03:32
08. Low Hopes of Men 04:16
09. The Groovy Snake 04:12
******************************
Total playing time: 35:03



[more=Technical info]
Input File: 2 - Native Spirit.mp3
Channels : 2
Sample Rate : 44100
Precision : 16-bit
Duration : 00:03:19.72 = 8807652 samples = 14979 CDDA sectors
File Size : 8.04M
Bit Rate : 322k
Sample Encoding: MPEG audio (layer I, II or III)
Comments :
Title=Native Spirit
Artist=Prismeria
Album=Requiem
Tracknumber=2
Year=2020
Genre=Metal
Discnumber=1

[/more]

Register
(12) atavist, boby9052, chipsgott, infiltrator, kimkayoung, metala, morbidangelo, Olethros, sadmannn, serjred, tschunioronbeer, zhol,
Apr 19 2020, 20:33:06 Hellgarden - Making Noise, Living Fast (2020)


*Artist: Hellgarden
*Album: Making Noise, Living Fast
*Year: 2020
*Genre: Thrash Metal
*Country: Brazil
*Format: mp3@CBR320kbps
*Size: 79MB

Tracklist:
01. Spit on Hypocrisy
02. Evolution or Destruction
03. Learned to Play Dirty
04. Fuck the Consequences
05. Brainwash
06. Making Noise, Living Fast
07. Believe in Yourself or Die
08. Possessed by Noise
******************************
Total playing time: 34:30



[more=Technical info]
Input File: 3 - Learned to Play Dirty.mp3
Channels : 2
Sample Rate : 44100
Precision : 16-bit
Duration : 00:04:38.33 = 12274221 samples = 20874.5 CDDA sectors
File Size : 11.2M
Bit Rate : 321k
Sample Encoding: MPEG audio (layer I, II or III)
Comments :
Title=Learned to Play Dirty
Artist=HellgardeN
Album=Making Noise, Living Fast
Tracknumber=3
Year=2020
Genre=Metal
Discnumber=1

[/more]

Register
(9) atavist, boby9052, gwar, infiltrator, metala, Mogozoz, Olethros, sergsazan, stumpheavyrock,
Apr 19 2020, 20:05:38 Oranssi Pazuzu - Mestarin kynsi (2020)
Топ! pray.gif
(2) infiltrator, vosmidesijatye,
Apr 15 2020, 12:39:15 Seeds Of Iblis - Morbid Muhammad (2020)
Уровень VKBM. После первой песни можно выключать и удалять этот дешевый хайп.
(1) Foneg,
Mar 23 2020, 14:58:59 Covid-19 - We All Die (2020)
ЦИТАТА(Dargaud @ Mar 23 2020, 18:39:29) *

О, это ты зря закинул сюда. Сейчас наш "творец" пойдет еще судиться с ними из-за названия 15.gif
(4) Deze, DMIYUR, infiltrator, Kwaad,
Mar 22 2020, 20:07:18 Mørket - Oro (2020)


*Artist: Mørket
*Album: Oro
*Year: 2020
*Genre: Post-Metal/Black Metal/Hardcore
*Country: Finland
*Format: mp3@CBR320kbps
*Size: 80MB

Tracklist:
01. Arkadianmäki
02. Tvenne fiende
03. Oro
04. Kaipuu Järvelle
05. Kadaver pengar
06. Ei Kukaan Kuule
07. Disharmoni
08. Uni
09. Muserra
******************************
Total playing time: 31:42



[more=Technical info]
Input File: 04. Kaipuu Järvelle.mp3
Channels : 2
Sample Rate : 44100
Precision : 16-bit
Duration : 00:03:55.90 = 10403234 samples = 17692.6 CDDA sectors
File Size : 10.3M
Bit Rate : 348k
Sample Encoding: MPEG audio (layer I, II or III)
Comments :
Title=Kaipuu Järvelle
Artist=Mørket
Album=Oro
Tracknumber=4/9
Year=2020
Genre=Hardcore/Post Metal/Black Metal

[/more]

Register
(11) aleon, BandR75, gena, infiltrator, morbidangelo, Olethros, Ostinato, vasiljev_sergej, wreak, yuratroll, zhol,
Mar 22 2020, 18:24:44 Heaven Shall Burn - Of Truth & Sacrifice (2020)
ЦИТАТА

Всегда был топорным говном, но я не устану верить.
Никогда не были, но теперь стали 6.gif

ЦИТАТА
это типичный металкор, мелодэтом тут и не пахнет

Типичный бред. Тут металкора нет, впрочем, как и на предыдущей работе.

Для меня это первый альбом, который разочаровал у немцев, всегда были одной из любимых групп. Когда я вижу у такого рода популярных групп в трек-листе больше 11 песен, то я смело могу быть уверенным, что ничего хорошего ждать не стоит и скорее всего нам вывалят весь накопившийся шлак. В случае с HSB так и вышло. Очень нудно, затянуто и минимум интересных идей. Можно сказать сборная солянка риффов и набросков по атмосфере с предыдущих работ, которые склеили воедино и издали. Эксперименты у них всегда получались, но не в этот раз, реально переборщили. Синглы самые убойные получились, из остальных песенок пару тем неплохих выбрал для себя, опять же с сильным самоплагиатом, и итого штук 6 вменяемых композиций наберется.
(2) infiltrator, Metalass,
Mar 22 2020, 14:53:03 Kneel - Interstice (2019)


*Artist: Kneel
*Album: Interstice
*Year: 2019
*Genre: Post-Hardcore/Mathcore
*Country: Portugal
*Format: mp3@CBR320kbps
*Size: 77MB

Tracklist:
1. Murmurs
2. Amend
3. Occlusion
4. Lessening
5. Absence
6. Cloak
7. Debris
8. Thrall
9. Sovereignty
******************************
Total playing time: 35:52




[more=Technical info]
Input File: 03. Occlusion.mp3
Channels : 2
Sample Rate : 44100
Precision : 16-bit
Duration : 00:04:12.80 = 11148656 samples = 18960.3 CDDA sectors
File Size : 10.2M
Bit Rate : 323k
Sample Encoding: MPEG audio (layer I, II or III)
Comments :
Title=Occlusion
Artist=Kneel
Album=Interstice
Tracknumber=3
Year=2019
Discnumber=1

[/more]

Register
(4) infiltrator, Olethros, Ostinato, sludge666,
Mar 22 2020, 14:37:18 Dependentium - Abandoned Tape (2019)


*Artist: Dependentium
*Album: Abandoned Tape
*Year: 2019
*Genre: Black Metal
*Country: Finland
*Format: mp3@CBR320kbps
*Size: 72MB

Tracklist:
1. I
2. II
3. III
4. IV
5. V
6. VI
7. VII
8. VIII
9. IX
******************************
Total playing time: 31:49




[more=Technical info]
Input File: 04 IV.mp3
Channels : 2
Sample Rate : 48000
Precision : 16-bit
Duration : 00:03:06.47 = 8950512 samples ~ 13985.2 CDDA sectors
File Size : 7.46M
Bit Rate : 320k
Sample Encoding: MPEG audio (layer I, II or III)
Comments :
Title=IV
Artist=Dependentium
Album=Abandoned Tape
Tracknumber=4
Year=2019
Genre=Black Metal

[/more]

Register
(7) 1968_janeart, craP_cillA, infiltrator, Olethros, stub888, thenecromancer, vasiljev_sergej,
Mar 22 2020, 05:58:27 Covid-19 - We All Die (2020)
Гамно-хайп. Дизлайк
(13) bmkrieg, Deze, Foneg, Ghostb, infiltrator, ingram, judaz, N1K1T1N, RUSP73, SAPOGi, thenecromancer, wolverine, yuratroll,
Mar 19 2020, 15:04:26 Heaven Shall Burn - Of Truth And Sacrifice (2020)


*Artist: Heaven Shall Burn
*Album: Of Truth And Sacrifice
*Year: 2020
*Genre: Melodic Death Metal
*Country: Germany
*Format: mp3@CBR320kbps
*Size: 223MB

Tracklist:
CD 01:
01. March of Retribution (1:22)
02. Thoughts and Prayers (4:58)
03. Eradicate (4:32)
04. Protector (5:27)
05. Übermacht (5:26)
06. My Heart and the Ocean (5:51)
07. Expatriate (8:53)
08. What War Means (5:31)
09. Terminate the Unconcern (4:42)
10. The Ashes of My Enemies (2:03)

CD 02:
01. Children of a Lesser God (6:36)
02. La Résistance (5:07)
03. The Sorrows of Victory (8:25)
04. Stateless (3:49)
05. Tirpitz (5:55)
06. Truther (2:42)
07. Critical Mass (3:36)
08. Eagles Among Vultures (5:06)
09. Weakness Leaving My Heart (7:32)
******************************
Total playing time: 1:37:33





[more=Technical info]
Input File: 7 - Expatriate.mp3
Channels : 2
Sample Rate : 44100
Precision : 16-bit
Duration : 00:08:53.35 = 23520647 samples = 40001.1 CDDA sectors
File Size : 21.4M
Bit Rate : 321k
Sample Encoding: MPEG audio (layer I, II or III)
Comments :
Title=Expatriate
Artist=Heaven Shall Burn
Album=Of Truth And Sacrifice
Tracknumber=7
Year=2020
Genre=Rock / Hard Rock / Metal
Discnumber=1

[/more]

Register
(7) Deada, Flitzpiepe, infiltrator, Joey_73, PainMiseryDeath, Robinzombie, Slam91,
Mar 15 2020, 08:36:18 Heaven Shall Burn - Maximum Sacrifice [compilation] (2020)


*Artist: Heaven Shall Burn
*Album: Maximum Sacrifice [compilation]
*Year: 2020
*Genre: Melodic Death Metal
*Country: Germany
*Format: mp3@CBR320kbps
*Size: 96MB

Tracklist:
01. Protector (Alternative Version)
02. Übermacht (Alternative Version)
03. The Sorrows of Victory
04. Eisenkopf (Schweisser Cover)
05. Ecowar 2020
06. Weakness Leaving My Heart (Alternative Mix)
07. The Worlds in Me (Live in Berlin)
08. Like Gods Among Mortals (Live in Berlin)
******************************
Total playing time: 42:12





[more=Technical info]
Input File: 01. Protector (Alternativ Versio).mp3
Channels : 2
Sample Rate : 44100
Precision : 16-bit
Duration : 00:05:04.53 = 13429729 samples = 22839.7 CDDA sectors
File Size : 12.3M
Bit Rate : 323k
Sample Encoding: MPEG audio (layer I, II or III)
Comments :
Title=Protector (Alternativ Versio)
Artist=Heaven Shall Burn
Album=Maximum Sacrifice
Tracknumber=01
Year=2020
Genre=Metalcore
Discnumber=1/1

[/more]

Register
(19) carla667, DenisKov, Femto, infiltrator, John Beak, let4ikmiha, Lukittaz, Mannard, Metalass, Olethros, Olrak, Ostinato, recber, satanist666, VALERY, varlam4, wreak, zhol, Варонъ,
Mar 15 2020, 08:30:59 Shining & Srd - Shining/Srd [split] (2019)


*Artist: Shining & Srd
*Album: Shining/Srd [split]
*Year: 2019
*Genre: Depressive Black Metal | Black Metal
*Country: Sweden | Slovenia
*Format: mp3@CBR320kbps
*Size: 51MB

Tracklist:
Shining:
01. Endless Solitude
02. Submit to Selfdestruction

Srd:
03. Kupa Trpljenja
04. Sreča Na Vrvici
******************************
Total playing time: 24:44

[more=Technical info]
Input File: 02. Shining, Srd - Submit To Self-destruction.mp3
Channels : 2
Sample Rate : 44100
Precision : 16-bit
Duration : 00:07:02.51 = 18632515 samples = 31688 CDDA sectors
File Size : 16.9M
Bit Rate : 320k
Sample Encoding: MPEG audio (layer I, II or III)
Comments :
Title=Submit To Self-destruction
Artist=Shining
Album=Split
Tracknumber=2/4
Year=2019
Genre=Black Metal
Discnumber=1/1

[/more]

Register
(18) cancer1974, craP_cillA, infiltrator, kim666, Lanceatum, Lord Noctua, morbidangelo, nadin85, recber, satanist666, Sjelekval, soulskinner681, stub888, thenecromancer, Tyrone, vasiljev_sergej, vov7609, wolverine,
Mar 14 2020, 11:10:04 Myrkur - Folkesange (2020)
Музыка для импотентов. С коммерческого блэк-метала соскочила на унылый фолк. 22.gif Послушал и удалил.
(8) atom72, Faust_Vulkan_16, Foneg, garmonbozia, Ghostb, infiltrator, karut, mondblut,
Feb 8 2020, 19:20:53 Sylosis - Cycle Of Suffering (2020)
Офигенный альбом! Отдых группе пошел на пользу. Предыдущий альбом был таким плохим по всем параметрам, что уже и не думал интересных вещей от них услышать, но пронесло. Альбом уничтожает по нарастающей, к концу альбома самые мощные и цепляющие треки идут. Disintegrate - шедевр.
(2) Samaritianin, smes,
Feb 6 2020, 16:20:57 Karg - Traktat (2020)
Ничем не отличается от предшественников. Уже слушать скучно такое
(2) garmonbozia, MeatWolf,
Feb 5 2020, 13:05:03 Acid Sodomy - Kalman Veteen [ep] (2019)


*Artist: Acid Sodomy
*Album: Kalman Veteen [ep]
*Year: 2019
*Genre: Black Metal
*Country: Finland
*Format: mp3@CBR320kbps
*Size: 37MB

Tracklist:
1. Jäätyneet temppelit
2. Langenneet
3. Pirun uurna
4. Väen ääni
5. Tuonen tytär
6. Pohjola
******************************
Total playing time: 15:13



[more=Technical info]
Input File: Acid Sodomy - Kalman veteen - 03 Pirun uurna.mp3
Channels : 2
Sample Rate : 44100
Precision : 16-bit
Duration : 00:02:07.12 = 5606080 samples = 9534.15 CDDA sectors
File Size : 5.29M
Bit Rate : 333k
Sample Encoding: MPEG audio (layer I, II or III)
Comments :
Title=Pirun uurna
Artist=Acid Sodomy
Album=Kalman Veteen (EP)
Tracknumber=3
Year=2019
Genre=Black Metal

[/more]

Register
(15) 1968_janeart, ASkyThatBurns, Ildjarn, kim666, lestllk, Olethros, Ostinato, Rosen, satanist666, SilentNidhogg, stub888, VALERY, varlam4, vasiljev_sergej, wreak,
Jan 3 2020, 17:43:46 Aegrus - Wolves Howl Revenge [ep] (2019)


*Artist: Aegrus
*Album: Wolves Howl Revenge [ep]
*Year: 2019
*Genre: Black Metal
*Country: Finland
*Format: mp3@CBR320kbps
*Size: 22MB

Tracklist:
1. Wolves of Belial
2. Flames of Revenge
******************************
Total playing time: 9:36

[more=Technical info]
Input File: 01 Wolves Of Belial.mp3
Channels : 2
Sample Rate : 44100
Precision : 16-bit
Duration : 00:04:13.14 = 11163606 samples = 18985.7 CDDA sectors
File Size : 10.4M
Bit Rate : 329k
Sample Encoding: MPEG audio (layer I, II or III)
Comments :
Title=Wolves Of Belial
Artist=Aegrus
Album=Wolves Howl Revenge (EP)
Tracknumber=1
Year=2019
Genre=Black Metal

[/more]

Register
(26) 1968_janeart, acerbus, andivi, ASkyThatBurns, Bekkerev, Hell_Is_Here, Ildjarn, kim666, LEGION69, lestllk, Olethros, Ostinato, raaf, rickzammuto, rimfrost, Rosen, satanist666, SilentNidhogg, smes, stub888, suseka, THROWER666, VALERY, varlam4, vasiljev_sergej, vovenom,
Jan 3 2020, 17:42:33 Finnentum - Vapauden Laulu (2019)


*Artist: Finnentum
*Album: Vapauden Laulu
*Year: 2019
*Genre: Black Metal
*Country: Finland
*Format: mp3@CBR320kbps
*Size: 87MB

Tracklist:
1. Vapauden Laulu
2. Tulenperintö
3. Talvikuningatar
4. Vuoksesi
5. Urd
6. Löytömäki
7. Loppusoitto
******************************
Total playing time: 38:05



[more=Technical info]
Input File: 2. Tulenperintö.mp3
Channels : 2
Sample Rate : 44100
Precision : 16-bit
Duration : 00:06:55.09 = 18305249 samples = 31131.4 CDDA sectors
File Size : 16.6M
Bit Rate : 320k
Sample Encoding: MPEG audio (layer I, II or III)
Comments :
Title=Tulenperintö
Artist=Finnentum
Album=Vapauden Laulu
Tracknumber=2
Year=2019
Genre=Black Metal

[/more]

Register
(32) 0x13, 1968_janeart, acerbus, ambre, ASkyThatBurns, atavist, autumnwood, elsunga, Indamage, judaz, kim666, lestllk, lordbathor, Metalhead1974, Moonshtook, multizwilling, nsk2008, obituarydark, Olethros, Ostinato, robertho777, Rosen, satanist666, SilentNidhogg, smes, stub888, suseka, tim47, VALERY, varlam4, vasiljev_sergej, Velmi,
Dec 9 2019, 11:42:48 Nekroverse - Aistidemot [demo] (2019)


*Artist: Nekroverse
*Album: Aistidemot [demo]
*Year: 2019
*Genre: Black Metal
*Country: Finland
*Format: mp3@CBR320kbps
*Size: 81MB

Tracklist:
1. Initium Novum (demo) 05:39
2. Nibiru (demo) 05:26
3. Se mikä varjoissa kasvaa (demo) 03:30
4. Anella (demo) 03:17
5. Kuolleen miehen koti (demo) 03:59
6. Hirtetyn huoma (demo) 04:13
7. Käärmeenkieli (demo) 04:08
8. Aistisaatana (demo) 03:25
******************************
Total playing time: 33:37



[more=Technical info]
Input File: 02 Nibiru (demo).mp3
Channels : 2
Sample Rate : 44100
Precision : 16-bit
Duration : 00:05:26.57 = 14401913 samples = 24493 CDDA sectors
File Size : 13.2M
Bit Rate : 324k
Sample Encoding: MPEG audio (layer I, II or III)
Comments :
Title=Nibiru (demo)
Artist=Nekroverse
Album=Aistidemot
Tracknumber=2
Year=2019

[/more]

Register
(20) 1968_janeart, Frozenkult, Hell_Is_Here, Ildjarn, kim666, Korpse, morbidangelo, Olethros, Rita, Rosen, satanist666, SilentNidhogg, stub888, Styx, tim47, VALERY, vasiljev_sergej, vovenom, Wail, wreak,
Dec 9 2019, 11:38:36 Haruspex Ritual & Kirje Kelalta - Split [split] (2019)


*Artist: Haruspex Ritual & Kirje Kelalta
*Album: Split [split]
*Year: 2019
*Genre: Black Metal | Black Metal/Crust
*Country: Finland | Finland
*Format: mp3@CBR320kbps
*Size: 18MB

Tracklist:
1. Haruspex Ritual - │││ 02:22
2. Haruspex Ritual - He's Turning Blue (Carpathian Forest cover) 02:28
3. Kirje Kelalta - Kolmioleipä ≡ Kuolema 01:05
4. Kirje Kelalta - Aina mun pitää (Pertti Kurikan Nimipäivät cover) 01:09
******************************
Total playing time: 7:04




[more=Technical info]
Input File: 02 He\'s Turning Blue (Carpathian Forest cover).mp3
Channels : 2
Sample Rate : 44100
Precision : 16-bit
Duration : 00:02:28.73 = 6558817 samples = 11154.5 CDDA sectors
File Size : 6.01M
Bit Rate : 323k
Sample Encoding: MPEG audio (layer I, II or III)
Comments :
Title=He's Turning Blue (Carpathian Forest cover)
Artist=Haruspex Ritual
Album=Split
Tracknumber=2
Year=2019
Genre=Black Metal

[/more]

Register
(13) craP_cillA, Hell_Is_Here, marilin, morbidangelo, Orkkh, Rosen, satanist666, SilentNidhogg, stub888, VALERY, varlam4, vasiljev_sergej, wreak,
Dec 9 2019, 10:37:31 Timeworn - Leave The Soul For Now (2019)
Отлично получилось у них в этот раз! Нравится очень дебютный альбом у группы, прошлый немного мимо прошел, а тут снова красота 9.gif
(1) SaintVitus,

17 Pages V   1 2 3 > » 
- Lo-Fi Version Support form
Copyrights and abuse reports form
Time is now: 28th May 2020 - 19:10:54