Welcome Guest ( Log In | Register )

История благодарностей участнику rom666 ::: Спасибо сказали: 12944 раз(а)
Дата поста: В теме: За сообщение: Спасибо сказали:
Dec 25 2017, 18:21:49 Kludde - Langs Scheld- En Denderland [demo] (2002)
Demo + LP + Split
Register
(3) dermarsoran, Ostinato, varlam4,
Dec 25 2017, 18:21:12 Kludde - In Den Vergetelheid (2008)
Demo + LP + Split
Register
(6) dermarsoran, Doooomed, gena, MortSathynr, Ostinato, varlam4,
Dec 25 2017, 18:20:37 Kludde & Wanhoop - De Verdoken Waarheid & Elegy Of Despair [split] (2004)
Demo + LP + Split
Register
(5) MortSathynr, Ostinato, Unleashed, varlam4, wendigo,
Dec 24 2017, 00:22:31 Rex Mortifier - Ancient Path [demo] (2010)
Register
(4) Satanon666, Spork, thenecromancer, wendigo,
Dec 23 2017, 19:50:45 Darkat - Remembrance Of Nekalah's Honor, The Cry Of Fatherlands (2008)
Register
(4) carla667, kim666, MortSathynr, varlam4,
Dec 23 2017, 18:26:11 Vergeltung - V2 [demo] (2004)
Register
(4) Alexis The Best, INDARKNESS, kim666, thenecromancer,
Dec 23 2017, 18:21:11 Vergeltung - Gegen Feind Und Verräter [demo] (2008)
Register
(5) Alexis The Best, INDARKNESS, kim666, thenecromancer, varlam4,
Dec 23 2017, 17:25:44 Vergeltung & Trollzorn - Gegen Feind und Verräter (2006)
Register
(5) Alexis The Best, kim666, RUSP73, Skog1349, thenecromancer,
Dec 22 2017, 15:18:14 Rutthna - Doomsdaylight (2005)
320
Register
(5) kim666, lawronchik, Ostinato, rimfrost, thenecromancer,
Dec 21 2017, 21:08:19 Nebiras - The Great Rites​.​.​. [ep] (1998)


*Artist: Nebiras
*Album: The Great Rites​.​.​. [ep]
*Year: 1998
*Genre: Black Metal
*Country: Malaysia
*Format: mp3@CBR320kbps
*Size: 40MB

Tracklist:
1.In The Name of Thy Horned Divine - Part I 01:08
2.Culte Des Morts 02:00
3.Clavicules De Solomon 03:00
4.Les Bon Esp'rits 03:07
5.Les Secret Des Secrets 03:38
6.In The Name of Thy Horned - Part II 01:35
7.Thy Great Fullmoon Light 03:06
******************************
Total playing time: 17:34



[more=Extended info]DP 075, Reissue, Limited edition,[/more]

[more=Technical info]
Input File: 02 Culte Des Morts.mp3
Channels : 2
Sample Rate : 44100
Precision : 16-bit
Duration : 00:02:00.07 = 5295087 samples = 9005.25 CDDA sectors
File Size : 4.84M
Bit Rate : 323k
Sample Encoding: MPEG audio (layer I, II or III)
Comments :
Title=Culte Des Morts
Artist=Nebiras
Album=The Great Rites (1998)
Tracknumber=2
Year=2016-09-27
Genre=Black Metal
Discnumber=1

[/more]

Register
(17) 1968_janeart, Evilded, gardenofdemise, Ildjarn, INDARKNESS, Ostinato, Rosen, RUSP73, satanist666, SilentNidhogg, smysl, thenecromancer, varg-38ru, varlam4, vasiljev_sergej, vovenom, Wolftribes,
Dec 21 2017, 16:23:53 Новости Black-направления
The german band Verheerer out on january 19th 2018, their album "Maltrér" on Vendetta Records

Tracklist

Side: Worship
I: ORATIO
II: KULTYST https://www.youtube.com/watch?v=j-20FP4T_XA
III: VERTIGO
IV: MALTRÉR
Side: Downfall
V: ANIMA SOLA
VI: NACHTFALL
VII: HEIMGANG


(2) Immortality, infiltrator,
Dec 14 2017, 04:38:33 Beastiality & Swamp & Throaat & Spite & Occult Burial & Possession - Evil Spells, Volume I [split] (2014)
Register
(3) kauyumari, Tino, wgs73,
Dec 14 2017, 04:19:34 Abigail & Hate Kommand - Street War Metal Kommand [split] (2007)
Register
(4) Asle, thenecromancer, varlam4, Wotanwatch,
Dec 14 2017, 04:09:03 Noose - Demo [demo] (2017)


*Artist: Noose
*Album: Demo [demo]
*Year: 2017
*Genre: Black/Death Metal
*Country: United States
*Format: mp3@CBR320kbps
*Size: 23MB

Tracklist:
1.Witch Hunt 03:52
2.Confess Your Sins 01:31
3.Burned At The Stake 04:17
******************************
Total playing time: 9:40



[more=Technical info]
Input File: 02 Confess Your Sins.mp3
Channels : 2
Sample Rate : 44100
Precision : 16-bit
Duration : 00:01:31.86 = 4050806 samples = 6889.13 CDDA sectors
File Size : 3.74M
Bit Rate : 325k
Sample Encoding: MPEG audio (layer I, II or III)
Comments :
Title=Confess Your Sins
Artist=Noose
Album=Demo 2017
Tracknumber=2
Year=2017
Genre=Black / Death Metal

[/more]

Register
(6) marilin, Rosen, satanist666, SilentNidhogg, varg-38ru, varlam4,
Dec 14 2017, 03:58:34 Exterminio & Погост - Diabolical Psalms [split] (2016)


*Artist: Exterminio & Погост
*Album: Diabolical Psalms [split]
*Year: 2016
*Genre: Black/Death Metal | Black Metal
*Country: Chile | Russian Federation
*Format: mp3@VBR270kbps
*Size: 70MB

Tracklist:
Exterminio:
1.Intro 01:52
2.Parabellum 02:09
3.Elitism, Intolerance, Supremacy 04:29
4.Glorify Darkness, Glorify Damntion 03:55
5.Imperator 03:51
Pogost:
6.Black Blood 01:52
7.Desecration 04:33
8.Horns Up To The Sky 02:48
9.Hymn 07:16
10.Outro 02:25
******************************
Total playing time: 35:10

Preview 1


[more=Technical info]
Input File: 02 Exterminio - Parabellum.mp3
Channels : 2
Sample Rate : 44100
Precision : 16-bit
Duration : 00:02:11.19 = 5785303 samples = 9838.95 CDDA sectors
File Size : 4.53M
Bit Rate : 276k
Sample Encoding: MPEG audio (layer I, II or III)
Comments :
Title=Parabellum
Artist=Exterminio
Album=Diabolical Psalms [split]
Tracknumber=2/10
Year=2016-00-00
Genre=Black Metal

[/more]

Register
(14) Doooomed, Hell_Is_Here, Legacy100, marilin, Moonshtook, Ostinato, Rosen, RUSP73, satanist666, SilentNidhogg, smysl, thornfields, VALERY, varlam4,
Dec 14 2017, 03:12:44 Absurd - Life Beyond The Grave - 1992-1994 II [compilation] (2017)


*Artist: Absurd
*Album: Life Beyond The Grave - 1992-1994 II [compilation]
*Year: 2017
*Genre: Black Metal
*Country: Germany
*Format: mp3@CBR320kbps
*Size: 281MB

Tracklist:
CD 1
Out Of The Dungeon
Intro 00:31
God's Death
01 God´s Death 01:28
02 Last Breath 04:11
03 Black Motorcycle 02:14
04 The Gates Of Heaven 03:27
05 Böse 02:11
06 Vampire 03:23
Death From The Forest
07God´s Death [Grave Version] 01:51
08 Cannibal Lust 00:28
09 Last Breath 04:05
10 YMCA 02:06
11 Htaed S´dog 00:59
12 The Gates Of Heaven 03:11
13 Green Heart 01:36
14 Vampire [Tomb Version] 02:56
15 Böse [Extended Version] 01:53
God's Death / Sadness
16 Intro - Fall Of A False God 00:27
17 God´s Death 01:49
18 Last Breath 04:37
19 Black Motorcycle 02:00
20 Battle In The Holy Halls 00:20
21 The Gates Of Heaven 02:36
22 Böse 01:42
23 Vampire 02:20
24 Outro - The Better God 00:49

CD 2
25 Intro - Suffering 01:08
26 Unendlich 01:00
27 Ritornell 00:21
28 Sadness 04:34
29 God´s Death [Organ Version] 02:52
30 Last Breath [Battle Version] 03:32
31 Intro - Inquisition 00:20
32 Strafe 00:48
33 Death Hymn 04:17
34 Intro - A Fine Day To Die/Innenschau 03:01
Out Of The Dungeon
35 Death From The Forest 02:53
36 Böse 01:58
37 Mondblut 01:37
38 Odin´s Ravens 08:18
39 Far Away From Heaven 01:53
40 Last Breath 04:16
41 Ode An Die Unendlichkeit 01:50
42 Green Heart 01:36
44 The Gates Of Heaven 03:08
45 Dawn Of Veritatis Splendor - Prophetic Words Of Surt & Nidhögg 08:25
The Return Of Nidhögg
46 Sacrifice Slaughtered Jesus - Embraced By Silver Moonlight 02:10
47 Sacrifice Slaughtered Jesus - In The Shadowlands 03:10
48 Sacrifice Slaughtered Jesus - Son Of The Endless Night 02:06
49 Sacrifice Slaughtered Jesus - König Von Thule 02:13
******************************
Total playing time: 2:00:36



[more=Technical info]
Input File: 03 Last Breath.mp3
Channels : 2
Sample Rate : 44100
Precision : 16-bit
Duration : 00:04:11.01 = 11069673 samples = 18826 CDDA sectors
File Size : 10.5M
Bit Rate : 333k
Sample Encoding: MPEG audio (layer I, II or III)
Comments :
Title=Last Breath
Artist=Absurd
Album=Life Beyond The Grave 2: 1992-1994 (CD 1)
Tracknumber=03/25
Year=2017
Genre=Black Metal
Discnumber=1/2

[/more]

Register
(13) Evilded, garmonbozia, Lanceatum, Legacy100, recber, Rosen, RUSP73, satanist666, soulskinner681, stub888, thenecromancer, the_cleanser, vasiljev_sergej,
Dec 12 2017, 18:36:25 Новости Black-направления
the french pagan black metal out soon the album "Tetramental I - Seas Of Oblivion" on the label Malpermesita Records ,19 january 2018

Tracklist

01. Plying the Oars (Intro)
02. Sailing Towards The Unknown
03. Skywrath
04. Till The Moons Drowns
05. Sea Of Thalardh
06. The Dweller Of The Deep
07. Through Primeval Waters
08. Unveiling A New Earth

Trailer https://www.youtube.com/watch?v=-RJ-p3dCKLY


Archaic Tomb (Black/Death Metal - Portugal) out on the label Caligari Records on January 15, 2018.their album "Congregations for Ancient Rituals"


first track Vast Cursed Landscapes https://www.youtube.com/watch?v=ELtH1f9h7Zg
(1) suseka,
Dec 12 2017, 18:13:22 Asakku - Rehearsal 1994-2000 [bootleg] (2000)
new link

enjoy necro 25.gif

(1) thenecromancer,
Dec 6 2017, 22:23:40 Unholy War - Tormented Souls [ep] (2014)
Register


enjoy bro headcrab.png
(3) craP_cillA, kim666, METALHUNTER,
Dec 6 2017, 02:58:50 Новости Black-направления
The USBM band Veiled is back with the album"Black Celestial Orbs" on the label Iron Bonehead Productions ,16 march 2018

Tracklist

1. Luminous
2. Portal
3. Enshrouded
4. Omnipotent
5. Black Celestial Orbs I
6. Black Celestial Orbs II

(1) Immortality,
Dec 3 2017, 16:55:01 Suhgurim - Wolf Cult [ep] (2017)


*Artist: Suhgurim
*Album: Wolf Cult [ep]
*Year: 2017
*Genre: Black Metal
*Country: United States
*Format: mp3@CBR320kbps
*Size: 55MB

Tracklist:
1.Wolf Cult 05:06
2.Wolf Cult II 05:37
3.Indoctrination 03:50
4.The Change 03:57
5.Punishment 05:04
******************************
Total playing time: 23:34




[more=Technical info]
Input File: 02 Wolf Cult II.mp3
Channels : 2
Sample Rate : 44100
Precision : 16-bit
Duration : 00:05:37.38 = 14878282 samples = 25303.2 CDDA sectors
File Size : 13.8M
Bit Rate : 327k
Sample Encoding: MPEG audio (layer I, II or III)
Comments :
Title=Wolf Cult II
Artist=Suhgurim
Album=Wolf Cult
Tracknumber=2/5
Year=2017-01-01
Genre=Black Metal
Discnumber=1

[/more]

Register
(7) 1968_janeart, Ildjarn, Rosen, satanist666, smysl, stub888, vasiljev_sergej,
Dec 1 2017, 17:24:00 Onirism & Pure Wrath - Endless Journey [split] (2017)


*Artist: Onirism & Pure Wrath
*Album: Endless Journey [split]
*Year: 2017
*Genre: Atmospheric Black Metal | Atmospheric Black Metal
*Country: France | Indonesia
*Format: mp3@CBR320kbps
*Size: 92MB

Tracklist:
Onirism :
1.Astral Forest 10:46
2.Explorer of Celestial Islands 07:13

Pure Wrath :
3.The Darkest Stage of Twilight 11:13
4.As the Waves Towards the Shore 11:05
******************************
Total playing time: 40:17





[more=Technical info]
Input File: 01 Onirism - Astral Forest.MP3
Channels : 2
Sample Rate : 44100
Precision : 16-bit
Duration : 00:10:48.01 = 28577241 samples = 48600.8 CDDA sectors
File Size : 25.9M
Bit Rate : 320k
Sample Encoding: MPEG audio (layer I, II or III)
Comments :
Title=Astral Forest
Artist=Onirism
Album=Endless Journey (Split)
Tracknumber=1
Year=2017
Genre=Atmospheric Black Metal

[/more]

Register
(24) 1968_janeart, blacky66, Boozer, Druidir, Evilded, Femto, garmonbozia, Kazoth, kim666, Maximvs, Moonshtook, Oath19, Ostinato, pfk505, Rosen, satanist666, SilentNidhogg, smysl, stone88, thenecromancer, varlam4, vasiljev_sergej, vovenom, Абигор,
Nov 30 2017, 03:22:34 Beastcraft - Sacrilegious Epitaph Of The Deathspawned Legacy [best of/compilation] (2015)


*Artist: Beastcraft
*Album: Sacrilegious Epitaph Of The Deathspawned Legacy [best of/compilation]
*Year: 2015
*Genre: Black Metal
*Country: Norway
*Format: mp3@CBR320kbps
*Size: 90MB

Tracklist:
01.Death Toll (Intro) 00:46
02.Burnt at His Altar 04:08
03.Black Witchcraft 02:45
04.Enter the Chasm 03:01
05.Unholy Blood Ritual 03:11
06.When the Pearly Gates Are Wrapped in Flames 01:31
07.Blackwinged Messiah 04:59
08.(Of the) Circle of Evocation 04:04
09.Beastcraft Manifest 04:17
10.Enthronement of the Third Antichrist 04:18
11.The Beast Awakens 04:38
12.Satanist (live) 02:02
******************************
Total playing time: 39:40



[more=Extended info]Tracks 2-6 are taken from their first full-length "Into the Burning Pit of Hell", tracks 7-11 from their second full-length "Baptised in Blood and Goatsemen"
track 12 taken from the "Unpure Invocation Of Alastor Nefas" live-album '[/more]

[more=Technical info]
Input File: 02 Burnt at His Altar.mp3
Channels : 2
Sample Rate : 44100
Precision : 16-bit
Duration : 00:04:08.09 = 10940549 samples = 18606.4 CDDA sectors
File Size : 9.97M
Bit Rate : 321k
Sample Encoding: MPEG audio (layer I, II or III)
Comments :
Title=Burnt at His Altar
Artist=Beastcraft
Album=Sacrilegious Epitaph of the Deathspawned Legacy (Compilation)
Tracknumber=2
Year=2015
Genre=Black Metal
Discnumber=1

[/more]

Register
(14) BlaspherionFLUL, heinz88, Lanceatum, marilin, Occultas, Ostinato, Rosen, RUSP73, Sjelekval, stub888, thenecromancer, vasiljev_sergej, vovenom, Wolftribes,
Nov 29 2017, 19:42:26 Blodørn - Blodørn [ep] (2017)


*Artist: Blodørn
*Album: Blodørn [ep]
*Year: 2017
*Genre: Black Metal
*Country: Norway
*Format: mp3@CBR320kbps
*Size: 50MB

Tracklist:
1.Svikar 04:21
2.Klar til kamp 06:36
3.Blodørn 05:43
4.Kriga han kan 04:53
******************************
Total playing time: 21:33



[more=Technical info]
Input File: 01 Svikar.mp3
Channels : 2
Sample Rate : 44100
Precision : 16-bit
Duration : 00:04:22.01 = 11554465 samples = 19650.5 CDDA sectors
File Size : 10.6M
Bit Rate : 323k
Sample Encoding: MPEG audio (layer I, II or III)
Comments :
Title=Svikar
Artist=BlodГёrn
Album=BlodГёrn (EP)
Tracknumber=1/4
Year=2017-11-21
Genre=Black Metal
Discnumber=1

[/more]

Register
(20) 1968_janeart, cancer1974, Daale, Ildjarn, Immortality, kim666, murian, NachtWulf, Nalsur, Ostinato, Rosen, RUSP73, satanist666, SilentNidhogg, stub888, VALERY, vasiljev_sergej, vovenom, Wolftribes, ZA670,
Nov 29 2017, 14:05:42 Новости Black-направления
Panphage - Jord' (January 12th, 2018) on Nordvis

Hear the horn of Heimdall which signals the coming of the end. It is time to return home. Jord - the swedish word for soil - is that which, through the bonds of debt and inheritance, links us in the chain of time to the past to those who came before and those who will come after us. The soil which fed us is also the earth in which we will be interred and we are hereby invited to see the funeral pyres as Panphage is laid to rest in the soil of the fathers.

Toiling in the underground for over a decade before his first full-length, 2015's "Storm", sole musician Fjällbrandt, much like Jord - the giantess and mother of the god of thunder - gave birth to lightning and took the black metal world quite literally… by storm. Now on his third and final album, "Jord", an ode to heritage and to the death and rebirth of earth, Panphage continues his meditations on Swedish folk songs which came before him -- black metal which feels as ancient as the stories which fuel it. Still as furious as ever, but wiser now, Fjällbrandt's force continues to focus; a hidden enormity driving through the blistering snow and cracked earth which shaped his art.

Much like Jord before him, Panphage's now returns to the shadows beneath, letting his own lightning son extend into eternity.

Tracklist
1.Odalmarkerna
2.Måtte dessa bygder brinna
3.Ygg (En visa om julen)
4.Skandinawjo
5.Den tyste åsen
6.Som man sår får man skörda
7.Osådda skall åkrarna växa (Outro)


(5) Beazth, DarkHorde, Goatrex, Premature_Devotion, suseka,

63 Pages V   1 2 3 > » 
- Lo-Fi Version Support form
Copyrights and abuse reports form
Time is now: 24th June 2018 - 19:56:52