Welcome Guest ( Log In | Register )

История благодарностей участнику fylopaloma ::: Спасибо сказали: 2699 раз(а)
Дата поста: В теме: За сообщение: Спасибо сказали:
Nov 28 2020, 12:22:54 Paysage D'hiver - Schnee [compilation] (2020)


*Artist: Paysage D'hiver
*Album: Schnee [compilation]
*Year: 2020
*Genre: Black Metal/Ambient
*Country: Switzerland
*Format: mp3@CBR320kbps
*Size: 155MB

Tracklist:
1. Schnee I 17:59
2. Schnee II 11:00
3. Schnee III 17:39
4. Schnee IV 21:12
******************************
Total playing time: 1:07:50




[more=Extended info]Personal BC purchase.

"Schnee" ("snow") is omnipresent in the works of Swiss black metal artist Wintherr a.​k.​a.​ Paysage D'Hiver and turned into a four-part song cycle, released piece by piece on the compilation LP "Wurzelgeister" ('Schnee II', 2002) and on split records with Vinterriket ('Schnee I', 2003), Nordlicht and Drudkh ('Schnee III' and 'Schnee IV', 2017).
All four tracks - created within a time span of almost 20 years and dealing with different facets of the frozen element - are now available together for the first time ever on CD. They have been partly remixed and wholly remastered specially for this release.[/more]

[more=Technical info]
Input File: Paysage d\'Hiver - Schnee - 03 Schnee (III).mp3
Channels : 2
Sample Rate : 44100
Precision : 16-bit
Duration : 00:17:38.44 = 46676984 samples = 79382.6 CDDA sectors
File Size : 42.4M
Bit Rate : 320k
Sample Encoding: MPEG audio (layer I, II or III)
Comments :
Title=Schnee (III)
Artist=Paysage d'Hiver
Album=Schnee
Tracknumber=3
Year=2020

[/more]

Register
(55) A.L.Rapsod, acerbus, aimtoknow, Ainar, Blast, cancer1974, Constantinus I, craP_cillA, d0zer, El_Chibo, Evilded, Faust_Vulkan_16, Femto, FUDEDOR, garmonbozia, gena, GuldenDraak, igore2911, infiltrator, kefka, Lamby90, LEGION69, Leolomb, Luminous, m00n1ight, maochen, marilin, Maximvs, maxxxy, Mist13Signifier, Moonshtook, NappyRob, Occultas, Olethros, rammmirez, randumbum, recber, ripper33, robertho777, Rosen, SaintVitus, Sanctus, sarcophagus, soulskinner681, stub888, supremo, Tarkron, thenecromancer, the_cleanser, The_Hound, VALERY, varlam4, vasiljev_sergej, ZambuL, zuiozuio,
Oct 16 2020, 12:03:09 En Minor - When The Cold Truth Has Worn Its Miserable Welcome Out (2020)


*Artist: En Minor
*Album: When The Cold Truth Has Worn Its Miserable Welcome Out
*Year: 2020
*Genre: Southern Rock
*Country: United States
*Format: mp3@CBR320kbps
*Size: 101MB

Tracklist:
1. Mausoleums 04:56
2. Blue 05:07
3. On The Floor 05:22
4. Dead Can't Dance 02:38
5. Love Needs Love 03:38
6. Warm Sharp Bath Sleep 04:20
7. Melancholia 03:19
8. This Is Not Your Day 03:02
9. Black Mass 04:40
10. Hats Off 02:51
11. Disposable For You 04:26
******************************
Total playing time: 44:19






[more=Extended info]Philip H. Anselmo
Vocals, Guitar, Percussions
Stephen Taylor
Guitar
Kevin Bond
Guitar
Steve Bernal
Cello
Calvin Dover
Keyboards
Joiner Dover
Bass
Jimmy Bower
Drums
Paul Webb
Guitar[/more]

[more=Technical info]
Input File: 03. On the Floor.mp3
Channels : 2
Sample Rate : 44100
Precision : 16-bit
Duration : 00:00:00.32 = 14200 samples = 24.1497 CDDA sectors
File Size : 12.9M
Bit Rate : 321M
Sample Encoding: MPEG audio (layer I, II or III)
Comments :
Title=On the Floor
Artist=En Minor
Album=When the Cold Truth Has Worn Its Miserable Welcome Out
Tracknumber=3
Year=2020
Genre=Dark Folk
Discnumber=1

[/more]

Register
(5) ENDSMOUTH, grimoir, infiltrator, Olethros, xska,
Oct 16 2020, 11:58:57 En Minor - En Minor [ep] (2019)


*Artist: En Minor
*Album: En Minor [ep]
*Year: 2019
*Genre: Southern Rock
*Country: United States
*Format: mp3@CBR320kbps
*Size: 23MB

Tracklist:
1. On The Floor 05:22
2. There's A Long Way To Go 02:46
******************************
Total playing time: 8:08




[more=Extended info]7" vinyl via Housecore Records.

released August 2, 2019

On The Floor
- music by Kevin Bond
- lyrics by Philip H. Anselmo

- Kevin Bond: acoustic & electric guitar / bass
- Stephen Taylor: guitar
- Calvin Dover: keys
- Steve Bernal: cello
- Jimmy Bower: drums
- Philip H. Anselmo: vocals

There's A Long Way To Go
- music and lyrics by Philip H. Anselmo

- Philip H. Anselmo: guitars / bass / vocals
- Calvin Dover: keys
- Steve Bernal: cello
- Jimmy Bower: drums

© Housecore Records, 2019[/more]

[more=Technical info]
Input File: 01. On the Floor.mp3
Channels : 2
Sample Rate : 44100
Precision : 16-bit
Duration : 00:05:22.22 = 14209682 samples = 24166.1 CDDA sectors
File Size : 14.5M
Bit Rate : 359k
Sample Encoding: MPEG audio (layer I, II or III)
Comments :
Title=On the Floor
Artist=En Minor
Album=En Minor
Tracknumber=1
Year=2019
Genre=Rock
Discnumber=1

[/more]

Register
(3) ENDSMOUTH, infiltrator, Olethros,
Sep 23 2020, 09:35:37 The Ocean Collective - Phanerozoic Ii: Mesozoic | Cenozoic (2020)


*Artist: The Ocean Collective
*Album: Phanerozoic Ii: Mesozoic | Cenozoic
*Year: 2020
*Genre: Progressive/Atmospheric Sludge/Post-Hardcore
*Country: Germany
*Format: mp3@CBR320kbps
*Size: 112MB

Tracklist:
1. Triassic 08:31
2. Jurassic | Cretaceous 13:24
3. Palaeocene 04:00
4. Eocene 03:57
5. Oligocene 04:00
6. Miocene | Pliocene 04:40
7. Pleistocene 06:40
8. Holocene 05:47
******************************
Total playing time: 50:59





[more=Extended info]Tracked in Iceland, Spain and Germany.[/more]

[more=Technical info]
Input File: 05 Oligocene.mp3
Channels : 2
Sample Rate : 44100
Precision : 16-bit
Duration : 00:04:00.47 = 10604859 samples = 18035.5 CDDA sectors
File Size : 9.87M
Bit Rate : 328k
Sample Encoding: MPEG audio (layer I, II or III)
Comments :
Title=Oligocene
Artist=The Ocean
Album=Phanerozoic II: Mesozoic | Cenozoic
Tracknumber=5/8
Year=2020
Genre=Metal

[/more]

Register
(42) BandR75, Bloodn Lord, boby9052, bubba, DenisKov, Femto, garml2, gena, Ghostb, Hell_Is_Here, infiltrator, insufferable, J0k3r, John Beak, Johnix, judaz, kolar666, Kostolom, laTERNentrager, Ludwig Hagen, maochen, merfo, Metalass, metaljosue, MMMMM, multizwilling, Olethros, Ostinato, randumbum, Rosen, SAPOGi, Shadowman, sludge666, smes, sweetredka, VALERY, wreak, Xor, xska, yuratroll, Нигилист, скептик,
Sep 17 2020, 13:09:41 Sumac - May You Be Held (2020)


*Artist: Sumac
*Album: May You Be Held
*Year: 2020
*Genre: Atmospheric Sludge
*Country: Canada
*Format: mp3@CBR320kbps
*Size: 136MB

Tracklist:
1. A Prayer for Your Path 05:38
2. May You Be Held 19:52
3. The Iron Chair 08:16
4. Consumed 16:58
5. Laughter and Silence 09:00
******************************
Total playing time: 59:44




[more=Technical info]
Input File: 02 - May You Be Held.mp3
Channels : 2
Sample Rate : 44100
Precision : 16-bit
Duration : 00:19:53.08 = 52614872 samples = 89481.1 CDDA sectors
File Size : 48.2M
Bit Rate : 323k
Sample Encoding: MPEG audio (layer I, II or III)
Comments :
Title=May You Be Held
Artist=SUMAC
Album=May You Be Held
Tracknumber=2/5
Year=2020
Genre=GetMetal.CLUB

[/more]

Register
(24) AlexSmith, BandR75, BERZERK, dabiz, dalek, gena, grimoir, infiltrator, Kuratsu, marilin, Morgoth, nemx, Niknne, Olethros, randumbum, RENыч, ripper33, robertho777, Rosen, sarcophagus, sludge666, stumpheavyrock, VALERY, wreak,
Aug 17 2020, 10:27:21 Metallica - S&m 2 [live] (2020)


*Artist: Metallica
*Album: S&m 2 [live]
*Year: 2020
*Genre: Heavy/Thrash Metal
*Country: United States
*Format: mp3@CBR320kbps
*Size: 283MB

Tracklist:
Disc 1
1. The Ecstacy of Gold (Ennio Morricone cover) 02:43
2. The Call of Ktulu 09:13
3. For Whom the Bell Tolls 04:36
4. The Day That Never Comes 08:26
5. The Memory Remains 05:42
6. Confusion 06:40
7. Moth into Flame 06:17
8. The Outlaw Torn 10:02
9. No Leaf Clover 05:29
10. Halo of Fire 08:19
Disc 2
1. Intro to "Scythian Suite" 05:16
2. Scythian Suite, Opus 20: The Enemy God and the Dance of the Dark Spirits 03:39
3. Intro to "The Iron Foundry" 01:02
4. The Iron Foundry, Opus 19 04:15
5. The Unforgiven III 08:18
6. All Within My Hands 06:13
7. (Anesthesia) – Pulling Teeth 07:27
8. Wherever I May Roam 06:32
9. One 09:23
10. Master of Puppets 08:29
11. Nothing Else Matters 06:39
12. Enter Sandman 08:47
******************************
Total playing time: 2:23:27





[more=Technical info]
Input File: 04. Mosolov The Iron Foundry, Op. 19 [Live].mp3
Channels : 2
Sample Rate : 44100
Precision : 16-bit
Duration : 00:04:15.95 = 11287395 samples = 19196.2 CDDA sectors
File Size : 10.4M
Bit Rate : 325k
Sample Encoding: MPEG audio (layer I, II or III)
Comments :
Title=Mosolov: The Iron Foundry, Op. 19 [Live]
Artist=Metallica & The San Francisco Symphony
Album=S&M2 [Live]
Tracknumber=04/12
Year=2020
Genre=Metal
Discnumber=2/2

[/more]

Register
(20) ace73pq, ahp, andy584, cancer1974, caro, Cartman223, infiltrator, kostja, LightWizard, Mihalik, multizwilling, Olethros, rammmirez, recber, Rosen, thenecromancer, VALERY, yuratroll, ZA670, zdcaixao,
Aug 11 2020, 08:55:20 Primitive Man - Immersion (2020)


*Artist: Primitive Man
*Album: Immersion
*Year: 2020
*Genre: Sludge/Doom Metal/Noise
*Country: United States
*Format: mp3@CBR320kbps
*Size: 83MB

Tracklist:
1. The Lifer 07:32
2. Entity 05:02
3. Menacing 08:01
4. ∞ 02:21
5. Foul 07:10
6. Consumption 05:50
******************************
Total playing time: 35:56





[more=Extended info]Our first album only has blues/stoner/traditional doom riffs in it so that we could convince people to listen to us. Fully knowing that we were about to just fucking shit all over that idea & play what we really wanted. Album out on Friday. Sorry.[/more]

[more=Technical info]
Input File: 04-.mp3
Channels : 2
Sample Rate : 44100
Precision : 16-bit
Duration : 00:02:21.93 = 6259289 samples = 10645 CDDA sectors
File Size : 5.88M
Bit Rate : 332k
Sample Encoding: MPEG audio (layer I, II or III)
Comments :
Title=∞
Artist=Primitive Man
Album=Immersion
Tracknumber=4
Year=2020
Genre=Sludge Metal
Discnumber=1/1

[/more]

Register
(32) 555, alikkon, Boozer, Daale, dabiz, dalek, gena, HMHamster, infiltrator, infozahist, marilin, moshama, Olethros, Ostinato, Purestenchkvlt, randumbum, Rosen, sacredserenity, SaintVitus, Scorpi, sludge666, stub888, stumpheavyrock, tim47, Tyrone, VALERY, valgalder, vosmidesijatye, wreak, wtk.412, yuratroll, Авел,
Jul 27 2020, 11:10:20 Deep Mountains - 平衡世界的意志2 | Will Of A Balanced World Volume Ii (2019)


*Artist: Deep Mountains
*Album: 平衡世界的意志2 | Will Of A Balanced World Volume Ii
*Year: 2019
*Genre: Post-Rock/Shoegaze
*Country: China
*Format: mp3@CBR320kbps
*Size: 105MB

Tracklist:
1. 我无法眼看着世界坠落却无动于衷 / I Can't Be Indifferent When I See the World Falling 04:20
2. 伟大时代的晚上 / Dark Side of a Great Epoch 06:12
3. 酒狂 / Methomania 08:26
4. 祖国之歌 / My Motherland 00:04
5. 秋水长天 / Autumn Stream and Vast Sky 07:47
6. 不要为我的死而悲伤 / Don't Grieve for My Death 05:49
7. 送别2018 / Farewell 2018 03:15
8. 一半火焰一半海水 / Half Ocean, Half Blaze 10:40
******************************
Total playing time: 46:33




[more=Technical info]
Input File: 03 - 酒狂 Methomania.mp3
Channels : 2
Sample Rate : 44100
Precision : 16-bit
Duration : 00:08:26.52 = 22337488 samples = 37988.9 CDDA sectors
File Size : 20.3M
Bit Rate : 320k
Sample Encoding: MPEG audio (layer I, II or III)
Comments :
Title=酒狂 | Methomania
Artist=Deep Mountains (深山)
Album=Will of a Balanced World Volume Ⅱ (平衡世界的意志2)
Tracknumber=3
Year=2019
Genre=Rock

[/more]

Register
(3) infiltrator, murayne, Olethros,
Jul 27 2020, 11:08:05 Deep Mountains - 平衡世界的意志1/Will Of A Balanced World Volume I (2019)


*Artist: Deep Mountains
*Album: 平衡世界的意志1/Will Of A Balanced World Volume I
*Year: 2019
*Genre: Post-Rock/Shoegaze
*Country: China
*Format: mp3@CBR320kbps
*Size: 116MB

Tracklist:
1. 后腰之王 / King of Hot Rock 06:02
2. 刺破地平线 2019 / Penetrate the Horizon 2019 08:16
3. 昨日重重 / Yesterday Story 05:22
4. 山海经 / The Classic of Mountains and Seas 07:42
5. 彩虹曲 / Rainbow 03:58
6. 泰安199X / Tai’an in the 1990's 05:49
7. 直到世界将你忘记 / Until the World No Longer Remembers 05:02
8. 胖次之歌 / Solo from Leo's Dog 00:48
9. 朋克万万岁 / Long Live Punk 07:42
******************************
Total playing time: 50:41




[more=Technical info]
Input File: 03 - 昨日重重 Yesterday Story.mp3
Channels : 2
Sample Rate : 44100
Precision : 16-bit
Duration : 00:05:23.05 = 14246549 samples = 24228.8 CDDA sectors
File Size : 12.9M
Bit Rate : 320k
Sample Encoding: MPEG audio (layer I, II or III)
Comments :
Title=昨日重重 | Yesterday Story
Artist=Deep Mountains (深山)
Album=Will of a Balanced World Volume I (平衡世界的意志1)
Tracknumber=3
Year=2019
Genre=Rock

[/more]

Register
(5) infiltrator, murayne, Olethros, ShmiT, thenecromancer,
Jul 17 2020, 15:00:00 Deep Mountains - 平衡世界的意志2 | Will Of A Balanced World Volume Ii (2019)


*Artist: Deep Mountains
*Album: 平衡世界的意志2 | Will Of A Balanced World Volume Ii
*Year: 2019
*Genre: Post-Rock/Shoegaze
*Country: China
*Format: mp3@CBR320kbps
*Size: 105MB

Tracklist:
1. 我无法眼看着世界坠落却无动于衷 / I Can't Be Indifferent When I See the World Falling 04:20
2. 伟大时代的晚上 / Dark Side of a Great Epoch 06:12
3. 酒狂 / Methomania 08:26
4. 祖国之歌 / My Motherland 00:04
5. 秋水长天 / Autumn Stream and Vast Sky 07:47
6. 不要为我的死而悲伤 / Don't Grieve for My Death 05:49
7. 送别2018 / Farewell 2018 03:15
8. 一半火焰一半海水 / Half Ocean, Half Blaze 10:40
******************************
Total playing time: 46:33




[more=Technical info]
Input File: 03 - 酒狂 Methomania.mp3
Channels : 2
Sample Rate : 44100
Precision : 16-bit
Duration : 00:08:26.52 = 22337488 samples = 37988.9 CDDA sectors
File Size : 20.3M
Bit Rate : 320k
Sample Encoding: MPEG audio (layer I, II or III)
Comments :
Title=酒狂 | Methomania
Artist=Deep Mountains (深山)
Album=Will of a Balanced World Volume Ⅱ (平衡世界的意志2)
Tracknumber=3
Year=2019
Genre=Rock

[/more]

Register
(2) kimkayoung, thenecromancer,
Jul 17 2020, 14:55:48 Deep Mountains - 平衡世界的意志1/Will Of A Balanced World Volume I (2019)


*Artist: Deep Mountains
*Album: 平衡世界的意志1/Will Of A Balanced World Volume I
*Year: 2019
*Genre: Post-Rock/Shoegaze
*Country: China
*Format: mp3@CBR320kbps
*Size: 116MB

Tracklist:
1. 后腰之王 / King of Hot Rock 06:02
2. 刺破地平线 2019 / Penetrate the Horizon 2019 08:16
3. 昨日重重 / Yesterday Story 05:22
4. 山海经 / The Classic of Mountains and Seas 07:42
5. 彩虹曲 / Rainbow 03:58
6. 泰安199X / Tai’an in the 1990's 05:49
7. 直到世界将你忘记 / Until the World No Longer Remembers 05:02
8. 胖次之歌 / Solo from Leo's Dog 00:48
9. 朋克万万岁 / Long Live Punk 07:42
******************************
Total playing time: 50:41




[more=Technical info]
Input File: 05 - 彩虹曲 Rainbow.mp3
Channels : 2
Sample Rate : 44100
Precision : 16-bit
Duration : 00:03:58.17 = 10503473 samples = 17863 CDDA sectors
File Size : 9.53M
Bit Rate : 320k
Sample Encoding: MPEG audio (layer I, II or III)
Comments :
Title=彩虹曲 | Rainbow
Artist=Deep Mountains (深山)
Album=Will of a Balanced World Volume I (平衡世界的意志1)
Tracknumber=5
Year=2019
Genre=Rock

[/more]

Register
(1) kimkayoung,
Jul 6 2020, 15:48:32 Yob - Pickathon 2019 - Live From The Galaxy Barn [live] (2020)


*Artist: Yob
*Album: Pickathon 2019 - Live From The Galaxy Barn [live]
*Year: 2020
*Genre: Stoner/Doom Metal
*Country: United States
*Format: mp3@CBR320kbps
*Size: 136MB

Tracklist:
1. Ball of Molten Lead 12:28
2. The Lie that is Sin 13:09
3. Marrow 19:22
4. Burning the Altar 14:55
******************************
Total playing time: 59:54




[more=Extended info]All proceeds will be donated to the Navajo Nation Covid Relief Fund.[/more]

[more=Technical info]
Input File: YOB - Pickathon 2019 - Live from the Galaxy Barn - 01 Ball of Molten Lead.mp3
Channels : 2
Sample Rate : 44100
Precision : 16-bit
Duration : 00:12:28.82 = 33022874 samples = 56161.4 CDDA sectors
File Size : 30.0M
Bit Rate : 321k
Sample Encoding: MPEG audio (layer I, II or III)
Comments :
Title=Ball of Molten Lead
Artist=YOB
Album=Pickathon 2019 - Live from the Galaxy Barn
Tracknumber=1
Year=2020
Genre=GetMetal.CLUB

[/more]

Register
(15) 555, ahp, BERZERK, gena, infiltrator, kolar666, lordbathor, Lukittaz, Mogozoz, Olethros, ripper33, Rosen, VALERY, wreak, Yorker,
Jun 23 2020, 13:40:38 The Moon And The Nightspirit - Aether (2020)
Register
(6) BlackTroll, Forest, infiltrator, leks, lucifix, smes,
May 28 2020, 14:04:37 Mrs. Piss - Self-Surgery (2020)


*Artist: Mrs. Piss
*Album: Self-Surgery
*Year: 2020
*Genre: Alternative Rock/Dark Ambient
*Country: United States
*Format: mp3@CBR320kbps
*Size: 43MB

Tracklist:
1. To Crawl Inside 00:43
2. Downer Surrounded by Uppers 02:00
3. Knelt 04:03
4. Nobody Wants to Party with Us 02:49
5. M.B.O.T.W.O. 01:22
6. You Took Everything 02:34
7. Self-Surgery 02:42
8. Mrs. Piss 02:33
******************************
Total playing time: 18:46




[more=Extended info]Mrs. Piss is a collaboration between Chelsea Wolfe and Jess Gowrie. Drawing on their collective rock, metal, and industrial influences, the project began while the two were touring around together during Wolfe’s Hiss Spun album in 2017. These songs feel more urgent and visceral than anything either of them has created before: heaviness spurred on by punk spirit.[/more]

[more=Technical info]
Input File: 4 - Nobody Wants to Party with Us.mp3
Channels : 2
Sample Rate : 44100
Precision : 16-bit
Duration : 00:02:49.78 = 7487386 samples = 12733.6 CDDA sectors
File Size : 6.81M
Bit Rate : 321k
Sample Encoding: MPEG audio (layer I, II or III)
Comments :
Title=Nobody Wants to Party with Us
Artist=Mrs. Piss
Album=Self-Surgery
Tracknumber=4
Year=2020
Genre=Metal
Discnumber=1

[/more]

Register
(13) Angry_Chair, ENDSMOUTH, FUDEDOR, infiltrator, judaz, KKK1488, lordbathor, lucifix, Olethros, rocesid, sarcophagus, vosmidesijatye, yuratroll,
May 17 2020, 17:52:55 Old Man Gloom - Seminar Viii: Light Of Meaning (2020)


*Artist: Old Man Gloom
*Album: Seminar Viii: Light Of Meaning
*Year: 2020
*Genre: Sludge/Ambient/Noise
*Country: United States
*Format: mp3@CBR320kbps
*Size: 96MB

Tracklist:
1. EMF 03:54
2. Wrath of the Weary 04:48
3. True Volcano 05:04
4. Final Defeat 11:43
5. Calling You Home 11:08
6. By Love All Is Healed 09:17
******************************
Total playing time: 45:54





[more=Technical info]
Input File: 03 True Volcano.mp3
Channels : 2
Sample Rate : 48000
Precision : 16-bit
Duration : 00:05:04.85 = 14632848 samples ~ 22863.8 CDDA sectors
File Size : 12.2M
Bit Rate : 320k
Sample Encoding: MPEG audio (layer I, II or III)
Comments :
Title=True Volcano
Artist=Old Man Gloom
Album=Light Of Meaning WAV
Tracknumber=3/6

[/more]

Register

Register
(16) 555, BERZERK, Cruor, gena, GFW, Ghostb, HMHamster, infiltrator, infozahist, J0k3r, kolar666, marilin, mirotvorets, Olethros, Ostinato, wreak,
May 1 2020, 16:55:38 Orange Goblin - Rough & Ready, Live & Loud [live] (2020)


*Artist: Orange Goblin
*Album: Rough & Ready, Live & Loud [live]
*Year: 2020
*Genre: Stoner Metal
*Country: United Kingdom
*Format: mp3@CBR320kbps
*Size: 174MB

Tracklist:
1. Sons of Salem 02:51
2. The Devil's Whip 02:20
3. Saruman's Wish 06:45
4. Made of Rats 05:16
5. The Wolf Bites Back 04:24
6. Mythical Knives 04:44
7. The Fog 06:13
8. Some You Win, Some You Lose 03:37
9. The Filty & the Few 03:03
10. Shine 07:05
11. Renegade 03:36
12. Time Travelling Blues 06:38
13. Your World Will Hate This 02:08
******************************
Total playing time: 58:40





[more=Extended info]Tracks recorded live at the following shows between 2016 and 2019:
- Saturday, August 6th, 2016 at the Sylak Open Air Festival in France
- Sunday, December 18th, 2016 at KOKO in Camden, London, UK
- Saturday, September 21st, 2019 at Fuzz Club in Athens, Greece[/more]

[more=Technical info]
Input File: Orange Goblin - Rough & Ready, Live & Loud - 06 Mythical Knives.mp3
Channels : 2
Sample Rate : 44100
Precision : 16-bit
Duration : 00:04:44.31 = 12538027 samples = 21323.2 CDDA sectors
File Size : 11.6M
Bit Rate : 326k
Sample Encoding: MPEG audio (layer I, II or III)
Comments :
Title=Mythical Knives
Artist=Orange Goblin
Album=Rough & Ready, Live & Loud
Tracknumber=6
Year=2020

[/more]

Register
(15) BERZERK, gena, HMHamster, infiltrator, LEGION69, mort, multizwilling, Olethros, p4B10, recber, Rosen, Tular, VALERY, varlam4, ZA670,
Apr 26 2020, 09:04:34 Danzig - Sings Elvis (2020)


*Artist: Danzig
*Album: Sings Elvis
*Year: 2020
*Genre: Blues Rock/Rock & Roll
*Country: United States
*Format: mp3@CBR320kbps
*Size: 90MB

Tracklist:
1. Is It So Strange 2:35
2. One Night 2:22
3. Lonely Blue Boy 3:45
4. First In Line 3:14
5. Baby Let’s Play House 3:02
6. Love Me 3:32
7. Pocket Full Of Rainbows 2:41
8. Fever 2:55
9. When It Rains It Really Pours 1:49
10. Always On My Mind 3:14
11. Loving Arms 3:02
12. Like A Baby 2:36
13. Girl Of My Best Friend 2:51
14. Young And Beautiful 2:22
******************************
Total playing time: 40:00




[more=Technical info]
Input File: 05 - Baby Let\'s Play House.mp3
Channels : 2
Sample Rate : 44100
Precision : 16-bit
Duration : 00:02:35.88 = 6874484 samples = 11691.3 CDDA sectors
File Size : 6.29M
Bit Rate : 323k
Sample Encoding: MPEG audio (layer I, II or III)
Comments :
Title=Baby Let's Play House
Artist=Danzig
Album=Sings Elvis
Tracknumber=5
Year=2020
Genre=Rock / Hard Rock / Metal
Discnumber=1

[/more]

Register
(16) Aresson, canadaspaceman, cancer1974, Drugoff, gwar, infiltrator, metaljosue, multizwilling, oldvarg, Olethros, princeshr, recber, smysl, Wail, wtk.412, Zhelezjaka,
Apr 8 2020, 16:54:49 Gli Atroci - Metal Pussy (2019)
QUOTE
Mega is not working properly right now, I think it's temporary


Now it's working
(2) infiltrator, thenecromancer,
Apr 8 2020, 10:16:12 Gli Atroci - Metal Pussy (2019)


*Artist: Gli Atroci
*Album: Metal Pussy
*Year: 2019
*Genre: Heavy Metal/Parody
*Country: Italy
*Format: mp3@CBR320kbps
*Size: 143MB

Tracklist:
1. L'Avvento (Parte IV) 1:27
2. La Birra (Tanta) 3:31
3. Borchios + 0:52
4. Rutti Mostruosi 3:36
5. Probably Risk To Die 3:33
6. Voglio Fare Il Roadie 1:19
7. Il Mio Gruppo Metal (feat. Roberto Tiranti & Michele Luppi) 5:31
8. Chitarra Coreana 3:08
9. La Vendetta Della Faraona 6:43
10. I Compositori Di Una Volta 0:26
11. Perfekt Kombination 2:58
12. Magari Morite 3:42
13. Lungo E Diritto 5:11
14. Perché Non Parli Più? 0:51
15. Pogo Pogo Pogo 5:13
16. Quando Si Fa Sera 3:35
17. Glory Hole (feat. Infernal Putrefaction) 2:35
18. I Dischi Di Papà 0:18
19. Dottore Dottore 3:09
20. Briscola 3:16
21. La Fuga (Parte IV) 2:21
******************************
Total playing time: 1:03:15




[more=Technical info]
Input File: 06 - Voglio Fare Il Roadie.mp3
Channels : 2
Sample Rate : 44100
Precision : 16-bit
Duration : 00:01:19.32 = 3497792 samples = 5948.63 CDDA sectors
File Size : 3.17M
Bit Rate : 320k
Sample Encoding: MPEG audio (layer I, II or III)
Comments :
Title=Voglio Fare Il Roadie
Artist=Gli Atroci
Album=Metal Pussy
Tracknumber=6
Year=2019
Genre=Heavy Metal

[/more]

Register
(2) infiltrator, thenecromancer,
Apr 8 2020, 10:10:34 Gli Atroci - Gli Atroci (1999)


*Artist: Gli Atroci
*Album: Gli Atroci
*Year: 1999
*Genre: Heavy Metal/Parody
*Country: Italy
*Format: mp3@CBR320kbps
*Size: 143MB

Tracklist:
1. L'Avvento 1:50
2. Arrivano Gli Untori 4:27
3. Curati La Gotta 3:21
4. Le Cavallette 0:38
5. Peppino L'Usuraio 4:43
6. Il Proclama 0:55
7. I Guerrieri Del Metallo (Parte I) 7:23
8. Quel Motel In Fondo Alla Palude 1:11
9. Voglio Vederti Morire 2:18
10. Al Bar 0:18
11. La Mamma E' Importante 5:13
12. I Guerrieri Del Metallo (Parte II) 2:04
13. A.I.M. 4:21
14. Il Muro 6:03
15. Le Malattie 5:10
16. Il Camposanto 0:26
17. I Tuoi Amici Atroci 4:48
18. La Fuga 2:09
******************************
Total playing time: 57:18




[more=Technical info]
Input File: 08 - Quel Motel In Fondo Alla Palude.mp3
Channels : 2
Sample Rate : 48000
Precision : 16-bit
Duration : 00:01:13.62 = 3533808 samples ~ 5521.57 CDDA sectors
File Size : 2.95M
Bit Rate : 320k
Sample Encoding: MPEG audio (layer I, II or III)
Comments :
Artist=Gli Atroci
Album=Gli Atroci
Tracknumber=8
Year=1999
Genre=Heavy Metal Demenziale

[/more]

Register
(1) infiltrator,
Mar 31 2020, 08:09:01 Nightwish - Hvman. :||: Natvre. (2020)


*Artist: Nightwish
*Album: Hvman. :||: Natvre.
*Year: 2020
*Genre: Symphonic Power Metal
*Country: Finland
*Format: mp3@CBR320kbps
*Size: 189MB

Tracklist:
CD 1
1. Music 07:23
2. Noise 05:40
3. Shoemaker 05:19
4. Harvest 05:13
5. Pan 05:18
6. How's the Heart? 05:02
7. Procession 05:31
8. Tribal 03:56
9. Endlessness 07:11

CD 2
1. All the Works of Nature Which Adorn the World - Vista 04:00
2. All the Works of Nature Which Adorn the World - The Blue 03:36
3. All the Works of Nature Which Adorn the World - The Green 04:42
4. All the Works of Nature Which Adorn the World - Moors 04:44
5. All the Works of Nature Which Adorn the World - Aurorae 02:08
6. All the Works of Nature Which Adorn the World - Quiet as the Show 04:05
7. All the Works of Nature Which Adorn the World - Anthropocene (Including "Hurrian Hymn to Nikkal") 03:06
8. All the Works of Nature Which Adorn the World - Ad Astra 04:42
******************************
Total playing time: 1:21:36




[more=Extended info]Emppu Vuorinen Guitars (electric, acoustic)
Tuomas Holopainen Keyboards, Piano
Marco Hietala Bass, Vocals, Guitars (acoustic)
Troy Donockley Uilleann pipes, Tin whistle, Low whistle, Guitars, Bouzouki, Bodhrán, Vocals
Floor Jansen Vocals
Kai Hahto Drums[/more]

[more=Technical info]
Input File: 03. Shoemaker.mp3
Channels : 2
Sample Rate : 44100
Precision : 16-bit
Duration : 00:05:19.11 = 14072575 samples = 23933 CDDA sectors
File Size : 12.9M
Bit Rate : 324k
Sample Encoding: MPEG audio (layer I, II or III)
Comments :
Title=Shoemaker
Artist=Nightwish
Album=HUMAN. :II: NATURE.
Tracknumber=03/09
Year=2020
Genre=Symphonic Metal
Discnumber=1/2

[/more]

Register
(79) 0x13, 6666666, ace73pq, Alpha_Prime, Appie_Thrasher, Aresson, Black Cat, blackwingtsi, Bloodn Lord, boby9052, BugEyes, cancer1974, Cartman223, cesar, chipsgott, dafya328, danilodjb, Dark Sage, djsema4, Druidir, Fatalv, Fess, finmetal, gbagrami, Glioma, Grinder777, gwar, gwynnbleid, Herrant, HMHamster, Indamage, infiltrator, JD666Hellion, John Beak, jollo, jujul, khestanow3001, kim666, kimkayoung, Konst, Lamby90, libertine, Luminous, Metalass, metaljinie, Mogozoz, multizwilling, Noctis, nospeedlimit, Old Vyaine, Olethros, Phlebotomized, rabindranad, recber, robertho777, Rover, sadmannn, senecazm, sepultura39, Sethan, Shadechaser, Shadowman, simonitro, Slam91, SlimBZ, StabWound, talismanFS, thenecromancer, tOmV, v.v.m, VadimBerkut, VALERY, varlam4, wn129aa, wreak, yuratroll, zolotoiskatel, Сварог Барг, скептик,
Mar 23 2020, 10:20:02 Old Man Gloom - Seminar IX: Darkness of Being (2020)


*Artist: Old Man Gloom
*Album: Seminar IX: Darkness of Being
*Year: 2020
*Genre: Sludge
*Country: United States
*Format: mp3@CBR320kbps
*Size: 111MB

Tracklist:
1. Procession of the Wounded 04:05
2. Heel to Toe 04:35
3. The Bleeding Sun 04:29
4. Canto de Santos 10:19
5. Death Rhymes 04:16
6. In Your Name 12:31
7. Love Is Bravery 08:00
******************************
Total playing time: 48:15





[more=Technical info]
Input File: 6 - In Your Name.mp3
Channels : 2
Sample Rate : 44100
Precision : 16-bit
Duration : 00:12:31.35 = 33134623 samples = 56351.4 CDDA sectors
File Size : 30.2M
Bit Rate : 321k
Sample Encoding: MPEG audio (layer I, II or III)
Comments :
Title=In Your Name
Artist=Old Man Gloom
Album=Seminar IX: Darkness of Being
Tracknumber=6
Year=2020
Genre=Metal
Discnumber=1

[/more]

Register
(18) BERZERK, Black Cat, dabiz, GFW, HMHamster, infiltrator, infozahist, J0k3r, marilin, metaljosue, nemx, Olethros, Ostinato, Regnat, stub888, stumpheavyrock, VALERY, wreak,
Mar 22 2020, 21:15:16 Mitochondrial Sun - Mitochondrial Sun (2020)


*Artist: Mitochondrial Sun
*Album: Mitochondrial Sun
*Year: 2020
*Genre: Electronic/Ambient
*Country: Sweden
*Format: mp3@CBR320kbps
*Size: 100MB

Tracklist:
01. Ur Tehom 3:24
02. Chronotopes 5:17
03. Braying Cells 4:49
04. Stars Beneath the Sea 3:42
05. Nyaga 4:18
06. Celestial Animal 7:03
07. Arkadia 3:47
08. The Void Begets (3:09
09. Entropy's Gift 2:41
10. The Great Filter 4:45
******************************
Total playing time: 42:55




[more=Extended info]Project by Niklas Sundin from Dark Tranquility[/more]

[more=Technical info]
Input File: 08. The Void Begets.mp3
Channels : 2
Sample Rate : 44100
Precision : 16-bit
Duration : 00:03:09.82 = 8371018 samples = 14236.4 CDDA sectors
File Size : 7.77M
Bit Rate : 327k
Sample Encoding: MPEG audio (layer I, II or III)
Comments :
Title=The Void Begets
Artist=Mitochondrial Sun
Album=Mitochondrial Sun
Tracknumber=8
Year=2020-02-14
Genre=Electronic
Discnumber=1

[/more]

Register
(9) 6666666, Ghostb, Infidel, infiltrator, Maestrovs, Nattfodd, oldvarg, Olethros, Sanctus,
Mar 5 2020, 19:51:33 Body Count - Carnivore (2020)


*Artist: Body Count
*Album: Carnivore
*Year: 2020
*Genre: Crossover/Groove/Thrash Metal
*Country: United States
*Format: mp3@CBR320kbps
*Size: 91MB

Tracklist:
01. Carnivore
02. Bum Rush
03. Thee Critical Beatdown
04. Ace Of Spades
05. Another Level
06. Colors
07. When I'm Gone (feat. Amy)
08. They Point The Finger
09. No Remorse
10. The Hate Is Real
11. 6 In Tha Morning - 2020 [Bonus Track] (Unreleased Demo)
******************************
Total playing time: 39:26




[more=Technical info]
Input File: 5 - Another Level.mp3
Channels : 2
Sample Rate : 44100
Precision : 16-bit
Duration : 00:04:12.15 = 11119859 samples = 18911.3 CDDA sectors
File Size : 10.2M
Bit Rate : 323k
Sample Encoding: MPEG audio (layer I, II or III)
Comments :
Title=Another Level
Artist=Body Count/Jamey Jasta
Album=Carnivore
Tracknumber=5
Year=2020
Genre=Rock / Hard Rock / Metal
Discnumber=1

[/more]

Register
(55) 6666666, akym, Aresson, as71, BERZERK, Black Cat, boby9052, Brann, cesar, chipsgott, DMIYUR, dvdfanmetal37, eugenezzzis, ForzaMinardi1977, fuoco, gorlum22, Grogro, gwar, Hovnoliaty, infiltrator, jollo, Kalnasra, kimkayoung, Kisser, Korpse, Lord Noctua, metaljosue, Necromayhem, Noxius, Occultas, Old Vyaine, older68, Olethros, Pentium.Disel, Phlebotomized, Saalingurth, SaintVitus, Saldiac, skinnyboo, smes, snot, stone88, TeamatSE, thrashes, Tino, tschunioronbeer, varlam4, vyacheslav, wreak, Yanek, zerger, zyklon, Авел, Герб, Язва,
Mar 1 2020, 14:21:50 John Dolmayan - These Grey Men (2020)


*Artist: John Dolmayan
*Album: These Grey Men
*Year: 2020
*Genre: Alternative Rock/Metal
*Country: United States
*Format: mp3@CBR320kbps
*Size: 79MB

Tracklist:
1. Road To Nowhere (Originally by Talking Heads)
2. Star man (Originally by David Bowie)
3. What I Know (Originally by 2 Door Cinema Club)
4. Runaway (Originally by Del Shannon)
5. Street Spirit (Originally by Radiohead)
6. Hung Up (Originally by Madonna)
7. Beautiful Thieves (Originally by AFI)
8. Rock Bottom (Originally by Eminem)
******************************
Total playing time: 34:40




[more=Extended info]SOAD's drummer solo project.[/more]

[more=Technical info]
Input File: 05 - Street Spirit (feat. M. Shadows & Tom Morello).mp3
Channels : 2
Sample Rate : 44100
Precision : 16-bit
Duration : 00:03:42.50 = 9812250 samples = 16687.5 CDDA sectors
File Size : 8.93M
Bit Rate : 321k
Sample Encoding: MPEG audio (layer I, II or III)
Comments :
Title=Street Spirit (feat. M. Shadows & Tom Morello)
Artist=John Dolmayan/M. Shadows/Tom Morello
Album=These Grey Men
Tracknumber=5
Year=2020
Genre=Rock

[/more]

Register
(4) infiltrator, Olethros, rammmirez, zerger,

12 Pages V   1 2 3 > » 
- Lo-Fi Version Support form
Copyrights and abuse reports form
Time is now: 3rd December 2020 - 20:47:01