Welcome Guest ( Log In | Register )

История благодарностей участнику craP_cillA ::: Спасибо сказали: 950 раз(а)
Дата поста: В теме: За сообщение: Спасибо сказали:
Jul 1 2019, 13:17:24 The Black Order - The Executioners Of Mankind [demo] (2002)
ahh, that explains it..thanks! smile1.gif \m/
(1) Svafrlami,
Jun 25 2019, 23:59:37 Possessed & Desecration - The Martyr's Wake-Cowboys In Bondage [split] (2012)
it didn't have to be flac, but 320 should be normal nowadays when you upload stuff.
(2) infiltrator, Occultas,
Jun 14 2019, 23:05:27 Today Needed (2) infiltrator, thenecromancer,
Jun 1 2019, 12:36:37 Hellish Grave - Worship Macabre (2016)


*Artist: Hellish Grave
*Album: Worship Macabre
*Year: 2016
*Genre: Black/Speed Metal
*Country: Brazil
*Format: mp3@CBR320kbps
*Size: 79MB

Tracklist:
01. Evokers 666 (The Last Damnation) 05:28
02. Get Ready for Satan 02:50
03. One Night in Hallucinations 05:34
04. (We Are) Hellish Dogs 05:00
05. Buried in the Grounds of Bathory 04:13
06. (I Am) Midnight Preacher 04:55
07. One Night in Hallucinations 02:57
08. Vampiric Sluts 05:07
******************************
Total playing time: 36:04

[more=Extended info]Password: metalarea.org

Enjoy!
smile1.gif [/more]

[more=Technical info]
Input File: 01 Evokers 666 (The Last Damnation).mp3
Channels : 2
Sample Rate : 44100
Precision : 16-bit
Duration : 00:05:27.95 = 14462595 samples = 24596.2 CDDA sectors
File Size : 13.3M
Bit Rate : 325k
Sample Encoding: MPEG audio (layer I, II or III)
Comments :
Title=Evokers 666 (The Last Damnation)
Artist=Hellish Grave
Album=Worship Macabre
Tracknumber=1/8
Year=2016
Genre=Black / Speed Metal

[/more]

Register
(6) Boozer, metala, Rosen, scorn33, stumpheavyrock, Козлотролль,
May 20 2019, 11:35:29 BlackShore - Music Of The Flies [ep] (2015)
QUOTE(xiaomirock @ May 20 2019, 12:07:57) *
404 for me 6.gif


link works fine! smile1.gif maybe mediafire is banned in your country? try a vpn. i can recommend betternet vpn! https://www.betternet.co 9.gif
(1) thenecromancer,
May 17 2019, 11:13:09 Nattferd - Naar Moerket Bliver En Evig Tid (Demo) (1) thenecromancer,
Apr 21 2019, 18:15:05 Obscurity - Bergisch Land
QUOTE(Verhasst @ Apr 21 2019, 17:52:20) *
I can only offer you 192 Kbps


danke aber die version hab ich schon...in 320 cbr oder flac ist das release echt nirgends zu finden.. :/
(1) Verhasst,
Apr 15 2019, 19:19:46 Rabensumpf - Nordseele [demo] (2012)
~5 days on this forum and already posted 12 rare releases! awesome job dude!! keep 'em coming.. smile3.gif smile1.gif

\m/
(1) Verhasst,
Apr 11 2019, 12:28:12 Today Needed
QUOTE(thenecromancer @ Apr 11 2019, 10:37:39) *


Re-Uploaded! 9.gif
(2) infiltrator, thenecromancer,
Apr 11 2019, 12:26:34 Taake - A Night Of Fog [live] (2003)
Re-Upload:

Register


Enjoy! smile1.gif
(3) Aresson, infiltrator, thenecromancer,
Apr 10 2019, 07:59:48 Svartsyn - January 1999 Promo tape (3) canadaspaceman, milosdjor, thenecromancer,
Apr 9 2019, 22:37:34 Svartsyn - Rehearsal 1994 [demo] (1994)


*Artist: Svartsyn
*Album: Rehearsal 1994 [demo]
*Year: 1994
*Genre: Black Metal
*Country: Sweden
*Format: mp3@CBR192kbps
*Size: 29MB

Tracklist:
01. Under The Devil's Moon 05:29
02. A Cursed Blaze From The Castle 07:13
03. One Star In The Blackened Sky 05:50
04. Upon The Throne 01:19
******************************
Total playing time: 19:51

[more=Extended info]Password: metalarea.org

Enjoy!
smile1.gif[/more]

[more=Technical info]
Input File: 01-Under the Devil's Moon.mp3
Channels : 2
Sample Rate : 44100
Precision : 16-bit
Duration : 00:05:29.10 = 14513090 samples = 24682.1 CDDA sectors
File Size : 7.89M
Bit Rate : 192k
Sample Encoding: MPEG audio (layer I, II or III)
Comments :
Title=Under The Devil's Moon
Artist=Svartsyn
Album=Rehearsal '94
Tracknumber=1/4
Year=1994
Genre=Black Metal

[/more]

Register
(24) Boozer, canadaspaceman, cancer1974, Evilded, FUDEDOR, Hell_Is_Here, Kalnasra, kim666, lestllk, maringlen, NachtWulf, Olethros, rimfrost, Rosen, RUSP73, Sjelekval, smysl, stub888, stumpheavyrock, thenecromancer, vasiljev_sergej, Vidder242, Xutun, Абигор,
Apr 9 2019, 22:15:03 Svartsyn - Promo January 1999 [demo] (1999)


*Artist: Svartsyn
*Album: Promo January 1999 [demo]
*Year: 1999
*Genre: Black Metal
*Country: Sweden
*Format: mp3@CBR320kbps
*Size: 24MB

Tracklist:
01. I Am Cleopatra's Killer 05:12
02. Dungeons 05:12
******************************
Total playing time: 10:24

[more=Extended info]Password: metalarea.org

Enjoy!
smile1.gif[/more]

[more=Technical info]
Input File: 01-i_am_cleopatras_killer-dmrg.mp3
Channels : 2
Sample Rate : 44100
Precision : 16-bit
Duration : 00:05:11.69 = 13745441 samples = 23376.6 CDDA sectors
File Size : 12.5M
Bit Rate : 320k
Sample Encoding: MPEG audio (layer I, II or III)
Comments :
Title=I Am Cleopatra's Killer
Artist=Svartsyn
Album=Promo January
Tracknumber=1
Year=1999
Genre=Black Metal

[/more]

Register
(26) canadaspaceman, cancer1974, dad, Evilded, FUDEDOR, heinz88, Hell_Is_Here, Kalnasra, kim666, lestllk, maringlen, milosdjor, NachtWulf, Olethros, Reverend, rimfrost, Rosen, RUSP73, smysl, stub888, thenecromancer, Vardlokkur, vasiljev_sergej, Vidder242, Xutun, Абигор,
Mar 24 2019, 18:54:54 Blasphemous Goat Vomit - Unholy Blackened Witchcult Mastery (2018)


15.gif 15.gif 15.gif
(1) Tino,
Jan 18 2019, 00:08:46 Bilskirnir - In Solitary Silence [ep] (2018)


*Artist: Bilskirnir
*Album: In Solitary Silence [ep]
*Year: 2018
*Genre: Pagan Black Metal
*Country: Germany
*Format: mp3@CBR192kbps
*Size: 37MB

Tracklist:
01. Intro 02:24
02. Home 06:33
03. Behind The Ice 03:31
04. Blazon Of The Night 05:32
05. Victoria Solis 08:29
******************************
Total playing time: 26:29

[more=Extended info]Password: metalarea.org

Enjoy!
smile1.gif[/more]

[more=Technical info]
Input File: 01-Bilskirnir-Intro.mp3
Channels : 2
Sample Rate : 44100
Precision : 16-bit
Duration : 00:02:23.97 = 6349077 samples = 10797.8 CDDA sectors
File Size : 3.46M
Bit Rate : 192k
Sample Encoding: MPEG audio (layer I, II or III)
Comments :
Title=Intro
Artist=Bilskirnir
Album=In Solitary Silence EP
Tracknumber=1/5
Year=2018
Genre=Black Metal

[/more]

Register
(19) cancer1974, Constantinus I, Fryz, Ildjarn, nadin85, Ostinato, recber, rimfrost, ripper33, RUSP73, satanist666, Shub, stub888, thenecromancer, the_cleanser, varg-38ru, vasiljev_sergej, vovenom, zhol,
Jan 17 2019, 23:44:23 Gratzug & Camulos - Gratzug/Camulos [split] (2018)


*Artist: Gratzug & Camulos
*Album: Gratzug/Camulos [split]
*Year: 2018
*Genre: Black Metal | Black Metal
*Country: Germany | Germany
*Format: mp3@CBR320kbps
*Size: 134MB

Tracklist:
Gratzug:
1. Treiben 05:40
2. Ekstase 05:39
3. Auf Der Suche 06:13
4. Voran 06:49
Camulos:
5. Sterben Tot Auferstehung 09:02
6. Der Mensch Der Parasit 06:36
7. Necrophil 09:38
8. Die Mutter Der Pest 08:32
******************************
Total playing time: 58:09

[more=Extended info]Password: metalarea.org

Enjoy!
smile1.gif[/more]

[more=Technical info]
Input File: 01. Gratzug- Treiben.mp3
Channels : 2
Sample Rate : 48000
Precision : 16-bit
Duration : 00:05:39.56 = 16298640 samples ~ 25466.6 CDDA sectors
File Size : 13.6M
Bit Rate : 320k
Sample Encoding: MPEG audio (layer I, II or III)
Comments :
Title=Treiben
Artist=Gratzug
Album=Split
Tracknumber=1/8
Year=2018
Genre=Black Metal

[/more]

Register

Register
(20) 1968_janeart, artscald, Boozer, comradEnemy, Druidir, Ildjarn, juanguillermo13, Kalnasra, MrJVwasHere, nikolay81, norther1998, Razorbladeswaltz, Rosen, satanist666, stub888, thenecromancer, varg-38ru, varlam4, vasiljev_sergej, Velmi,
Jan 11 2019, 15:54:44 Witching Hour - Arrival Of The Dark Throne [demo] (2007)
Re-Upload:

Register


Enjoy! smile1.gif
(3) jerrytodd, satanist666, thenecromancer,
Dec 25 2018, 21:08:37 Vorak - Triumph Of The Will (1996)
Re-Upload:

Register


Enjoy! smile1.gif
(3) Ostinato, Sky7Daemon, varg-38ru,
Dec 25 2018, 21:07:19 Vorak - Rhetoric Of The Supermen (1998)
Re-Upload:

Register


Enjoy! smile1.gif
(4) carla667, Ostinato, Sky7Daemon, varg-38ru,
Dec 16 2018, 19:17:29 Deathcult - Dark Fucking Age 666 [demo] (1994)
Re-Upload:

Register


Enjoy! smile1.gif
(5) Borderline1991, dermarsoran, satanist666, thenecromancer, varg-38ru,
Dec 16 2018, 05:26:29 Legion Of Sadism - ...of Healing, Hate & Hell [demo] (1999)
Re-Upload:
Register


Enjoy! smile1.gif
(5) Borderline1991, dermarsoran, INDARKNESS, MP101M, thenecromancer,
Nov 18 2018, 21:48:06 Nordglanz - Kampfhymnen Germaniens (2006)
QUOTE(Skeksis @ Nov 18 2018, 21:12:55) *
Anybody got a working link, please?


Register
(3) kim666, varg-38ru, vasiljev_sergej,
Nov 14 2018, 19:09:19 Dies Ater - Reign Of Tempests (Original Unreleased Analog Recording) (1998)


*Artist: Dies Ater
*Album: Reign Of Tempests (Original Unreleased Analog Recording)
*Year: 1998
*Genre: Black Metal
*Country: Germany
*Format: mp3@VBR280kbps
*Size: 95MB

Tracklist:
01. Intro 01:50
02. King Of Tempests 07:53
03. Königsblut 06:07
04. Engelsnacht 06:23
05. Die Schlacht (Instrumental) 01:29
06. Fluch Der Seele 07:13
07. A Mourner's Dream 05:46
08. Rabenflug 06:12
09. Das Geleit (Outro) 02:39
10. Intro (Full Version) 02:03
******************************
Total playing time: 47:35

[more=Extended info]"Our debut „Reign of Tempests“ was recorded with 16 track analog recorder in Summer ´98 in a small local studio. But for the label Mordgrimm Records this recordings wasn’t good enough for a release.That’s why we entered „the Spiderhouse“, where Harris did a new mix and put it in digital form.Even some guitar-tracks and parts of the vocals were re-recorded. Finally in 1999 the album was released.

We recovered the original (analog) recording and decided to put it on this platform for free download! IT WAS NEVER RELEASED!"

(https://www.facebook.com/diesater)



High Quality MP3! (VBR V0)

Password: metalarea.org

Enjoy! smile1.gif
[/more]

[more=Technical info]
Input File: 01 - - Intro.mp3
Channels : 2
Sample Rate : 44100
Precision : 16-bit
Duration : 00:01:49.97 = 4849809 samples = 8247.97 CDDA sectors
File Size : 3.43M
Bit Rate : 249k
Sample Encoding: MPEG audio (layer I, II or III)
Comments :
Title=Intro
Artist=Dies Ater
Album=Reign Of Tempests (Original Unreleased Analog Recording)
Tracknumber=1/10
Year=1998
Genre=Black Metal

[/more]

Register
(12) 1968_janeart, artscald, dermarsoran, Evilded, NachtWulf, Ostinato, Rosen, satanist666, stub888, VALERY, varg-38ru, Velmi,
Sep 8 2018, 01:30:59 Venom - Satanachist (Rare Track Tape ) [bootleg] (1993)
re-upload @320 CBR:

Register


enjoy! smile1.gif \m/
(4) dermarsoran, PerYngveOhlin, Pinhead666, thenecromancer,
Jul 20 2018, 14:18:14 Mythic Dawn - En Svunnen Tid (2018)
the vocals remind me of old darkthrone! nice!! smile1.gif \m/
(1) Razorbladeswaltz,

5 Pages V   1 2 3 > » 
- Lo-Fi Version Support form
Copyrights and abuse reports form
Time is now: 18th July 2019 - 05:42:46