Welcome Guest ( Log In | Register )

История благодарностей участнику craP_cillA ::: Спасибо сказали: 1091 раз(а)
Дата поста: В теме: За сообщение: Спасибо сказали:
Feb 16 2020, 22:02:20 Trauerkult - Drained & Purged (2019)


*Artist: Trauerkult
*Album: Drained & Purged
*Year: 2019
*Genre: Post-Black Metal
*Country: Antarctica
*Format: mp3@CBR320kbps
*Size: 82MB

Tracklist:
01. Perception 01:52
02. Trauerkult 07:48
03. Fear, Pt. I (Crawl) 05:57
04. Delusion 03:19
05. Fear, Pt. II (Revive) 03:44
06. Rage 04:15
07. Drained & Purged 05:09
08. Clarity 02:56
******************************
Total playing time: 35:00



[more=Extended info]Password: metalarea.org

Enjoy!
smile1.gif[/more]

[more=Technical info]
Input File: 01-Trauerkult-Perception.mp3
Channels : 2
Sample Rate : 44100
Precision : 16-bit
Duration : 00:01:52.07 = 4942463 samples = 8405.55 CDDA sectors
File Size : 4.49M
Bit Rate : 320k
Sample Encoding: MPEG audio (layer I, II or III)
Comments :
Title=Perception
Artist=Trauerkult
Album=Drained & Purged
Tracknumber=1/8
Year=2019
Genre=Post-Black Metal

[/more]

Register
(20) 1968_janeart, ASkyThatBurns, exorcist1969, igorzz, infiltrator, kim666, Olethros, ripper33, robertho777, Romanza, Rosen, satanist666, sergsazan, Shadechaser, SilentNidhogg, tamerz, Teshub, VALERY, vasiljev_sergej, wreak,
Feb 2 2020, 18:42:33 Immortal Hammer - Immortal Past [best of/compilation] (2005)
re-upload (VBR V2):

Register


enjoy! smile1.gif
(5) Alexis The Best, infiltrator, Soleil14, thenecromancer, varlam4,
Jan 16 2020, 17:41:28 Possessed - Demo 1985 [demo] (1985)
re-upload (same properties):

Register


enjoy! smile1.gif
(3) pichileon, thenecromancer, varlam4,
Jan 11 2020, 17:53:57 Gratzug - Zeitgeist (2019)
@RADeus:

you sir, are the man!!! thank you SO much! 9.gif 9.gif 9.gif
(2) infiltrator, RADeus,
Dec 13 2019, 19:05:18 Dohlensturm & Leichenberg - Dohlensturm/Leichenberg [split] (2001)
it's online but the linking is wrong:
Register
(1) ChaosArcana,
Dec 6 2019, 16:20:10 M.K. Ultra - Born Of Malleus Maleficarum (2019)
at the beginning of every track you hear a sample from the ripping? software that says: "created with free version for non-commercial use" ... 23.gif 22.gif


edit_1: on the bandcamp page it's the same! 15.gif so i guess the band fucked it up?! what a rip-off.^^

edit_2: the sample is also present within the tracks... -.-
(1) DarkHorde,
Nov 13 2019, 18:19:15 Ragnarok - Non Debellicata (2019)


*Artist: Ragnarok
*Album: Non Debellicata
*Year: 2019
*Genre: Black Metal
*Country: Norway
*Format: mp3@CBR320kbps
*Size: 109MB

Tracklist:
01. Non Debellicata 04:18
02. Chapel Of Shadows 04:58
03. Sanctimoneous 04:07
04. Bestial Emptiness 03:38
05. Nemesis 04:32
06. The Great Destroyer 04:50
07. Gerasene Demoniac 04:27
08. The Gospel Of Judas Iscariot 05:08
09. Jonestown Lullaby 04:41
10. Asphyxiation 05:57
******************************
Total playing time: 46:36



[more=Extended info]Password: metalarea.org

Enjoy!
smile1.gif[/more]

[more=Technical info]
Input File: 01-Ragnarok-Non_Debellicata.mp3
Channels : 2
Sample Rate : 44100
Precision : 16-bit
Duration : 00:04:18.48 = 11398924 samples = 19385.9 CDDA sectors
File Size : 10.3M
Bit Rate : 320k
Sample Encoding: MPEG audio (layer I, II or III)
Comments :
Title=Non Debellicata
Artist=Ragnarok
Album=Non Debellicata
Tracknumber=1/10
Year=2019
Genre=Black Metal

[/more]

Register
(74) 1968_janeart, ahp, Aresson, atavist, Bob, cancer1974, caro, cesar, DarkHorde, dermarsoran, Femto, ForzaMinardi1977, Frozenkult, Ildjarn, Indamage, infernallord, JD666Hellion, judaz, kaldun_85, Kazoth, khestanow3001, kim666, kimkayoung, Korpse, legion01, LEGION69, marilin, Metalass, Misanthrope@, Morgoth, multizwilling, nadin85, nemx, obituarydark, obscenity, Occultas, Old Vyaine, Olethros, Paradayz, pedrohell, Phlebotomized, QuadenThyrane, Radek, rimfrost, ripper33, Rita, Rosen, Ruben, sandr666, satanist666, senecazm, SilentNidhogg, Sjelekval, smes, SSWolf88, stub888, supremo, Swastika, tim47, Tino, toly1917, trabantfan, VALERY, varlam4, vasiljev_sergej, Vidder242, vov7609, vovenom, whiteknight, wolverine, wreak, xska, yuratroll, Козлотролль,
Oct 27 2019, 15:08:35 Trolltokt (1) Shagarth21,
Oct 22 2019, 10:53:55 Today Needed
QUOTE(thenecromancer @ Oct 22 2019, 10:36:04) *
Mayhem - Pure Fucking Armageddon [demo] (1986) <-- need the TAPE-rip (not interested in any CD or vinyl-rip, thanks!)


i could upload that in flac format for you, but there's no difference in soundquality between cd and tape. i justed checked it. smile3.gif
(2) infiltrator, thenecromancer,
Oct 17 2019, 08:30:20 Grausamkeit - Black Thorns Of Evil [demo] (1995)
"Limitation: 5 copies" 17.gif 17.gif

thanks a lot for this, and also the other grausamkeit releases!! smile1.gif 9.gif pray.gif but where did you get this from?!? oO
(1) zargonath,
Oct 13 2019, 11:49:54 Machinery - World Of Confusion [demo] (1989)
thanks for this!! smile1.gif

the vocalist sounds totally like james hetfield! oO
(1) Proteus_666,
Sep 2 2019, 16:41:33 [FILLED] Gratzug - Zeitgeist (2019)



Tracklist:

01. Hinein
02. Zeitgeist (Vocals By P. Graus)
03. Fern Dem Licht (Vocals By Revenant)
04. Verlust Der Vernunft (Vergangenheit)
05. Social Decay (Vocals By Seeker)
06. Wahn & Sinn (Gegenwart)
07. Der Weiteste Steig (Vocals & Music By Bergteufel)
08. Der Letzte Schritt (Zukunft)


The Album Was Released Today! This Is The Last Ever Release By This Band... 9.gif bye.gif


Thanks In Advance! pray.gif


https://www.metal-archives.com/albums/Gratz...Zeigeist/795311
https://www.metal-archives.com/bands/Gratzug/3540331320
(1) norther1998,
Aug 1 2019, 12:48:39 Morgenstern - Geister (2009)
thank you! smile1.gif
(1) vosmidesijatye,
Jul 30 2019, 05:30:57 Various Artists - The Rape Of The Holy Trinity (Hot Records Compilation CD, Vol.1) [compilation] (1997)
QUOTE(Kazoth @ Jul 29 2019, 20:54:50) *
320 в шапке


could you re-upload it in 320 cbr please?! smile1.gif
(2) Borderline1991, thenecromancer,
Jul 1 2019, 13:17:24 The Black Order - The Executioners Of Mankind [demo] (2002)
ahh, that explains it..thanks! smile1.gif \m/
(1) Svafrlami,
Jun 25 2019, 23:59:37 Possessed & Desecration - The Martyr's Wake-Cowboys In Bondage [split] (2012)
it didn't have to be flac, but 320 should be normal nowadays when you upload stuff.
(2) infiltrator, Occultas,
Jun 14 2019, 23:05:27 Today Needed (2) infiltrator, thenecromancer,
Jun 1 2019, 12:36:37 Hellish Grave - Worship Macabre (2016)


*Artist: Hellish Grave
*Album: Worship Macabre
*Year: 2016
*Genre: Black/Speed Metal
*Country: Brazil
*Format: mp3@CBR320kbps
*Size: 79MB

Tracklist:
01. Evokers 666 (The Last Damnation) 05:28
02. Get Ready for Satan 02:50
03. One Night in Hallucinations 05:34
04. (We Are) Hellish Dogs 05:00
05. Buried in the Grounds of Bathory 04:13
06. (I Am) Midnight Preacher 04:55
07. One Night in Hallucinations 02:57
08. Vampiric Sluts 05:07
******************************
Total playing time: 36:04

[more=Extended info]Password: metalarea.org

Enjoy!
smile1.gif [/more]

[more=Technical info]
Input File: 01 Evokers 666 (The Last Damnation).mp3
Channels : 2
Sample Rate : 44100
Precision : 16-bit
Duration : 00:05:27.95 = 14462595 samples = 24596.2 CDDA sectors
File Size : 13.3M
Bit Rate : 325k
Sample Encoding: MPEG audio (layer I, II or III)
Comments :
Title=Evokers 666 (The Last Damnation)
Artist=Hellish Grave
Album=Worship Macabre
Tracknumber=1/8
Year=2016
Genre=Black / Speed Metal

[/more]

Register
(10) andreikun, artscald, Boozer, metala, METALHUNTER, Rosen, satanist666, scorn33, stumpheavyrock, Козлотролль,
May 20 2019, 11:35:29 BlackShore - Music Of The Flies [ep] (2015)
QUOTE(xiaomirock @ May 20 2019, 12:07:57) *
404 for me 6.gif


link works fine! smile1.gif maybe mediafire is banned in your country? try a vpn. i can recommend betternet vpn! https://www.betternet.co 9.gif
(1) thenecromancer,
May 17 2019, 11:13:09 Nattferd - Naar Moerket Bliver En Evig Tid (Demo) (1) thenecromancer,
Apr 21 2019, 18:15:05 Obscurity - Bergisch Land
QUOTE(Verhasst @ Apr 21 2019, 17:52:20) *
I can only offer you 192 Kbps


danke aber die version hab ich schon...in 320 cbr oder flac ist das release echt nirgends zu finden.. :/
(1) Verhasst,
Apr 15 2019, 19:19:46 Rabensumpf - Nordseele [demo] (2012)
~5 days on this forum and already posted 12 rare releases! awesome job dude!! keep 'em coming.. smile3.gif smile1.gif

\m/
(1) Verhasst,
Apr 11 2019, 12:28:12 Today Needed
QUOTE(thenecromancer @ Apr 11 2019, 10:37:39) *


Re-Uploaded! 9.gif
(2) infiltrator, thenecromancer,
Apr 11 2019, 12:26:34 Taake - A Night Of Fog [live] (2003)
Re-Upload:

Register


Enjoy! smile1.gif
(3) Aresson, infiltrator, thenecromancer,
Apr 10 2019, 07:59:48 Svartsyn - January 1999 Promo tape (3) canadaspaceman, milosdjor, thenecromancer,

6 Pages V   1 2 3 > » 
- Lo-Fi Version Support form
Copyrights and abuse reports form
Time is now: 5th April 2020 - 07:48:01