Welcome Guest ( Log In | Register )

История благодарностей участнику osthethrasher ::: Спасибо сказали: 49 раз(а)
Дата поста: В теме: За сообщение: Спасибо сказали:
Jul 18 2019, 19:23:21 10.000 Km² Gegen Die Zeit - Absolutely Z (2019)


*Artist: 10.000 Km² Gegen Die Zeit
*Album: Absolutely Z
*Year: 2019
*Genre: Stoner/Doom Metal/Rock
*Country: Germany
*Format: mp3@CBR128kbps
*Size: 34MB

Tracklist:
1. All the Time 03:34
2. Ozeanische Entgrenzung 05:05
3. Neptun Storm 03:44
4. Speed Pilot 06:27
5. The 26th Century Plasma Man 19:01
******************************
Total playing time: 37:51



[more=Technical info]
Input File: 05 - The 26th Century Plasma Man.mp3
Channels : 2
Sample Rate : 44100
Precision : 16-bit
Duration : 00:19:01.63 = 50345927 samples = 85622.3 CDDA sectors
File Size : 18.3M
Bit Rate : 128k
Sample Encoding: MPEG audio (layer I, II or III)
Comments :
Title=The 26th Plasma Man
Artist=10.000 Km² Gegen Die Zeit
Album=Absolutely Z
Tracknumber=5

[/more]

Register
(1) stumpheavyrock,
Jul 14 2019, 20:39:32 Laceration - Remnants [compilation] (2019)


*Artist: Laceration
*Album: Remnants [compilation]
*Year: 2019
*Genre: Death/Thrash Metal
*Country: United States
*Format: mp3@CBR128kbps
*Size: 48MB

Tracklist:
1. Realms of the Unconscious 05:41
2. Self Deprivation 05:26
3. Shadows of Existence 05:21
4. Exhausted in Form 07:03
5. Bred to Consume 03:46
6. Hobo with a Shotgun 04:00
7. Critical Biopsy 05:26
8. Arise Within 03:51
9. Taphephobia 06:42
10. Shadows of Eistence 05:31
******************************
Total playing time: 52:47



[more=Technical info]
Input File: 01 - Realms of the Unconscious.mp3
Channels : 2
Sample Rate : 44100
Precision : 16-bit
Duration : 00:05:41.16 = 15045332 samples = 25587.3 CDDA sectors
File Size : 5.46M
Bit Rate : 128k
Sample Encoding: MPEG audio (layer I, II or III)
Comments :
Title=Realms of the Unconscious
Artist=Laceration
Album=Shadows of Existence
Tracknumber=1
Year=2019

[/more]

Register
(6) canadaspaceman, infiltrator, muskatnuss, Olethros, Rosen, stumpheavyrock,
Jul 11 2019, 22:03:41 Red Scalp - Lost Ghosts (2017)


*Artist: Red Scalp
*Album: Lost Ghosts
*Year: 2017
*Genre: Stoner/Doom Metal/Rock
*Country: Poland
*Format: mp3@CBR320kbps
*Size: 87MB

Tracklist:
1. Portal 04:46
2. Faces 06:30
3. Lost Ghost 09:43
4. Mantra Bufala 08:34
5. With the Wind 08:33
******************************
Total playing time: 38:06



[more=Technical info]
Input File: 01. Portal.mp3
Channels : 2
Sample Rate : 44100
Precision : 16-bit
Duration : 00:04:46.48 = 12633636 samples = 21485.8 CDDA sectors
File Size : 11.6M
Bit Rate : 323k
Sample Encoding: MPEG audio (layer I, II or III)
Comments :
Title=Portal
Artist=Red Scalp
Album=Lost Ghosts
Tracknumber=1
Year=2017
Genre=Stoner Rock/Metal

[/more]

Register
(16) artscald, autumnwood, avkruchinin, Emhyr var Emreis, fallen, gena, kauyumari, LordOvDarkness, marilin, Mogozoz, Olethros, Ostinato, robertho777, Rosen, VALERY, wreak,
Jul 9 2019, 15:15:36 Mathusalem - Cursed Garden (2015)
QUOTE(ahp @ Jul 9 2019, 08:04:29) *
This is really good. Does anybody have 320?


It's kind of difficult, it depends of Mathiu Thomas (the owner of this proyect). Unfortunately Mathusalem's bandcamp page was deleted by the author several years ago.
(1) ahp,
Jul 9 2019, 00:11:22 Twilight Hammer - Taken By Hte Others (2019)


*Artist: Twilight Hammer
*Album: Taken By Hte Others
*Year: 2019
*Genre: Black/Thrash Metal
*Country: Canada
*Format: mp3@CBR128kbps
*Size: 47MB

Tracklist:
1. Taken by the Others 08:48
2. Wrathfire 05:57
3. The Undead Strike 05:17
4. The Plague 06:04
5. Heretic 04:47
6. Collosus of War and Time 06:17
7. Until the Stars Are Conquered 04:25
8. The Wayward Son of Gondor 09:55
******************************
Total playing time: 51:30



Register
(8) Asketto, boby9052, Olethros, RMS, Rosen, stumpheavyrock, vasiljev_sergej, wgs73,
Jul 8 2019, 22:21:28 Mathusalem - Cursed Garden (2015) (1) stumpheavyrock,
Jul 8 2019, 22:00:01 Mathusalem - Cursed Garden (2015)


*Artist: Mathusalem
*Album: Cursed Garden
*Year: 2015
*Genre: Stoner/Doom Metal
*Country: France
*Format: mp3@CBR128kbps
*Size: 41MB

Tracklist:
1. Cursed Garden 17:12
2. Mavericks 06:34
3. Green Water 02:51
4. Holy Grass 13:36
5. Deep 04:11
******************************
Total playing time: 44:24




[more=Technical info]
Input File: 05 - Deep.mp3
Channels : 2
Sample Rate : 44100
Precision : 16-bit
Duration : 00:04:11.90 = 11108614 samples = 18892.2 CDDA sectors
File Size : 4.03M
Bit Rate : 128k
Sample Encoding: MPEG audio (layer I, II or III)
Comments :
Title=Deep
Artist=Mathusalem
Album=Cursed Garden
Tracknumber=5
Year=2015

[/more]

Register
(6) ahp, Boozer, infiltrator, marilin, Olethros, Rosen,
Jul 8 2019, 18:31:34 Mathusalem - Cursed Garden (2015)


*Artist: Mathusalem
*Album: Cursed Garden
*Year: 2015
*Genre: Stoner/Doom Metal
*Country: France
*Format: mp3@CBR128kbps
*Size: 41MB

Tracklist:
1. Cursed Garden
2. Mavericks
3. Green Water
4. Holy Grass
5. Deep
******************************
Total playing time: 44:24



Register
(1) stumpheavyrock,
Mar 11 2017, 07:28:17 Dread Sovereign - For Doom The Bells Toll (2017)


*Artist: Dread Sovereign
*Album: For Doom The Bells Toll
*Year: 2017
*Genre: Doom Metal
*Country: Ireland
*Format: mp3@CBR128kbps
*Size: 35MB

Tracklist:
1. For Doom the Bell Tolls
2. Twelve Bells Toll in Salem
3. This World Is Doomed
4. Draped in Sepulchral Fog
5. The Spines of Saturn
6. Live Like an Angel, Die Like a Devil (Venom cover)
******************************
Total playing time: 36:55

Register
(9) Black Cat, garml2, krmu2, Lux, marilin, rammmirez, Rosen, thenecromancer, VALERY,

- Lo-Fi Version Support form
Copyrights and abuse reports form
Time is now: 23rd August 2019 - 01:03:48