Welcome Guest ( Log In | Register )

История благодарностей участнику osthethrasher ::: Спасибо сказали: 88 раз(а)
Дата поста: В теме: За сообщение: Спасибо сказали:
Dec 10 2019, 15:09:17 Red Scalp - The Great Chase In The Sky (2019)


*Artist: Red Scalp
*Album: The Great Chase In The Sky
*Year: 2019
*Genre: Stoner/Doom Metal/Rock
*Country: Poland
*Format: mp3@CBR320kbps
*Size: 99MB

Tracklist:
1. Mothertime 06:56
2. Chase 11:34
3. Sacred Space 09:02
4. Gunsinger 04:28
5. Slide 09:56
******************************
Total playing time: 41:56



[more=Technical info]
Input File: 01. Mothertime.mp3
Channels : 2
Sample Rate : 44100
Precision : 16-bit
Duration : 00:06:56.08 = 18349040 samples = 31205.9 CDDA sectors
File Size : 17.1M
Bit Rate : 329k
Sample Encoding: MPEG audio (layer I, II or III)
Comments :
Title=Mothertime
Artist=Red Scalp
Album=The Great Chase In The Sky
Tracknumber=1
Year=2019
Genre=Metal

[/more]

Register
(12) Black Cat, Brann, infiltrator, kauyumari, Kodel, krotovich, LEGION69, Olethros, robertho777, Rosen, stumpheavyrock, VALERY,
Dec 7 2019, 15:12:14 Black Capricorn - Omega - Cult Of The Dead (2017)


*Artist: Black Capricorn
*Album: Omega - Cult Of The Dead
*Year: 2017
*Genre: Doom Metal
*Country: Italy
*Format: mp3@CBR128kbps
*Size: 86MB

Tracklist:
1. Alpha 01:38
2. Evil Horde of Lucifer 06:47
3. Accabadora 10:07
4. Flower of Revelation 05:29
5. Antartide 17:11
6. Devil and the Death 09:53
7. The Man Who Dared 07:13
8. Stars of Orion 05:39
9. Quest for Agartha 14:39
10. Black Capricorn Seal 07:50
11. Omega 09:00
******************************
Total playing time: 1:35:26



Register
(8) metala, Olethros, Rosen, sergsazan, stub888, stumpheavyrock, thenecromancer, VALERY,
Nov 4 2019, 03:18:53 Invierno Nuclear - Perros De Guerra (2017)


*Artist: Invierno Nuclear
*Album: Perros De Guerra
*Year: 2017
*Genre: Thrash Metal/Punk
*Country: Chile
*Format: mp3@CBR128kbps
*Size: 35MB

Tracklist:
1. Fuego 06:17
2. Cancer 02:38
3. Whiskey and Blood 04:54
4. Hades 03:49
5. Perros de Guerra 02:39
6. Inmolacion 03:14
7. Terra Inferno 03:50
8. Jauria Maldita 04:14
9. Atomic Hellhounds 03:03
10. Thrashing Metal Punk 04:19
******************************
Total playing time: 38:57



[more=Technical info]
Input File: 03 - Whiskey and Blood.mp3
Channels : 2
Sample Rate : 44100
Precision : 16-bit
Duration : 00:04:52.76 = 12910496 samples = 21956.6 CDDA sectors
File Size : 5.02M
Bit Rate : 137k
Sample Encoding: MPEG audio (layer I, II or III)
Comments :
Title=Whiskey and Blood
Artist=Invierno Nuclear
Album=Perros de Guerra
Tracknumber=3
Genre=Género desconocido

[/more]

Register
(2) Boozer, Rosen,
Oct 19 2019, 16:07:37 Witchslaught - Witchslaught (2017)


*Artist: Witchslaught
*Album: Witchslaught
*Year: 2017
*Genre: Heavy/Speed Metal/Punk
*Country: Japan
*Format: mp3@CBR128kbps
*Size: 33MB

Tracklist:
1. Witchslaught 03:16
2. Alcoholocaust 02:41
3. Midnight Headlight 03:17
4. N.W.O.M.H.B. 03:43
5. Burn At The Stake 04:01
6. Mary The Liar 04:53
7. Coming Of The Reaper 03:05
8. Witch Ripping Blues(Bonus Live) 02:27
9. N.W.O.M.H.B.(Bonus Live) 04:05
10. Mary The Liar(Bonus Live) 05:04
******************************
Total playing time: 36:32



[more=Technical info]
Input File: 02 - Alchoholocaust.mp3
Channels : 2
Sample Rate : 44100
Precision : 16-bit
Duration : 00:02:41.69 = 7130353 samples = 12126.5 CDDA sectors
File Size : 2.73M
Bit Rate : 135k
Sample Encoding: MPEG audio (layer I, II or III)
Comments :
Title=Alchoholocaust
Artist=Witchslaught
Album=Witchslaught
Tracknumber=2
Genre=Género desconocido

[/more]

Register
(10) Asketto, infiltrator, marilin, metalwoman, Olethros, Rosen, sergsazan, stumpheavyrock, Wail, wgs73,
Jul 18 2019, 19:23:21 10.000 Km² Gegen Die Zeit - Absolutely Z (2019)


*Artist: 10.000 Km² Gegen Die Zeit
*Album: Absolutely Z
*Year: 2019
*Genre: Stoner/Doom Metal/Rock
*Country: Germany
*Format: mp3@CBR128kbps
*Size: 34MB

Tracklist:
1. All the Time 03:34
2. Ozeanische Entgrenzung 05:05
3. Neptun Storm 03:44
4. Speed Pilot 06:27
5. The 26th Century Plasma Man 19:01
******************************
Total playing time: 37:51



[more=Technical info]
Input File: 05 - The 26th Century Plasma Man.mp3
Channels : 2
Sample Rate : 44100
Precision : 16-bit
Duration : 00:19:01.63 = 50345927 samples = 85622.3 CDDA sectors
File Size : 18.3M
Bit Rate : 128k
Sample Encoding: MPEG audio (layer I, II or III)
Comments :
Title=The 26th Plasma Man
Artist=10.000 Km² Gegen Die Zeit
Album=Absolutely Z
Tracknumber=5

[/more]

Register
(2) artscald, stumpheavyrock,
Jul 14 2019, 20:39:32 Laceration - Remnants [compilation] (2019)


*Artist: Laceration
*Album: Remnants [compilation]
*Year: 2019
*Genre: Death/Thrash Metal
*Country: United States
*Format: mp3@CBR128kbps
*Size: 48MB

Tracklist:
1. Realms of the Unconscious 05:41
2. Self Deprivation 05:26
3. Shadows of Existence 05:21
4. Exhausted in Form 07:03
5. Bred to Consume 03:46
6. Hobo with a Shotgun 04:00
7. Critical Biopsy 05:26
8. Arise Within 03:51
9. Taphephobia 06:42
10. Shadows of Eistence 05:31
******************************
Total playing time: 52:47



[more=Technical info]
Input File: 01 - Realms of the Unconscious.mp3
Channels : 2
Sample Rate : 44100
Precision : 16-bit
Duration : 00:05:41.16 = 15045332 samples = 25587.3 CDDA sectors
File Size : 5.46M
Bit Rate : 128k
Sample Encoding: MPEG audio (layer I, II or III)
Comments :
Title=Realms of the Unconscious
Artist=Laceration
Album=Shadows of Existence
Tracknumber=1
Year=2019

[/more]

Register
(9) artscald, canadaspaceman, infiltrator, muskatnuss, Olethros, Rosen, stumpheavyrock, SyncestrA, troll_swamp,
Jul 11 2019, 22:03:41 Red Scalp - Lost Ghosts (2017)


*Artist: Red Scalp
*Album: Lost Ghosts
*Year: 2017
*Genre: Stoner/Doom Metal/Rock
*Country: Poland
*Format: mp3@CBR320kbps
*Size: 87MB

Tracklist:
1. Portal 04:46
2. Faces 06:30
3. Lost Ghost 09:43
4. Mantra Bufala 08:34
5. With the Wind 08:33
******************************
Total playing time: 38:06



[more=Technical info]
Input File: 01. Portal.mp3
Channels : 2
Sample Rate : 44100
Precision : 16-bit
Duration : 00:04:46.48 = 12633636 samples = 21485.8 CDDA sectors
File Size : 11.6M
Bit Rate : 323k
Sample Encoding: MPEG audio (layer I, II or III)
Comments :
Title=Portal
Artist=Red Scalp
Album=Lost Ghosts
Tracknumber=1
Year=2017
Genre=Stoner Rock/Metal

[/more]

Register
(16) artscald, autumnwood, avkruchinin, Emhyr var Emreis, fallen, gena, kauyumari, LordOvDarkness, marilin, Mogozoz, Olethros, Ostinato, robertho777, Rosen, VALERY, wreak,
Jul 9 2019, 15:15:36 Mathusalem - Cursed Garden (2015)
QUOTE(ahp @ Jul 9 2019, 08:04:29) *
This is really good. Does anybody have 320?


It's kind of difficult, it depends of Mathiu Thomas (the owner of this proyect). Unfortunately Mathusalem's bandcamp page was deleted by the author several years ago.
(1) ahp,
Jul 9 2019, 00:11:22 Twilight Hammer - Taken By Hte Others (2019)


*Artist: Twilight Hammer
*Album: Taken By Hte Others
*Year: 2019
*Genre: Black/Thrash Metal
*Country: Canada
*Format: mp3@CBR128kbps
*Size: 47MB

Tracklist:
1. Taken by the Others 08:48
2. Wrathfire 05:57
3. The Undead Strike 05:17
4. The Plague 06:04
5. Heretic 04:47
6. Collosus of War and Time 06:17
7. Until the Stars Are Conquered 04:25
8. The Wayward Son of Gondor 09:55
******************************
Total playing time: 51:30



Register
(9) artscald, Asketto, boby9052, Olethros, RMS, Rosen, stumpheavyrock, vasiljev_sergej, wgs73,
Jul 8 2019, 22:21:28 Mathusalem - Cursed Garden (2015) (1) stumpheavyrock,
Jul 8 2019, 22:00:01 Mathusalem - Cursed Garden (2015)


*Artist: Mathusalem
*Album: Cursed Garden
*Year: 2015
*Genre: Stoner/Doom Metal
*Country: France
*Format: mp3@CBR128kbps
*Size: 41MB

Tracklist:
1. Cursed Garden 17:12
2. Mavericks 06:34
3. Green Water 02:51
4. Holy Grass 13:36
5. Deep 04:11
******************************
Total playing time: 44:24




[more=Technical info]
Input File: 05 - Deep.mp3
Channels : 2
Sample Rate : 44100
Precision : 16-bit
Duration : 00:04:11.90 = 11108614 samples = 18892.2 CDDA sectors
File Size : 4.03M
Bit Rate : 128k
Sample Encoding: MPEG audio (layer I, II or III)
Comments :
Title=Deep
Artist=Mathusalem
Album=Cursed Garden
Tracknumber=5
Year=2015

[/more]

Register
(7) ahp, artscald, Boozer, infiltrator, marilin, Olethros, Rosen,
Jul 8 2019, 18:31:34 Mathusalem - Cursed Garden (2015)


*Artist: Mathusalem
*Album: Cursed Garden
*Year: 2015
*Genre: Stoner/Doom Metal
*Country: France
*Format: mp3@CBR128kbps
*Size: 41MB

Tracklist:
1. Cursed Garden
2. Mavericks
3. Green Water
4. Holy Grass
5. Deep
******************************
Total playing time: 44:24



Register
(2) artscald, stumpheavyrock,
Mar 11 2017, 07:28:17 Dread Sovereign - For Doom The Bells Toll (2017)


*Artist: Dread Sovereign
*Album: For Doom The Bells Toll
*Year: 2017
*Genre: Doom Metal
*Country: Ireland
*Format: mp3@CBR128kbps
*Size: 35MB

Tracklist:
1. For Doom the Bell Tolls
2. Twelve Bells Toll in Salem
3. This World Is Doomed
4. Draped in Sepulchral Fog
5. The Spines of Saturn
6. Live Like an Angel, Die Like a Devil (Venom cover)
******************************
Total playing time: 36:55

Register
(9) Black Cat, garml2, krmu2, Lux, marilin, rammmirez, Rosen, thenecromancer, VALERY,

- Lo-Fi Version Support form
Copyrights and abuse reports form
Time is now: 15th December 2019 - 18:59:41