Welcome Guest ( Log In | Register )

История благодарностей участнику lortz ::: Спасибо сказали: 912 раз(а)
Дата поста: В теме: За сообщение: Спасибо сказали:
Dec 16 2019, 21:21:00 Grope - Intercooler (1999)
Register
(1) horn,
Dec 11 2019, 15:18:19 Orphaned To Hatred - Re-Destroy The Cowardice (2011)
320 18.gif
Register
(1) 666pan,
Jun 5 2019, 10:00:16 Accept - Death Row (1994)
ЦИТАТА(hammer @ Jun 5 2019, 11:10:13) *
как по мне сильная там одна-Sodom & Gomorra, остальные средние и ниже.

Да ладна... The Beast Inside, Dead On, Death Row как минимум ни чем не хуже. Like A Loaded Gun неплоха. Stone Evil очень атмосферна. 18.gif
(2) infiltrator, quicksand,
Jun 2 2019, 12:23:14 Substance D - Addictions (1999)
фром зы вэб:
FLAC (tracks+.cue+log)
Register

mp3@320 kbps
Register
(2) Olethros, RotAnus,
Jun 2 2019, 09:52:51 No Saner - Ire (1994)


*Artist: No Saner
*Album: Ire
*Year: 1994
*Genre: Hardcore/Groove Metal
*Country: United States
*Format: mp3@CBR256kbps
*Size: 108MB

Tracklist:
01 Guilt 2:57
02 Breed 3:37
03 Face Plant 3:21
04 Freedom Cry 2:01
05 Acid Reign 3:58
06 Bite 2:33
08 Asleep At The Wheel 3:25
09 No Woman 3:14
10 Season's End 2:28
11 Mood Swing [live] 3:08
12 Black Fades Blue [bonus] 2:12
13 Beast Reality [bonus] 2:45
14 Flippin' My Lid [bonus] 3:14
15 Spell [bonus] 2:45
16 Mood Swing [bonus] 3:08
17 Crutch [bonus] 3:34
18 Satan Christ Becomes [bonus] 6:06
******************************
Total playing time: 54:26

[more=Technical info]
Input File: 01 No Saner - Guilt.mp3
Channels : 2
Sample Rate : 44100
Precision : 16-bit
Duration : 00:02:57.54 = 7829338 samples = 13315.2 CDDA sectors
File Size : 5.68M
Bit Rate : 256k
Sample Encoding: MPEG audio (layer I, II or III)
Comments :
Title=Guilt
Artist=No Saner

[/more]

Register
(7) boby9052, GorAtheist, Olethros, Rosen, stumpheavyrock, Tino, wreak,
Jun 2 2019, 08:45:26 Bone Shelter - Circumfusion (1998)


*Artist: Bone Shelter
*Album: Circumfusion
*Year: 1998
*Genre: Groove Metal
*Country: United States
*Format: mp3@CBR128kbps
*Size: 42MB

Tracklist:
1 Muzzle 4:04
2 Downtime 6:32
3 Scream of Kerish 4:51
4 As I Look 4:26
5 Koala 6:27
6 City of Bone 4:03
7 Flabbergasm 3:48
8 Step Off 3:09
9 10 Lbs. @ Second 7:45
******************************
Total playing time: 45:05

Register
(3) boby9052, Rosen, stumpheavyrock,
Jun 1 2019, 19:32:21 Up Spook Hill - The Dead Of Winter (1997)


*Artist: Up Spook Hill
*Album: The Dead Of Winter
*Year: 1997
*Genre: Groove Metal
*Country: United States
*Format: mp3@CBR128kbps
*Size: 38MB

Tracklist:
1. If Murder Was Legal (Hit 'em Again) 04:33
2. Who the Fuck I Am 03:57
3. Crucify 03:15
4. Feel Your Pain 03:16
5. Blind 03:38
6. Mr. X 04:08
7. See Through Them 03:23
8. Leave Me Be 03:10
9. Greed 03:02
10. Never See You Again 02:45
11. Cornbread (Redneck Style) 05:38
******************************
Total playing time: 40:45



Register
(4) boby9052, Rosen, stumpheavyrock, Z28517,
Jun 1 2019, 06:30:30 Section 8 - Nine Ways To Say I Love You (1997)


*Artist: Section 8
*Album: Nine Ways To Say I Love You
*Year: 1997
*Genre: Alterntive/Groove Metal
*Country: United States
*Format: mp3@CBR320kbps
*Size: 94MB

Tracklist:
1. Broken Glass Memories
2. God Complex
3. Anasthetics
4. Sky Is Falling
5. Torn
6. Divinity of Loneliness
7. Winter
8. Shame of Cain
9. De-Omega
******************************
Total playing time: 40:33



[more=Technical info]
Input File: 01 Section 8 - Broken Glass Memories.mp3
Channels : 2
Sample Rate : 44100
Precision : 16-bit
Duration : 00:04:27.60 = 11801248 samples = 20070.1 CDDA sectors
File Size : 10.7M
Bit Rate : 320k
Sample Encoding: MPEG audio (layer I, II or III)
Comments :
Title=Broken Glass Memories
Artist=Section 8
Album=Nine Ways to Say I Love You
Tracknumber=001/009
Year=1997
Discnumber=1/1

[/more]

Register
(3) Anger, Proteus_666, Rosen,
Jun 1 2019, 06:21:48 Section 8 - Pain Is Truth (1995)


*Artist: Section 8
*Album: Pain Is Truth
*Year: 1995
*Genre: Alterntive/Groove Metal
*Country: United States
*Format: mp3@CBR192kbps
*Size: 33MB

Tracklist:
1. Chapter 11
2. Nightfall
3. No One
4. Words of Love
5. Inferno
6. Chained
******************************
Total playing time: 23:18

Preview 1

[more=Technical info]
Input File: 01 section-8-chapter-11.mp3
Channels : 2
Sample Rate : 44100
Precision : 16-bit
Duration : 00:03:01.08 = 7985672 samples = 13581.1 CDDA sectors
File Size : 4.35M
Bit Rate : 192k
Sample Encoding: MPEG audio (layer I, II or III)
Comments :
Title=Chapter 11
Artist=Section 8
Album=Pain Is Truth
Tracknumber=1
Year=1995
Genre=Heavy Metal
Discnumber=1/1

[/more]

Register
(3) metala, Proteus_666, Rosen,
May 30 2019, 20:08:54 Rude Awakening - Scaring The Paper People (1996)
Кстати грув здесь... с альтернативой.
Register
(1) Z28517,
May 30 2019, 19:57:57 Rude Awakening - Headbutter (1995)


*Artist: Rude Awakening
*Album: Headbutter
*Year: 1995
*Genre: Grooved Alternative Metal
*Country: United States
*Format: mp3@CBR256kbps
*Size: 87MB

Tracklist:
1. Smokejumpers 03:44
2. Dignity 04:57
3. Cancer Cluster 03:32
4. Mark of the Damned 04:34
5. Billycakes 02:54
6. Intro / They Had to Die 05:17
7. S.W.I.G. (Ignorance Is Bliss) 07:38
8. Lemming Instinct 04:21
9. Shrine of the Lost 05:41
10. Vendetta 03:18
******************************
Total playing time: 45:56

Preview 1

[more=Technical info]
Input File: 01 rude-awakening-usa-smokejumpers.mp3
Channels : 2
Sample Rate : 44100
Precision : 16-bit
Duration : 00:03:45.00 = 9922324 samples = 16874.7 CDDA sectors
File Size : 7.23M
Bit Rate : 257k
Sample Encoding: MPEG audio (layer I, II or III)
Comments :
Title=Smokejumpers
Artist=Rude Awakening
Album=Headbutter
Tracknumber=1/10
Year=1995
Genre=Heavy Metal
Discnumber=1/1

[/more]

Register
(3) Diflock, metala, Tino,
May 30 2019, 08:16:05 Torqued - Resurgence [ep] (2018)


*Artist: Torqued
*Album: Resurgence [ep]
*Year: 2018
*Genre: Groove Metal
*Country: United Kingdom
*Format: mp3@CBR320kbps
*Size: 78MB

Tracklist:
01. Forgotten Soul
02. Follow Me
03. Overload I Die Inside
04. Hollow Core
05. Overload I Die Inside (Live Bonus Track)
06. Hollow Core (Live Bonus Track)
******************************
Total playing time: 33:57

Preview 1

[more=Extended info]Marc Cleave - Bass Guitar, Vocals, Backing Vocals
Kurt Johnson - Drums, Percussion, Backing Vocals
Rimmy Sinclair - Guitar, Backing Vocals[/more]

[more=Technical info]
Input File: 01 - Forgotten Soul.mp3
Channels : 2
Sample Rate : 44100
Precision : 16-bit
Duration : 00:00:00.33 = 14729 samples = 25.0493 CDDA sectors
File Size : 13.4M
Bit Rate : 322M
Sample Encoding: MPEG audio (layer I, II or III)
Comments :
Title=Forgotten Soul
Artist=Torqued
Album=R E S U R G E N C E
Tracknumber=01/06
Year=2018-18-20
Genre=Metal
Discnumber=1/1

[/more]

Register
(6) boby9052, Olethros, Rosen, stumpheavyrock, TeamatSE, wreak,
May 17 2019, 13:00:44 Krypts - Cadaver Circulation (2019)
Предыдущий альбом был очень неплох. Заценим этот.
(2) infiltrator, Samaritianin,
May 15 2019, 10:56:57 Blessed Hellride - Bastards & Outlaws (2016)


*Artist: Blessed Hellride
*Album: Bastards & Outlaws
*Year: 2016
*Genre: Southern Metal
*Country: Germany
*Format: mp3@CBR320kbps
*Size: 128MB

Tracklist:
1. Intro 01:28
2. Helldorado 04:12
3. Devils Ride 04:48
4. Goddamn Hippie 04:35
5. Papa Joe 04:04
6. Blessed Hellride 04:39
7. Blood Red River 04:58
8. Moonshine Saloon 04:10
9. Overdrive Junkies 04:07
10. Dead Mens Blues 05:18
11. Gevatter Tod 04:28
12. Shame on You 03:46
13. Bastards & Outlaws 05:18
******************************
Total playing time: 55:51



[more=Technical info]
Input File: 02. Helldorado.mp3
Channels : 2
Sample Rate : 44100
Precision : 16-bit
Duration : 00:04:12.28 = 11125592 samples = 18921.1 CDDA sectors
File Size : 10.3M
Bit Rate : 327k
Sample Encoding: MPEG audio (layer I, II or III)
Comments :
Title=Helldorado
Artist=Blessed Hellride
Album=Bastards And Outlaws
Tracknumber=02
Year=2016
Genre=Stoner Heavy Metal

[/more]

Register
(2) Olethros, Rosen,
May 15 2019, 10:46:53 Blessed Hellride - Booze'n'roll [ep] (2013)


*Artist: Blessed Hellride
*Album: Booze'n'roll [ep]
*Year: 2013
*Genre: Southern Metal
*Country: Germany
*Format: mp3@CBR320kbps
*Size: 59MB

Tracklist:
1. Bastards'n'Outlaws 05:03
2. Devil's Ride 04:53
3. Booze'n'Roll 04:03
4. Back from Hell 05:53
5. Zombiepokalypse 05:43
******************************
Total playing time: 25:35



[more=Technical info]
Input File: 01 - Bastards n Outlaws.mp3
Channels : 2
Sample Rate : 44100
Precision : 16-bit
Duration : 00:05:03.72 = 13393876 samples = 22778.7 CDDA sectors
File Size : 12.2M
Bit Rate : 322k
Sample Encoding: MPEG audio (layer I, II or III)
Comments :
Title=Bastards n Outlaws
Artist=Blessed Hellride
Album=Booze n Roll EP
Tracknumber=1/5
Year=2013
Genre=Рок
Discnumber=1/1

[/more]

Register
(4) Olethros, Rosen, SatanicPanzer, stumpheavyrock,
May 14 2019, 20:01:28 Machine Head - Burn My Eyes (1994)
Блин... 25 лет прошло... а вроде и недавно было... 17.gif
(1) DMIYUR,
May 12 2019, 07:51:13 Cold Hand Of Christ - My Little Ocean (2000)
Register

(2) boby9052, SyncestrA,
May 12 2019, 06:37:02 Missdemeanor - 1987 Demo [demo] (1987)


*Artist: Missdemeanor
*Album: 1987 Demo [demo]
*Year: 1987
*Genre: Heavy/Speed Metal
*Country: United States
*Format: mp3@CBR320kbps
*Size: 27MB

Tracklist:
1. Victim 04:14
2. The Call (Black Moon Rising) 03:48
3. Illegal Action 03:38
******************************
Total playing time: 11:40



[more=Technical info]
Input File: 01. Missdemeanor - Victim.mp3
Channels : 2
Sample Rate : 48000
Precision : 16-bit
Duration : 00:04:13.42 = 12164112 samples ~ 19006.4 CDDA sectors
File Size : 10.2M
Bit Rate : 322k
Sample Encoding: MPEG audio (layer I, II or III)
Comments :
Title=Victim
Artist=Missdemeanor
Album=1987 Demo (Demo)
Tracknumber=01
Year=1987
Genre=137

[/more]

Register
(6) Diflock, doomsword11, Proteus_666, Rosen, stumpheavyrock, thenecromancer,
May 11 2019, 18:43:58 Cold Hand Of Christ - My Little Ocean (2000)


*Artist: Cold Hand Of Christ
*Album: My Little Ocean
*Year: 2000
*Genre: Groove Metal
*Country: United States
*Format: mp3@CBR320kbps
*Size: 88MB

Tracklist:
1 Reign 2:52
2 Labor Of Love 4:02
3 Green Grows 4:34
4 One-Step 3:51
5 A Prisoners Plea 1:53
6 Game Called Life 3:37
7 Tangled 4:50
8 Soldier Boy 4:08
9 Pristeen 2:50
10 My Little Ocean 1:15
11 From The Gutter 3:38
******************************
Total playing time: 37:30

Preview 1

[more=Technical info]
Input File: 01. Cold Hand Of Christ - Reign.mp3
Channels : 2
Sample Rate : 44100
Precision : 16-bit
Duration : 00:02:55.13 = 7723409 samples = 13135 CDDA sectors
File Size : 7.01M
Bit Rate : 320k
Sample Encoding: MPEG audio (layer I, II or III)
Comments :
Title=Reign
Artist=Cold Hand of Christ
Album=My Little Ocean
Year=2000
Genre=Groove Metal

[/more]

Register
(3) Rosen, stumpheavyrock, SyncestrA,
May 8 2019, 12:36:13 Death'n'roll
ЦИТАТА(vosmidesijatye @ May 8 2019, 14:16:08) *
Это чистый дэт разве?

[youtube]tLvFMko666k[/youtube]

Дэт/грув. Только пример этот некорректный. Так как по одной песне обо всем альбоме не судят. Так ведь? А весь альбом соответствует тому, что я написал о них выше. Никаким дэт-н-ролом здесь и не пахнет.
[youtube]dHnvhIeoc1Q[/youtube]
(2) infiltrator, vosmidesijatye,
May 8 2019, 04:24:12 Death'n'roll
К данному подстилю понаприписывали, тех, кто его никогда не играл. Six Feet Under и Gorefest например.

Вот, бест оф зы бест:
Dominus - The First 9 (1996)
... ну, еще этот альбом можно вспомнить:
Konkhra - Weed Out The Weak (1998)

ЦИТАТА(zyklon @ May 7 2019, 23:13:44) *
[youtube]bTxxo4L6lWU[/youtube]

А ниче шо это стоунер?
(2) Emm Human, infiltrator,
May 5 2019, 08:06:58 Palm - To Live Is To Die, To Die Is To Live (2018)


*Artist: Palm
*Album: To Live Is To Die, To Die Is To Live
*Year: 2018
*Genre: Hardcore/Groove Metal
*Country: Japan
*Format: mp3@CBR320kbps
*Size: 80MB

Tracklist:
01. Scapegoat
02. Only Ego
03. Dedicated to Humanity
04. Burn the Silence
05. Call the Disorder
06. Ex Owner Is Fucked
07. Leave Me Alone
08. Blood Clot of Pain
09. Honorable Death
10. Sacrifice
11. 音我苦-ONGAKU-
12. To Live Is To Die, To Die Is To Live
******************************
Total playing time: 36:41


Preview 2

[more=Technical info]
Input File: 01 - Scapegoat.mp3
Channels : 2
Sample Rate : 44100
Precision : 16-bit
Duration : 00:01:39.43 = 4384863 samples = 7457.25 CDDA sectors
File Size : 3.98M
Bit Rate : 320k
Sample Encoding: MPEG audio (layer I, II or III)
Comments :
Title=Scapegoat
Artist=Palm
Album=To Live Is to Die, To Die Is to Live
Tracknumber=1/12
Year=2018

[/more]

Register
(7) avkruchinin, infiltrator, METALHUNTER, Olethros, Ostinato, Rosen, Волос,
Apr 28 2019, 10:06:26 Groove Metal посоветуйте!
ЦИТАТА(Anger @ Dec 31 2018, 17:25:17) *
Иран-Индия-Израиль уже давно таким промышляют. да любые страны практически. а тут что удивительного...

[youtube]Gsy5sJy5_34[/youtube]
(2) infiltrator, scrollbar,
Apr 26 2019, 18:36:39 River Black - River Black (2017)


*Artist: River Black
*Album: River Black
*Year: 2017
*Genre: Groove Metal
*Country: United States
*Format: mp3@CBR320kbps
*Size: 84MB

Tracklist:
1 Jaws 1:58
2 Honor 3:15
3 Low 3:19
4 Shipwreck 3:43
5 River Black 0:46
6 South by South 3:25
7 Boat 2:32
8 Move 2:41
9 #Victim 3:22
10 Haunt 3:09
11 Sink 2:30
12 Everywhere 4:51
******************************
Total playing time: 35:31


Preview 2

[more=Technical info]
Input File: 01 - Jaws.mp3
Channels : 2
Sample Rate : 44100
Precision : 16-bit
Duration : 00:01:58.52 = 5226908 samples = 8889.3 CDDA sectors
File Size : 4.74M
Bit Rate : 320k
Sample Encoding: MPEG audio (layer I, II or III)
Comments :
Title=Jaws
Artist=River Black
Album=River Black
Tracknumber=1
Year=2017
Genre=Metal

[/more]

Register
(5) boby9052, Olethros, Rosen, TeamatSE, VALERY,
Apr 25 2019, 15:48:38 16 - Drop Out (1996)
Очень даже грувисто... я-б сказал... 20.gif
Register
(1) FUDEDOR,

12 Pages V   1 2 3 > » 
- Lo-Fi Version Support form
Copyrights and abuse reports form
Time is now: 9th April 2020 - 21:51:42