Welcome Guest ( Log In | Register )

История благодарностей участнику warrr ::: Спасибо сказали: 1432 раз(а)
Дата поста: В теме: За сообщение: Спасибо сказали:
Feb 9 2020, 11:01:20 Today Needed
I just want to thank also here for Borderline1991 pray.gif pray.gif pray.gif pray.gif pray.gif pray.gif pray.gif v
(4) Borderline1991, Fenrirsson, infiltrator, Unmerciful,
Sep 28 2019, 11:04:23 Axiom - Vicious Circle (1990)
QUOTE(Borderline1991 @ Sep 28 2019, 09:29:33) *


Many thanks. I was not aware of that topic of requests. From now i will leave all my request there.
Thanks a lot. For this and for the link.
(1) Borderline1991,
Aug 25 2019, 09:35:57 Black Sabbath - The Ten Year War [box set] (2009)


*Artist: Black Sabbath
*Album: The Ten Year War [box set]
*Year: 2009
*Genre: Heavy Metal, Traditional Doom Metal
*Country: United Kingdom
*Format: mp3@CBR320kbps
*Size: 759MB

Tracklist:
Black Sabbath
A1 Black Sabbath
A2 The Wizard
A3 Behind Τhe Wall Οf Sleep
A4 N.I.B.
B1 Evil Woman
B2 Sleeping Village
B3 Warning
Paranoid
C1 War Pigs
C2 Paranoid
C3 Planet Caravan
C4 Iron Man
D1 Electric Funeral
D2 Hand Of Doom
D3 Rat Salad
D4 Fairies Wear Boots
Master Οf Reality
E1 Sweet Leaf
E2 After Forever
E3 Embryo
E4 Children Of The Grave
F1 Orchid
F2 Lord Of This World
F3 Solitude
F4 Into The Void
Vol. 4
G1 Wheels Of Confusion/The Straightener
G2 Tomorrow's Dream
G3 Changes
G4 FX
G5 Supernaut
H1 Snowblind
H2 Cornucopia
H3 Laguna Sunrise
H4 St. Vitus Dance
H5 Under The Sun/Every Day Comes And Goes
Sabbath Bloody Sabbath
I1 Sabbath Bloody Sabbath
I2 A National Acrobat
I3 Fluff
I4 Sabbra Cadabra
J1 Killing Yourself To Live
J2 Who Are You?
J3 Looking For Today
J4 Spiral Architect
Sabotage
K1 Hole In The Sky
K2 Don't Start (Too Late)
K3 Symptom Of The Universe
K4 Megalomania
L1 The Thrill Of It All
L2 Supertzar
L3 Am I Going Insane (Radio)
L4 The Writ
Technical Ecstasy
M1 Back Street Kids
M2 You Won't Change Me
M3 It's Alright
M4 Gypsy
N1 All Moving Parts (Stand Still)
N2 Rock 'n' Roll Doctor
N3 She's Gone
N4 Dirty Women
Never Say Die!
O1 Never Say Die
O2 Johnny Blade
O3 Junior's Eyes
O4 Hard Road
P1 Shock Wave
P2 Air Dance
P3 Over To You
P4 Breakout
P5 Swinging The Chain
******************************
Total playing time: 5:28:11

[more=Extended info]Boxset includes:
• Vinyl meticulously reproduced in their original sleeves, re-mastered by renowned mastering engineer Andy Pearce from the original tapes and pressed on 180 gram splatter-coloured vinyl, each LP with unique and individual colouring.
• Crucifix shaped Black Sabbath USB stick, exclusive to this box set, which can be worn round the neck and contains MQA high definition audio of the first eight Black Sabbath albums

• The extremely rare The Ten Year War brochure, reproduced from the original publication

• Hardback book, featuring accolades from the cream of rock royalty, coupled with official and candid iconic photography of the band during their 1970s tours, recording sessions and photo-shoots

• Tenth Anniversary World Tour 1978 Official Programme, impeccably reproduced

• Reprinted tour poster from the 1972 Seattle Centre Arena show[/more]

[more=Technical info]
Input File: 09. Paranoid.mp3
Channels : 2
Sample Rate : 48000
Precision : 16-bit
Duration : 00:02:48.51 = 8088336 samples ~ 12638 CDDA sectors
File Size : 6.79M
Bit Rate : 322k
Sample Encoding: MPEG audio (layer I, II or III)
Comments :
Title=Paranoid
Artist=Black Sabbath
Album=Paranoid (2009 Remaster)
Tracknumber=09/66
Year=1970
Genre=Hard Rock
Discnumber=2/8

[/more]

Register
(2) artscald, infiltrator,
Aug 25 2019, 09:27:44 Téveszme - Megosztom Veled, Mielőtt Feleslegesnek Tartanám (2011)


*Artist: Téveszme
*Album: Megosztom Veled, Mielőtt Feleslegesnek Tartanám
*Year: 2011
*Genre: Modern/Groove Metal
*Country: Hungary
*Format: mp3@VBR290kbps
*Size: 57MB

Tracklist:
1. Intro
2. Reményszenzorok
3. Vesszőfutás
4. Önbecsülésed Megmaradásának Vésztartaléka
5. Harc A Nagyúrral
6. Zsákutca
7. Névtelenek Közt
8. Kövek II
9. A Szoba
******************************
Total playing time: 24:37

[more=Technical info]
Input File: Téveszme - Megosztom Veled, mielőtt feleslegesnek tartanám - 01 Reményszenzorok.mp3
Channels : 2
Sample Rate : 44100
Precision : 16-bit
Duration : 00:03:20.08 = 8823616 samples = 15006.1 CDDA sectors
File Size : 8.29M
Bit Rate : 331k
Sample Encoding: MPEG audio (layer I, II or III)
Comments :
Title=Reményszenzorok
Artist=Téveszme
Album=Megosztom Veled, mielőtt feleslegesnek tartanám
Tracknumber=1
Year=2011

[/more]

Register
(2) gwar, infiltrator,
Aug 25 2019, 09:24:23 Salvus - Önharckép (2011)


*Artist: Salvus
*Album: Önharckép
*Year: 2011
*Genre: Melodic Heavy Metal/Hard Rock
*Country: Hungary
*Format: mp3@CBR320kbps
*Size: 99MB

Tracklist:
1. Amikor elfordulsz 04:28
2. Noé ébredése 04:15
3. Nem volt hiába 04:34
4. Üzenet 04:13
5. Ketten egyedül 03:58
6. Koszorút fejekre 04:06
7. Szörny a tükörben 04:34
8. Festékre vászon 03:46
9. Utolsó szó jogán 05:03
10. A hídépítő 03:20
******************************
Total playing time: 42:17

[more=Extended info]https://www.metal-archives.com/albums/Salvus/Önharckép/297869[/more]

[more=Technical info]
Input File: 03-Nem volt hiába.mp3
Channels : 2
Sample Rate : 44100
Precision : 16-bit
Duration : 00:04:34.73 = 12115725 samples = 20605 CDDA sectors
File Size : 11.0M
Bit Rate : 320k
Sample Encoding: MPEG audio (layer I, II or III)
Comments :
Title=Nem volt hiába
Artist=Salvus
Album=Önharckép
Tracknumber=3
Year=2011
Genre=Metal

[/more]

Register
(2) infiltrator, wreak,
Aug 25 2019, 09:21:07 Rubicon - A Holnap Tüze (2009)


*Artist: Rubicon
*Album: A Holnap Tüze
*Year: 2009
*Genre: Progressive/Power Metal
*Country: Hungary
*Format: mp3@VBR239kbps
*Size: 84MB

Tracklist:
1. Őrangyal 04:52
2. A holnap tüze 03:47
3. Csillagod vezessen 04:24
4. Léleksivatag 04:48
5. Felkap a szél 04:28
6. Merre tart az út 04:52
7. Csak bennem bízz 05:47
8. Elveszett lány 04:20
9. Ahogy éltem 03:45
10. Elrohan melletted az élet 04:34
11. Utolsó emlék 04:19
******************************
Total playing time: 49:56

[more=Extended info]https://www.metal-archives.com/albums/Rubicon/A_holnap_t%C3%BCze/251471[/more]

[more=Technical info]
Input File: 04 - csillagod vezessen.mp3
Channels : 2
Sample Rate : 44100
Precision : 16-bit
Duration : 00:04:24.75 = 11675519 samples = 19856.3 CDDA sectors
File Size : 7.90M
Bit Rate : 239k
Sample Encoding: MPEG audio (layer I, II or III)
Comments :
Title=Csillagod Vezessen
Artist=Rubicon
Album=A Holnap Tüze
Tracknumber=04/12
Year=2009
Genre=Neo-Classical Heavy Metal

[/more]

Register
(1) infiltrator,
Aug 25 2019, 09:19:16 Rotor - Acélba Zárva (2007)


*Artist: Rotor
*Album: Acélba Zárva
*Year: 2007
*Genre: Heavy/Speed Metal
*Country: Hungary
*Format: mp3@CBR192kbps
*Size: 107MB

Tracklist:
1. Acélba zárva 06:09
2. Egy darab fém 04:43
3. Ördogi kör 07:15
4. Metálgóc 05:30
5. Van még remény 03:51
6. Még egy harapás 05:29
7. Kőkemény 05:22
8. Még mindig 05:22
9. Sok éve már 05:30
10. Légy édes 04:30
11. Metál az Isten 04:37
12. Semmi nem elég 2007 05:07
13. Csernobil 2007 05:50
14. Egy igaz hang 09:49
******************************
Total playing time: 1:19:04

[more=Extended info]https://www.metal-archives.com/albums/Rotor/Ac%C3%A9lba_z%C3%A1rva/171545[/more]

[more=Technical info]
Input File: 03. Ördögi kör.mp3
Channels : 2
Sample Rate : 44100
Precision : 16-bit
Duration : 00:07:15.74 = 19216134 samples = 32680.5 CDDA sectors
File Size : 10.5M
Bit Rate : 192k
Sample Encoding: MPEG audio (layer I, II or III)
Comments :
Title=Ördögi kör
Artist=Rotor
Album=Acélba zárva
Tracknumber=03
Year=2007
Genre=Heavy Metal

[/more]

Register
(1) infiltrator,
Aug 25 2019, 09:14:49 Road - Rock & Road [demo] (1999)


*Artist: Road
*Album: Rock & Road [demo]
*Year: 1999
*Genre: Groove Metal
*Country: Hungary
*Format: mp3@CBR128kbps
*Size: 22MB

Tracklist:
1 Mindent csak magamért 4:11
2 Új testben 4:36
3 Más világ 4:17
4 Oroszlán 4:36
5 Fuck The Army 2:29
6 Látod... 3:54
******************************
Total playing time: 24:03

[more=Technical info]
Input File: Road - 2. Új Testben.mp3
Channels : 2
Sample Rate : 44100
Precision : 16-bit
Duration : 00:04:38.60 = 12286040 samples = 20894.6 CDDA sectors
File Size : 4.46M
Bit Rate : 128k
Sample Encoding: MPEG audio (layer I, II or III)
Comments :
Title=2. Új Testben
Artist=Road
Album=Rock & Road (Demo '99)
Tracknumber=2
Genre=genre

[/more]

Register
(2) gwar, Rosen,
Aug 25 2019, 09:09:50 Road - Második Harapás (2006)


*Artist: Road
*Album: Második Harapás
*Year: 2006
*Genre: Groove Metal
*Country: Hungary
*Format: mp3@VBR224kbps
*Size: 95MB

Tracklist:
1 Oliva-zöld
2 1000 Lépés
3 Karamell
4 Második Harapás
5 Birthday Song
6 Te Vagy A Jó
7 Afrika
8 Ne Mondd
9 A Szív Alatt
10 Nézz Rám
11 Táncolj A Tűzben
12 Ha Bírod Még
******************************
Total playing time: 54:28

[more=Technical info]
Input File: 04 - Masodik harapas.mp3
Channels : 2
Sample Rate : 44100
Precision : 16-bit
Duration : 00:03:49.17 = 10106485 samples = 17187.9 CDDA sectors
File Size : 6.98M
Bit Rate : 244k
Sample Encoding: MPEG audio (layer I, II or III)
Comments :
Title=Második harapás
Artist=Road
Album=Második harapás
Tracknumber=4
Year=2006
Genre=Metal

[/more]

Register
(1) artscald,
Aug 25 2019, 09:04:49 Remorse - Old Versio [compilation] (2007)


*Artist: Remorse
*Album: Old Versio [compilation]
*Year: 2007
*Genre: Thrash Metal
*Country: Hungary
*Format: mp3@VBR224kbps
*Size: 124MB

Tracklist:
1. Csend van! 04:01
2. In Versio 04:22
3. Nincs semmi 05:15
4. Furcsa 06:34
5. Ez az ami jó? 03:40
6. Még... 05:23
7. Életképek 04:30
8. Szólj rám!!! 06:15
9. Bizalom 04:57
10. Hazudok 05:25
11. Várj még 06:19
12. Nem minden jó... 05:09
13. Múlt / Jövő 04:58
14. Túl szép! 05:46
15. Miért? (Remorse) 06:10
******************************
Total playing time: 1:18:44

[more=Extended info]https://www.metal-archives.com/albums/Remorse/Old_Versio/160910[/more]

[more=Technical info]
Input File: 02 - in versio - fulees.mp3
Channels : 2
Sample Rate : 44100
Precision : 16-bit
Duration : 00:04:13.95 = 11199195 samples = 19046.2 CDDA sectors
File Size : 7.12M
Bit Rate : 224k
Sample Encoding: MPEG audio (layer I, II or III)
Comments :
Title=In Versio
Artist=Remorse
Album=Old Versio
Tracknumber=02/15
Year=2007
Genre=Thrash Metal

[/more]

Register
(4) gwar, pichileon, Rosen, varlam4,
Aug 25 2019, 08:46:18 Mex - Pszicho-Pata (2000)


*Artist: Mex
*Album: Pszicho-Pata
*Year: 2000
*Genre: Modern/Groove Metal
*Country: Hungary
*Format: mp3@CBR192kbps
*Size: 77MB

Tracklist:
1 Pszicho-Pata 6:09
2 Próbálj Fel! 5:16
3 Jó Éjszakát 5:32
4 Semmi Dal 6:12
5 I Feel You 4:13
6 Első Eső 4:14
7 Fekete Nap 6:14
8 Like A Virgin 3:15
9 Kapaszkodom A Madárba 5:00
10 Hagyjál!!! 4:40
11 Semmi Dal (Zaj-Mix) 5:34
******************************
Total playing time: 56:19

[more=Extended info]https://www.discogs.com/Mex-Pszicho-Pata/release/7929519[/more]

[more=Technical info]
Input File: 03 - Jó éjszakát.mp3
Channels : 2
Sample Rate : 44100
Precision : 16-bit
Duration : 00:05:32.50 = 14663074 samples = 24937.2 CDDA sectors
File Size : 7.98M
Bit Rate : 192k
Sample Encoding: MPEG audio (layer I, II or III)
Comments :
Title=03 - Jó éjszakát
Genre=17

[/more]

Register
(2) gwar, infiltrator,
Aug 25 2019, 06:17:00 Mex - Botrány (1996)


*Artist: Mex
*Album: Botrány
*Year: 1996
*Genre: Modern Metal
*Country: Hungary
*Format: mp3@CBR192kbps
*Size: 63MB

Tracklist:
1 Botrány 4:40
2 Lé A Lényeg 3:41
2.1 Közjáték I. 0:26
3 Fogd Már Fel! 3:30
4 Minden Ami Fáj 5:46
4.1 Közjáték II. 0:46
5 Igen, Igen 4:20
6 Enyém A Vár 4:00
6.1 Közjáték III. 1:07
7 Háromfejű Nő 4:53
7.1 Közjáték IV. 1:11
8 Kit Megbilincselt Az Ég 4:05
9 Wild Boys 3:38
9.1 Közjáték V. 0:23
10 Nincs Már Hátra 3:31
******************************
Total playing time: 45:57

[more=Extended info]https://www.discogs.com/Mex-Botr%C3%A1ny/release/8376696[/more]

[more=Technical info]
Input File: 01 - Botrány.mp3
Channels : 2
Sample Rate : 44100
Precision : 16-bit
Duration : 00:04:40.22 = 12357702 samples = 21016.5 CDDA sectors
File Size : 6.72M
Bit Rate : 192k
Sample Encoding: MPEG audio (layer I, II or III)
Comments :
Title=01 - Botrány
Genre=17

[/more]

Register
(1) gwar,
Aug 25 2019, 06:08:54 Ego Project - Ego Ii (2010)


*Artist: Ego Project
*Album: Ego Ii
*Year: 2010
*Genre: Heavy/Power Metal
*Country: Hungary
*Format: mp3@CBR320kbps
*Size: 112MB

Tracklist:
1 Harcom! 3:28
2 Átok 4:29
3 Itthon Vagyok 4:09
4 Egyszer Majd 3:29
5 Ha Újra Kezdhetném 2:59
6 Miatyánk 2:53
7 Fogadj El Így! 2:44
8 Gázt Még 3:57
9 Játék 2:52
10 A Gép 3:07
11 Színház 4:27
12 We Are At War! 3:28
13 Curse 4:29
14 I'm Home 4:09
15 Someday 3:28
16 If I Could Start Over 2:59
17 Our Father 2:53
18 Take Me As I Am 2:44
19 Full Blast 3:56
20 Real Game 2:52
21 The Machine 3:07
22 Playhouse 4:26
******************************
Total playing time: 1:17:05

[more=Extended info]https://www.discogs.com/Ego-Project-Ego-II/release/6555801[/more]

[more=Technical info]
Input File: 02-Átok.mp3
Channels : 2
Sample Rate : 44100
Precision : 16-bit
Duration : 00:04:26.41 = 11748681 samples = 19980.8 CDDA sectors
File Size : 6.45M
Bit Rate : 194k
Sample Encoding: MPEG audio (layer I, II or III)
Comments :
Title=Átok
Artist=EGO Project
Album=Ego II
Tracknumber=02
Year=2010-00-00
Genre=Power Metal

[/more]

Register
(2) gwar, Rosen,
Aug 25 2019, 06:07:23 Christian Epidemic - Pusztítástan/Primordial Soul (2011)


*Artist: Christian Epidemic
*Album: Pusztítástan/Primordial Soul
*Year: 2011
*Genre: Black/Death Metal
*Country: Hungary
*Format: mp3@CBR320kbps
*Size: 182MB

Tracklist:
1 Demia 0:57
2 Bíbor Ünnep 5:24
3 Holdezüst Lélek 4:31
4 Ezer Harang 6:04
5 Fénytelen Lét 5:08
6 Takadás Ökle 4:38
7 Chemokalipszis 5:54
8 Lélek Vihar 4:35
9 Pusztítástan 5:36
10 Crimson Feast 5:25
11 My Prayer 4:31
12 Thousand Bells Toll 6:05
13 The Sentinels' Words 5:08
14 The Fist Of Denial 4:38
15 Chemochalipse 5:54
16 Primordial Soul 5:21
******************************
Total playing time: 1:19:49

[more=Extended info]https://www.discogs.com/Christian-Epidemic-Puszt%C3%ADt%C3%A1stan-Primordial-Soul/release/2814033[/more]

[more=Technical info]
Input File: 02. Bibor Unnep.mp3
Channels : 2
Sample Rate : 44100
Precision : 16-bit
Duration : 00:05:24.61 = 14315169 samples = 24345.5 CDDA sectors
File Size : 13.0M
Bit Rate : 320k
Sample Encoding: MPEG audio (layer I, II or III)
Comments :
Title=Bíbor Ünnep
Artist=Christian Epidemic
Album=Pusztitastan - Primordial Soul
Tracknumber=02
Year=2011
Genre=Melodic Death Metal / Symphonic Black Metal

[/more]

Register
(1) SilentNidhogg,
Aug 25 2019, 05:58:17 Blind Myself - Szumma [compilation] (2010)


*Artist: Blind Myself
*Album: Szumma [compilation]
*Year: 2010
*Genre: Modern/Groove Metal
*Country: Hungary
*Format: mp3@CBR320kbps
*Size: 177MB

Tracklist:
1 Lost In Time 2:38
2 Pomogácsok 3:17
3 Mosquitoes Of Hate 3:38
4 Kain 3:26
5 Deal Broker 2:46
6 Megszentségteleníthetetlenségeskedeseitekért 2:03
7 Horrified By The Sun 4:47
8 Go Get A Life! 2:07
9 Circle Of Pain 3:11
10 Legyek 3:41
11 Worst-case Scenario 4:43
12 Ancient Scream Therapy 3:09
13 Buried Alive Exercise 6:15
14 Fejezet: Cezarománia 4:09
15 Left Hand Paints 3:24
16 Sólyomszemmel 4:58
17 Nem Megy A Megyhez 3:29
18 Lava 5:49
19 Hegyek Között 3:26
20 Maradj Már 2:34
21 Fata Morgana 2. 3:38
******************************
Total playing time: 1:17:08

[more=Extended info]https://www.discogs.com/Blind-Myself-Szumma/release/7401228[/more]

[more=Technical info]
Input File: 02. Pomogácsok.mp3
Channels : 2
Sample Rate : 44100
Precision : 16-bit
Duration : 00:03:17.71 = 8718923 samples = 14828.1 CDDA sectors
File Size : 7.94M
Bit Rate : 321k
Sample Encoding: MPEG audio (layer I, II or III)
Comments :
Title=Pomogácsok
Artist=Blind Myself
Album=Szumma
Tracknumber=02/21
Year=2010
Genre=metal

[/more]

Register
(1) gwar,
Aug 25 2019, 05:56:04 Blind Myself - Ancient Scream Therapy [compilation] (2006)


*Artist: Blind Myself
*Album: Ancient Scream Therapy [compilation]
*Year: 2006
*Genre: Modern/Groove Metal
*Country: Hungary
*Format: mp3@CBR320kbps
*Size: 97MB

Tracklist:
1 Wax 2:54
2 Lost In Time 2:38
3 Go Get A Life! 2:08
4 Ancient Scream Therapy 3:10
5 The Agony Of My Nice Side 4:06
6 Judgement 2021 4:04
7 The Buried Alive Exercise 6:15
8 Illegal Society 3:52
9 Sólyomszemmel 5:01
10 When One Day Ends (Bonus Track) 5:49
******************************
Total playing time: 39:57

[more=Extended info]https://www.discogs.com/Blind-Myself-Ancient-Scream-Therapy/release/10312759[/more]

[more=Technical info]
Input File: 02-lost_in_time.mp3
Channels : 2
Sample Rate : 44100
Precision : 16-bit
Duration : 00:02:38.03 = 6968947 samples = 11852 CDDA sectors
File Size : 3.80M
Bit Rate : 192k
Sample Encoding: MPEG audio (layer I, II or III)
Comments :
Title=Lost In Time
Artist= Blind Myself
Album=ANCIENT SCREAM THERAPY
Tracknumber=2
Year=2006
Genre=Noise

[/more]

Register
(1) gwar,
Aug 25 2019, 05:51:51 Garden Of Eden - Mondd Tovább - Vampires Of Eden (2007)


*Artist: Garden Of Eden
*Album: Mondd Tovább - Vampires Of Eden
*Year: 2007
*Genre: Gothic Metal
*Country: Hungary
*Format: mp3@CBR320kbps
*Size: 56MB

Tracklist:
CD 1 Az Út 5:03
CD 2 Vad Álom 4:49
CD 3 Fényhozó 4:30
CD 4 Holdtánc 5:09
CD 5 Valaki Vár 4:55
CD 6 Vérkirály 5:38
CD 7 Mondd Tovább 4:15
CD 8 My Time 6:12
CD 9 Vampires Of Eden 3:48
Bonus Tracks
CD 10 Find A Way 4:08
CD 11 The Crosses Cry 6:38
CD 12 Under Stars 4:56
CD 13 Outro 0:56
******************************
Total playing time: 1:00:57

[more=Extended info]https://www.discogs.com/Garden-Of-Eden-Mondd-Tov%C3%A1bb-Vampires-Of-Eden/release/7430851[/more]

[more=Technical info]
Input File: 02-Vad álom.mp3
Channels : 2
Sample Rate : 44100
Precision : 16-bit
Duration : 00:04:50.68 = 12818988 samples = 21801 CDDA sectors
File Size : 4.66M
Bit Rate : 128k
Sample Encoding: MPEG audio (layer I, II or III)
Comments :
Title=Vad álom
Artist=Garden of Eden
Album=Mondd tovább...
Tracknumber=2
Genre=Unknown

[/more]

Register
(2) artscald, infiltrator,
Aug 25 2019, 05:48:36 Garden Of Eden - A Halandóság Kertje [ep] (2001)


*Artist: Garden Of Eden
*Album: A Halandóság Kertje [ep]
*Year: 2001
*Genre: Gothic Metal
*Country: Hungary
*Format: mp3@CBR320kbps
*Size: 59MB

Tracklist:
A1. Prolog
A2. Távoli Hangok
A3. Ha Lemegy A Nap
B1. Egy Régi Kép
B2. Elátkozva
B3. Utolsó Szó
******************************
Total playing time: 33:05

[more=Technical info]
Input File: 03 - Egy régi kép.mp3
Channels : 2
Sample Rate : 44100
Precision : 16-bit
Duration : 00:05:16.68 = 13965676 samples = 23751.1 CDDA sectors
File Size : 12.7M
Bit Rate : 320k
Sample Encoding: MPEG audio (layer I, II or III)
Comments :
Title=Egy Régi Kép
Artist=Garden of Eden
Album=A Halandóság Kertje
Tracknumber=3/5
Genre=Pop

[/more]

Register
(7) artscald, gwar, infiltrator, Rosen, Rotter, Sanctus, satanist666,
Aug 24 2019, 16:34:19 Black Sabbath - The Vinyl Collection 1970-1978 [box set] (2012)


*Artist: Black Sabbath
*Album: The Vinyl Collection 1970-1978 [box set]
*Year: 2012
*Genre: Heavy Metal
*Country: United Kingdom
*Format: mp3@CBR320kbps
*Size: 908MB

Tracklist:
1970 - Black Sabbath
A1. Black Sabbath 06:18
A2. The Wizard 04:23
A3. Behind The Wall Of Sleep 03:37
A4. N.I.B. 06:04
B1. Evil Woman 03:23
B2. Sleeping Village 03:46
B3. Warning 10:29

1970 - Evil Woman (Single)
A1. Evil Woman 03:23
B1. Wicked World 04:45

1970 - Paranoid
A1. War Pigs 07:54
A2. Paranoid 02:48
A3. Planet Caravan 04:30
A4. Iron Man 05:55
B5. Electric Funeral 04:50
B6. Hand Of Doom 07:09
B7. Rat Salad 02:30
B8. Fairies Wear Boots 06:14

1971 - Master Of Reality
A1. Sweet Leaf 05:04
A2. After Forever 05:27
A3. Embryo 00:28
A4. Children Of The Grave 05:17
B1. Orchid 01:31
B2. Lord Of This World 05:25
B3. Solitude 05:02
B4. Into The Void 06:12

1972 - Vol. 4
A1. Wheels Of Confusion 07:48
A2. Tomorrow's Dream 03:08
A3. Changes 04:42
A4. FX 01:39
A5. Supernaut 04:30
B1. Snowblind 05:26
B2. Cornucopia 03:52
B3. Laguna Sunrise 02:50
B4. St. Vitus Dance 02:28
B5. Under The Sun 05:52

1973 - Sabbath Bloody Sabbath
A1. Sabbath Bloody Sabbath 05:46
A2. A National Acrobat 06:15
A3. Fluff 04:09
A4. Sabbra Cadabra 05:57
B1. Killing Yourself To Live 05:42
B2. Who Are You? 04:11
B3. Looking For Today 05:01
B4. Spiral Architect 05:30

1975 - Sabotage
A1. Hole In The Sky 04:00
A2. Don't Start (Too Late) 00:49
A3. Symptom Of The Universe 06:29
A4. Megalomania 09:41
B1. Thrill Of It All 05:54
B2. Supertzar 03:44
B3. Am I Going Insane (Radio) 04:10
B4. The Writ 08:52

1976 - Technical Ecstasy
A1. Back Street Kids 03:49
A2. You Won't Change Me 06:36
A3. It's Alright 03:59
A4. Gypsy 05:09
B1. All Moving Parts (Stand Still) 04:58
B2. Rock 'N' Roll Doctor 03:27
B3. She's Gone 04:51
B4. Dirty Women 07:10

1978 - Never Say Die!
A1. Never Say Die 03:49
A2. Johnny Blade 06:28
A3. Junior's Eyes 06:42
A4. A Hard Road 06:02
B1. Shock Wave 05:15
B2. Air Dance 05:16
B3. Over To You 05:24
B4. Breakout 02:35
B5. Swinging The Chain 04:05

1980 - Live At Last
A1. Tomorrow's Dream 03:05
A2. Sweet Leaf 05:33
A3. Killing Yourself To Live 05:29
A4. Cornucopia 04:00
A5. Snowblind 04:48
A6. Children Of The Grave 04:39
B1. War Pigs 07:39
B2. Wicked World 19:04
B3. Paranoid 03:04
******************************
Total playing time: 6:33:45

[more=Extended info]1970 - Black Sabbath
1970 - Evil Woman (Single)
1970 - Paranoid
1971 - Master Of Reality
1972 - Vol. 4
1973 - Sabbath Bloody Sabbath
1975 - Sabotage
1976 - Technical Ecstasy
1978 - Never Say Die!
1980 - Live At Last[/more]

[more=Technical info]
Input File: A2. Paranoid.mp3
Channels : 2
Sample Rate : 44100
Precision : 16-bit
Duration : 00:02:48.21 = 7418237 samples = 12616 CDDA sectors
File Size : 6.78M
Bit Rate : 323k
Sample Encoding: MPEG audio (layer I, II or III)
Comments :
Title=Paranoid
Artist=Black Sabbath
Album=Paranoid (LP)
Tracknumber=02
Year=1970
Genre=Hard Rock

[/more]

Register
(5) artscald, caro, heinz88, Rosen, signoff,
Aug 24 2019, 13:19:30 Cannibal Corpse - Dead Human Collection: 25 Years Of Death Metal [box set] (2013)


*Artist: Cannibal Corpse
*Album: Dead Human Collection: 25 Years Of Death Metal [box set]
*Year: 2013
*Genre: Brutal Death Metal
*Country: United States
*Format: mp3@CBR320kbps
*Size: 3256MB

Tracklist:
1990 - Eaten Back To Life
01. Shredded Humans 05:11
02. Edible Autopsy 04:32
03. Put Them To Death 01:50
04. Mangled 04:29
05. Scattered Remains, Splattered Brains 02:34
06. Born In A Casket 03:20
07. Rotting Head 02:26
08. The Undead Will Feast 02:49
09. Bloody Chunks 01:53
10. A Skull Full Of Maggots 02:07
11. Buried In The Backyard 05:12

1991 - Butchered At
01. Meat Hook Sodomy 05:48
02. Gutted 03:15
03. Living Dissection 03:59
04. Under The Rotted Flesh 05:04
05. Covered With Sores 03:17
06. Vomit The Soul 04:29
07. Butchered At Birth 02:44
08. Rancid Amputation 03:16
09. Innards Decay 04:36

1992 - Tomb Of The Mutilated
01. Hammer Smashed Face 04:04
02. I Cum Blood 03:41
03. Addicted To Vaginal Skin 03:31
04. Split Wide Open 03:02
05. Necropedophile 04:05
06. The Cryptic Stench 03:57
07. Entrails Ripped From A Virgin's Cunt 04:15
08. Post Mortal Ejaculation 03:37
09. Beyond The Cemetery 04:53

1994 - The Bleeding
01. Staring Through The Eyes Of The Dead 03:30
02. xxxed With A Knife 02:15
03. Stripped, Raped And Strangled 03:27
04. Pulverised 03:35
05. Return To Flesh 04:21
06. The Pick-Axe Murders 03:03
07. She Was Asking For It 04:34
08. The Bleeding 04:21
09. Force Fed Broken Glass 05:03
10. An Experiment In Homicide 02:37

1996 - Vile
01. Devoured By Vermin 03:13
02. Mummified In Barbed Wire 03:09
03. Perverse Suffering 04:14
04. Disfigured 03:48
05. Bloodlands 04:20
06. Puncture Wound Massacre 01:41
07. Relentless Beating 02:14
08. Absolute Hatred 03:05
09. Eaten From Inside 03:43
10. Orgasm Through Torture 03:41
11. Monolith 04:24

1998 - Gallery Of Suicide
01. I Will Kill You 02:47
02. Disposal Of The Body 01:54
03. Sentenced To Burn 03:06
04. Blood Drenched Execution 02:40
05. Gallery Of Suicide 03:55
06. Dismembered And Molested 01:53
07. From Skin To Liquid (Instrumental) 05:30
08. Unite The Dead 03:05
09. Stabbed In The Throat 03:26
10. Chambers Of Blood 04:11
11. Headless 02:22
12. Every Bone Broken 03:18
13. Centuries Of Torment 04:04
14. Crushing The Despised 01:56

1999 - Bloodthirst
01. Pounded Into Dust 02:17
02. Dead Human Collection 02:30
03. Unleashing The Bloodthirsty 03:50
04. The Spine Splitter 03:10
05. Ecstacy In Decay 03:12
06. Raped By The Beast 02:34
07. Coffinfeeder 03:04
08. Hacksaw Decapitation 04:12
09. Blowtorch Slaughter 02:33
10. Sickening Metamorphosis 03:24
11. Condemned To Agony 03:44

2002 - Gore Obsessed
01. Savage Butchery 01:50
02. Hatchet To The Head 03:34
03. Pit Of Zombies 03:58
04. Dormant Bodies Bursting 02:00
05. Compelled To Lacerate 03:29
06. Drowning In Viscera 03:36
07. Hung And Bled 04:13
08. Sanded Faceless 03:51
09. Mutation Of The Cadaver 03:09
10. When Death Replaces Life 04:59
11. Grotesque 03:31

2004 - The Wretched Spawn
01. Severed Head Stoning 01:45
02. Psychotic Precision 02:56
03. Decency Defied 02:59
04. Frantic Disembowelment 02:50
05. The Wretched Spawn 04:09
06. Cyanide Assassin 03:11
07. Festering In The Crypt 04:38
08. Nothing Left To Mutilate 03:49
09. Blunt Force Castration 03:27
10. Rotted Body Landslide 03:24
11. Slain 03:32
12. Bent Backwards And Broken 02:58
13. They Deserve To Die 04:44

2006 - Kill
01. The Time To Kill Is Now 02:03
02. Make Them Suffer 02:50
03. Murder Worship 03:56
04. Necrosadistic Warning 03:28
05. Five Nails Through The Neck 03:45
06. Purification By Fire 02:57
07. Death Walking Terror 03:31
08. Barbaric Bludgeonings 03:42
09. The Discipline Of Revenge 03:39
10. Brain Removal Device 03:14
11. Maniacal 02:12
12. Submerged In Boiling Flesh 02:52
13. Infinite Misery 04:01

2009 - Evisceration Plague
01. Priests Of Sodom 03:31
02. Scalding Hail 01:46
03. To Decompose 03:03
04. A Cauldron Of Hate 04:59
05. Beheading And Burning 02:15
06. Evidence In The Furnace 02:48
07. Carnivorous Swarm 03:36
08. Evisceration Plague 04:30
09. Shatter Their Bones 03:35
10. Carrion Sculpted Entity 02:33
11. Unnatural 02:22
12. Skewered From Ear To Eye 03:49

2012 - Torture
01. Demented Aggression 03:14
02. Sarcophagic Frenzy 03:42
03. Scourge Of Iron 04:44
04. Encased In Concrete 03:13
05. As Deep As The Knife Will Go 03:25
06. Intestinal Crank 03:54
07. Followed Home Then Killed 03:36
08. The Strangulation Chair 04:09
09. Caged...Contorted 03:53
10. Crucifier Avenged 03:46
11. Rabid 03:04
12. Torn Through 03:11

2013 - Torturing And Eviscerating Live
01. A Skull Full Of Maggots 02:20
02. Gutted 03:24
03. I Cum Blood 04:12
04. Staring Through The Eyes Of The Dead 03:43
05. Devoured By Vernim 03:20
06. I Will Kill You 02:52
07. Pounded Into Dust 02:29
08. Pit Of Zombies 04:21
09. The Wretched Spawn 04:06
10. Make Them Suffer 03:18
11. Evisceration Plague 04:47
12. Scourge Of Iron 04:53
******************************
Total playing time: 8:31:56

[more=Extended info]Metal Blade Records
3984-15180-2
Box Set, Limited Edition, Numbered Edition

Rate Your Music

1990 - Eaten Back To Life
1991 - Butchered At Birth
1992 - Tomb Of The Mutilated
1994 - The Bleeding
1996 - Vile
1998 - Gallery Of Suicide
1999 - Bloodthirst
2002 - Gore Obsessed
2004 - The Wretched Spawn
2006 - Kill
2009 - Evisceration Plague
2012 - Torture
2013 - Torturing And Eviscerating Live[/more]

[more=Technical info]
Input File: 01. Shredded Humans.mp3
Channels : 2
Sample Rate : 44100
Precision : 16-bit
Duration : 00:05:11.64 = 13743104 samples = 23372.6 CDDA sectors
File Size : 12.5M
Bit Rate : 320k
Sample Encoding: MPEG audio (layer I, II or III)
Comments :
Title=Shredded Humans
Artist=Cannibal Corpse
Album=Eaten Back To Life
Tracknumber=1/11
Year=1990
Genre=Death Metal

[/more]

Register
(9) A.L.Rapsod, artscald, caro, craP_cillA, Femto, Rosen, SadistikSlayer, vyacheslav, yavamir,
Aug 24 2019, 08:23:21 Metallica - Mandatory Metallica [compilation] (1996)


*Artist: Metallica
*Album: Mandatory Metallica [compilation]
*Year: 1996
*Genre: Thrash Metal
*Country: United States
*Format: mp3@CBR320kbps
*Size: 42MB

Tracklist:
01. Enter Sandman (05:36)
02. Nothing Else Matters (06:29)
03. One (07:25)
04. Harvester Of Sorrow (05:45)
05. Creeping Death (06:37)
06. Fade To Black (06:55)
07. For Whom The Bell Tolls (05:07)
******************************
Total playing time: 43:54

[more=Technical info]
Input File: 01. Enter Sandman.mp3
Channels : 2
Sample Rate : 44100
Precision : 16-bit
Duration : 00:05:35.28 = 14785716 samples = 25145.8 CDDA sectors
File Size : 13.6M
Bit Rate : 324k
Sample Encoding: MPEG audio (layer I, II or III)
Comments :
Title=Enter Sandman
Artist=Metallica
Album=Mandatory Metallica [MM CJ-1]
Tracknumber=01
Year=1996
Genre=Metal

[/more]

Register
(8) artscald, caro, infiltrator, Olethros, pichileon, Rosen, russ777, Wail,
Aug 24 2019, 08:21:49 Metallica - Sad But True [single] (1993)


*Artist: Metallica
*Album: Sad But True [single]
*Year: 1993
*Genre: Thrash Metal
*Country: United States
*Format: mp3@CBR320kbps
*Size: 42MB

Tracklist:
01. Sad But True (05:26)
02. Nothing Else Matters (Live) (06:14)
03. Sad But True (Live) (06:13)
******************************
Total playing time: 17:53

[more=Technical info]
Input File: 01. Sad But True.mp3
Channels : 2
Sample Rate : 44100
Precision : 16-bit
Duration : 00:05:26.16 = 14383656 samples = 24462 CDDA sectors
File Size : 13.1M
Bit Rate : 322k
Sample Encoding: MPEG audio (layer I, II or III)
Comments :
Title=Sad But True
Artist=Metallica
Album=Sad But True (CDS) [METCH 11]
Tracknumber=01
Year=1993
Genre=Metal

[/more]

Register
(2) Olethros, Wail,
Aug 24 2019, 08:19:43 Metallica - Enter Sandman/One [single] (1993)


*Artist: Metallica
*Album: Enter Sandman/One [single]
*Year: 1993
*Genre: Thrash Metal
*Country: United States
*Format: mp3@CBR320kbps
*Size: 42MB

Tracklist:
01. Enter Sandman (07:30)
02. One (09:32)
******************************
Total playing time: 17:02

[more=Technical info]
Input File: 01. Enter Sandman.mp3
Channels : 2
Sample Rate : 44100
Precision : 16-bit
Duration : 00:07:30.04 = 19846720 samples = 33752.9 CDDA sectors
File Size : 18.1M
Bit Rate : 322k
Sample Encoding: MPEG audio (layer I, II or III)
Comments :
Title=Enter Sandman
Artist=Metallica
Album=Enter Sandman / One (CDS) [BOXDJ1]
Tracknumber=01
Year=1993
Genre=Metal

[/more]

Register
(6) artscald, caro, infiltrator, Olethros, Rosen, Wail,
Aug 24 2019, 08:11:32 Metallica - Wherever I May Roam [single] (1992)


*Artist: Metallica
*Album: Wherever I May Roam [single]
*Year: 1992
*Genre: Thrash Metal
*Country: United States
*Format: mp3@CBR320kbps
*Size: 47MB

Tracklist:
01. Wherever I May Roam (06:47)
02. Fade To Black (Live) (07:47)
03. Wherever I May Roam (Demo) (05:37)
******************************
Total playing time: 20:11

[more=Technical info]
Input File: 01. Wherever I May Roam.mp3
Channels : 2
Sample Rate : 44100
Precision : 16-bit
Duration : 00:06:47.09 = 17952713 samples = 30531.8 CDDA sectors
File Size : 16.4M
Bit Rate : 322k
Sample Encoding: MPEG audio (layer I, II or III)
Comments :
Title=Wherever I May Roam
Artist=Metallica
Album=Wherever I May Roam (CDS) [866 697-2]
Tracknumber=01
Year=1992
Genre=Metal

[/more]

Register




*Artist: Metallica
*Album: Wherever I May Roam [single]
*Year: 1993
*Genre: Thrash Metal
*Country: United States
*Format: mp3@CBR320kbps
*Size: 65MB

Tracklist:
01. Wherever I May Roam 06:47
02. Fade To Black (Live) 07:47
03. Wherever I May Roam (Demo) 05:37
******************************
Total playing time: 20:11

[more="Extended info"]Japanese Edition[/more]

[more=Technical info]
Input File: 01. Wherever I May Roam.mp3
Channels : 2
Sample Rate : 44100
Precision : 16-bit
Duration : 00:06:44.92 = 17857104 samples = 30369.2 CDDA sectors
File Size : 16.3M
Bit Rate : 321k
Sample Encoding: MPEG audio (layer I, II or III)
Comments :
Title=Wherever I May Roam
Artist=Metallica
Album=Wherever I May Roam (CDS) [SRSC 6633]
Tracknumber=01
Year=1992
Genre=Metal

[/more]

Register
(8) artscald, cancer1974, craP_cillA, infiltrator, Olethros, Rosen, russ777, Wail,
Aug 24 2019, 08:09:02 Metallica - Sad But True [single] (1993)


*Artist: Metallica
*Album: Sad But True [single]
*Year: 1993
*Genre: Thrash Metal
*Country: United States
*Format: mp3@CBR320kbps
*Size: 36MB

Tracklist:
01. Sad But True (05:26)
02. So What (03:08)
03. Harvester of Sorrow (Live) (06:41)
******************************
Total playing time: 15:15

[more=Technical info]
Input File: 01. Sad But True.mp3
Channels : 2
Sample Rate : 44100
Precision : 16-bit
Duration : 00:05:25.51 = 14354815 samples = 24413 CDDA sectors
File Size : 13.1M
Bit Rate : 321k
Sample Encoding: MPEG audio (layer I, II or III)
Comments :
Title=Sad But True
Artist=Metallica
Album=Sad But True (CDS) [864 411-2]
Tracknumber=01
Year=1992
Genre=Metal

[/more]

Register
(4) artscald, infiltrator, Rosen, Wail,

12 Pages V   1 2 3 > » 
- Lo-Fi Version Support form
Copyrights and abuse reports form
Time is now: 18th September 2020 - 15:46:16