Welcome Guest ( Log In | Register )

История благодарностей участнику Kvlt ::: Спасибо сказали: 642 раз(а)
Дата поста: В теме: За сообщение: Спасибо сказали:
Oct 10 2019, 20:04:28 Saxorior - Hem (2019)
QUOTE(krotovich @ Oct 10 2019, 18:45:46) *
Pagan Metal (Viking metal)


Nope, they always were (specified) as "Melodic Black Metal", since their beginning in the 90`s.
(1) krotovich,
Aug 29 2019, 21:40:24 Irksvm - Moribund (2019)
And where are the last 4 tracks? No wonder why i usually download from Metal Tracker...mass uploaders here get nothing right.
(1) sekmeth,
Aug 14 2019, 17:06:20 Fay Away Sad Dream - Savior (2019) (3) AHBAnep, Ludwig Hagen, rickzammuto,
Jul 18 2019, 18:46:04 Seelenschnitt - Innenwelten (2019)
You really call this Black Metal? Were did you find that "Black Metal" inside of the music?



[youtube]vqb0CDFN-EA[/youtube]
(4) DowntownGsus, hellspawn, infiltrator, Verhasst,
Jul 16 2019, 11:02:25 Ahnenerbe - Heldentod (2019)
Aah the band from "Sigskald", a well known member of the gernan band "Absurd" who played with bands like Stahlfront, Camulos and Ad Hominem. Of course it`s not affecting rule 1.7 and has no fascism or nationalism content...no no. And of course the band logo is or was not decorated with a sunwheel...no no.

It`s so funny to see how, even after lot`s of years since rule 1.7 was introduced, nearly anyone lies to himself. I bet if i would insult harshly users here, i would get reprimanded (because of rules). But right-winged music is special and can overcome any rule...and again i`m asking myself, why rule 1.7 if nobody gives a fuck? Seems like lying and feigning is a main thing or even a gimmick or so of Metalarea or righties in general? So stupid and hilarious.
But yes, do as you want. Me just thinks a bit loud. But maybe we delete every of the rules here, since they aren`t needed and we can do as we want (especially when it comes to righ-winged music). I mean would be more comfortable to not hide and lie and being hypocrite, don`t you think too?

You remember back, that i am the main person why rule 1.7 was introduced here? It`s not a problem for me to make Metalarea number one again on Google, when it comes to right-winged music and making nationalism and fascism as a number one topic. Could be interesting how this would affect Metalarea (again).
(2) Buck_Rogers, craP_cillA,
Jun 22 2019, 21:20:49 Forbidden Temple - A Tempest Through The Graves [ep] (2019)
Looks like the guy on the cover could be a good stand-up comedian. 15.gif
(1) vosmidesijatye,
Jun 19 2019, 19:59:25 José Andrëa Y Uróboros - Uróboros (2012)


*Artist: José Andrëa Y Uróboros
*Album: Uróboros
*Year: 2012
*Genre: Folk/Hard Rock/Heavy Metal
*Country: Spain
*Format: mp3@CBR320kbps
*Size: 122MB

Tracklist:
01. El Tren
02. Vanidad
03. Al Otoño Espero
04. No Cuentes Con Ellos
05. Siempre Vuelve A Amanecer
06. Lo Más Preciado Del Mundo
07. Frío
08. Flores En Tu Colchón
09. A Cubazos
10. Ni Afinado Ni Medido
11. Aún Me Puedo Peinar
12. La Canción De Los Deseos
13. A Quien Conmigo Va
******************************
Total playing time: 52:32





[more=Technical info]
Input File: 01 - El Tren.mp3
Channels : 2
Sample Rate : 44100
Precision : 16-bit
Duration : 00:03:54.86 = 10357194 samples = 17614.3 CDDA sectors
File Size : 9.53M
Bit Rate : 324k
Sample Encoding: MPEG audio (layer I, II or III)
Comments :
Title=El Tren
Artist=José Andrëa Y Uróboros
Album=Uróboros
Year=2012

[/more]

Register
(8) artscald, Cartman223, LordOvDarkness, Olethros, Rosen, talismanFS, wreak, Сварог Барг,
May 14 2019, 20:26:03 Talco - And The Winner Isn’T (2016)


*Artist: Talco
*Album: And The Winner Isn’T
*Year: 2016
*Genre: Ska/Punk
*Country: Italy
*Format: mp3@CBR320kbps
*Size: 92MB

Tracklist:
1. Al Parto Sfigurato Della Superiorità
2. Onda Immobile
3. Señor Hood
4. Bomaye
5. Reclame
6. Lunga La Macabra Stanza
7. And The Winner Isn't
8. La Verità
9. Intervallo
10. Domingo Road
11. Avatar
12. Matematica Idea
13. Silent Avenue (Nella Strada II)
14. La Torre (Spanish Version)
15. La Danza dell'Autunno Rosa (Spanish Version)
16. La Mia Città (English Version)
17. St. Pauli (German Version)
******************************
Total playing time: 43:15



[more=Technical info]
Input File: 01 - Al Parto Sfigurato Della Superiorità.mp3
Channels : 2
Sample Rate : 44100
Precision : 16-bit
Duration : 00:01:32.27 = 4069195 samples = 6920.4 CDDA sectors
File Size : 3.86M
Bit Rate : 335k
Sample Encoding: MPEG audio (layer I, II or III)
Comments :
Title=Al Parto Sfigurato Della Superiorità
Artist=Talco
Album=And The Winner Isn’t
Year=2018

[/more]

Register
(2) goatkvlt, gwar,
May 14 2019, 20:15:10 Talco - Silent Town (2015)


*Artist: Talco
*Album: Silent Town
*Year: 2015
*Genre: Ska/Punk
*Country: Italy
*Format: mp3@CBR320kbps
*Size: 80MB

Tracklist:
1. Il Tempo
2. Neverdad
3. El Sombra
4. Nel Varieta
5. Rotolando
6. Silent Town
7. Via Da Qui
8. Intermondo
9. Dalla Pallida Miro
10. Nella Strada
11. Ovunque
12. Malandia
******************************
Total playing time: 34:09



[more=Technical info]
Input File: 01 - Il Tempo.mp3
Channels : 2
Sample Rate : 44100
Precision : 16-bit
Duration : 00:03:10.81 = 8414809 samples = 14310.9 CDDA sectors
File Size : 7.94M
Bit Rate : 333k
Sample Encoding: MPEG audio (layer I, II or III)
Comments :
Title=Il Tempo
Artist=Talco
Album=Silent Town
Year=2015

[/more]

Register
(1) gwar,
May 14 2019, 20:05:01 Talco - Gran Galà (2012)


*Artist: Talco
*Album: Gran Galà
*Year: 2012
*Genre: Ska/Punk
*Country: Italy
*Format: mp3@CBR320kbps
*Size: 100MB

Tracklist:
1. Gran Galà
2. La Mia Città
3. San Maritan
4. Danza dell'Autunno Rosa
5. La Roda De La Fortuna
6. La Macchina Del Fango
7. All'adunata Del Feticcio
8. I Giorni E Una Notte
9. Dai Nomadi
10. La Veglia Del Re Nudo
11. A Picco
12. Teleternità
13. XIII
14. Ancora
15. Un'idea
******************************
Total playing time: 43:38



[more=Technical info]
Input File: 01 - Gran Galà.mp3
Channels : 2
Sample Rate : 44100
Precision : 16-bit
Duration : 00:01:39.11 = 4370883 samples = 7433.47 CDDA sectors
File Size : 4.04M
Bit Rate : 326k
Sample Encoding: MPEG audio (layer I, II or III)
Comments :
Title=Gran Galà
Artist=Talco
Album=Gran Galà
Year=2012

[/more]

Register
(1) gwar,
May 14 2019, 19:53:59 Talco - La Cretina Commedia (2010)


*Artist: Talco
*Album: La Cretina Commedia
*Year: 2010
*Genre: Ska/Punk
*Country: Italy
*Format: mp3@CBR320kbps
*Size: 80MB

Tracklist:
1. Intro
2. Correndo Solo
3. Dalla Grotta
4. Punta Raisi
5. Al Carneval
6. La Parabola Dei Battagghi
7. Ultima Eta
8. Non E Tempo Di Compare
9. Onda Pazza
10. La Cretina Commedia
11. Perduto Maggio
12. La Mia Terra
13. Casa Memoria
******************************
Total playing time: 34:40



[more=Technical info]
Input File: 01 - Intro.mp3
Channels : 2
Sample Rate : 44100
Precision : 16-bit
Duration : 00:01:04.03 = 2823811 samples = 4802.4 CDDA sectors
File Size : 2.64M
Bit Rate : 330k
Sample Encoding: MPEG audio (layer I, II or III)
Comments :
Title=Intro
Artist=Talco
Album=La Cretina Commedia
Year=2010

[/more]

Register
(1) gwar,
May 14 2019, 19:43:49 Talco - Mazel Tov (2008)


*Artist: Talco
*Album: Mazel Tov
*Year: 2008
*Genre: Ska/Punk
*Country: Italy
*Format: mp3@CBR320kbps
*Size: 74MB

Tracklist:
1. Intro
2. L'era Del Contrario
3. Radio Aut
4. Il Mio Tempo
5. Nel Villaggio
6. Il Ireno
7. Merlutz
8. La Casa Delle Impunità
9. Tarantella Dell'Ultimo Bandito
10. La Mano De Dios
11. Il Lamento Del Mare
12. La Torre
13. Mazel Tov
14. St. Pauli
******************************
Total playing time: 33:42



[more=Technical info]
Input File: 01 - Intro.mp3
Channels : 2
Sample Rate : 44100
Precision : 16-bit
Duration : 00:00:41.83 = 1844571 samples = 3137.03 CDDA sectors
File Size : 1.73M
Bit Rate : 331k
Sample Encoding: MPEG audio (layer I, II or III)
Comments :
Title=Intro
Artist=Talco
Album=Mazel Tov
Year=2008

[/more]

Register
(1) gwar,
May 14 2019, 19:21:25 Talco - Tutti Assolti (2004)


*Artist: Talco
*Album: Tutti Assolti
*Year: 2004
*Genre: Ska/Punk
*Country: Italy
*Format: mp3@CBR320kbps
*Size: 79MB

Tracklist:
1. L'Odore Della Morte
2. 11 Settembre '73
3. 60 Anni
4. Notti Cilene
5. Rachel
6. Corri
7. Partigiano
8. Tutti Assolti
9. La Crociata Del Dittatore Bianco
10. Signor Presidente
******************************
Total playing time: 35:19



[more=Technical info]
Input File: 01 - L\' Odore Della Morte.mp3
Channels : 2
Sample Rate : 44100
Precision : 16-bit
Duration : 00:03:37.64 = 9597968 samples = 16323.1 CDDA sectors
File Size : 8.87M
Bit Rate : 326k
Sample Encoding: MPEG audio (layer I, II or III)
Comments :
Title=L' Odore Della Morte
Artist=Talco
Album=Tutti Assolti
Year=2004

[/more]

Register
(1) gwar,
May 14 2019, 19:09:26 Machtwort - Der Fall Der Mauern (2010)


*Artist: Machtwort
*Album: Der Fall Der Mauern
*Year: 2010
*Genre: Punk
*Country: Germany
*Format: mp3@CBR320kbps
*Size: 117MB

Tracklist:
1. Intro
2. 1989
3. Fremder
4. Schenk mir ein Lächeln
5. Irgendwo in dieser Stadt
6. Momente und Gefühle
7. Spongebob
8. Alter Mann
9. Mac Gyver
10. Am Kicker
11. Good Ol' Boys
12. Erschöpfte Augen
13. Karate Tiger
14. Bettler
******************************
Total playing time: 58:10



[more=Technical info]
Input File: 01 - Intro.mp3
Channels : 2
Sample Rate : 44100
Precision : 16-bit
Duration : 00:00:58.02 = 2558550 samples = 4351.28 CDDA sectors
File Size : 2.09M
Bit Rate : 288k
Sample Encoding: MPEG audio (layer I, II or III)
Comments :
Title=Intro
Artist=Machtwort
Album=Der Fall der Mauern
Year=2010

[/more]

Register
(1) gwar,
May 13 2019, 17:54:22 Gaylord - Barbarism Supreme: The Prevailing Age Of Unrelenting Annihilation Of Abhorrent Nationalism (2019)
"The Alt-reich Will Lay in Mass Graves Under the Blazing Banners of Antifa"

Hahaha, can anyone take this (album, band or whatever) serious? crazy.gif
(1) wolverine,
Jan 18 2019, 20:19:06 Tardigrade Inferno - Mastermind (2019)
Diablo Swing Orchestra`s twin... crazy.gif
(1) Daecadance,
Jan 17 2019, 15:24:38 Trollfest - Norwegian Fairytales (2019)
QUOTE(popen13 @ Jan 17 2019, 15:11:44) *
Этот клип веселее!!! banana.gif 28.gif dwarf-1.gif
[youtube]JyY5kU-RRms[/youtube]


Me likes it, how your avatar moves the head in the same rhythm as in the video / song. smile1.gif
(1) popen13,
Dec 29 2018, 23:05:23 Massenhinrichtung - Апошняя Птушка Надзеі (2018)
Me was so free and made a "latin letters" version (album and song titles).


Register
(1) metaljosue,
Dec 13 2018, 20:58:22 Deutschpunk?
First one uploaded just now. The only german singing Punk band from your home country, Wotan Wahnwitz.
(2) craP_cillA, sta1081,
Dec 13 2018, 20:56:11 Wotan Wahnwitz - Gegen Den Strom (1999)


*Artist: Wotan Wahnwitz
*Album: Gegen Den Strom
*Year: 1999
*Genre: Punk
*Country: Russian Federation
*Format: mp3@CBR192kbps
*Size: 75MB

Tracklist:
01 - Alles grau, alles schlecht
02 - Bullenlied
03 - Bundeswehr
04 - Ich glaube nicht mehr daran
05 - Bis zum bitteren Ende
06 - No Future
07 - Asozial
08 - Katjuscha
09 - Tupac Amaru
10 - Deutscher Polizist
11 - Anarchy
12 - Dona, Dona
13 - Industria Smerti
14 - Hooray To The I.R.A.
15 - Siegerjustiz
16 - Lied der Punker
17 - Einheitsfrontlied
18 - Lied für einen Freund
19 - Paradise For Sale
20 - Blowin In The Wind
21 - CDU
22 - Laura Kauppi
******************************
Total playing time: 54:16

[more=Extended info]Discogs and so on say that they´re from Germany, but as you can read from the included booklet they´re from Moskau.[/more]

[more=Technical info]
Input File: 01 - Alles grau, alles schlecht.mp3
Channels : 2
Sample Rate : 44100
Precision : 16-bit
Duration : 00:02:56.03 = 7763099 samples = 13202.5 CDDA sectors
File Size : 4.23M
Bit Rate : 192k
Sample Encoding: MPEG audio (layer I, II or III)
Comments :
Title=Alles grau, alles schlecht
Artist=Wotan Wahnwitz
Album=Gegen den Strom
Year=1999

[/more]

Register
(1) craP_cillA,
Dec 13 2018, 20:19:00 Orth - Feed The Flames (2000)
320 CBR



Register
(1) wendigo,
Dec 13 2018, 20:02:03 Deutschpunk?
Not a request by myself, but the question if german Punk would be wanted here.
Me have huge Punk collection with known and lesser known german bands and would like to make a backup and share. But seeing not even one upload here, i`m not sure if someone would be interested...is there?
(2) craP_cillA, sta1081,
Dec 11 2018, 10:56:16 Das Magier - Лес Чёрных Теней [demo] (2015)
Better than the two bands "Der Nacht". smile1.gif Too funny, that the most mistakes in german grammar are only simple grammar rules.

QUOTE(randyhermit @ Dec 11 2018, 10:53:52) *
What about "das Mädchen"?


Some german grammar rules are very old or over-taken from old rules. "Das Mädchen" comes from a time where women generally were derogative treated, so it can be said that it`s just a derogative form of the german article-words.
(1) randyhermit,
Sep 20 2018, 13:58:33 Dirty Shirt - Freak Show (2013)
[youtube]vvIWvh_l4XA[/youtube]
(1) RotAnus,
Sep 20 2018, 09:49:45 The Beauty Of Gemina - Minor Sun (2016)


*Artist: The Beauty Of Gemina
*Album: Minor Sun
*Year: 2016
*Genre: Gothic Rock
*Country: Switzerland
*Format: mp3@CBR320kbps
*Size: 148MB

Tracklist:
1. End
2. Waiting In The Forest
3. Bitter Sweet Good-Bye
4. Endless Time To See
5. Close To The Fire
6. Crossroads
7. Down On The Lane
8. A Thousand Lakes
9. Wonders
10. Another Death
11. Wednesday Radio
12. Winter Song
13. Silent Land
******************************
Total playing time: 1:06:54



[more=Technical info]
Input File: 01 - End.mp3
Channels : 2
Sample Rate : 44100
Precision : 16-bit
Duration : 00:04:41.54 = 12415914 samples = 21115.5 CDDA sectors
File Size : 11.3M
Bit Rate : 320k
Sample Encoding: MPEG audio (layer I, II or III)
Comments :
Title=End
Artist=The Beauty Of Gemina
Album=Minor Sun
Year=2016

[/more]

Register
(5) Cartman223, gwar, Olethros, v.v.m, VALERY,

4 Pages V   1 2 3 > » 
- Lo-Fi Version Support form
Copyrights and abuse reports form
Time is now: 14th November 2019 - 12:28:57