Welcome Guest ( Log In | Register )

История благодарностей участнику nnnmmm ::: Спасибо сказали: 2644 раз(а)
Дата поста: В теме: За сообщение: Спасибо сказали:
Nov 23 2019, 08:27:45 Bhleg & Nechochwen - Sorlande Sky/Majestic Translucence [split] (2019)


*Artist: Bhleg & Nechochwen
*Album: Sorlande Sky/Majestic Translucence [split]
*Year: 2019
*Genre: Atmospheric Black Metal | Atmospheric Black/Folk Metal/Neofolk
*Country: Sweden | United States
*Format: mp3@VBR256kbps
*Size: 20MB

Tracklist:
Bhleg:
1. Sorlande Sky 07:00
Nechochwen:
2. Majestic Translucence 05:55
******************************
Total playing time: 12:55

[more=Extended info]https://www.metal-archives.com/albums/Necho...slucence/771812[/more]

[more=Technical info]
Input File: 02. Nechochwen - Majestic Translucence.mp3
Channels : 2
Sample Rate : 48000
Precision : 16-bit
Duration : 00:05:55.63 = 17070336 samples ~ 26672.4 CDDA sectors
File Size : 11.5M
Bit Rate : 259k
Sample Encoding: MPEG audio (layer I, II or III)
Comments :
Title=Majestic Translucence
Artist=Nechochwen
Album=Bhleg & Nechochwen
Year=20190530

[/more]

Register
(17) 1968_janeart, Cartman223, chromeskull88, Druidir, Ildjarn, kim666, Lanceatum, nemx, Ostinato, Rosen, satanist666, senecazm, Sjelekval, stone88, varlam4, wreak, yuratroll,
Nov 5 2019, 05:39:21 Sólstafir - Ótta (2014)
QUOTE(babanguida @ Nov 4 2019, 20:58:41) *
any reup please?

See post above.
(1) babanguida,
Oct 24 2019, 14:43:17 Nebulae Come Sweet - It Is Not The Night That Covers You (2016)
Reuploaded Mp3 CBR 320 Kbps
Register
(2) Kostolom, stumpheavyrock,
Oct 11 2019, 06:48:07 Sepultura - Sepultura Under My Skin [single] (2015)


*Artist: Sepultura
*Album: Sepultura Under My Skin [single]
*Year: 2015
*Genre: Thrash Metal
*Country: Brazil
*Format: mp3@CBR320kbps
*Size: 17MB

Tracklist:
01. Sepultura Under My Skin 03:46
02. Kairos (live) 03:37
******************************
Total playing time: 7:23

[more=Technical info]
Input File: 01 - Sepultura Under My Skin.mp3
Channels : 2
Sample Rate : 44100
Precision : 16-bit
Duration : 00:03:46.97 = 10009245 samples = 17022.5 CDDA sectors
File Size : 9.11M
Bit Rate : 321k
Sample Encoding: MPEG audio (layer I, II or III)
Comments :
Title=Sepultura Under My Skin
Artist=Sepultura
Album=Sepultura Under My Skin
Tracknumber=01/02
Year=2015
Genre=Thrash Metal/Death Metal

[/more]

Register
(7) artscald, gwar, Hell_Is_Here, infiltrator, Olethros, Rosen, sepultura39,
Oct 11 2019, 06:45:08 Sepultura - The Age Of The Atheist [single] (2013)


*Artist: Sepultura
*Album: The Age Of The Atheist [single]
*Year: 2013
*Genre: Thrash Metal
*Country: Brazil
*Format: mp3@CBR320kbps
*Size: 21MB

Tracklist:
01. The Age Of The Atheist 04:19
02. Zombie Ritual (Death cover) 04:45
******************************
Total playing time: 9:04

[more=Technical info]
Input File: 01 - The Age Of The Atheist.mp3
Channels : 2
Sample Rate : 44100
Precision : 16-bit
Duration : 00:04:19.15 = 11428603 samples = 19436.4 CDDA sectors
File Size : 10.5M
Bit Rate : 323k
Sample Encoding: MPEG audio (layer I, II or III)
Comments :
Title=The Age Of The Atheist
Artist=Sepultura
Album=The Age Of The Atheist
Tracknumber=01/02
Year=2013
Genre=Thrash Metal/Death Metal

[/more]

Register
(9) artscald, gwar, Hell_Is_Here, infiltrator, infozahist, kluval, Olethros, Rosen, sepultura39,
Oct 11 2019, 06:41:49 Sepultura - Against (1998)
Additional link to Japanese edition with 2 bonus tracks
Register
(1) Evgundel,
Oct 11 2019, 06:39:05 Sepultura - Dante Xxi (2006)
Additional link to Japanese edition with a Judas Priest cover Mp3 CBR 320 Kbps 97 Mb
Register
(1) Evgundel,
Oct 11 2019, 06:33:35 Sepultura - Minisserie Dupla Identidade [ost] (2014)
Reuploaded Mp3 CBR 320 50 Mb
Register
(1) kluval,
Oct 11 2019, 06:26:33 Sepultura - Tribus [single] (1999)
Reuploaded Mp3 CBR 320 kbps, 46 Mb
Register
(2) kluval, Occultas,
Oct 11 2019, 06:24:48 Sepultura - Choke [single] (1998)


*Artist: Sepultura
*Album: Choke [single]
*Year: 1998
*Genre: Thrash Metal
*Country: Brazil
*Format: mp3@CBR320kbps
*Size: 18MB

Tracklist:
01. Choke 03:38
02. Gene Machine / Don't Bother Me (Bad Brains cover) 02:53
03. Against (demo) 01:39
******************************
Total playing time: 8:10

[more=Technical info]
Input File: 01 - Choke.mp3
Channels : 2
Sample Rate : 44100
Precision : 16-bit
Duration : 00:03:38.22 = 9623326 samples = 16366.2 CDDA sectors
File Size : 8.76M
Bit Rate : 321k
Sample Encoding: MPEG audio (layer I, II or III)
Comments :
Title=Choke
Artist=Sepultura
Album=Choke
Tracknumber=01/03
Year=1998
Genre=Groove Metal/Nu Metal

[/more]

Register
(10) artscald, boby9052, gwar, Hell_Is_Here, infiltrator, kluval, Occultas, Olethros, Rosen, sepultura39,
Oct 11 2019, 06:20:37 Sepultura - Beneath The Remains (1989)
Added Beneath The Remains (1997 Remaster) Mp3 320 Kbps 123 Mb
Register
(2) infiltrator, metala,
Oct 11 2019, 06:20:15 Sepultura - Schizophrenia (1987)
Added Schizophrenia (1997 Remaster) Mp3 320 Kbps 129 Mb
Register
(2) infiltrator, metala,
Oct 11 2019, 06:19:45 Sepultura - Morbid Visions (reissue) (1986)
Added Morbid Visions & Bestial Devastation EP (1997 Remaster) Mp3 320 Kbps 126 Mb
Register
(1) Occultas,
Oct 8 2019, 06:33:10 Musica Diablo - Musica Diablo [demo] (2009)


*Artist: Musica Diablo
*Album: Musica Diablo [demo]
*Year: 2009
*Genre: Thrash Metal
*Country: Brazil
*Format: mp3@CBR256kbps
*Size: 22MB

Tracklist:
01. Work Out 03:01
02. The Flame Of Anger 03:02
03. Live To Buy 02:38
04. Twisted Hate 02:58
05. The Rack 02:03
******************************
Total playing time: 13:42

[more=Extended info]Thanks to Asgarddistro![/more]

[more=Technical info]
Input File: 1 Work Out.mp3
Channels : 2
Sample Rate : 44100
Precision : 16-bit
Duration : 00:03:01.20 = 7990788 samples = 13589.8 CDDA sectors
File Size : 5.92M
Bit Rate : 261k
Sample Encoding: MPEG audio (layer I, II or III)
Comments :
Title=Work Out
Artist=Musica Diablo
Album=Demo
Tracknumber=1
Year=2009
Genre=Thrash Metal

[/more]

Register
(8) artscald, infiltrator, METALHUNTER, Olethros, Rosen, stumpheavyrock, thenecromancer, wgs73,
Oct 7 2019, 06:31:37 Cult Of Luna - God Seed Remixes [compilation] (2014)


*Artist: Cult Of Luna
*Album: God Seed Remixes [compilation]
*Year: 2014
*Genre: Sludge/Electronics/Industrial/Experimental/Noise
*Country: Sweden
*Format: mp3@CBR320kbps
*Size: 210MB

Tracklist:
01. Passing Through (Beastmilk remix) 3:51
02. Passing Through (Maybeshewill remix) 4:28
03. In Awe Of (Fleshworld remix) 6:57
04. Synchronicity (Obsidian Kingdom remix) 5:04
05. In Awe Of (Whalesong remix) 4:48
06. Passing Through (Echoes Of Yul remix) 6:40
07. Passing Through (Filip Szyszkowski remix) 6:04
08. Passing Through (Whalesong N-Void mix) 6:47
09. Passing Through / In Awe Of (Thot remix) 6:23
10. Passing Through (Petrels remix) 6:06
11. Passing Through (Torog / The Ocean remix) 5:48
12. Passing Through (Shield Patterns remix) 13:52
13. Synchronicity (Whalesong Lugola mix) 7:59
14. Synchronicity (Fleshworld remix) 7:45
******************************
Total playing time: 1:32:32

[more=Extended info]https://www.discogs.com/Cult-Of-Luna-Cult-O.../master/1290049
<br /[/more]

[more=Technical info]
Input File: 02. Passing Through (Maybeshewill Remix).mp3
Channels : 2
Sample Rate : 44100
Precision : 16-bit
Duration : 00:04:27.75 = 11807643 samples = 20081 CDDA sectors
File Size : 10.7M
Bit Rate : 320k
Sample Encoding: MPEG audio (layer I, II or III)
Comments :
Title=Passing Through (Maybeshewill Remix)
Artist=Cult Of Luna
Album=Cult Of Luna Remix
Tracknumber=02
Year=2014
Genre=Sludge Metal

[/more]

Register
(12) artscald, craP_cillA, gwar, Hell_Is_Here, infiltrator, kimkayoung, Olethros, Ostinato, perrin, Reverend, Rosen, wtk.412,
Oct 4 2019, 05:25:47 Новости DOOM Metal
[attachment=9203:71276293...039808_o.jpg]New Clouds in spring (?) 2020, called Durere.
(3) 6666666, infiltrator, popen13,
Sep 29 2019, 12:48:41 Cult Of Luna - Live At La Gaîté Lyrique, Paris [live] (2017)


*Artist: Cult Of Luna
*Album: Live At La Gaîté Lyrique, Paris [live]
*Year: 2017
*Genre: Post-Metal
*Country: Sweden
*Format: mp3@CBR320kbps
*Size: 253MB

Tracklist:
CD1
01. The Sweep 2:17
02. Light Chaser 6:49
03. Owlwood 6:41
04. Echoes 11:56
05. I: The Weapon 9:14
06. Waiting For You 10:54

CD2
01. Marching To The Heartbeats 3:14
02. Finland 11:14
03. Back To Chapel Town 7:05
04. And With Her Came The Birds 6:04
05. Thirtyfour 9:19
06. Dim 10:50
07. Dark City, Dead Man 15:09
******************************
Total playing time: 1:50:46

[more=Extended info]https://www.discogs.com/Cult-Of-Luna-Live-At-La-Ga%C3%AEt%C3%A9-Lyrique-Paris/master/1167344

Thanks to INDARKNESS![/more]

[more=Technical info]
Input File: 05 - I_The Weapon.mp3
Channels : 2
Sample Rate : 44100
Precision : 16-bit
Duration : 00:09:14.09 = 24435237 samples = 41556.5 CDDA sectors
File Size : 22.3M
Bit Rate : 321k
Sample Encoding: MPEG audio (layer I, II or III)
Comments :
Title=I:The Weapon (Live)
Artist=Cult of Luna
Album=Live at La Gaîté Lyrique: Paris
Tracknumber=5
Year=2017-04-21
Genre=Rock; Hard Rock; Metal
Discnumber=1

[/more]

Register
(8) artscald, craP_cillA, Hell_Is_Here, kimkayoung, Olethros, Ostinato, Reverend, Rosen,
Sep 29 2019, 12:44:42 Cult Of Luna - Live At The Scala [live] (2010)


*Artist: Cult Of Luna
*Album: Live At The Scala [live]
*Year: 2010
*Genre: Post-Metal
*Country: Sweden
*Format: mp3@CBR320kbps
*Size: 202MB

Tracklist:
01. Following Betulas 10:13
02. Owlwood 06:45
03. Ghost Trail 13:02
04. Leave Me Here 06:10
05. Österbotten (Interlude)03:04
06. Finland 11:39
07. Adrift 07:27
08. Eternal Kingdom 06:38
09. Echoes 06:15
10. Dark City, Dead Man 16:58
******************************
Total playing time: 1:28:11

[more=Extended info]https://www.metal-archives.com/albums/Cult_...he_Scala/325537

Thanks to INDARKNESS![/more]

[more=Technical info]
Input File: 03 - Ghost Trail.mp3
Channels : 2
Sample Rate : 44100
Precision : 16-bit
Duration : 00:13:02.38 = 34503134 samples = 58678.8 CDDA sectors
File Size : 31.5M
Bit Rate : 322k
Sample Encoding: MPEG audio (layer I, II or III)
Comments :
Title=Ghost Trail
Artist=Cult of Luna
Album=Live at the Scala
Tracknumber=3
Year=2019-04-19
Genre=Alternative; Rock; Metal
Discnumber=1

[/more]

Register
(8) artscald, Hell_Is_Here, kimkayoung, marilin, Olethros, Ostinato, Reverend, Rosen,
Sep 29 2019, 12:40:48 Riwen - Riwen [ep] (2014)


*Artist: Riwen
*Album: Riwen [ep]
*Year: 2014
*Genre: Black Metal/Crust
*Country: Sweden
*Format: mp3@CBR320kbps
*Size: 27MB

Tracklist:
01. Nature Calls Us Back 03:31
02. Values 02:28
03. Karlsgrundet 05:58
******************************
Total playing time: 11:57

[more=Extended info]https://www.metal-archives.com/albums/Riwen/Riwen/719960

Thanks to INDARKNESS![/more]

[more=Technical info]
Input File: 02 - Values.mp3
Channels : 2
Sample Rate : 44100
Precision : 16-bit
Duration : 00:02:28.23 = 6536767 samples = 11117 CDDA sectors
File Size : 6.07M
Bit Rate : 328k
Sample Encoding: MPEG audio (layer I, II or III)
Comments :
Title=Values
Artist=Riwen
Album=Riwen
Tracknumber=2
Year=2016-03-10
Genre=Rock; Hard Rock; Metal
Discnumber=1

[/more]

Register
(7) artscald, Olethros, Orkkh, Ostinato, Razorbladeswaltz, Rosen, Волос,
Sep 29 2019, 11:09:47 Today Needed
QUOTE(INDARKNESS @ Sep 29 2019, 11:57:07) *


I'll upload these here, if you don't do it yourself, OK?
(1) thenecromancer,
Sep 29 2019, 10:52:52 Cult Of Luna - Demo [demo] (1999)
QUOTE(unit731 @ Sep 29 2019, 10:02:03) *
incorrect link!!!!!!!!!!

Fixed.
(2) DarkHorde, thenecromancer,
Sep 29 2019, 07:58:45 Moonspell - Lisboa Under The Spell [live] (2018)
Reuploaded Mp3 CBR 320
Register
(2) thenecromancer, varlam4,
Sep 29 2019, 07:11:13 Cult Of Luna - Bbc Session Maida Vale Studios, London 08.12.2013 [bootleg] (2013)


*Artist: Cult Of Luna
*Album: Bbc Session Maida Vale Studios, London 08.12.2013 [bootleg]
*Year: 2013
*Genre: Post-Metal
*Country: Sweden
*Format: mp3@CBR320kbps
*Size: 73MB

Tracklist:
01. I, The Weapon 09:03
02. In Awe Of 09:42
03. Ghost Trail 13:02
******************************
Total playing time: 31:47

[more=Extended info]http://ibootleggers-creed.blogspot.com/201...maida-vale.html[/more]

[more=Technical info]
Input File: 01 - Cult Of Luna - I, The Weapon.mp3
Channels : 2
Sample Rate : 44100
Precision : 16-bit
Duration : 00:09:03.74 = 23979022 samples = 40780.6 CDDA sectors
File Size : 21.7M
Bit Rate : 320k
Sample Encoding: MPEG audio (layer I, II or III)
Comments :
Title=I, The Weapon
Artist=Cult Of Luna
Album=BBC Session 08.12.2013
Tracknumber=1
Year=2013
Genre=Sludge / Post-Metal

[/more]

Register
(14) ahp, artscald, craP_cillA, Hell_Is_Here, infiltrator, kimkayoung, marilin, Olethros, Ostinato, perrin, popen13, Rosen, thenecromancer, wreak,
Sep 29 2019, 07:06:59 Cult Of Luna - Demo [demo] (1999)


*Artist: Cult Of Luna
*Album: Demo [demo]
*Year: 1999
*Genre: Post-Metal
*Country: Sweden
*Format: mp3@CBR192kbps
*Size: 24MB

Tracklist:
01. Descended from Light 07:26
02. Serpent Caress 10:06
******************************
Total playing time: 17:32

[more=Extended info]https://www.metal-archives.com/albums/Cult_...una/Demo/754849
Taken from official CoL YouTube channel and converted to Mp3 CBR 192 <br /https://www.youtube.com/watch?v=jZx3RmGR3eI <br /https://www.youtube.com/watch?v=C_GkuErL1Mc[/more]

[more=Technical info]
Input File: 01 - Descended from light.mp3
Channels : 2
Sample Rate : 44100
Precision : 16-bit
Duration : 00:07:26.42 = 19687210 samples = 33481.6 CDDA sectors
File Size : 10.7M
Bit Rate : 192k
Sample Encoding: MPEG audio (layer I, II or III)

[/more]

Register
(10) Angry_Chair, craP_cillA, Dargaud, Evilded, kimkayoung, perrin, Reverend, Rosen, thenecromancer, дивин,
Sep 29 2019, 07:03:56 Cult Of Luna - Eternal Music [compilation] (2014)


*Artist: Cult Of Luna
*Album: Eternal Music [compilation]
*Year: 2014
*Genre: Post-Metal
*Country: Sweden
*Format: mp3@CBR320kbps
*Size: 91MB

Tracklist:
01. Gingin 02:54
02. Jämmerdalen 02:33
03. Varken Dur Eller Moll 02:14
04. Valsen 01:47
05. Mors Tema 02:20
06. Elddansen 04:46
07. Maran 02:11
08. Harlägen 02:31
09. Skogens Häst 03:15
10. Petterssons Ackord 01:11
11. Om Igen 02:39
12. Gitarrarpeggio 02:26
13. Ekokammarn / Nord 08:39
******************************
Total playing time: 39:26

[more=Extended info]https://www.discogs.com/Cult-Of-Luna-Eterna...release/5701208
https://www.metal-archives.com/albums/Cult_...al_Music/411138[/more]

[more=Technical info]
Input File: 13 Ekokammarn & Nord.mp3
Channels : 2
Sample Rate : 48000
Precision : 16-bit
Duration : 00:08:39.50 = 24936192 samples ~ 38962.8 CDDA sectors
File Size : 20.8M
Bit Rate : 320k
Sample Encoding: MPEG audio (layer I, II or III)
Comments :
Title=Ekokammarn / Nord
Artist=Cult of Luna
Album=Eternal Music
Tracknumber=B5
Year=2010
Genre=Post Metal

[/more]

Register
(21) ahp, artscald, Hell_Is_Here, infiltrator, infozahist, khestanow3001, kimkayoung, marilin, MEmethuselah, nikolay81, Olethros, Ostinato, Peikko, perrin, popen13, Reverend, robertho777, Rosen, sarcophagus, wreak, Герб,

36 Pages V   1 2 3 > » 
- Lo-Fi Version Support form
Copyrights and abuse reports form
Time is now: 16th February 2020 - 22:36:34