Welcome Guest ( Log In | Register )

История благодарностей участнику nnnmmm ::: Спасибо сказали: 3264 раз(а)
Дата поста: В теме: За сообщение: Спасибо сказали:
Feb 26 2021, 22:44:08 Various Artists - Nascar On Fox: Crank It Up [compilation] (2002)


*Artist: Various Artists
*Album: Nascar On Fox: Crank It Up [compilation]
*Year: 2002
*Genre: Nu Metal/Hard Rock/Groove Metal/Thrash Metal
*Country: United States
*Format: mp3@CBR320kbps
*Size: 170MB

Tracklist:
01. NASCAR On Fox Theme 1:17
02. (hed) p.e. – Crosstown Traffic (Jimi Hendrix cover) 3:21
03. Buckcherry – On The Road Again (Willie Nelson cover) 2:22
04. Nonpoint – Circles 3:18
05. Tantric – Cross The Line 4:12
06. Gov't Mule – Drivin' Rain (feat. Warren Haynes, Matt Abts, James Hetfield & Les Claypool) 4:07
07. Fenix TX – Get Out Of My Dreams (Get Into My Car) (Billy Ocean cover) 4:01
08. Fear Factory – Cars (MPH Mix) (Gary Numan cover) 3:40
09. Dry Cell – Heaven & Hot Rods 3:17
10. Static-X – Speedway 2:09
11. Darwin's Waiting Room – Fast Car (Tracy Chapman cover) 3:50
12. Slipknot – (Sic) (Molt-Injected mix) 3:26
13. Slayer – Born To Be Wild (Steppenwolf cover) 3:05
14. Type O Negative – Highway Star (Deep Purple cover) 5:56
15. Rob Zombie – Demon Speeding (Dirty Black River mix) 3:14
16. Machine Head – Supercharger (Let Freedom Ring mix) 3:47
17. Staind – See Through 4:23
18. Les Claypool – Hot Rod Lincoln 2:47
******************************
Total playing time: 1:02:12

[more=Extended info]https://www.discogs.com/Various-NASCAR-On-Fox-Crank-It-Up/release/3081743[/more]

[more=Technical info]
Input File: 13 - Slayer - Born To Be Wild (Steppenwolf).mp3
Channels : 2
Sample Rate : 44100
Precision : 16-bit
Duration : 00:03:04.67 = 8143727 samples = 13849.9 CDDA sectors
File Size : 9.02M
Bit Rate : 391k
Sample Encoding: MPEG audio (layer I, II or III)
Comments :
Title=Born To Be Wild (Steppenwolf)
Artist=Slayer
Album=NASCAR: Crank It Up
Tracknumber=13
Year=2002
Genre=Soundtrack (TV)

[/more]

Register
(6) canadaspaceman, caro, infiltrator, KKK1488, skinnyboo, varlam4,
Feb 11 2021, 21:41:53 Behemoth - Zos Kia Cultus (here And Beyond) (2002)
QUOTE(amirhossien1371 @ Nov 28 2020, 21:44:41) *
please re-upload.



QUOTE(pilaarbijter @ Feb 9 2021, 21:06:17) *
Can I get a Re-up?


Reuploaded Russian Edition with bonus EP.

Register
(2) Occultas, pilaarbijter,
Feb 11 2021, 21:36:39 Behemoth - Evangelion (2009)
QUOTE(pilaarbijter @ Feb 9 2021, 21:03:45) *
Can I get a Re-up?


Uploaded Japanese Edition with a bonus track Total Invasion (Killing Joke cover) Mp3 CBR 320.

Register
(2) infiltrator, pilaarbijter,
Feb 8 2021, 21:01:13 Eximperituserqethhzebibšiptugakkathšulweliarzaxułum - Triumpho Tenebrarum In Profundis Mors [demo] (2011)


*Artist: Eximperituserqethhzebibšiptugakkathšulweliarzaxułum
*Album: Triumpho Tenebrarum In Profundis Mors [demo]
*Year: 2011
*Genre: Technical Death Metal
*Country: Belarus
*Format: mp3@CBR320kbps
*Size: 33MB

Tracklist:
01. Invoco Mortifer Honores Facere Obscuritatem 06:15
02. Claves Odium Ad Portas Sui Interitum 03:50
03. Pierasiakajučy Swiatlieńnie J Zmrok Dziewiaci Miraŭ Spustašęńnia… 04:08
******************************
Total playing time: 14:13

[more=Extended info][/more]

[more=Technical info]
Input File: 03 Pierasiakajučy Swiatlieńnie J Zmrok Dziewiaci Miraŭ Spustašęńnia….mp3
Channels : 2
Sample Rate : 44100
Precision : 16-bit
Duration : 00:04:08.59 = 10962995 samples = 18644.5 CDDA sectors
File Size : 10.1M
Bit Rate : 325k
Sample Encoding: MPEG audio (layer I, II or III)
Comments :
Title=Pierasiakajučy Swiatlieńnie J Zmrok Dziewiaci Miraŭ Spustašęńnia…
Artist=Eximperituserqethhzebibšiptugakkathšulweliarzaxułum
Album=Triumpho Tenebrarum In Profundis Mors
Tracknumber=3/3
Year=2011
Genre=Brutal/Technical Death
Discnumber=1/1

[/more]

Register
(10) Femto, infiltrator, Metalass, mondlicht, Olethros, Rosen, Storky, varlam4, wendigo, wreak,
Feb 8 2021, 20:56:06 Deos - .​.​.​To Depart (2015)
Reuploaded Mp3 CBR 320 - 08 Feb 2020. To ask for re-ups, send me a PM.
Register
(1) nsk2008,
Jan 30 2021, 08:37:13 Новости Black-направления
[youtube]5-_vytLYRmU[/youtube]
(3) infiltrator, Occultas, Нигилист,
Jan 27 2021, 19:31:33 Iron Maiden - The Eternal Flame [bootleg] (1996)
Reuploaded in topic post. PM me for more reuploads.
(1) thenecromancer,
Jan 15 2021, 15:23:36 Saor - Guardians (2016)
Uploaded 2021 Remastered Reissue with a bonus demo track

Register
(1) ripper33,
Jan 12 2021, 21:23:36 Psychonaut 4 & Cheerful Depression & Культура Курения & Hovert - Psychonaut 4/Cheerful Depression/Культура Курения/Hovert [split] (2014)
QUOTE(Downloadermegf @ Jan 12 2021, 20:43:23) *
UP crazy.gif

Flac is up. Now calm down already!
(1) Downloadermegf,
Jan 8 2021, 20:43:03 Power Trip - Opening Fire 2008​-​2014 [compilation] (2018)


*Artist: Power Trip
*Album: Opening Fire 2008​-​2014 [compilation]
*Year: 2018
*Genre: Thrash Metal/Crossover
*Country: United States
*Format: mp3@CBR320kbps
*Size: 84MB

Tracklist:
01. Divine Apprehension (taken from "Power Trip" 7") 04:17
02. Suffer No Fool (taken from "Power Trip" 7") 02:33
03. Brainwave (Prong cover) (taken from "It Came From the Abyss Volume 1") 03:09
04. This World (2014) (taken from "The Extermination, Vol. 2") 02:59
05. Hammer Of Doubt (taken from "America's Hardcore") 04:28
06. Armageddon Blues (taken from "The Armageddon Sessions EP") 04:33
07. Lake Of Fire (taken from "The Armageddon Sessions EP") 02:54
08. The Evil Beat (taken from "The Armageddon Sessions EP") 03:25
09. Acid (taken from "The Armageddon Sessions EP") 02:39
10. Questions (taken from "The Armageddon Sessions EP") 01:08
11. Vultures (taken from "The Armageddon Sessions EP") 03:31
******************************
Total playing time: 35:36

[more=Extended info]https://www.metal-archives.com/albums/Power_Trip/Opening_Fire%3A_2008%E2%80%8B-%E2%80%8B2014/748701[/more]

[more=Technical info]
Input File: 06. Armageddon Blues (The Armageddon Sessions EP).mp3
Channels : 2
Sample Rate : 44100
Precision : 16-bit
Duration : 00:04:33.42 = 12057602 samples = 20506.1 CDDA sectors
File Size : 11.1M
Bit Rate : 325k
Sample Encoding: MPEG audio (layer I, II or III)
Comments :
Title=Armageddon Blues
Artist=Power Trip
Album=Opening Fire: 2008-2014
Tracknumber=6/11
Year=2018
Genre=139
Discnumber=1/1

[/more]

Register
(15) boby9052, cancer1974, FUDEDOR, gwar, infiltrator, Marek, METALHUNTER, multizwilling, Olethros, potap03020100, Rosen, Tino, varlam4, Wail, wreak,
Jan 7 2021, 11:11:12 Elderwind - The Relict [single] (2020)


*Artist: Elderwind
*Album: The Relict [single]
*Year: 2020
*Genre: Atmospheric Black Metal
*Country: Russian Federation
*Format: mp3@CBR320kbps
*Size: 17MB

Tracklist:
01. The Relict / Реликт 07:21
******************************
Total playing time: 7:21

[more=Extended info][/more]

[more=Technical info]
Input File: 01. Реликт.mp3
Channels : 2
Sample Rate : 44100
Precision : 16-bit
Duration : 00:07:21.83 = 19484835 samples = 33137.5 CDDA sectors
File Size : 17.7M
Bit Rate : 320k
Sample Encoding: MPEG audio (layer I, II or III)
Comments :
Title=Реликт
Artist=Elderwind
Album=Реликт (Single)
Tracknumber=1
Year=2020
Genre=Atmospheric Black Metal

[/more]

Register
(17) foreverisforgotten, goxther, infiltrator, Nattfodd, Olethros, Persy, ripper33, Rosen, Shadechaser, Strygaldwir, VALERY, varg-38ru, varlam4, vasiljev_sergej, Wail, wreak, Козлотролль,
Jan 6 2021, 16:26:06 Celtic Frost - Parched With Thirst Am I And Dying [best of/compilation] (1992)
QUOTE(DroidSektor @ Jan 6 2021, 03:33:15) *
Can you re-upload the Japanese 2006 reissue please

This was the compilation that made me give "Cold Lake" a chance


Reuploaded 2006 Japanese Edition Mp3 CBR 320
Register
(1) Eisbar,
Jan 3 2021, 21:36:45 Made Out Of Babies - The Ruiner (2008)
Mp3 CBR 320

Register
(1) Grzechu,
Jan 3 2021, 21:36:21 Made Out Of Babies - Trophy (2005)
Mp3 CBR 320

Register
(1) Grzechu,
Dec 27 2020, 22:54:21 Clouds - Clouds Acoustic [compilation] (2020)


*Artist: Clouds
*Album: Clouds Acoustic [compilation]
*Year: 2020
*Genre: Doom Metal/Acoustic
*Country: International
*Format: flac
*Size: 756MB

Tracklist:
01. You Went So Silent 08:01
02. How Can I Be There 10:09
03. Images And Memories 05:53
04. Dor 07:58
05. Nothing But A Name (with Mihai Ilie) 09:33
06. Fields Of Nothingness 08:49
07. When I'm Gone (with Gogo Melone) 08:20
08. A Father's Death 08:41
09. I Gave My Heart Away 07:58
******************************
Total playing time: 1:15:22

[more=Extended info][/more]

Register
(10) 6666666, Cartman223, fylopaloma, gena, infiltrator, kimkayoung, Metalass, Olethros, VALERY, Wail,
Nov 19 2020, 19:28:39 Iron Maiden - Nights Of The Dead, Legacy Of The Beast: Live In Mexico City [live] (2020)


*Artist: Iron Maiden
*Album: Nights Of The Dead, Legacy Of The Beast: Live In Mexico City [live]
*Year: 2020
*Genre: Nwobhm
*Country: United Kingdom
*Format: flac
*Size: 725MB

Tracklist:
01. Churchill’s Speech 00:38
02. Aces High 04:58
03. Where Eagles Dare 05:12
04. 2 Minutes To Midnight 05:54
05. The Clansman 09:16
06. The Trooper 04:02
07. Revelations 06:32
08. For The Greater Good Of God 09:23
09. The Wicker Man 04:43
10. Sign Of The Cross 11:00
11. Flight Of Icarus 03:43
12. Fear Of The Dark 07:46
13. The Number Of The Beast 04:59
14. Iron Maiden 05:31
15. The Evil That Men Do 04:25
16. Hallowed Be Thy Name 07:38
17. Run To The Hills 05:07
******************************
Total playing time: 1:40:47

Register
(25) Ainar, Alexis The Best, Aresson, Bruce, cancer1974, ENDSMOUTH, Forest, gattometal, infiltrator, kimkayoung, Marek, metaljosue, multizwilling, nekrokilldozer, Occultas, recber, Rosen, stumpheavyrock, thenecromancer, Thiarnan, tschunioronbeer, Vakhangya, Wail, wreak, Сварог Барг,
Nov 18 2020, 19:28:15 Туга - Мытарства [ep] (2020)


*Artist: Туга
*Album: Мытарства [ep]
*Year: 2020
*Genre: Black Metal
*Country: Russian Federation
*Format: mp3@CBR320kbps
*Size: 73MB

Tracklist:
01. Покаяние 07:23
02. Пламень 06:55
03. Гроб, крест 05:33
04. Смерть красна 05:19
05. Звездь 06:54
******************************
Total playing time: 32:04

[more=Extended info][/more]

[more=Technical info]
Input File: 01 - Покаяние.mp3
Channels : 2
Sample Rate : 44100
Precision : 16-bit
Duration : 00:07:23.04 = 19538240 samples = 33228.3 CDDA sectors
File Size : 17.7M
Bit Rate : 320k
Sample Encoding: MPEG audio (layer I, II or III)
Comments :
Title=Покаяние
Artist=Туга
Album=Мытарства EP
Tracknumber=1
Year=2020
Genre=Black Metal

[/more]

Register
(33) 1968_janeart, Ainar, Aresson, as71, Branis, Bregon, cesar, Daale, Golodomor, Hell_Is_Here, infiltrator, judaz, kim666, Lukittaz, metaljosue, MorsPulchra, multizwilling, nadin85, Olethros, Ostinato, randumbum, robertho777, Rosen, satanist666, SilentNidhogg, StabWound, VALERY, varlam4, vasiljev_sergej, Wail, wreak, yuratroll, дивин,
Nov 18 2020, 18:46:36 Windhand - Levitation Sessions [live] (2020)


*Artist: Windhand
*Album: Levitation Sessions [live]
*Year: 2020
*Genre: Stoner/Doom Metal
*Country: United States
*Format: mp3@CBR320kbps
*Size: 154MB

Tracklist:
01. Old Evil 06:43
02. Diablerie 06:12
03. First To Die 08:17
04. Forest Clouds 10:58
05. Three Sisters 09:10
06. Grey Garden 07:18
07. Orchard 06:52
08. Cassock 11:01
******************************
Total playing time: 1:06:31

[more=Extended info]https://www.discogs.com/Windhand-Levitation...elease/16230944[/more]

[more=Technical info]
Input File: 06 - Grey Garden.mp3
Channels : 2
Sample Rate : 44100
Precision : 16-bit
Duration : 00:07:18.94 = 19357078 samples = 32920.2 CDDA sectors
File Size : 17.7M
Bit Rate : 323k
Sample Encoding: MPEG audio (layer I, II or III)
Comments :
Title=Grey Garden
Artist=Windhand
Album=Levitation Sessions
Tracknumber=6
Year=2020
Genre=GetMetal.CLUB

[/more]

Register
(14) Borderline1991, chipsgott, desekrator, gena, infiltrator, marilin, multizwilling, Olethros, Ostinato, Rosen, Sabbathian, soulskinner681, VALERY, wreak,
Nov 18 2020, 16:06:36 Katla - Allt Þetta Helvítis Myrkur (2020)


*Artist: Katla
*Album: Allt Þetta Helvítis Myrkur
*Year: 2020
*Genre: Atmospheric Progressive/Doom Metal
*Country: Iceland
*Format: mp3@CBR320kbps
*Size: 150MB

Tracklist:
01. Ást Orðum Ofar 05:45
02. Villuljós 06:47
03. Líkfundur Á Sólheimasandi 02:08
04. Sálarsvefn 06:45
05. Vergangur 07:16
06. Hvítamyrkur 05:05
07. Húsavíkur-Jón 05:38
08. Allt Þetta Helvítis Myrkur 11:54
09. Svartnætti 14:14
******************************
Total playing time: 1:05:32

[more=Extended info]

https://www.youtube.com/watch?v=_CDjoVbpAdY&list=PLToXWne2Bk-dP04AiTcyg2C8rbwXKfc-L[/more]

[more=Technical info]
Input File: 02. Villuljós.mp3
Channels : 2
Sample Rate : 44100
Precision : 16-bit
Duration : 00:06:47.00 = 17948700 samples = 30525 CDDA sectors
File Size : 16.4M
Bit Rate : 322k
Sample Encoding: MPEG audio (layer I, II or III)
Comments :
Title=Villuljós
Artist=Katla
Album=Allt þetta Helvítis Myrkur
Tracknumber=2
Year=2020

[/more]

Register
(27) BERZERK, Black Cat, ctulhudagon, demogogron, infiltrator, kolar666, kryptor, Lukittaz, metala, MMMMM, multizwilling, nsk2008, Old Vyaine, Olethros, Orgasmik, Ostinato, robertho777, Rosen, sergsazan, Shadechaser, skidnik, smes, stumpheavyrock, VALERY, wreak, xska, yuratroll,
Oct 19 2020, 17:48:23 Mistralth - My Grief (2017)
Reupoaded to Mega

Register
(2) anxiety, Dargaud,
Oct 15 2020, 19:25:04 Alice In Chains - Live Facelift [live] (2016)


*Artist: Alice In Chains
*Album: Live Facelift [live]
*Year: 2016
*Genre: Grunge
*Country: United States
*Format: mp3@CBR320kbps
*Size: 67MB

Tracklist:
01. It Ain’t Like That 04:29
02. Man In The Box 04:32
03. Real Thing 04:02
04. Love, Hate, Love 06:32
05. Sea Of Sorrow 05:27
06. Bleed The Freak 04:04
******************************
Total playing time: 29:06

[more=Extended info]https://www.discogs.com/Alice-In-Chains-Live-Facelift/release/9419357[/more]

[more=Technical info]
Input File: 05 Sea Of Sorrow (Live).mp3
Channels : 2
Sample Rate : 48000
Precision : 16-bit
Duration : 00:05:27.55 = 15722496 samples ~ 24566.4 CDDA sectors
File Size : 13.2M
Bit Rate : 323k
Sample Encoding: MPEG audio (layer I, II or III)
Comments :
Title=Sea Of Sorrow
Artist=Alice In Chains
Album=Live Facelift
Tracknumber=05
Year=2016
Genre=Alternative Metal/Rock / Heavy Metal / Grunge / Sludge Metal

[/more]

Register
(5) ENDSMOUTH, infiltrator, marilin, mikkah, stumpheavyrock,
Oct 8 2020, 21:51:04 Memoriam - For The Fallen (2017)
QUOTE(empire13 @ Oct 8 2020, 20:28:56) *
Hey
new link please
those in the topic have already expired

Reuploaded Mp3 CBR 320
Register
(2) maochen, waltergehtwahlen,
Sep 14 2020, 19:59:32 Saor - Aura (2014)
And here's the 2020 edition with two bonus tracks: Tombs (previously available on vinyl only) and Ashes - previously unreleased demo. 146 Mb

Register
(2) lestllk, popen13,
Sep 11 2020, 19:45:06 Potentiam - Orka I Myrkri (2004)
Reuploaded without scans

Register
(1) Wail,
Sep 10 2020, 14:37:45 Windir - 1184 (2001)
Reuploaded

Register
(1) thenecromancer,

40 Pages V   1 2 3 > » 
- Lo-Fi Version Support form
Copyrights and abuse reports form
Time is now: 3rd March 2021 - 05:54:21