Welcome Guest ( Log In | Register )

История благодарностей участнику LazarShadow ::: Спасибо сказали: 776 раз(а)
Дата поста: В теме: За сообщение: Спасибо сказали:
Oct 14 2018, 18:36:23 K.F.R - Scriptures Of Death [ep] (2017)


*Artist: K.F.R
*Album: Scriptures Of Death [ep]
*Year: 2017
*Genre: Black Metal/Dark Ambient
*Country: France
*Format: mp3@CBR320kbps
*Size: 38MB

Tracklist:
1. Scriptures of Death 03:24
2. Satan My Master (Bathory cover) 02:28
3. Under the Skin 02:57
4. Be the One 02:40
5. We Will Rise as Flames 04:13
6. Dies Irae 00:58
******************************
Total playing time: 16:40

[more=Technical info]
Input File: 03 - Under the Skin.mp3
Channels : 2
Sample Rate : 44100
Precision : 16-bit
Duration : 00:02:57.49 = 7827221 samples = 13311.6 CDDA sectors
File Size : 7.15M
Bit Rate : 322k
Sample Encoding: MPEG audio (layer I, II or III)
Comments :
Title=Under the Skin
Artist=K.F.R (كافر)
Album=Scriptures of Death
Tracknumber=3
Year=2017

[/more]

Register
(8) kim666, Ludwig Hagen, Ostinato, Rosen, RUSP73, SilentNidhogg, stub888, vasiljev_sergej,
Oct 14 2018, 18:25:03 K.F.R - Hypnotic Black Metal Part II [demo] (2018)


*Artist: K.F.R
*Album: Hypnotic Black Metal Part II [demo]
*Year: 2018
*Genre: Black Metal/Dark Ambient
*Country: France
*Format: mp3@CBR320kbps
*Size: 33MB

Tracklist:
1. #Death 04:29
2. Hypnotic Black Metal II 04:19
3. Some Past Life 05:46
******************************
Total playing time: 14:34

[more=Technical info]
Input File: 01 - #Death.mp3
Channels : 2
Sample Rate : 44100
Precision : 16-bit
Duration : 00:04:29.29 = 11875601 samples = 20196.6 CDDA sectors
File Size : 10.8M
Bit Rate : 322k
Sample Encoding: MPEG audio (layer I, II or III)
Comments :
Title=#Death
Artist=K.F.R (كافر)
Album=Hypnotic Black Metal Part II
Tracknumber=1
Year=2018

[/more]

Register
(9) kim666, Ludwig Hagen, Ostinato, Rosen, RUSP73, SilentNidhogg, stub888, vasiljev_sergej, Wolftribes,
Oct 14 2018, 18:17:43 K.F.R - Hypnotic Black Metal [demo] (2018)


*Artist: K.F.R
*Album: Hypnotic Black Metal [demo]
*Year: 2018
*Genre: Black Metal/Dark Ambient
*Country: France
*Format: mp3@CBR320kbps
*Size: 49MB

Tracklist:
1. Desecrate 04:21
2. Ris Pendant qu'il en est encore Temps 07:14
3. Hypnotic Black Metal 05:21
4. Là où ça sent la Merde 04:45
******************************
Total playing time: 21:41

[more=Technical info]
Input File: 01 - Desecrate.mp3
Channels : 2
Sample Rate : 44100
Precision : 16-bit
Duration : 00:04:22.00 = 11554156 samples = 19649.9 CDDA sectors
File Size : 10.6M
Bit Rate : 322k
Sample Encoding: MPEG audio (layer I, II or III)
Comments :
Title=Desecrate
Artist=K.F.R (كافر)
Album=Hypnotic Black Metal
Tracknumber=1
Year=2018

[/more]

Register
(10) Gylve, kim666, Ludwig Hagen, Ostinato, Rosen, RUSP73, SilentNidhogg, stub888, vasiljev_sergej, Wolftribes,
Oct 14 2018, 18:05:10 K.F.R - Ø (2016)


*Artist: K.F.R
*Album: Ø
*Year: 2016
*Genre: Black Metal/Dark Ambient
*Country: France
*Format: mp3@CBR320kbps
*Size: 204MB

Tracklist:
1. Vermines! 05:30
2. Abgrund 03:37
3. The Light Will Slightly Shade 04:19
4. Le Roi du poing 04:51
5. Be the Knife 04:33
6. Libera 04:50
7. Puisse ma chair, même morte, se tenir encore debout 05:58
8. The Abode of the Dead 08:07
9. Sirius 06:32
10. Lamentations 03:54
11. There Is No Fear 03:56
12. Mantra 07:20
13. Void 24:08
******************************
Total playing time: 1:27:35

[more=Technical info]
Input File: 13 - Void.mp3
Channels : 2
Sample Rate : 44100
Precision : 16-bit
Duration : 00:24:08.16 = 63863636 samples = 108612 CDDA sectors
File Size : 58.1M
Bit Rate : 321k
Sample Encoding: MPEG audio (layer I, II or III)
Comments :
Title=Void
Artist=K.F.R (كافر)
Album=Ø
Tracknumber=13
Year=2016

[/more]

Register
(7) Ludwig Hagen, Ostinato, Rosen, RUSP73, SilentNidhogg, stub888, vasiljev_sergej,
Oct 14 2018, 17:42:17 K.F.R - Chute [demo] (2016)


*Artist: K.F.R
*Album: Chute [demo]
*Year: 2016
*Genre: Black Metal/Dark Ambient
*Country: France
*Format: mp3@CBR320kbps
*Size: 61MB

Tracklist:
1. I 03:59
2. II 04:22
3. III 06:22
4. IV 07:16
5. V 04:58
******************************
Total playing time: 26:57

[more=Technical info]
Input File: 03 - III.mp3
Channels : 2
Sample Rate : 44100
Precision : 16-bit
Duration : 00:06:22.72 = 16877864 samples = 28703.9 CDDA sectors
File Size : 15.4M
Bit Rate : 323k
Sample Encoding: MPEG audio (layer I, II or III)
Comments :
Title=III
Artist=K.F.R (كافر)
Album=ChutE (Demo)
Tracknumber=3
Year=2016

[/more]

Register
(9) kim666, Ludwig Hagen, Ostinato, Rosen, RUSP73, SilentNidhogg, stub888, vasiljev_sergej, Wolftribes,
Oct 14 2018, 17:21:13 K.F.R - Goat [demo] (2015)


*Artist: K.F.R
*Album: Goat [demo]
*Year: 2015
*Genre: Black Metal/Dark Ambient
*Country: France
*Format: mp3@CBR320kbps
*Size: 75MB

Tracklist:
1. Astral Temple Part I 03:31
2. Imago 05:03
3. Bad Dream 04:16
4. You've crossed the line 05:52
5. Goat 03:12
6. Astral Temple Part II 06:42
7. Oraison Funèbre 03:49
******************************
Total playing time: 32:25

[more=Technical info]
Input File: 03 - Bad Dream.mp3
Channels : 2
Sample Rate : 44100
Precision : 16-bit
Duration : 00:04:16.77 = 11323733 samples = 19258 CDDA sectors
File Size : 10.4M
Bit Rate : 324k
Sample Encoding: MPEG audio (layer I, II or III)
Comments :
Title=Bad Dream
Artist=K.F.R (كافر)
Album=GOAT (demo)
Tracknumber=3
Year=2015

[/more]

Register
(8) 1968_janeart, Ludwig Hagen, Ostinato, Rosen, RUSP73, SilentNidhogg, stub888, vasiljev_sergej,
Oct 13 2018, 21:52:49 Thaclthi - ...Erat Ante Oculos (2013)
Register
(1) satanist666,
Oct 5 2018, 18:28:52 Acolytes Of Moros - The Wellspring (2018)


*Artist: Acolytes Of Moros
*Album: The Wellspring
*Year: 2018
*Genre: Doom Metal
*Country: Sweden
*Format: mp3@CBR320kbps
*Size: 124MB

Tracklist:
1. Disenthralled from the Trammels of Deception 11:36
2. A Yen to Relinquish and Evanesce 14:11
3. Forbearance 06:41 instrumental
4. Quotidian 13:01
5. Venerate the Dead 10:38
******************************
Total playing time: 56:07

[more=Technical info]
Input File: acolytes of moros - the wellspring - 01 disenthralled from the trammels of deception.mp3
Channels : 2
Sample Rate : 44100
Precision : 16-bit
Duration : 00:11:37.09 = 30741801 samples = 52282 CDDA sectors
File Size : 27.9M
Bit Rate : 320k
Sample Encoding: MPEG audio (layer I, II or III)
Comments :
Title=Disenthralled from the Trammels of Deception
Artist=Acolytes of Moros
Album=The Wellspring
Tracknumber=1
Year=2018

[/more]

Register
(14) desekrator, EpicDoomLord, gena, Korpse, marilin, metala, Ostinato, Protey, Rosen, skidnik, stub888, tOmV, VALERY, VTX,
Oct 4 2018, 19:19:27 Blasphemy - Blood Upon The Soundspace [demo] (2018)


*Artist: Blasphemy
*Album: Blood Upon The Soundspace [demo]
*Year: 2018
*Genre: Black/Death Metal
*Country: Canada
*Format: mp3@CBR320kbps
*Size: 31MB

Tracklist:
1. Darkness Prevails 04:22
2. Hording of Evil Vengeance 02:23
3. Desecration 02:23
4. Goddess of Perversity 03:28
5. War Command 00:45
******************************
Total playing time: 13:21

[more=Technical info]
Input File: 03 desecration.mp3
Channels : 2
Sample Rate : 44100
Precision : 16-bit
Duration : 00:02:26.76 = 6472292 samples = 11007.3 CDDA sectors
File Size : 5.87M
Bit Rate : 320k
Sample Encoding: MPEG audio (layer I, II or III)

[/more]

Register
(18) abob, Alexis The Best, biroutios, cancer1974, FUDEDOR, jpvalentim, kefka, lordbathor, marilin, Rosen, RUSP73, soulskinner681, spiritualdecay666, stub888, Styx, varg-38ru, vasiljev_sergej, wgs73,
Oct 3 2018, 20:56:52 Blasphemy - Victory (Son Of The Damned) [demo] (2018)


*Artist: Blasphemy
*Album: Victory (Son Of The Damned) [demo]
*Year: 2018
*Genre: Black/Death Metal
*Country: Canada
*Format: mp3@CBR320kbps
*Size: 113MB

Tracklist:
1. War Command 00:36
2. Blasphemous Attack / Gods of War 02:07
3. Demoniac 03:06
4. Victory (Son of the Damned) 04:41
5. Victory (Son of the Damned) 03:57
6. Goddess of Perversity 04:21
7. Fallen Angel of Doom 03:33
8. Darkness Prevails 03:33
9. The Desolate One 04:14
10. Desecration 02:17
11. Weltering in Blood 02:41
12. Blasphemy 03:41
13. Hording of Evil Vengeance 02:25
14. Nocturnal Slayer 02:46
15. Ritual 04:12
******************************
Total playing time: 48:10

[more=Technical info]
Input File: 04 victory (son of the damned).mp3
Channels : 2
Sample Rate : 48000
Precision : 16-bit
Duration : 00:04:41.42 = 13508352 samples ~ 21106.8 CDDA sectors
File Size : 11.6M
Bit Rate : 329k
Sample Encoding: MPEG audio (layer I, II or III)
Comments :
Title=Victory (Son of the Damned)
Artist=Blasphemy
Album=Victory (Son of the Damned)
Tracknumber=4
Year=2018
Genre=Black Metal

[/more]

Register
(28) aesteticvice, Amsterdam, andreikun, Anhra Mainyu, babanguida, biroutios, Dr.Grind Oim, gena, kefka, lordbathor, marilin, mort, Ostinato, Proteus_666, Rosen, RUSP73, sacrut, SilentNidhogg, soulskinner681, Storky, stub888, VALERY, Vlosinssrigg, vyacheslav, Wail, wgs73, Wolftribes, wtk.412,
Sep 27 2018, 16:40:33 Blasphemy - Victory (Son Of The Damned) [demo] (2018)


*Artist: Blasphemy
*Album: Victory (Son Of The Damned) [demo]
*Year: 2018
*Genre: Black Metal
*Country: Canada
*Format: mp3@VBR245kbps
*Size: 86MB

Tracklist:
1. War Command 00:36
2. Blasphemous Attack / Gods of War 02:07
3. Demoniac 03:06
4. Victory (Son of the Damned) 04:41
5. Victory (Son of the Damned) 03:57
6. Goddess of Perversity 04:21
7. Fallen Angel of Doom 03:33
8. Darkness Prevails 03:33
9. The Desolate One 04:14
10. Desecration 02:17
11. Weltering in Blood 02:41
12. Blasphemy 03:41
13. Hording of Evil Vengeance 02:25
14. Nocturnal Slayer 02:46
15. Ritual 04:12
******************************
Total playing time: 48:10

[more=Technical info]
Input File: blasphemy - victory (son of the damned) - 01 war command.mp3
Channels : 2
Sample Rate : 44100
Precision : 16-bit
Duration : 00:00:36.41 = 1605857 samples = 2731.05 CDDA sectors
File Size : 1.25M
Bit Rate : 274k
Sample Encoding: MPEG audio (layer I, II or III)
Comments :
Title=War Command
Artist=Blasphemy
Album=Victory (Son of the Damned)
Tracknumber=1
Year=2018

[/more]

Register
(9) acerbus, Alexis The Best, FUDEDOR, kefka, Rosen, RUSP73, stub888, varg-38ru, vasiljev_sergej,
Sep 21 2018, 18:23:06 Black Cilice - A Corpse, A Temple (2011)
Register
(2) Alexis The Best, varg-38ru,
Sep 18 2018, 20:50:30 Psychotic Homicidal Dismemberment - Ed Gein (2011)


*Artist: Psychotic Homicidal Dismemberment
*Album: Ed Gein
*Year: 2011
*Genre: Brutal Death Metal/Grindcore
*Country: United States
*Format: mp3@CBR320kbps
*Size: 59MB

Tracklist:
1. Deranged 03:30
2. Odd 02:29
3. Exhuming Bodies 03:24
4. Gruesome Collection 4:39
5. Hollowed Carcass 05:28
6. Skinned Face 04:20
******************************
Total playing time: 23:50

[more=Technical info]
Input File: 03 Exhuming Bodies.mp3
Channels : 2
Sample Rate : 44100
Precision : 16-bit
Duration : 00:03:24.40 = 9014172 samples = 15330.2 CDDA sectors
File Size : 12.8M
Bit Rate : 500k
Sample Encoding: MPEG audio (layer I, II or III)
Comments :
Title=Exhuming Bodies
Artist=Psychotic Homicidal Dismemberment
Album=Ed Gein
Tracknumber=3/6
Year=2011
Genre=Goregrind

[/more]

Register
(6) BemoaningSign, jollo, metala, Rosen, Svafrlami, Герб,
Sep 18 2018, 20:20:56 Psychotic Homicidal Dismemberment - A Tribute To Albert Fish [ep] (2008)


*Artist: Psychotic Homicidal Dismemberment
*Album: A Tribute To Albert Fish [ep]
*Year: 2008
*Genre: Brutal Death Metal/Grindcore
*Country: United States
*Format: mp3@CBR320kbps
*Size: 43MB

Tracklist:
1. The Elderly Gray Man 03:49
2. Flesh and Blood From Grace Budd 04:59
3. Grotesque Recipe 04:15
4. Albert Fishes Favorite Dishes 03:49
5. Violent Perversions 03:34
******************************
Total playing time: 20:26

[more=Technical info]
Input File: 01 The Elderly Gray Man.mp3
Channels : 2
Sample Rate : 44100
Precision : 16-bit
Duration : 00:03:48.20 = 10063620 samples = 17115 CDDA sectors
File Size : 9.97M
Bit Rate : 350k
Sample Encoding: MPEG audio (layer I, II or III)

[/more]

Register
(3) jollo, Pinhead666, Rosen,
Sep 17 2018, 12:45:44 Xasthur - Sigils Made Of Flesh And Trees (2017)


*Artist: Xasthur
*Album: Sigils Made Of Flesh And Trees
*Year: 2017
*Genre: Black Metal
*Country: United States
*Format: mp3@CBR320kbps
*Size: 93MB

Tracklist:
Side A
1. The Awakening to the Unknown Perception of Evil 07:03
2. Tyrant of Nightmares 06:28
3. Intro 00:57
4. Sigils Made of Flesh and Trees 05:07
5. Blood from the Roots of the Forest, Part 2 01:27
Side B
6. Blood from the Roots of the Forest, Part 1 08:27
7. Intro 01:07
8. Bleak Necrotic Paleness 02:20
9. Reflecting Hateful Energy 07:40
10. Outro 01:00
******************************
Total playing time: 41:36

[more=Technical info]
Input File: 02. tyrant of nightmares.mp3
Channels : 2
Sample Rate : 44100
Precision : 16-bit
Duration : 00:06:28.28 = 17122928 samples = 29120.6 CDDA sectors
File Size : 15.5M
Bit Rate : 320k
Sample Encoding: MPEG audio (layer I, II or III)
Comments :
Title=Tyrant Of Nightmares
Artist=Xasthur
Album=Sigils Made Of Flesh And Trees
Genre=Black Metal

[/more]

Register
(37) 0x13, 1968_janeart, artscald, Black Cat, craP_cillA, Daale, Doooomed, Evilded, featb, heinz88, hpc, igore2911, infiltrator, legion01, Mist13Signifier, MMMMM, Moonshtook, Naarseth, nikolay81, Orkkh, Ostinato, Panacea, Razorbladeswaltz, recber, Rikardo90, Rosen, SadistikSlayer, SilentNidhogg, soulskinner681, stub888, the_cleanser, VALERY, varg-38ru, vasiljev_sergej, Wolftribes, wtk.412, ZA670,
Sep 6 2018, 20:45:43 Ennui - End Of The Circle (2018)
Register
(4) Evgundel, Femto, Mirddin, Scorpi,
Aug 26 2018, 17:40:35 Enoid - My Hate For This World (2008)


*Artist: Enoid
*Album: My Hate For This World
*Year: 2008
*Genre: Black Metal
*Country: Switzerland
*Format: mp3@CBR128kbps
*Size: 24MB

Tracklist:
1. Dernière pensée
2. Souffrances
3. Vivir Aqui
4. Infernal
5. The Darkening of My Soul
6. My Hate for This World
******************************
Total playing time: 26:08

[more=Technical info]
Input File: 06.enoid - my hate for this world.mp3
Channels : 2
Sample Rate : 44100
Precision : 16-bit
Duration : 00:05:11.80 = 13750380 samples = 23385 CDDA sectors
File Size : 4.99M
Bit Rate : 128k
Sample Encoding: MPEG audio (layer I, II or III)

[/more]

Register
(9) 1968_janeart, craP_cillA, Ildjarn, infiltrator, kim666, Rosen, RUSP73, Svafrlami, vasiljev_sergej,
Aug 24 2018, 18:18:28 Psychotic Homicidal Dismemberment - Richard Kuklinski (2010)


*Artist: Psychotic Homicidal Dismemberment
*Album: Richard Kuklinski
*Year: 2010
*Genre: Brutal Death Metal/Grindcore
*Country: United States
*Format: mp3@CBR320kbps
*Size: 80MB

Tracklist:
1. Just a Murderer
2. Massive Body Count
3. Watch'em As They Die
4. Drowning in Blood
5. Redlight Execution
6. Dismembered and Shipped
7. Torture on Film
8. Every Person's Nightmare
9. Revenge by Fire
10. Deadly Christmas Eve
******************************
Total playing time: 38:32

[more=Technical info]
Input File: 03 watch'em as they die.mp3
Channels : 2
Sample Rate : 44100
Precision : 16-bit
Duration : 00:03:38.51 = 9636247 samples = 16388.2 CDDA sectors
File Size : 8.99M
Bit Rate : 329k
Sample Encoding: MPEG audio (layer I, II or III)

[/more]

Register
(7) jollo, metala, METALHUNTER, PerYngveOhlin, Rosen, Svafrlami, vyacheslav,
Aug 19 2018, 18:05:16 Rainha Cólera - Mother Of All Diseases [demo] (2013)


*Artist: Rainha Cólera
*Album: Mother Of All Diseases [demo]
*Year: 2013
*Genre: Raw Black Metal/Noise
*Country: Portugal
*Format: mp3@CBR320kbps
*Size: 188MB

Tracklist:
1. Untitled 46:45
2. Untitled 47:09
******************************
Total playing time: 1:33:54

[more=Technical info]
Input File: 01 untitled.mp3
Channels : 2
Sample Rate : 44100
Precision : 16-bit
Duration : 00:43:02.67 = 113895571 samples = 193700 CDDA sectors
File Size : 103M
Bit Rate : 320k
Sample Encoding: MPEG audio (layer I, II or III)
Comments :
Title=Untitled
Artist=Rainha Cólera
Album=Mother Of All Diseases
Tracknumber=1
Year=2013
Genre=Raw Black Metal/Noise

[/more]

Register
(8) 1968_janeart, artscald, infiltrator, Rosen, RUSP73, stub888, varg-38ru, vasiljev_sergej,
Aug 14 2018, 22:31:30 K.F.R - ANTI (2014)
Register
(1) varg-38ru,
Aug 13 2018, 13:19:43 Lampir - The Alchemy Of Cursed Blood (2018)
Register
(2) artscald, heinz88,
Jul 9 2018, 10:16:27 Judas Iscariot - An Ancient Starry Sky (2018)
Register
(27) A.L.Rapsod, Anhra Mainyu, BERZERK, Black Cat, Disgorge666, Evilded, garmonbozia, helvetestoner, infiltrator, madskot, maochen, mardak666, marilin, Narasimha, nikolay81, peppuzzo, pirata, QuadenThyrane, RAMBLA, Razorbladeswaltz, recber, sethurius, sksxxx, stub888, thenecromancer, wolverine, wtk.412,
Jul 8 2018, 15:42:00 Judas Iscariot - An Ancient Starry Sky (2018)


*Artist: Judas Iscariot
*Album: An Ancient Starry Sky
*Year: 2018
*Genre: Black Metal
*Country: United States
*Format: mp3@CBR320kbps
*Size: 117MB

Tracklist:
1. Armageddon 07:53
2. Black Eternal Winds 12:03
3. Outro 04:15
4. Babylon in Ruin 06:45
5. Unholy Victory 03:40
6. In den Qualen der Hölle 02:58
7. The Cold Earth 06:16
8. Extinction 07:00
******************************
Total playing time: 50:50


[more=Technical info]
Input File: Judas Iscariot - An Ancient Starry Sky - 02 Unholy Victory.mp3
Channels : 2
Sample Rate : 44100
Precision : 16-bit
Duration : 00:03:40.75 = 9734899 samples = 16556 CDDA sectors
File Size : 8.94M
Bit Rate : 324k
Sample Encoding: MPEG audio (layer I, II or III)
Comments :
Title=Unholy Victory
Artist=Judas Iscariot
Album=An Ancient Starry Sky
Tracknumber=2
Year=2018

[/more]

Register
(64) 0x13, 1968_janeart, andeimon, Aresson, artscald, Black Cat, cancer1974, cesar, Daale, DarkHorde, Disgorge666, doomTemplar, Emhyr var Emreis, Fess, Filosofem91, garmonbozia, gusto24191, Hell_Is_Here, igore2911, Ildjarn, infiltrator, ji_indur, judaz, Kehl05, Konst, Krosis, Lanceatum, Legacy100, LEGION69, marilin, MMMMM, Moonshtook, NekromantikSummoning, nsk2008, older68, Orkkh, Ostinato, pfk505, Pinhead666, Precaria, princeshr, QuadenThyrane, rammstein888, recber, ripper33, Rosen, RUSP73, sandr666, Scuns, SilentNidhogg, stub888, the_cleanser, Thunderbird, Tino, VALERY, varg-38ru, varg23, vasiljev_sergej, VECTOR, wolverine, ZambuL, zavhoz, zelda, zotyo1975,
Jul 2 2018, 12:57:25 Striborg - Rubus Fruticosus Entanglement [single] (2016)


*Artist: Striborg
*Album: Rubus Fruticosus Entanglement [single]
*Year: 2016
*Genre: Black Metal/Ambient
*Country: Australia
*Format: mp3@CBR215kbps
*Size: 10MB

Tracklist:
1. Rubus Fruticosus Entanglement 05:49
******************************
Total playing time: 5:49

[more=Technical info]
Input File: 01-rubus fruticosus entanglement.mp3
Channels : 2
Sample Rate : 44100
Precision : 16-bit
Duration : 00:05:49.52 = 15413744 samples = 26213.9 CDDA sectors
File Size : 9.95M
Bit Rate : 228k
Sample Encoding: MPEG audio (layer I, II or III)
Comments :
Title=Rubus Fruticosus Entanglement
Artist=Striborg
Year=2016

[/more]

Register
(1) Occultas,
Jun 12 2018, 19:12:00 Killing Joke - Pylon (2015)


*Artist: Killing Joke
*Album: Pylon
*Year: 2015
*Genre: Industrial Metal/Post-Punk
*Country: United Kingdom
*Format: mp3@CBR320kbps
*Size: 127MB

Tracklist:
1 Autonomous Zone 6:44
2 Dawn Of The Hive 6:29
3 New Cold War 6:51
4 Euphoria 4:17
5 New Jerusalem 6:11
6 War On Freedom 4:40
7 Big Buzz 5:03
8 Delete 5:00
9 I Am The Virus 5:39
10 Into The Unknown 6:15
******************************
Total playing time: 57:09

[more=Technical info]
Input File: 07 - Big Buzz.mp3
Channels : 2
Sample Rate : 44100
Precision : 16-bit
Duration : 00:05:03.00 = 13362256 samples = 22724.9 CDDA sectors
File Size : 12.2M
Bit Rate : 323k
Sample Encoding: MPEG audio (layer I, II or III)
Comments :
Title=Big Buzz
Artist=Killing Joke
Album=Pylon
Tracknumber=7/10
Year=2015
Genre=Industrial

[/more]

Register
(5) dk201x, gwar, Ludwig Hagen, mirotvorets, VALERY,

4 Pages V   1 2 3 > » 
- Lo-Fi Version Support form
Copyrights and abuse reports form
Time is now: 21st October 2018 - 13:48:14