Welcome Guest ( Log In | Register )

История благодарностей участнику LazarShadow ::: Спасибо сказали: 452 раз(а)
Дата поста: В теме: За сообщение: Спасибо сказали:
Jun 12 2018, 19:12:00 Killing Joke - Pylon (2015)


*Artist: Killing Joke
*Album: Pylon
*Year: 2015
*Genre: Industrial Metal/Post-Punk
*Country: United Kingdom
*Format: mp3@CBR320kbps
*Size: 127MB

Tracklist:
1 Autonomous Zone 6:44
2 Dawn Of The Hive 6:29
3 New Cold War 6:51
4 Euphoria 4:17
5 New Jerusalem 6:11
6 War On Freedom 4:40
7 Big Buzz 5:03
8 Delete 5:00
9 I Am The Virus 5:39
10 Into The Unknown 6:15
******************************
Total playing time: 57:09

[more=Technical info]
Input File: 07 - Big Buzz.mp3
Channels : 2
Sample Rate : 44100
Precision : 16-bit
Duration : 00:05:03.00 = 13362256 samples = 22724.9 CDDA sectors
File Size : 12.2M
Bit Rate : 323k
Sample Encoding: MPEG audio (layer I, II or III)
Comments :
Title=Big Buzz
Artist=Killing Joke
Album=Pylon
Tracknumber=7/10
Year=2015
Genre=Industrial

[/more]

Register
(4) dk201x, gwar, mirotvorets, VALERY,
Jun 12 2018, 19:07:30 Wømb - Taciturn [ep] (2018)


*Artist: Wømb
*Album: Taciturn [ep]
*Year: 2018
*Genre: Black Metal
*Country: Portugal
*Format: mp3@CBR320kbps
*Size: 37MB

Tracklist:
1. He is the Preacher of the Gods 01:49
2. In the Abyss of this Darkness in which the Spirit has Died to Itself 01:56
3. Nychthemeral 01:46
4. Master/Slave 01:05
5. Ritual Union Through Sex Magick 03:00
6. Hic Est Sanguis Meus 01:57
7. Ekénōsen 02:35
******************************
Total playing time: 14:08

[more=Technical info]
Input File: 01 - Wømb - He is the Preacher of the Gods.mp3
Channels : 2
Sample Rate : 44100
Precision : 16-bit
Duration : 00:01:49.02 = 4807870 samples = 8176.65 CDDA sectors
File Size : 4.44M
Bit Rate : 326k
Sample Encoding: MPEG audio (layer I, II or III)
Comments :
Title=01 - WГёmb - He is the Preacher of the Gods
Artist=WГёmb
Album=Taciturn
Tracknumber=1
Year=2017

[/more]

Register
(19) 1968_janeart, Alexis The Best, Boozer, Daale, Fryz, FUDEDOR, Hell_Is_Here, INDARKNESS, kim666, nsk2008, Ostinato, Rosen, RUSP73, satanist666, sethurius, stub888, VALERY, varg-38ru, vasiljev_sergej,
May 20 2018, 13:25:31 Blasphemy - Gods of War (1992)
320 kbps
Register
(1) babanguida,
May 6 2018, 21:40:44 Elysian Blaze - The Virtue Of Suffering [single] (2018)


*Artist: Elysian Blaze
*Album: The Virtue Of Suffering [single]
*Year: 2018
*Genre: Black/Funeral Doom Metal
*Country: Australia
*Format: mp3@CBR320kbps
*Size: 43MB

Tracklist:
1. The Virtue of Suffering 18:49
******************************
Total playing time: 18:49



[more=Technical info]
Input File: Elysian Blaze - The Virtue of Suffering.mp3
Channels : 2
Sample Rate : 44100
Precision : 16-bit
Duration : 00:18:50.03 = 49834411 samples = 84752.4 CDDA sectors
File Size : 45.2M
Bit Rate : 320k
Sample Encoding: MPEG audio (layer I, II or III)
Comments :
Title=The Virtue of Suffering
Artist=Elysian Blaze
Year=2018

[/more]

Register
(28) 1968_janeart, ASkyThatBurns, BERZERK, corgoroth, d0zer, Doooomed, ENDSMOUTH, Fryz, Geisteswaffe, Hell_Is_Here, Immortality, INDARKNESS, Infidel, infozahist, KVRT, LastSupper, libertine, marilin, Mortuusinfernus, NachtWulf, Rosen, satanist666, smes, stub888, thenecromancer, VALERY, vasiljev_sergej, Wolftribes,
Apr 30 2018, 21:41:42 Funereal Moon - Evil Night Of Heresy (2011)
Re-upload this album. pray.gif
(1) thenecromancer,
Apr 6 2018, 17:29:43 Utarm - Thanatophilia [best of/compilation] (2009)
320 kbps
Register
(1) thenecromancer,
Apr 6 2018, 17:04:07 Utarm - Panic Chamber (2009)
320 kbps
Register
(1) thenecromancer,
Apr 1 2018, 20:21:17 Goli Deca - манија (2017)


*Artist: Goli Deca
*Album: манија
*Year: 2017
*Genre: Doom Metal/Experimental/Alternative Rock
*Country: Macedonia
*Format: mp3@CBR320kbps
*Size: 79MB

Tracklist:
1 сега си стварен (Now You Are Real) 6:00
2 бета предатор (Beta Predator) 8:44
3 прво бричење (First Shave) 1:33
4 глина (Clay) 5:14
5 второ бричење (Second Shave) 3:17
6 спиј (Sleep) 7:15
******************************
Total playing time: 32:03



[more=Technical info]
Input File: 01 - сега си стварен.mp3
Channels : 2
Sample Rate : 44100
Precision : 16-bit
Duration : 00:06:03.65 = 16036921 samples = 27273.7 CDDA sectors
File Size : 14.6M
Bit Rate : 322k
Sample Encoding: MPEG audio (layer I, II or III)
Comments :
Title=сега си стварен
Artist=ГОЛР? ДЕЦА
Album=маниС?Р°
Tracknumber=1
Year=2017

[/more]

Register
(8) csgmnk, ctulhudagon, kimkayoung, metala, Rosen, VALERY, varlam4, wreak,
Apr 1 2018, 19:29:56 Transhunter - Transhunter (2017)


*Artist: Transhunter
*Album: Transhunter
*Year: 2017
*Genre: Doom/Drone/Black Metal
*Country: Macedonia
*Format: mp3@CBR320kbps
*Size: 69MB

Tracklist:
1. Salute! 01:47
2. Archmartyr/Великомаченик 02:05
3. Two Masks (Or More)/Две маски (или повеќе) 02:26
4. Pain Zenith 01:56
5. Sovereignty of Hell 02:41
6. Organization/Организација 02:13
7. Same as You/Исто како ти 01:40
8. A Need to be Tamed 01:03
9. Beyond Symbolic Reality 06:31
10. P.F.S. 00:38
11. Of Survival 00:58
12. Albino Incest Angel/Албино инцест ангел 01:52
13. Heavenward! 03:57
******************************
Total playing time: 29:47



[more=Technical info]
Input File: TRANSHUNTER - s-t - 01 SALUTE!.mp3
Channels : 2
Sample Rate : 44100
Precision : 16-bit
Duration : 00:01:47.58 = 4744366 samples = 8068.65 CDDA sectors
File Size : 4.42M
Bit Rate : 329k
Sample Encoding: MPEG audio (layer I, II or III)
Comments :
Title=SALUTE!
Artist=TRANSHUNTER
Album=s/t
Tracknumber=1
Year=2017
Genre=Doom Metal, Industrial

[/more]

Register
(6) Rosen, SilentNidhogg, stub888, varlam4, vasiljev_sergej, wreak,
Mar 31 2018, 11:14:43 Deathstench - Nekro Blood Ritual [demo] (2013)


*Artist: Deathstench
*Album: Nekro Blood Ritual [demo]
*Year: 2013
*Genre: Raw Black Metal/Drone/Dark Ambient/Noise
*Country: United States
*Format: mp3@CBR320kbps
*Size: 73MB

Tracklist:
A1 Chalice Of Maggots
A2 Blood On Black Books
A3 Nekrobloodritual
B1 Death Throes
B2 Desecration Of The Host
B3 Burning Ov Entrails
******************************
Total playing time: 31:58



[more=Extended info]Label: Fall Of Nature Records ‎– FN14
Format: Cassette, Limited Edition
Country: Australia
Released: Mar 2013
Genre: Electronic, Rock
Style: Noise, Doom Metal, Dark Ambient [/more]

[more=Technical info]
Input File: A03 NEKROBLOODRITUAL.mp3
Channels : 2
Sample Rate : 44100
Precision : 16-bit
Duration : 00:05:34.60 = 14755904 samples = 25095.1 CDDA sectors
File Size : 13.4M
Bit Rate : 320k
Sample Encoding: MPEG audio (layer I, II or III)
Comment : 'Year=2013'

[/more]

Register
(6) Hell_Is_Here, infiltrator, Rosen, stub888, varlam4, vasiljev_sergej,
Mar 30 2018, 10:58:00 Goatpenis - Apocalypse War (2016)
2016 Apocalypse War
Register
(3) mardak666, thenecromancer, VerminGhost,
Feb 16 2018, 21:55:09 Welter In Thy Blood - Through The Fields Of Mourning (2010)
Register
(3) Ostinato, Sanc, varg-38ru,
Feb 16 2018, 20:53:06 Deathstench - Massed In Black Shadow (2013)
WAV rip of the album
Register
(3) Alexis The Best, marilin, varlam4,
Feb 15 2018, 20:07:47 Black Crow King & Thoreous - The Grace Of Pettiness [split] (2013)


*Artist: Black Crow King & Thoreous
*Album: The Grace Of Pettiness [split]
*Year: 2013
*Genre: Blackened Drone/Doom Metal | Drone/Doom Metal
*Country: Unknown | Germany
*Format: mp3@CBR320kbps
*Size: 161MB

Tracklist:
Thoreous:
1. Tryin' the Veins Seesaw Fed on the Mirth of Drugs Deaths Drippin' Down the Hatchets 08:12
2. To Mistake the Rectal Excommunications of Punchinello's Vestal Breast Milk 04:41
3. Cravings of Deveined Lambscreams Gassed for the Skinning of the Rocking Horse 06:07
4. The Genital Scalps of the SS Impressing Our Prurient Lollipop Balding 06:06
5. Occult Masturbation Wets the Sceptre of Darkness Injected 05:30
6. Ginger Faeces Embellish Shaved Infants Bodies by the Condolence of World Weariness 04:35
Black Crow King:
7. Skin Cage 10:15
8. Legacy of Dust 06:56
9. Ebony Wings 05:57
10. The Beast Within 11:23
******************************
Total playing time: 1:09:42




[more=Technical info]
Input File: Black Crow King-Thoreous - The Grace Of Pettiness - 07 Black Crow King - Skin Cage.mp3
Channels : 2
Sample Rate : 44100
Precision : 16-bit
Duration : 00:10:15.14 = 27127498 samples = 46135.2 CDDA sectors
File Size : 24.8M
Bit Rate : 322k
Sample Encoding: MPEG audio (layer I, II or III)
Comments :
Title=Black Crow King - Skin Cage
Artist=Black Crow King/Thoreous
Album=The Grace Of Pettiness
Tracknumber=7
Year=2013

[/more]

Register
(6) Hell_Is_Here, marilin, Rosen, stub888, varlam4, wreak,
Feb 15 2018, 17:21:19 Black Cilice - Curses And Oaths [best of/compilation] (2017)
File download limit exceeded. Oh, for fucks sake they're kidding me. :D Thank you again for uploading it on several other "file sharers".
(1) vosmidesijatye,
Feb 14 2018, 22:05:55 Black Cilice - Curses And Oaths [best of/compilation] (2017)


*Artist: Black Cilice
*Album: Curses And Oaths [best of/compilation]
*Year: 2017
*Genre: Raw Black Metal
*Country: Portugal
*Format: mp3@CBR320kbps
*Size: 322MB

Tracklist:
Disc 1
1. Invoking Ancient Evil 03:09
2. A New Order for a New Holocaust 05:36
3. Sacrifice Everything 07:08
4. Diseased and Left to Rot 04:04
5. War Against the Living 04:29
6. Superior Knowledge 05:35
7. Summoning Occult Sorcery 02:35
8. Covering My Hands with Blood 03:48
9. Empire of Extermination 02:27
10. Satanic Pestilence 05:40
11. Turn to Ashes... 03:29
12. Verses from the Abyss 03:04
13. Promise of Endless Fire 03:07
14. Rites of Diabolic Cruelty 02:33
15. The Call of Black Magic 03:51
16. To Murder, Part I 05:47
17. To Murder, Part II 04:16
18. Crawling Through Bloodsoaked Chambers 06:34

Disc 2
1. Tomb of Endless Curses 13:08
2. I Am the Eternal Fire Part I 03:25
3. I Am the Eternal Fire Part II 03:13
4. The Remains of a Malign Past 04:16
5. Cursed Words of Fire and Blood 05:10
6. The Fetid Stench of Burnt Rats 03:34
7. Nocturnal Deambulations 03:00
8. A Scepter to Rule the Dead 05:45
9. Moon of Murder 06:30
10. Lunar Mantle 06:21
11. Telepathic Ceremony 06:06
12. Gathering Human Bones 05:16
******************************
Total playing time: 2:22:56

[more=Technical info]
Input File: 102. A New Order for a New Holocaust.mp3
Channels : 2
Sample Rate : 44100
Precision : 16-bit
Duration : 00:05:35.63 = 14801239 samples = 25172.2 CDDA sectors
File Size : 13.4M
Bit Rate : 320k
Sample Encoding: MPEG audio (layer I, II or III)
Comments :
Title=A New Order for a New Holocaust
Artist=Black Cilice
Album=Curses and Oaths
Tracknumber=02/18
Year=2017
Genre=Black Metal
Discnumber=1/2

[/more]

Register
(7) FUDEDOR, sethurius, stub888, the_cleanser, Tino, vasiljev_sergej, wtk.412,
Feb 13 2018, 13:40:20 Gnaw Their Tongues - Genocidal Majesty (2018)


*Artist: Gnaw Their Tongues
*Album: Genocidal Majesty
*Year: 2018
*Genre: Black Metal/Noise/Experimental
*Country: Netherlands
*Format: mp3@CBR320kbps
*Size: 73MB

Tracklist:
1. Death Leaves The World 03:23
2. Spirits Broken By Swords 02:48
3. Genocidal Majesty 04:09
4. Ten Bodies Hanging 03:47
5. The Doctrine Of Paranoid Seraphims 04:06
6. Cold Oven 04:51
7. The Revival Of Inherited Guilt 04:14
8. To Bear Witness To The Truth 04:00
******************************
Total playing time: 35:52



[more=Technical info]
Input File: 05. The Doctrine of Paranoid Seraphims.mp3
Channels : 2
Sample Rate : 44100
Precision : 16-bit
Duration : 00:04:06.26 = 10859890 samples = 18469.2 CDDA sectors
File Size : 10.0M
Bit Rate : 326k
Sample Encoding: MPEG audio (layer I, II or III)
Comments :
Title=The Doctrine of Paranoid Seraphims
Artist=Gnaw Their Tongues
Album=Genocidal Majesty
Tracknumber=5/8
Year=2018
Genre=avant-garde black metal

[/more]

Register
(32) 555, Aresson, BERZERK, Demonologist, Emhyr var Emreis, featb, GFW, Hell_Is_Here, Infidel, judaz, kefka, kimkayoung, marilin, Ostinato, princeshr, Razorbladeswaltz, Rosen, RUSP73, Sevatarion, SilentNidhogg, sksxxx, stub888, Tyrone, VALERY, varg-38ru, varlam4, vasiljev_sergej, vosmidesijatye, Wolftribes, wtk.412, yuratroll, zwieback,
Feb 13 2018, 00:13:24 Creamface - Pay No More Than 10€ (2006)
320 kbps
Register
(2) olegator, satanist666,
Feb 12 2018, 23:51:22 Creamface - Tied Down And Fucked Hard (2005)
Tied Down and Fucked Hard 320 kbps
Register
(1) Fenrirsson,
Feb 12 2018, 22:42:37 The Funeral Orchestra - Den Mörka Shamanens Glöd [single] (2015)


*Artist: The Funeral Orchestra
*Album: Den Mörka Shamanens Glöd [single]
*Year: 2015
*Genre: Funeral Doom
*Country: Sweden
*Format: mp3@CBR320kbps
*Size: 38MB

Tracklist:
1. Den mörka shamanens glöd 17:38
******************************
Total playing time: 17:38



[more=Extended info]Originally released on the split 12" vinyl "The Northern Lights II" by Aftermath Music.

Remastered for Bandcamp.[/more]

[more=Technical info]
Input File: 01 - The Funeral Orchestra - Den Mörka Shamanens Glöd.mp3
Channels : 2
Sample Rate : 44100
Precision : 16-bit
Duration : 00:17:24.53 = 46063685 samples = 78339.6 CDDA sectors
File Size : 41.8M
Bit Rate : 320k
Sample Encoding: MPEG audio (layer I, II or III)
Comments :
Title=Den Mörka Shamanens Glöd
Artist=The Funeral Orchestra
Album=Den Mörka Shamanens Glöd
Tracknumber=1
Year=2015
Genre=Metal

[/more]

Register
(1) milosdjor,
Feb 12 2018, 21:23:52 Wreck Of The Hesperus - Sediment (2016)


*Artist: Wreck Of The Hesperus
*Album: Sediment
*Year: 2016
*Genre: Sludge/Funeral Doom Metal
*Country: Ireland
*Format: mp3@CBR320kbps
*Size: 104MB

Tracklist:
1. Erosion (Death's White Lustre) 20:35
2. All Life in Death (Sediment) 23:56
******************************
Total playing time: 44:31

[more=Technical info]
Input File: Wreck Of The Hesperus - Sediment - 01 - Erosion (Death's White Lustre).mp3
Channels : 2
Sample Rate : 44100
Precision : 16-bit
Duration : 00:20:35.21 = 54472937 samples = 92641 CDDA sectors
File Size : 49.7M
Bit Rate : 322k
Sample Encoding: MPEG audio (layer I, II or III)
Comments :
Title=Erosion (Death's White Lustre)
Artist=Wreck Of The Hesperus
Album=Sediment
Tracknumber=1
Year=2016
Genre=Sludge/Funeral Doom Metal

[/more]

Register
(15) gena, Hell_Is_Here, Jurmagund, kefka, marilin, Ostinato, princeshr, Rosen, SatanicPanzer, stub888, thenecromancer, Tino, VALERY, varlam4, wreak,
Feb 12 2018, 20:55:57 Bone Ritual - Bone Ritual [demo] (2009)
VBR re-upload
Register
(2) satanist666, varg-38ru,
Feb 12 2018, 16:04:50 Rotorvator - I Vivi E I Morti (2013)
320 kbps
Register
(1) wendigo,
Feb 12 2018, 14:33:06 Wreck Of The Hesperus - The Sunken Threshold (2006)
WAV
Register
(1) thenecromancer,
Feb 12 2018, 14:25:09 Enbilulugugal - The Day After (2013)
WAV
Register
(1) varg-38ru,

3 Pages V   1 2 3 >
- Lo-Fi Version Support form
Copyrights and abuse reports form
Time is now: 23rd June 2018 - 08:59:03