Welcome Guest ( Log In | Register )

История благодарностей участнику LazarShadow ::: Спасибо сказали: 1607 раз(а)
Дата поста: В теме: За сообщение: Спасибо сказали:
Jun 27 2020, 14:41:54 May Result - Tmina (2020)


*Artist: May Result
*Album: Tmina
*Year: 2020
*Genre: Symphonic Black Metal
*Country: Serbia
*Format: mp3@CBR320kbps
*Size: 102MB

Tracklist:
1. (Oganj) My Martyred Soul 08:24
2. Thy Last War of Times 04:45
3. Stars Hysteria 04:46
4. Nocturnal Pedigree 03:56
5. Začaran 05:37
6. Coldwinds Dominion (Son Of Stribog) 08:11
7. Jata Moja Crna (Tmina Praskozorja) 08:02
******************************
Total playing time: 43:41



[more=Technical info]
Input File: May Result - Tmina - 07 Jata Moja Crna (Tmina Praskozorja).mp3
Channels : 2
Sample Rate : 44100
Precision : 16-bit
Duration : 00:08:02.93 = 21297037 samples = 36219.5 CDDA sectors
File Size : 19.4M
Bit Rate : 321k
Sample Encoding: MPEG audio (layer I, II or III)
Comments :
Title=Jata Moja Crna (Tmina Praskozorja)
Artist=May Result
Album=Tmina
Tracknumber=7
Year=2020

[/more]

Register
(24) ahp, alikkon, atavist, chipsgott, demonosz, Der_Hexer, gav-gafi, Hell_Is_Here, infiltrator, Lukittaz, metala, Olethros, Orgasmik, randumbum, robertho777, senecazm, sergsazan, Shadechaser, SilentNidhogg, toly1917, VALERY, varlam4, vasiljev_sergej, Сварог Барг,
Jun 27 2020, 14:20:48 Lamp Of Murmuur - Cursed Deambulations Of The Nocturnal Entities [ep] (2020)


*Artist: Lamp Of Murmuur
*Album: Cursed Deambulations Of The Nocturnal Entities [ep]
*Year: 2020
*Genre: Dungeon Synth
*Country: United States
*Format: mp3@CBR320kbps
*Size: 72MB

Tracklist:
1. To Ravish the Living 03:32
2. Under Murmuur's Command: The Blood Moon Lunacy 09:53
3. Midnight Lust 02:46
4. Romantic Vigil of the Undying 04:38
5. Drowning My Memories in a Sea of Spectral Fog 04:54
6. Morbid Poetry (In the Name of the Levitating Priestess) 05:24
******************************
Total playing time: 31:07



[more=Technical info]
Input File: Lamp Of Murmuur - Cursed Deambulations Of The Nocturnal Entities (Demo) - 05 Drowning My Memories In A Sea Of Spectral Fog.mp3
Channels : 2
Sample Rate : 44100
Precision : 16-bit
Duration : 00:04:54.70 = 12996402 samples = 22102.7 CDDA sectors
File Size : 11.9M
Bit Rate : 322k
Sample Encoding: MPEG audio (layer I, II or III)
Comments :
Title=Drowning My Memories In A Sea Of Spectral Fog
Artist=Lamp Of Murmuur
Album=Cursed Deambulations Of The Nocturnal Entities (Demo)
Tracknumber=5
Year=2020

[/more]

Register
(14) Alexis The Best, craP_cillA, Daale, FUDEDOR, garmonbozia, grimoir, Hell_Is_Here, infiltrator, Lamby90, nemx, Olethros, Panacea, Torolv, vasiljev_sergej,
May 28 2020, 20:47:16 Bethor - Natas Liah (2020)


*Artist: Bethor
*Album: Natas Liah
*Year: 2020
*Genre: Black Metal
*Country: Serbia
*Format: mp3@CBR320kbps
*Size: 77MB

Tracklist:
1. Novi Eon 02:10
2. Kosmokrator 03:11
3. Terrible Despairs 01:57
4. Nihilist 03:04
5. Bogovi ponoći 03:21
6. Deluzija 03:16
7. Natas Liah 04:09
8. Lightning 03:34
9. A Fine Day to Die (Bathory cover in Serbian) 09:01
******************************
Total playing time: 33:43

[more=Extended info]Recorded at Paradox Studio, between January and March, 2019.[/more]

[more=Technical info]
Input File: 09 A Fine Day to Die (Bathory cover in Serbian).mp3
Channels : 2
Sample Rate : 44100
Precision : 16-bit
Duration : 00:09:01.29 = 23870757 samples = 40596.5 CDDA sectors
File Size : 21.7M
Bit Rate : 320k
Sample Encoding: MPEG audio (layer I, II or III)

[/more]

Register
(15) 1968_janeart, Alexis The Best, atavist, DarkHorde, infiltrator, kim666, multizwilling, Olethros, randumbum, Rosen, SilentNidhogg, toly1917, VALERY, varlam4, vasiljev_sergej,
May 22 2020, 08:13:09 Brahmastrika - Excarnastrial Commencination [demo] (2019)
QUOTE(seightin @ May 14 2020, 04:26:18) *
Yes pls


When I have money I'll buy Nirriti. I'm low on chash now. This Covid-19 shit was a bad, bad thing for my budget.
(2) babanguida, wolverine,
May 20 2020, 01:24:12 Judas Iscariot - Аветињски Плес Сабласти [compilation] (2002)


*Artist: Judas Iscariot
*Album: Аветињски Плес Сабласти [compilation]
*Year: 2002
*Genre: Black Metal
*Country: United States
*Format: mp3@CBR320kbps
*Size: 130MB

Tracklist:
Side A
1. Пробудих се у ноћи бола и покоља 6:21
2. Купах се у облацима крви 3:21
3. Страва ca источњачког неба 3:44
4. Тамо где орлови плачу a лешинари се смеју 4:12
5. У долини смрти њихов сам краљ 6:40
6. Пожудом и смрћу до нашег напитка 4:27
Side B
7. Јагње господње ено пада 3:49
8. Аветињски плес сабласти 2:44
9. Мртви провалише из гробова 2:52
10. Покољ на месечини 5:35
11. Чекић смрти 4:59
12. Разапета доброта 5:16
13. Призивање пламена пакла 3:44
******************************
Total playing time: 57:44

[more=Extended info]Cassette, 300 copies.

"Аветињски плес сабласти" (Spectral Dance of the Macabre) is a compilation between the album "To Embrace the Corpses Bleeding" and EP "Moonlight Butchery".

The release states as follows (copied from the tape cover fold):
"This tape is a special exclusive limited tape version for Serbian and Macedonian maniacs ONLY! Copies found in other lands are to be considered unathaurized bootlegs! Thanks to Awaken Productions"

The tracklist is divided into three parts:
tracks 1-9 - Део први Освета (Part First Revenge):
tracks 10-12 - Део други Tуга (Part Second Sorrow)
track 13 - Део трећи Унатраг (Part third Backward)

Titles translations:
1. I Awoke to a Night of Pain and Carnage
2. Bathed in Clouds of Blood
3. Terror from the Eastern Sky
4. Where Eagles Cry and Vultures Laugh
5. In the Valley of Death, I Am Their King
6. With Lust and Murder for Our Drink
7. Behold the Lamb of God Descending
8. Spectral Dance of the Macabre
9. The Dead Burst Forth from Their Tombs
10. Moonlight Butchery
11. Death's Hammer
12. Benevolence Crucified
13. Conjuring Hell's Fire

Recording information:

Lyrics for first part are written in july 2001 in Sighișoara and Brașov, Romania.[/more]

[more=Technical info]
Input File: 5. U Dolini Smrti Njihov sam Kralj.mp3
Channels : 2
Sample Rate : 44100
Precision : 16-bit
Duration : 00:06:40.09 = 17643837 samples = 30006.5 CDDA sectors
File Size : 16.0M
Bit Rate : 320k
Sample Encoding: MPEG audio (layer I, II or III)
Comments :
Title=5. U Dolini Smrti Njihov sam K
Artist=Judas Iscariot
Album=Avetinjski Ples Sablasti
Tracknumber=5
Year=2002
Genre=Other

[/more]

Register
(34) Alexis The Best, Borderline1991, craP_cillA, Daale, ent404, Evilded, gena, heinz88, Hell_Is_Here, infiltrator, lestllk, lordbathor, Lucju, luxxul, metal73, Occultas, peppuzzo, recber, robertho777, Rosen, SaintVitus, satanist666, seadog, senecazm, stub888, supremo, Surt, the_cleanser, VALERY, varlam4, vasiljev_sergej, vovenom, Wail, Абигор,
May 10 2020, 07:57:46 Brahmastrika - Excarnastrial Commencination [demo] (2019)


*Artist: Brahmastrika
*Album: Excarnastrial Commencination [demo]
*Year: 2019
*Genre: Black/Death Metal/Noise
*Country: India
*Format: mp3@CBR320kbps
*Size: 50MB

Tracklist:
1. Mahakapalik Ashtakam 04:47
2. Irradiated Ejaculate onto the Swasti-Quasar 04:01
3. Frequencies of Armamentalized Suddhi 01:25
4. Chaturdasha Lokic Disruptors 04:10
5. Sulphurous Detonations Engulf the Throne of Elohim 10:03
******************************
Total playing time: 24:26



[more=Extended info]Arranged and recorded in in the Trenches Of Anga, 2019. All songs by Brahmastrika.[/more]

[more=Technical info]
Input File: 02-brahmastrika-irradiated_ejaculate_onto_the_swasti-quasar.mp3
Channels : 2
Sample Rate : 44100
Precision : 16-bit
Duration : 00:04:01.07 = 10631363 samples = 18080.5 CDDA sectors
File Size : 9.86M
Bit Rate : 327k
Sample Encoding: MPEG audio (layer I, II or III)
Comments :
Title=Irradiated Ejaculate onto the Swasti-Quasar
Artist=Brahmastrika
Album=Excarnastrial Commencination
Tracknumber=2/5
Year=2019
Genre=Black Metal

[/more]

Register
(18) acerbus, babanguida, Boozer, Chasm, Goatlord666, Hell_Is_Here, lestllk, lunaraurora, Occultas, Olethros, Rosen, sacrut, sethurius, umnaxtet, varlam4, vasiljev_sergej, Wail, wolverine,
Apr 24 2020, 20:53:18 Stumm - Stumm Is Dead [compilation] (2014)


*Artist: Stumm
*Album: Stumm Is Dead [compilation]
*Year: 2014
*Genre: Sludge/Drone/Doom Metal
*Country: Finland
*Format: mp3@CBR320kbps
*Size: 175MB

Tracklist:
1. Trapped (TVO, Turku, October 20th, 2007) 17:03
2. Untitled (TVO, Turku, October 20th, 2007) 09:30
3. Suicide Watch (TVO, Turku, May 31st, 2008) 13:02
4. Confessionals (Baarikaappi, Pori, May 6th, 2006) 07:48
5. General Negativity Towards Everything (Factory, Helsinki, June 17th, 2006) 04:28
6. Serves Me Right to Fail (Factory, Helsinki, June 17th, 2006) 12:51
7. Perfect Stranglers (Annis, Pori, July 9th, 2005) 05:09
8. Freezing Moon (Factory, Helsinki, June 17th, 2006) 06:45
******************************
Total playing time: 1:16:36



[more=Extended info]The tape contains all the tracks not included on the band's studio recordings along with the only two cover songs Stumm ever played live, "Perfect Strang(l)ers" by Deep Purple and "Freezing Moon" by Mayhem. Professionally duplicated black C-80 tape with black on-shell printing and black/black printed j-card.

Hand-numbered.[/more]

[more=Technical info]
Input File: Stumm - General Negativity Towards Everything (Factory, Helsinki, June 17th, 2006).mp3
Channels : 2
Sample Rate : 44100
Precision : 16-bit
Duration : 00:04:28.08 = 11822460 samples = 20106.2 CDDA sectors
File Size : 10.7M
Bit Rate : 320k
Sample Encoding: MPEG audio (layer I, II or III)
Comments :
Title=General Negativity Towards Everything (Factory, Helsinki, June 17th, 2006)
Artist=Stumm
Album=Stumm Is Dead
Tracknumber=5
Year=2014
Genre=Sludge/Drone/Doom Metal

[/more]

Register
(11) abob, infiltrator, ingram, lardmonger, marilin, Olethros, randumbum, Rosen, stub888, VALERY, varlam4,
Apr 12 2020, 12:19:35 Gnaw Their Tongues - I Speak The Truth, Yet With Every Word Uttered, Thousands Die (2020)
Register

(2) MetalAreola, vasiljev_sergej,
Apr 12 2020, 08:41:23 Deathstench - Blood Moon Divination (2017)


*Artist: Deathstench
*Album: Blood Moon Divination
*Year: 2017
*Genre: Lo-Fi/Black Metal/Dark Ambient/Noise
*Country: United States
*Format: mp3@CBR320kbps
*Size: 63MB

Tracklist:
A1 Blood On Black Hilt (April 15 2014) 7:25
A2 Crowned Brow Of The Serpent (October 8 2014) 6:08
B1 Piercing The Abysmal Womb (April 4 2015) 7:48
B2 The Infernal Coil (September 28 2015) 6:14
******************************
Total playing time: 27:35

[more=Extended info]This album is comprised of live rituals devoted to each blood moon in the 2014-2015 tetrad of lunar eclipses.
Released during the solar eclipse, limited to 80 copies.[/more]

[more=Technical info]
Input File: DEATHSTENCH - Piercing The Abysmal Womb.wav
Channels : 2
Sample Rate : 48000
Precision : 16-bit
Duration : 00:07:48.89 = 22506932 samples ~ 35167.1 CDDA sectors
File Size : 90.0M
Bit Rate : 1.54M
Sample Encoding: 16-bit Signed Integer PCM

[/more]

Register
(9) Arysch_666, Hell_Is_Here, infiltrator, morbidangelo, Olethros, robertho777, stub888, vasiljev_sergej, Wail,
Apr 11 2020, 16:29:54 Sinah & Angelgoat & Charnel Valley - Sinah/Angelgoat/Charnel Valley [split] (2006)


*Artist: Sinah & Angelgoat & Charnel Valley
*Album: Sinah/Angelgoat/Charnel Valley [split]
*Year: 2006
*Genre: Black Metal | Black Metal | Black Metal
*Country: Ukraine | Serbia | United States
*Format: mp3@CBR320kbps
*Size: 85MB

Tracklist:
1. Sinah - Имени чёрное пламя 02:30
2. Sinah - Обезовечений 01:51
3. Sinah - Сквозь пустоту немых зеркал 03:52
4. Sinah - Прах 04:39
5. Angelgoat - Armageddemonia 05:18
6. Angelgoat - Rain of Seraphims 04:28
7. Angelgoat - The Final Funeral 03:12
8. Charnel Valley - They Sleep in the Open Graves 07:11
9. Charnel Valley - Beast of Six Thousand Horns 04:29
******************************
Total playing time: 37:30

[more=Technical info]
Input File: 06 Angelgoat - Rain of Seraphims.mp3
Channels : 2
Sample Rate : 44100
Precision : 16-bit
Duration : 00:04:28.03 = 11820123 samples = 20102.2 CDDA sectors
File Size : 10.7M
Bit Rate : 320k
Sample Encoding: MPEG audio (layer I, II or III)
Comments :
Title=Rain of Seraphims
Artist=Angelgoat
Album=Sinah / Angelgoat / Charnel Valley
Tracknumber=6
Year=2006
Genre=Black Metal

[/more]

Register
(3) A.L.Rapsod, infiltrator, satanist666,
Apr 10 2020, 12:48:11 Angelgoat - The Lucifer Within (2020)


*Artist: Angelgoat
*Album: The Lucifer Within
*Year: 2020
*Genre: Black Metal
*Country: Serbia
*Format: mp3@CBR320kbps
*Size: 83MB

Tracklist:
1. Luciferian Keys (Intro) 01:11 instrumental
2. Crush the Pearly Gates 03:28
3. Black Goat Semen 03:58
4. Supreme Satanic Will 03:17
5. Bestial Soulrape 03:12
6. Glory to the Horns 04:09
7. 666 Spears in Christ's Ribs 04:46
8. My Flesh for Devil's Incarnation 03:30
9. The Lucifer Within 03:34
10. The Night of Ritual Debauchery 05:18
******************************
Total playing time: 36:23



[more=Technical info]
Input File: Angelgoat - 666 Spears in Christ\'s Ribs.mp3
Channels : 2
Sample Rate : 44100
Precision : 16-bit
Duration : 00:04:47.18 = 12664594 samples = 21538.4 CDDA sectors
File Size : 11.5M
Bit Rate : 320k
Sample Encoding: MPEG audio (layer I, II or III)
Comments :
Title=666 Spears in Christ's Ribs
Artist=Angelgoat
Album=The Lucifer Within
Tracknumber=7
Year=2020

[/more]

Register
(24) atavist, DarkHorde, dermarsoran, Ildjarn, infiltrator, judaz, kim666, LEGION69, maxapero, morbidangelo, multizwilling, Olethros, randumbum, robertho777, satanist666, SilentNidhogg, Styx, uk82, VALERY, varlam4, vasiljev_sergej, Wail, WarmasterChorus, wgs73,
Feb 27 2020, 02:36:18 Saturnian Tempel - Opus II (2016)


*Artist: Saturnian Tempel
*Album: Opus II
*Year: 2016
*Genre: Black Metal/Experimental/Dark Ambient
*Country: France
*Format: wv
*Size: 217MB

Tracklist:
1. Intro 5:48
2. Constellation Funeste 7:32
3. Etoile Noire 5:25
4. Magie Noire et Aliénation 3:36
5. ♆ 7:42
6. The end is near but we don't care 5:42
7. Lurking on the dark side of the moon 10:54
******************************
Total playing time: 46:39



Register
(9) Doooomed, infiltrator, kimkayoung, metala, morbidangelo, Olethros, Rosen, stub888, vasiljev_sergej,
Feb 26 2020, 17:41:25 Abruptum - Maledictum [ep] (2008)
Register
(2) thenecromancer, Wail,
Feb 26 2020, 16:56:39 Abruptum - Apostoli Infernum [single] (2019)


*Artist: Abruptum
*Album: Apostoli Infernum [single]
*Year: 2019
*Genre: Black Metal/Noise/Power Electronics
*Country: Sweden
*Format: mp3@CBR320kbps
*Size: 12MB

Tracklist:
1. Apostoli Infernum 05:00
******************************
Total playing time: 5:00



[more=Extended info]Type: Single
Release date: October 14th, 2019
Catalog ID: BLOOD 081
Version desc.: Limited edition, Shaped picture disc

Label: Blooddawn Productions
Format: 7" vinyl
Limitation: 300 copies[/more]

[more=Technical info]
Input File: Abruptum - Apostoli Infernum.mp3
Channels : 2
Sample Rate : 44100
Precision : 16-bit
Duration : 00:05:02.85 = 13355861 samples = 22714 CDDA sectors
File Size : 12.1M
Bit Rate : 320k
Sample Encoding: MPEG audio (layer I, II or III)
Comments :
Title=Apostoli Infernum
Artist=Abruptum
Album=Apostoli Infernum
Tracknumber=1
Year=2019
Genre=Dark Ambient, Drone
Discnumber=by Insomnia

[/more]

Register
(24) ASkyThatBurns, cancer1974, Der_Hexer, Evgen79, FUDEDOR, fylopaloma, garml2, Hell_Is_Here, infiltrator, kefka, kimkayoung, Occultas, Olethros, Rosen, Semargl2010, spiritualdecay666, stub888, varlam4, vasiljev_sergej, Wail, Wolftribes, wolverine, wtk.412, ZA670,
Feb 19 2020, 14:40:31 Glass Coffin - Remnants Of A Cold Dead World (2011)
Register
(2) Rudolfo_Metal, Wail,
Feb 16 2020, 15:03:01 Dead Shell Of Universe - Tamo Gde Pupoljak Vene... Tamo Je Moje Seme [ep] (2019)
Register
(1) randumbum,
Feb 6 2020, 23:36:59 Death Worship - End Times [ep] (2019)
Register
(1) Rudolfo_Metal,
Feb 6 2020, 23:27:08 Death Worship - Extermination Mass [ep] (2016)
Register
(1) Rudolfo_Metal,
Feb 6 2020, 16:40:19 Elysian Blaze - The Virtue Of Suffering [single] (2018)
Register
(1) Evjenne,
Feb 3 2020, 19:43:36 Tjolgtjar - Vruguun (2017)
Register
(2) satanist666, varlam4,
Feb 3 2020, 11:10:20 Nekron - Worshipers [ep] (2018)
Register
(5) Beazth, Borderline1991, satanist666, sethurius, vovenom,
Feb 3 2020, 01:07:50 Nekron - Worshipers [ep] (2018)


*Artist: Nekron
*Album: Worshipers [ep]
*Year: 2018
*Genre: Black Metal
*Country: Poland
*Format: flac
*Size: 178MB

Tracklist:
1. Midnight 2:08
2. Diadre 7:49
3. Blood Covenant 6:28
4. Lunatic 8:12
******************************
Total playing time: 24:37

[more=Extended info]Label: Putrid Cult
Format: CD
Limitation: 500 copies[/more]

Register
(12) Borderline1991, infiltrator, kim666, morbidangelo, MP101M, Olethros, Rosen, Sanctus, satanist666, vasiljev_sergej, vovenom, wolverine,
Feb 1 2020, 21:01:48 Svartgren - Divlja Vatra (2019)
Register
(1) thenecromancer,
Feb 1 2020, 16:27:11 K.F.R - Démonologue (2019)


*Artist: K.F.R
*Album: Démonologue
*Year: 2019
*Genre: Black Metal/Dark Ambient
*Country: France
*Format: wv
*Size: 392MB

Tracklist:
Side A
1. Invocation 05:01
2. Asmodée 08:16
3. Azazel 08:34
4. Prélude à l'exterminateur 02:57
Side B
5. Abaddon 06:18
6. Lucifer 10:06
7. La chute 07:51
******************************
Total playing time: 49:03



Register
(8) Alexis The Best, Der_Hexer, dvlz, infiltrator, Olethros, Rosen, vasiljev_sergej, vosmidesijatye,
Feb 1 2020, 14:47:42 T.O.M.B. - Thin The Veil (2020)
Register
(2) nemx, Olethros,

7 Pages V   1 2 3 > » 
- Lo-Fi Version Support form
Copyrights and abuse reports form
Time is now: 13th July 2020 - 09:34:03