Welcome Guest ( Log In | Register )

История благодарностей участнику LazarShadow ::: Спасибо сказали: 1403 раз(а)
Дата поста: В теме: За сообщение: Спасибо сказали:
Feb 27 2020, 02:36:18 Saturnian Tempel - Opus II (2016)


*Artist: Saturnian Tempel
*Album: Opus II
*Year: 2016
*Genre: Black Metal/Experimental/Dark Ambient
*Country: France
*Format: wv
*Size: 217MB

Tracklist:
1. Intro 5:48
2. Constellation Funeste 7:32
3. Etoile Noire 5:25
4. Magie Noire et Aliénation 3:36
5. ♆ 7:42
6. The end is near but we don't care 5:42
7. Lurking on the dark side of the moon 10:54
******************************
Total playing time: 46:39



Register
(9) Doooomed, infiltrator, kimkayoung, metala, morbidangelo, Olethros, Rosen, stub888, vasiljev_sergej,
Feb 26 2020, 17:41:25 Abruptum - Maledictum [ep] (2008)
Register
(2) thenecromancer, Wail,
Feb 26 2020, 16:56:39 Abruptum - Apostoli Infernum [single] (2019)


*Artist: Abruptum
*Album: Apostoli Infernum [single]
*Year: 2019
*Genre: Black Metal/Noise/Power Electronics
*Country: Sweden
*Format: mp3@CBR320kbps
*Size: 12MB

Tracklist:
1. Apostoli Infernum 05:00
******************************
Total playing time: 5:00



[more=Extended info]Type: Single
Release date: October 14th, 2019
Catalog ID: BLOOD 081
Version desc.: Limited edition, Shaped picture disc

Label: Blooddawn Productions
Format: 7" vinyl
Limitation: 300 copies[/more]

[more=Technical info]
Input File: Abruptum - Apostoli Infernum.mp3
Channels : 2
Sample Rate : 44100
Precision : 16-bit
Duration : 00:05:02.85 = 13355861 samples = 22714 CDDA sectors
File Size : 12.1M
Bit Rate : 320k
Sample Encoding: MPEG audio (layer I, II or III)
Comments :
Title=Apostoli Infernum
Artist=Abruptum
Album=Apostoli Infernum
Tracknumber=1
Year=2019
Genre=Dark Ambient, Drone
Discnumber=by Insomnia

[/more]

Register
(24) ASkyThatBurns, cancer1974, Der_Hexer, Evgen79, FUDEDOR, fylopaloma, garml2, Hell_Is_Here, infiltrator, kefka, kimkayoung, Occultas, Olethros, Rosen, Semargl2010, spiritualdecay666, stub888, varlam4, vasiljev_sergej, Wail, Wolftribes, wolverine, wtk.412, ZA670,
Feb 19 2020, 14:40:31 Glass Coffin - Remnants Of A Cold Dead World (2011)
Register
(2) Rudolfo_Metal, Wail,
Feb 6 2020, 23:36:59 Death Worship - End Times [ep] (2019)
Register
(1) Rudolfo_Metal,
Feb 6 2020, 23:27:08 Death Worship - Extermination Mass [ep] (2016)
Register
(1) Rudolfo_Metal,
Feb 6 2020, 16:40:19 Elysian Blaze - The Virtue Of Suffering [single] (2018)
Register
(1) Evjenne,
Feb 3 2020, 19:43:36 Tjolgtjar - Vruguun (2017)
Register
(1) varlam4,
Feb 3 2020, 11:10:20 Nekron - Worshipers [ep] (2018)
Register
(4) Beazth, Borderline1991, sethurius, vovenom,
Feb 3 2020, 01:07:50 Nekron - Worshipers [ep] (2018)


*Artist: Nekron
*Album: Worshipers [ep]
*Year: 2018
*Genre: Black Metal
*Country: Poland
*Format: flac
*Size: 178MB

Tracklist:
1. Midnight 2:08
2. Diadre 7:49
3. Blood Covenant 6:28
4. Lunatic 8:12
******************************
Total playing time: 24:37

[more=Extended info]Label: Putrid Cult
Format: CD
Limitation: 500 copies[/more]

Register
(11) Borderline1991, infiltrator, kim666, morbidangelo, MP101M, Olethros, Rosen, Sanctus, vasiljev_sergej, vovenom, wolverine,
Feb 1 2020, 21:01:48 Svartgren - Divlja Vatra (2019)
Register
(1) thenecromancer,
Feb 1 2020, 16:27:11 K.F.R - Démonologue (2019)


*Artist: K.F.R
*Album: Démonologue
*Year: 2019
*Genre: Black Metal/Dark Ambient
*Country: France
*Format: wv
*Size: 392MB

Tracklist:
Side A
1. Invocation 05:01
2. Asmodée 08:16
3. Azazel 08:34
4. Prélude à l'exterminateur 02:57
Side B
5. Abaddon 06:18
6. Lucifer 10:06
7. La chute 07:51
******************************
Total playing time: 49:03



Register
(6) Der_Hexer, infiltrator, Olethros, Rosen, vasiljev_sergej, vosmidesijatye,
Feb 1 2020, 14:47:42 T.O.M.B. - Thin The Veil (2020)
Register
(2) nemx, Olethros,
Jan 29 2020, 16:45:36 Angelgoat - Primitive Goat Worship (2017)


*Artist: Angelgoat
*Album: Primitive Goat Worship
*Year: 2017
*Genre: Black Metal
*Country: Serbia
*Format: mp3@CBR320kbps
*Size: 70MB

Tracklist:
1. Večna slava Satani 01:22
2. Pentagram Ritual Massacre 03:58
3. Under the Satanic Oath 03:03
4. Sabbath 666 03:03
5. Primitive Goat Worship 03:43
6. Arising from the Black Mass 03:14
7. Unholy Horn Impalement 04:18
8. Zora Antihrista 05:48
9. Eternal Damnation of Christianity 01:48
******************************
Total playing time: 30:17

[more=Technical info]
Input File: Angelgoat - Sabbath 666.mp3
Channels : 2
Sample Rate : 44100
Precision : 16-bit
Duration : 00:03:30.40 = 9278640 samples = 15780 CDDA sectors
File Size : 8.42M
Bit Rate : 320k
Sample Encoding: MPEG audio (layer I, II or III)
Comments :
Title=Sabbath 666
Artist=Angelgoat
Album=Primitive Goat Worship
Tracknumber=4
Year=2017
Genre=Black Metal

[/more]

Register
(19) 1968_janeart, ASkyThatBurns, atavist, Ildjarn, infiltrator, kim666, morbidangelo, multizwilling, Olethros, Rosen, SilentNidhogg, Styx, Tyrone, VALERY, varlam4, vasiljev_sergej, vovenom, Wail, wreak,
Jan 20 2020, 20:47:10 De Vermiis Mysteriis - De Vermiis Mysteriis (2017)


*Artist: De Vermiis Mysteriis
*Album: De Vermiis Mysteriis
*Year: 2017
*Genre: Raw Black Metal/Dark Ambient
*Country: France
*Format: mp3@CBR320kbps
*Size: 87MB

Tracklist:
1. Alpha 04:29
2. I Bet We Are Dead 03:20
3. Le Vampire 05:27
4. Styx 02:30 instrumental
5. Allégeance 05:22
6. Les Litanies de Satan 05:27
7. Dance in the Fire 06:57
8. Omega 04:57
******************************
Total playing time: 38:29



[more=Technical info]
Input File: 4_-_Styx.mp3
Channels : 2
Sample Rate : 48000
Precision : 16-bit
Duration : 00:02:30.37 = 7217616 samples ~ 11277.5 CDDA sectors
File Size : 6.01M
Bit Rate : 320k
Sample Encoding: MPEG audio (layer I, II or III)
Comments :
Artist=De Vermiis Mysteriis
Album=De Vermiis Mysteriis
Tracknumber=4

[/more]

Register
(11) craP_cillA, infiltrator, kim666, Olethros, Rosen, stub888, thenecromancer, varlam4, vasiljev_sergej, Vidder242, vosmidesijatye,
Jan 20 2020, 18:46:47 K.F.R - Démonologue (2019)
Real bandcamp download. I don't know what is with you reader. I will maybe post WAV files of some albums, so you can see it is real deal.
(1) vosmidesijatye,
Jan 20 2020, 13:12:05 K.F.R - Ad Manifestationem Diaboli (2018)


*Artist: K.F.R
*Album: Ad Manifestationem Diaboli
*Year: 2018
*Genre: Black Metal/Dark Ambient
*Country: France
*Format: wv
*Size: 309MB

Tracklist:
1. Il n'y a pas de Paradis où je traîne, que des baisés qui ont la Haine 07:42
2. Darkness and Pain 04:38
3. In my Dreams of Morbidity 05:32
4. Under the World 05:16
5. Through the funeral Maelstrom of Evil (Mütiilation cover) 09:05
6. I Hate 08:08
7. Here I Crawl 03:42
8. Ad Noctis Huius Calíginem Destruéndam 04:53
******************************
Total playing time: 48:56



[more=Extended info]Recorded in 2018.[/more]

Register
(10) 1968_janeart, Grev, infiltrator, morbidangelo, Olethros, Rosen, stub888, varlam4, vasiljev_sergej, vosmidesijatye,
Jan 19 2020, 22:48:33 K.F.R - Ad Manifestationem Diaboli (2018)


*Artist: K.F.R
*Album: Ad Manifestationem Diaboli
*Year: 2018
*Genre: Black Metal/Dark Ambient
*Country: France
*Format: mp3@CBR320kbps
*Size: 102MB

Tracklist:
1. Il n'y a pas de Paradis où je traîne, que des baisés qui ont la Haine 07:42
2. Darkness and Pain 04:38
3. In my Dreams of Morbidity 05:32
4. Under the World 05:16
5. Through the funeral Maelstrom of Evil (Mütiilation cover) 09:05
6. I Hate 08:08
7. Here I Crawl 03:42
8. Ad Noctis Huius Calíginem Destruéndam 04:53
******************************
Total playing time: 48:56

[more=Technical info]
Input File: K.F.R - I Hate.mp3
Channels : 2
Sample Rate : 44100
Precision : 16-bit
Duration : 00:07:58.31 = 21093471 samples = 35873.2 CDDA sectors
File Size : 19.1M
Bit Rate : 320k
Sample Encoding: MPEG audio (layer I, II or III)

[/more]

Register
(12) Cosmic_Sorcerer, Evgen79, gena, infiltrator, kim666, Legacy100, morbidangelo, Olethros, stub888, vasiljev_sergej, vosmidesijatye, Wail,
Jan 19 2020, 22:25:34 K.F.R - Démonologue (2019)


*Artist: K.F.R
*Album: Démonologue
*Year: 2019
*Genre: Black Metal/Dark Ambient
*Country: France
*Format: mp3@CBR320kbps
*Size: 109MB

Tracklist:
1. Invocation 05:01
2. Asmodée 08:16
3. Azazel 08:34
4. Prélude à l'exterminateur 02:57
5. Abaddon 06:18
6. Lucifer 10:06
7. La chute 07:51
******************************
Total playing time: 49:03

[more=Technical info]
Input File: K.F.R - Lucifer.mp3
Channels : 2
Sample Rate : 44100
Precision : 16-bit
Duration : 00:10:02.81 = 26583833 samples = 45210.6 CDDA sectors
File Size : 24.1M
Bit Rate : 320k
Sample Encoding: MPEG audio (layer I, II or III)

[/more]

Register
(15) Evgen79, gena, infiltrator, kim666, morbidangelo, Olethros, Rosen, Sanctus, stub888, thenecromancer, varlam4, vasiljev_sergej, vosmidesijatye, vov7609, Wail,
Jan 19 2020, 15:57:52 K.F.R - L'enfer À Sa Source (2019)


*Artist: K.F.R
*Album: L'enfer À Sa Source
*Year: 2019
*Genre: Black Metal/Dark Ambient
*Country: France
*Format: mp3@CBR320kbps
*Size: 103MB

Tracklist:
1. L'enfer, c'est toi 07:55
2. Le sinueux chemin 07:38
3. Simulacre de chair 02:42 instrumental
4. Ne cherche pas à devenir, rien a jamais commencé 05:47
5. Anathème de l'envie 09:15
6. L'enfer à sa source 12:32
******************************
Total playing time: 45:49

[more=Technical info]
Input File: 3 - Simulacre de Chair.mp3
Channels : 2
Sample Rate : 44100
Precision : 16-bit
Duration : 00:02:42.83 = 7180803 samples = 12212.3 CDDA sectors
File Size : 6.51M
Bit Rate : 320k
Sample Encoding: MPEG audio (layer I, II or III)
Comment : 'Year=2019-02-19'

[/more]

Register
(23) 1968_janeart, Cosmic_Sorcerer, Doooomed, gena, Hell_Is_Here, Ildjarn, infiltrator, Kehl05, kim666, Ludwig Hagen, morbidangelo, multizwilling, nsk2008, Olethros, Rosen, SaintVitus, SilentNidhogg, stub888, varlam4, vasiljev_sergej, vosmidesijatye, Wail, wreak,
Jan 18 2020, 22:05:55 Griiim - Jöyful Noïse (2016)


*Artist: Griiim
*Album: Jöyful Noïse
*Year: 2016
*Genre: Black Metal/Dark Ambient/Noise
*Country: France
*Format: mp3@CBR320kbps
*Size: 99MB

Tracklist:
1. Joyful Music 4:06
2. I Watch You Die 3:32
3. Masquerade Of Darkness 2:50
4. Pull The Trigger 4:30
5. Praise The Lord 3:39
6. Destroy ! 4:26
7. I Put A Spell On You 7:38
8. Anneliese 8:02
9. Lucifer 3:50
******************************
Total playing time: 42:33



[more=Extended info]Griiim is a project of Maxime Taccardi (K.F.R, Saturnian Tempel, Djinn, De Vermiis Mysteriis)
Black metal, noise and power electronics.[/more]

[more=Technical info]
Input File: Griiim - Jöyful Noïse - 02 I watch you Die.mp3
Channels : 2
Sample Rate : 44100
Precision : 16-bit
Duration : 00:03:32.07 = 9352419 samples = 15905.5 CDDA sectors
File Size : 8.56M
Bit Rate : 323k
Sample Encoding: MPEG audio (layer I, II or III)
Comments :
Title=I watch you Die
Artist=Griiim
Album=Jöyful Noïse
Tracknumber=2
Year=2016

[/more]

Register
(12) Borderline1991, gena, Hell_Is_Here, infiltrator, morbidangelo, Olethros, Rosen, SilentNidhogg, stub888, varlam4, vasiljev_sergej, Wail,
Jan 18 2020, 11:15:55 Marduk - Winged Death 1993 [ep] (2019)


*Artist: Marduk
*Album: Winged Death 1993 [ep]
*Year: 2019
*Genre: Black Metal
*Country: Sweden
*Format: flac
*Size: 54MB

Tracklist:
1. Wolves (live) 05:28
2. On Darkened Wings (live) 03:50
******************************
Total playing time: 9:18



Register
(20) Alexis The Best, Aresson, cancer1974, craP_cillA, dulak, JantoHadez, legion01, milosdjor, Occultas, Olethros, pvlad666, Rosen, soulskinner681, Styx, thenecromancer, Vakhangya, vasiljev_sergej, Wail, wolverine, wtk.412,
Jan 15 2020, 15:16:47 Sutekh Hexen - Sutekh Hexen (2019)
Register
(1) varlam4,
Jan 14 2020, 15:45:33 Welter In Thy Blood - The Grim Visage Of Death [ep] (2008)
Register
(1) varlam4,
Jan 14 2020, 12:34:48 Like Drone Razors Through Flesh Sphere - Prana [live] (2015)


*Artist: Like Drone Razors Through Flesh Sphere
*Album: Prana [live]
*Year: 2015
*Genre: Drone/Doom Metal/Ambient
*Country: Spain
*Format: mp3@CBR320kbps
*Size: 87MB

Tracklist:
1. Prana 1 15:53
2. Prana 2 20:45
******************************
Total playing time: 36:38



[more=Extended info]Notes
Limited to 30 copies.
Acoustic drone performances recorded live.[/more]

[more=Technical info]
Input File: Like Drone Razors Through Flesh Sphere - Prana - 01 Op. 59.mp3
Channels : 2
Sample Rate : 44100
Precision : 16-bit
Duration : 00:15:53.13 = 42033033 samples = 71484.8 CDDA sectors
File Size : 38.3M
Bit Rate : 321k
Sample Encoding: MPEG audio (layer I, II or III)
Comments :
Title=Op. 59
Artist=Like Drone Razors Through Flesh Sphere
Album=Prana
Tracknumber=1
Year=2015

[/more]

Register
(4) Hell_Is_Here, infiltrator, Olethros, stub888,

6 Pages V   1 2 3 > » 
- Lo-Fi Version Support form
Copyrights and abuse reports form
Time is now: 28th March 2020 - 13:07:01