Welcome Guest ( Log In | Register )

История благодарностей участнику LazarShadow ::: Спасибо сказали: 1532 раз(а)
Дата поста: В теме: За сообщение: Спасибо сказали:
Feb 2 2018, 13:07:43 Pro-Death - The Aesthetic Somber Of Death (2010)
Nowhere. I've asked John Paul Whetzel once about that. "Hey, John, where can the early material be found ?" "Well, it was sold just on gigs and there is no way for re-realising that material."
Feb 2 2018, 03:50:34 Circle Of Eyes - Circle Of Eyes (2012)


*Artist: Circle Of Eyes
*Album: Circle Of Eyes
*Year: 2012
*Genre: Drone/Doom Metal/Ambient
*Country: United States
*Format: mp3@CBR320kbps
*Size: 205MB

Tracklist:
Tracklist
1 Penumbra (Awoken) 16:28
2 Woe Betide The Worms (Dirge For Eternity) / To Wander (Sacred Time) 20:18
3 Cyclic Exaltation (Demo) 15:40
4 Ninteenhundred&six (Demo) 19:06
5 Woe Betide The Worms (Dirge For All Time) (Demo) 18:34
******************************
Total playing time: 1:30:06



[more=Extended info]Official bandcamp download.[/more]

[more=Technical info]
Input File: ANTI-MATTER RECORDS - Circle of Eyes -Self Titled- - 01 Penumbra (Awoken).mp3
Channels : 2
Sample Rate : 44100
Precision : 16-bit
Duration : 00:16:28.17 = 43578473 samples = 74113 CDDA sectors
File Size : 39.7M
Bit Rate : 322k
Sample Encoding: MPEG audio (layer I, II or III)
Comments :
Title=Penumbra (Awoken)
Artist=ANTI-MATTER RECORDS
Album=Circle of Eyes "Self Titled"
Tracknumber=1
Year=2012

[/more]

Register
(5) marilin, Ostinato, Rosen, stub888, varlam4,
Feb 2 2018, 03:05:52 Circle Of Eyes - Circle Of Eyes [demo] (2009)


*Artist: Circle Of Eyes
*Album: Circle Of Eyes [demo]
*Year: 2009
*Genre: Drone/Doom Metal/Ambient
*Country: United States
*Format: mp3@CBR320kbps
*Size: 111MB

Tracklist:
1. Cyclic Exaltation 15:23
2. NineteenHundred&Six 19:06
3. Woe Betide the Worms (Dirge for All Times) 18:34
******************************
Total playing time: 53:03

[more=Technical info]
Input File: 01 - Cyclic Exaltation.mp3
Channels : 2
Sample Rate : 44100
Precision : 16-bit
Duration : 00:15:40.75 = 41486855 samples = 70555.9 CDDA sectors
File Size : 37.9M
Bit Rate : 322k
Sample Encoding: MPEG audio (layer I, II or III)
Comments :
Title=CYCLIC EXALTATION
Artist=Circle of Eyes
Album=demo
Tracknumber=1/3
Year=2009

[/more]

Register
(5) marilin, Ostinato, Rosen, stub888, varlam4,
Jan 29 2018, 21:16:05 Mor - Wanderings Of The Crippled One Through Moors Of Samsara (2014)
CD-Rip @ lossless - wav
Register
(3) Alexis The Best, Borderline1991, Olethros,
Jan 27 2018, 19:56:13 Nekrasov & Humiliation - Nekrasov/Humiliation [split] (2009)


*Artist: Nekrasov & Humiliation
*Album: Nekrasov/Humiliation [split]
*Year: 2009
*Genre: Black Metal/Noise | Dark Ambient/Black Metal
*Country: Australia | Unknown
*Format: mp3@CBR320kbps
*Size: 119MB

Tracklist:
Nekrasov:
1. DEMAND! 06:35
2. From Where I Sit the Sky Was Full of Wrath and Ill Will 10:55
3. Wizard Smashed Curse 09:43
4. Barbarians 12:06
Humiliation:
5. Protection 08:06
6. Coercion 06:26
******************************
Total playing time: 53:51

[more=Technical info]
Input File: 01 DEMAND!.mp3
Channels : 2
Sample Rate : 44100
Precision : 16-bit
Duration : 00:06:37.43 = 17526487 samples = 29807 CDDA sectors
File Size : 15.9M
Bit Rate : 321k
Sample Encoding: MPEG audio (layer I, II or III)
Comments :
Title=DEMAND!
Artist=Nekrasov
Album=Nekrasov / Humiliation Split
Tracknumber=1
Year=2009
Genre=Dark Ambient, Black Metal, Power Electronics, Noise

[/more]

Register
(11) kim666, Lanceatum, marilin, recber, Rosen, RUSP73, satanist666, stub888, varg-38ru, varlam4, vasiljev_sergej,
Jan 27 2018, 17:09:56 Nekron - Psychosis (2017)
Thanks for sharing this with us. Yeah, I can agree with you. Nothing special about this album because it's to similar to Filosofem. I can just add that it's not a bad album, but too similar to Filosofem.
(1) Borderline1991,
Dec 11 2017, 15:54:55 Flešš - Volume 1 [demo] (2017)


*Artist: Flešš
*Album: Volume 1 [demo]
*Year: 2017
*Genre: Raw Black Metal
*Country: Canada
*Format: mp3@VBR260kbps
*Size: 54MB

Tracklist:
1. Untitled
2. Untitled
******************************
Total playing time: 29:23

[more=Technical info]
Input File: 01 Untitled.mp3
Channels : 2
Sample Rate : 44100
Precision : 16-bit
Duration : 00:14:42.83 = 38932979 samples = 66212.5 CDDA sectors
File Size : 28.9M
Bit Rate : 262k
Sample Encoding: MPEG audio (layer I, II or III)
Comments :
Title=Untitled
Artist=FleЕЎЕЎ
Album=Volume I
Tracknumber=01/2
Year=2017
Discnumber=1/1

[/more]

Register
(15) 1968_janeart, Alexis The Best, artscald, Branis, kim666, Ostinato, rammmirez, Rosen, satanist666, SilentNidhogg, stub888, thenecromancer, varlam4, vasiljev_sergej, wreak,
Sep 29 2017, 13:06:21 Bethor - Anarchia Diaboli (2017)


*Artist: Bethor
*Album: Anarchia Diaboli
*Year: 2017
*Genre: Black Metal
*Country: Serbia
*Format: mp3@CBR320kbps
*Size: 58MB

Tracklist:
1. Tempus Mortuorum
2. Anarchia Diaboli
3. Zakletva Vatre
4. Endorcism
5. Otherkin
6. Codex Gigas
7. Helel Ben Sachar
8. S.M.B.
9. De Resurrectione Autem Mortuorum
******************************
Total playing time: 26:33

[more=Extended info]Notes
Bethor - Vocals, Keybords And Effects
Bass Guitar - God Of Perversion
Lead and rhythm guitar - Uljez
Drums - Kunga
Artwork By Demethor

Special guests:
Atilla Heller - Solo in the song Otherkin
Edi Sasa Djordjevic - Clean vocals in the song Endocrism
Nemethor - Scream vocals in the song De Ressurectione Autem Mortuorum

Recorded in Studio Paradox (Smederevo)
January-July 2017
Recorded, mixed and mastered by Srdjan Brankovic / Bethor[/more]

[more=Technical info]
Input File: 02 Anarchia Diaboli.mp3
Channels : 2
Sample Rate : 44100
Precision : 16-bit
Duration : 00:02:25.45 = 6414301 samples = 10908.7 CDDA sectors
File Size : 5.82M
Bit Rate : 320k
Sample Encoding: MPEG audio (layer I, II or III)

[/more]

Register
(24) Alexis The Best, An225, artscald, Hell_Is_Here, Immortality, Kalnasra, Kehl05, kim666, kolar666, LordHaart, morbidangelo, NachtWulf, princeshr, rom666, Rosen, RUSP73, satanist666, SilentNidhogg, Tino, toly1917, varg-38ru, varlam4, vasiljev_sergej, wreak,
Aug 31 2017, 12:01:31 All My Sins - Lunar/Solar [ep] (2017)


*Artist: All My Sins
*Album: Lunar/Solar [ep]
*Year: 2017
*Genre: Black Metal
*Country: Serbia
*Format: mp3@CBR320kbps
*Size: 47MB

Tracklist:
1. Jeka Prve Kiše
2. Pod Mesecom Prastari Hrast
3. Pomen Usnulom Suncu
4. Zbogom
******************************
Total playing time: 21:47

[more=Technical info]
Input File: 01. Jeka Prve Ki?e.mp3
Channels : 2
Sample Rate : 44100
Precision : 16-bit
Duration : 00:03:14.58 = 8581022 samples = 14593.6 CDDA sectors
File Size : 7.79M
Bit Rate : 320k
Sample Encoding: MPEG audio (layer I, II or III)
Comments :
Title=Jeka Prve KiЕЎe
Artist=All My Sins
Album=Lunar / Solar
Tracknumber=1
Year=2017

[/more]

Register
(17) -=Hass=-, 1968_janeart, Bulldozzzzzzer, Ildjarn, kim666, lestllk, murian, Ostinato, Rosen, RUSP73, satanist666, serg1349, Storky, VALERY, varlam4, vasiljev_sergej, wreak,
Aug 30 2017, 10:00:56 Bethor - Bethor [compilation] (2016)


*Artist: Bethor
*Album: Bethor [compilation]
*Year: 2016
*Genre: Raw Black Metal/Noise
*Country: Serbia
*Format: mp3@CBR320kbps
*Size: 177MB

Tracklist:
1. Xenetration (Intro)
2. Izra Segor Zeikon - Bewitchment of Mortal Agony
3. Increat
4. In the Name of Eternity
5. Behind the Silence
6. Destiny (For Him Who Died)
7. Great Inferno
8. Overtrun
9. My Astral Journey
10. Demogorgon
11. Warriors of Hell
12. Equinox
13. Ispod kišnih oblaka
14. Prophecy (Outro)
15. Materiaslistic Insanity
16. Zaklinjem verovanje u večni život
******************************
Total playing time: 1:17:18

[more=Technical info]
Input File: 01 - Bethor - Xenetration.mp3
Channels : 2
Sample Rate : 44100
Precision : 16-bit
Duration : 00:02:00.13 = 5297865 samples = 9009.97 CDDA sectors
File Size : 4.82M
Bit Rate : 321k
Sample Encoding: MPEG audio (layer I, II or III)
Comments :
Title=Xenetration
Artist=Bethor
Album=Bethor
Tracknumber=1
Year=2016
Genre=Black Metal

[/more]

Register
(10) 1968_janeart, artscald, LordHaart, morbidangelo, Rosen, RUSP73, satanist666, stub888, varlam4, vasiljev_sergej,
Aug 29 2017, 23:54:00 Bethor - Potonja (2006)


*Artist: Bethor
*Album: Potonja
*Year: 2006
*Genre: Raw Black Metal/Noise
*Country: Serbia
*Format: mp3@CBR320kbps
*Size: 181MB

Tracklist:
1. Invocation...(Intro)
2. Potonja
3. Vasta Deus Regna
4. Equimanthorn (Bathory cover)
5. Born of No Mother
6. Upon the Hour of Noon
7. Clangui De Blasphemia
8. Fish (Beherit cover)
9. Arathron
10. Miseruit Conplexus Obcurus
11. Daku Lad
12. Stab Through the Heart
13. ...Sabai Infernum (Outro)
******************************
Total playing time: 1:02:47


[more=Extended info]This upload comes with live video that was on the album.[/more]

[more=Technical info]
Input File: 01 Bethor - Welcome To The Infernal Kingdom (Intro).mp3
Channels : 2
Sample Rate : 44100
Precision : 16-bit
Duration : 00:04:17.12 = 11339168 samples = 19284.3 CDDA sectors
File Size : 10.3M
Bit Rate : 320k
Sample Encoding: MPEG audio (layer I, II or III)
Comments :
Title=Welcome To The Infernal Kingdom (Intro)
Artist=Bethor
Album=Potonja
Tracknumber=1
Year=2006
Genre=Black Metal, Noise

[/more]

Register
(13) 1968_janeart, Alexis The Best, artscald, Hell_Is_Here, morbidangelo, Ostinato, Rosen, RUSP73, satanist666, stub888, varlam4, vasiljev_sergej, Абигор,
Jul 26 2017, 09:56:50 Goatpenis - Apocalypse War (2016)


*Artist: Goatpenis
*Album: Apocalypse War
*Year: 2016
*Genre: Black/Death Metal
*Country: Brazil
*Format: mp3@CBR320kbps
*Size: 72MB

Tracklist:
1. Into - Ride of the Apocalypse
2. Master Blaster
3. Final Attomic Battle
4. Captain Benjamin Willard
5. Colonel Bill Kilgore
6. Colonel Lucas
7. Colonel Walter E. Kurtz
8. General R. Corman
9. The Hollow Man
10. This is the Way the World Ends (T.S. Eliot)
******************************
Total playing time: 32:45

[more=Technical info]
Input File: 01 Into - Ride of the Apocalypse.mp3
Channels : 2
Sample Rate : 44100
Precision : 16-bit
Duration : 00:02:52.36 = 7600856 samples = 12926.6 CDDA sectors
File Size : 6.90M
Bit Rate : 320k
Sample Encoding: MPEG audio (layer I, II or III)
Comments :
Title=Into - Ride of the Apocalypse
Artist=Goatpenis
Album=Apocalypse War
Tracknumber=1
Year=2016
Genre=War Metal

[/more]

Register
(17) artscald, Boozer, ddarkthrone, Goatrex, Moonshtook, Necromayhem, Razorbladeswaltz, rebornflms95, Rosen, RUSP73, Sanc, satanist666, smysl, thenecromancer, varlam4, wgs73, Zaephar,
Jun 14 2017, 16:24:54 Cult Of Eibon - Fullmoon Invocation [ep] (2016)
320 kbps version of Fullmoon Invocation EP. -
Register
(8) igore2911, pfk505, satanist666, skeletron215, templ, thenecromancer, Tino, VerminGhost,
Jun 14 2017, 13:49:56 Pure - J'aurais Dû (2017)
Pure black metal at it's best for me. smile1.gif Excellent band for me.
(1) Абигор,
Jun 8 2017, 07:09:08 Goat Thron - Selective Extermination (2006)
Returned to BLACK METAL after all these years. New album!!! GOAT THRON TRON KOZLA .
(1) Goatrex,
May 19 2017, 14:18:29 Mèsse - Sacred Scythe (2016)


*Artist: Mèsse
*Album: Sacred Scythe
*Year: 2016
*Genre: Black Metal/Noise
*Country: Italy
*Format: mp3@CBR320kbps
*Size: 91MB

Tracklist:
1. Solemn Black Noise
2. Gregorian Screams
3. Sacred Cow
******************************
Total playing time: 40:29




[more=Technical info]
Input File: 01 Solemn Black Noise.mp3
Channels : 2
Sample Rate : 44100
Precision : 16-bit
Duration : 00:06:57.02 = 18390450 samples = 31276.3 CDDA sectors
File Size : 16.7M
Bit Rate : 320k
Sample Encoding: MPEG audio (layer I, II or III)
Comments :
Title=Solemn Black Noise
Artist=MГЁsse
Album=Sacred Scythe
Tracknumber=1
Year=2016
Genre=Black Metal

[/more]

Register

Register
(10) 1968_janeart, blacky66, Buregon, Hell_Is_Here, Ostinato, Rosen, satanist666, stub888, varg-38ru, Абигор,
May 6 2017, 10:54:09 Tjolgtjar - Vruguun (2017)


*Artist: Tjolgtjar
*Album: Vruguun
*Year: 2017
*Genre: Black Metal
*Country: United States
*Format: mp3@VBR260kbps
*Size: 165MB

Tracklist:
1. A Great Escape
2. Call of Holnijimnjok
3. The Dancing Satan
4. Then She Let Me See
5. Inside the Holwling Moon of Vruguun
6. A National Astronaut
7. Mars as a Fixture in Planetary Science
8. The Internal Arts of Ballal
9. Hearing the Voice of the Devil
10. Through the Pororium
11. Rjelmjinn Telminosz
12. Satan, Woman of Desire
13. I Am the Black Ritual
14. Lair of Skuul
15. I'm Your Daughter
16. Until the Monsters Take You
17. Lustful Spirit
18. Oh Jupiter
19. Our Father
20. The Earth Immortal
21. 7 Lonely Demons
22. Flight of Ikarik
23. She's a Cannon
24. A Forgotten Oath
25. Party Moon
******************************
Total playing time: 1:27:03



Register
(16) ddarkthrone, FUDEDOR, garmonbozia, judaz, marilin, Ostinato, Rosen, RUSP73, satanist666, stub888, the_cleanser, VALERY, varg-38ru, varlam4, vasiljev_sergej, Спектр,
Apr 28 2017, 12:57:34 Ildjarn - Rarities [compilation] (2012)
Upload Ildjarn - 2012 - Rarities (Compilation) [320 Kbps] again.
(2) satanist666, sTerLingaz,
Apr 28 2017, 09:47:36 Sutekh Hexen - Salem [live] (2017)


*Artist: Sutekh Hexen
*Album: Salem [live]
*Year: 2017
*Genre: Raw Black Metal/Noise
*Country: United States
*Format: mp3@CBR320kbps
*Size: 67MB

Tracklist:
1. Black Mirror
2. Visitor
3. A Nameless Knot
4. Acceptance (Praxis)
5. To Reveal
6. To Conceal
******************************
Total playing time: 29:03

[more=Technical info]
Input File: 4. Acceptance (Praxis).mp3
Channels : 2
Sample Rate : 44100
Precision : 16-bit
Duration : 00:05:02.08 = 13321816 samples = 22656.1 CDDA sectors
File Size : 12.3M
Bit Rate : 325k
Sample Encoding: MPEG audio (layer I, II or III)
Comments :
Title=Acceptance (Praxis)
Artist=Sutekh Hexen
Album=Salem
Tracknumber=4
Year=2017

[/more]

Register
(16) 1968_janeart, artscald, craP_cillA, ddarkthrone, FUDEDOR, Hell_Is_Here, LVXXVL, Ostinato, Reverend, Rosen, stub888, svartrest, the_cleanser, varg-38ru, varlam4, Velmi,
Apr 25 2017, 17:11:01 Pro-Death - The Aesthetic Somber Of Death (2010)


*Artist: Pro-Death
*Album: The Aesthetic Somber Of Death
*Year: 2010
*Genre: Industrial Death Metal
*Country: United States
*Format: mp3@VBR286kbps
*Size: 93MB

Tracklist:
1. I'd Rather Burn
2. Earth's Disease
3. Blacken My Eyes
4. Blood Compost
5. Tortured
6. Drowning
7. The Art of Dissection
8. 1000 Ways to Kill Yourself
9. Withdrawn
10. Lost Under a Dying Sun
******************************
Total playing time: 45:19



Register
(12) Buregon, Corpuscul, Hell_Is_Here, kimkayoung, metala, METALHUNTER, Ostinato, Rosen, SymbyoticEntity, toly1917, vyacheslav, wreak,
Apr 25 2017, 16:46:35 The Slaughtered Lamb - Path Of Ashen Bone [ep] (2008)


*Artist: The Slaughtered Lamb
*Album: Path Of Ashen Bone [ep]
*Year: 2008
*Genre: Black/Doom Metal/Drone
*Country: United States
*Format: mp3@VBR286kbps
*Size: 46MB

Tracklist:
1. A Cold Beneath
2. The Black Lodge
******************************
Total playing time: 21:42



Register
(10) Buregon, Hell_Is_Here, marilin, Ostinato, Rosen, satanist666, stub888, varg-38ru, vasiljev_sergej, wreak,
Apr 20 2017, 15:37:28 Goat Thron - Wyrd (2011)


*Artist: Goat Thron
*Album: Wyrd
*Year: 2011
*Genre: Death Industrial/Noise
*Country: Poland
*Format: mp3@CBR320kbps
*Size: 132MB

Tracklist:
1. Vernichtungslager
2. Radiation
3. Rabies
4. Final Solution
5. Wyrd
6. Triumph Of Satan
******************************
Total playing time: 57:40

[more=Technical info]
Input File: Wryd.jpg

[/more]

Register
(5) Goatrex, Hell_Is_Here, LVXXVL, RUSP73, Velkaarn,
Apr 16 2017, 15:52:50 StemCell Research Project - Charnel Houses (2011)


*Artist: StemCell Research Project
*Album: Charnel Houses
*Year: 2011
*Genre: Minimal Black Noise/Ambient
*Country: United States
*Format: mp3@CBR320kbps
*Size: 81MB

Tracklist:
1. Transcending The Threshold
2. Shroud Of Scars
3. Cutting The Vessel
4. The Rite Of Ossilegium
5. Blackened Skeletal Remains
******************************
Total playing time: 35:44

Preview 1

[more=Technical info]
Input File: 04 the rite of ossilegium.mp3
Channels : 2
Sample Rate : 44100
Precision : 16-bit
Duration : 00:07:12.03 = 19052523 samples = 32402.2 CDDA sectors
File Size : 17.4M
Bit Rate : 322k
Sample Encoding: MPEG audio (layer I, II or III)
Comments :
Title=The Rite Of Ossilegium
Artist=Stemcell Research Project
Album=Charnel Houses
Tracknumber=04
Year=2011
Genre=Industrial

[/more]

Register
(2) Raw1488, Абигор,
Apr 15 2017, 08:21:09 Obskuritatem - Vampirska Kakofonija (2017)
I was listening to Obskuritatem Vampirska Kakofonija whole night. MP3 version. An JEWL of an album for me. Really dark and atmospheric album. You CAN feel the hate and coldness. Really good start for this band. Too bad it was like 150 euros/dollars for this LP.
(1) Borderline1991,
Apr 14 2017, 21:32:37 Goat Thron - Selective Extermination (2006)
A strange misanthropic project. Not much is known about their convictions. There are some interviews, but not online I think. I have searched and found nothing about them. Misanthropic duo definitely. Very hard listening experience. In my opinion this is a successful project in many ways. Good death industrial/dark ambient band with great atmosphere and a high level of darkness. You can feel the hate breathing through it.
(1) Goatrex,

7 Pages V  « < 4 5 6 7 >
- Lo-Fi Version Support form
Copyrights and abuse reports form
Time is now: 7th June 2020 - 00:10:11