Welcome Guest ( Log In | Register )

История благодарностей участнику Vrolok ::: Спасибо сказали: 3107 раз(а)
Дата поста: В теме: За сообщение: Спасибо сказали:
Sep 28 2016, 15:36:01 Новости Black-направления
ЦИТАТА(Necrodictator @ Sep 25 2016, 22:45:05) *


В п***у это издание.Это пиратака,а не официальное издание.
Участники ББХ к нему отношения не имеют.
Настоятельно рекомендую не приобретать данный релиз,и тем самым не оказывать поддержку сомнительным личностям.Котрые хотят нажиться на чужых трудах!!!
(6) Goatrex, GTrooper, HA7tur, infiltrator, templ, Typhon88,
Sep 21 2015, 16:08:53 Drudkh - Борозна Обірвалася (2015)
ЦИТАТА(Old Vyaine @ Sep 20 2015, 21:21:47) *
Когда там уже НМ разродятся?


Не много оффтопа:

У NM как у группы все превосходно.Группа полностью функционирует,выступает и параллельно работает в студии.
НЕ волнуйся,НС на новых творениях ты не услышишь!!!
Вот например видео со вчерашнего их выступления
[youtube]bktSFkKgZF8[/youtube]

В самом обозримом будущем у группы выйдет сплит с Graveland и юбилейный сборник/трибьют.
Истина ждет своего часа.....
(3) Cryptoriff, Old Vyaine, SAPOGi,
Jun 22 2014, 06:58:22 Новости Black-направления
Новая группа от участников Khors,Ygg, Reusmarkt, Djur, Ulvegr, Elderblood...
Black Metal, замешанный на элементах Doom\Electronic\Ambient\Sludge\Depressive\Avantgarde с мистической лирикой под влиянием шаманизма.

KZOHH:

Khorus - bass
Zorn - vocals
Odalv - drums
Helg - guitars
Hyozt - keys and samples

[youtube]aGkJdZO8nzk[/youtube]

В сентябре 2014 года альбом IAOLTDOTAD будет издан немецким лэйблом No Colours Records в формате CD / A-5 Digi CD (ltd. to 99 handnumbered Copies).
No Colours Records
(2) Antiscum, infiltrator,
Feb 27 2014, 11:41:31 Новости Black-направления
On May 23rd (May 27th in North America), Season of Mist will release a special compilation entitled ‘One And All, Together, For Home’. Initiated by DRUDKH main man Roman Sayenko, this project consists of established bands from the metal world recording folk and mostly acoustic songs.

Here is the list of bands which will appear on ‘One And All, Together, For Home’:
PRIMORDIAL (Ireland)
DRUDKH (Ukraine)
AVA INFERI (Portugal)
KAMPFAR (Norway)
WINTERFYLLETH (England)
HДIVE (Finland)
HIMINBJORG (France)
MONDVOLLAND (Netherlands)

Every band recorded one to three tracks, all exclusive and previously unreleased. While most of them are renditions of traditional tunes from their respective countries, some of them are genuinely personal material. Song titles, cover artwork and available formats will be unveiled later.



On other news, Roman Sayenko’s other band BLOOD OF KINGU is currently recording a new album, which be released later this year on Season of Mist’s Underground Activists division.
(6) acerbus, Foghuman, Goatrex, postED, T.H.U.L.E., technoboy69,
Dec 17 2013, 21:04:12 Всполох & Вихрь - У камней замшелых... (Amongst Mossy Stones...) [split] (2013)


*Artist: Всполох & Вихрь
*Album: У камней замшелых... (Amongst Mossy Stones...) [split]
*Year: 2013
*Genre: Pagan/Black Metal | Black Metal
*Country: Russian Federation | Russian Federation
*Format: mp3@CBR320kbps
*Size: 131MB

Tracklist:
Vspolokh:
1. I 01:13
2. II (re-recorded version of Сумерки from demo) 5:34
3. III 09:35
4. IV (YGG "Ritual" cover) 11:00
5. V 09:28
Вихрь:
6. VI 03:07
7. VII 07:21
8. VIII 06:59
9. IX 06:03
10. X 02:47
******************************
Total playing time: 1:03:07



[more=Technical info]
Input File: 1.Vspolokh - I ( instrumental).mp3
Channels : 2
Sample Rate : 44100
Precision : 16-bit
Duration : 00:01:12.75 = 3208275 samples = 5456.25 CDDA sectors
File Size : 2.91M
Bit Rate : 320k
Sample Encoding: MPEG audio (layer I, II or III)

[/more]

Register
(28) 14wolff88, 1968_janeart, blacky66, Boozer, caro, Daarkan, Darth Alvasarra, Fryz, kefka, Lanceatum, lestllk, Maribor, Moonshtook, neoatheist, Orkkh, Raw1488, recber, rom666, RUDACHUR, satanist666, serach, tont, Tulen_FM, varlam4, vasiljev_sergej, Velemysl, wreak, ZA670,
Dec 9 2013, 21:32:04 Kaosophia - The Origins Of Extinction (2013)
ЦИТАТА(Kub @ Dec 9 2013, 23:38:40) *
слабая ориентация на поляков


мне больше показалось,что на французов
(3) Black Cat, infiltrator, SSBandera,
Dec 9 2013, 21:31:01 Бастион - Время Борьбы (2013)
Достойный альбом,однозначно шаг в лучшую сторону.По сравнению с дебютной работой.
(2) Hswhhh, neoatheist,
Nov 29 2013, 15:36:26 Новости DOOM Metal
[youtube]9iI-glPhefI[/youtube]
(2) Kaphiel, RUDACHUR,
Nov 28 2013, 07:59:19 Новости Folk/Pagan/Viking
ZGARD "Високогір'я (Highlands)" - трек из будущего альбома "Созерцание (Contemplation)", ожидаемого этой зимой.
[youtube]JHLZQ_Ab04k[/youtube]
(2) neoatheist, suseka,
Nov 25 2013, 20:54:01 Новости Folk/Pagan/Viking
[youtube]nl8Ade6Uhyc[/youtube]
(2) neoatheist, RUDACHUR,
Nov 22 2013, 09:19:19 Садко - Клич (The Call) (2013)
Шикарный альбом!!Уже пару дней слушаю smile1.gif
(1) добрыйКот,
Oct 29 2013, 08:00:25 Новости Black-направления
MOROK выпустили альбом.
28 октября на SoundAge Productions вышел дебютный полноформатник русско-немецкого pagan black metal проекта Morok "Смерти Лютой Свистопляс". Альбом содержит 8 треков: 1. Смерти Лютой Свистопляс, 2. Последняя Стезя, 3. Око За Око, 4. Водоворотом Талых Вод, 5. Жатва, 6. Небо Заревом Зардевается, 7. Тени Ушедших, 8. Ветрам Не Слышать Стона Земли.
(1) RUDACHUR,
Sep 30 2013, 14:43:24 Inquisition - Obscure Verses For The Multiverse (2013)
Лучший альбом из блека в этом году true_black.gif
(4) Burzevil, Dmitry1977, Goatrex, lordbathor,
Sep 30 2013, 06:57:33 Nidra - Кома (2013)


*Artist: Nidra
*Album: Кома
*Year: 2013
*Genre: Atmospheric Black/Dark Metal
*Country: Russian Federation
*Format: mp3@CBR320kbps
*Size: 104MB

Tracklist:
1. Серная Скорбь
2. Внутренняя Вечность
3. Ушедшим Прежде
4. Мор
5. Скитание
6. Забвение
7. Отчуждённость
8. Рассвет
9. Procession Of The Dead Clowns (Blut Aus Nord Cover)
******************************
Total playing time: 52:17

[more=Technical info]
Input File: 08. Рассвет.mp3
Channels : 2
Sample Rate : 44100
Precision : 16-bit
Duration : 00:03:24.05 = 8998385 samples = 15303.4 CDDA sectors
File Size : 8.16M
Bit Rate : 320k
Sample Encoding: MPEG audio (layer I, II or III)
Comments :
Title=Ðàññâåò (Êîìà 2013)
Artist=Nidra
Album=Êîìà
Tracknumber=8
Year=2013
Genre=Black/Doom/Dark

[/more]

Register
(18) 0x13, 1968_janeart, caro, Constantinus I, Darkthronefoad, kefka, Maribor, Old Vyaine, oldvarg, Ostinato, randumbum, satanist666, Steinnorik, Stringer, tont, User123, VALERY, vasiljev_sergej,
Sep 15 2013, 11:15:17 Новости DOOM Metal
Solitude prods. / BadMoodMan Music представляют:
Исполнитель:Mournful Gust
CD «For All The Sins»
Дата релиза:23 сентября 2013 года


Долгожданный третий альбом, пожалуй, самой известной украинской doom death metal группы Mournful Gust. Несмотря на то, что с момента предыдущего альбома состав неоднократно и кардинально менялся, в музыкальном плане «For All The Sins» стал логическим продолжением предшественника «The Frankness Eve». По-прежнему главным украшением группы является харизматичный вокал Владислава Шахина, мелодичные партии соло-гитар и монолитная ритм-секция. Всеобщую атмосферу фирменного doom death metal от Mournful Gust украшают женский вокал LerO из Xes Dreams, скрипичные партии Петра Воронова из Otto Dix и захватывающие синтезаторные аранжировки, добавившие изящности в эпические композиции, отмеченные прекрасным вкусом музыкантов, создавших прекрасную, мелодичную музыку, наполненную меланхолией и душевными переживаниями. Великолепным дополнением к альбому стала завершающая его кавер-версия из репертуара группы Rainbow. И, конечно же, как и всегда, захватывающее оформление 16-тистраничного буклета от Nurgeslag - порадует глаза поклонников группы. Звуковое продюссирование – Tony Alien.
Сергей Терентьев (Solitude Productions)

«Характеризуя всю работу в целом – могу отметить, что это категорически целостная плита, выдержанная в соответствующей для Mournful Gust атмосфере, но кардинально разнящаяся от всего того, что мы делали раньше. Здесь нет фатальных экспериментов, но многие из Вас будут удивлены моделью нового видения того, что принято называть doom/death metal. «For All The Sins»- именно так будет называться диск, с которым ты проведёшь не один свой одинокий вечер.»
Влад Шахин (Mournful Gust)
(1) Brutal,
Sep 14 2013, 13:16:59 Рэйнхардт - Пина колада (2013)
ЦИТАТА(aesteticvice @ Sep 14 2013, 14:59:59) *
Отличный альбом 20.gif
для любителй мелодичного дум дэта


Поддерживаю!!! 9.gif
(1) aesteticvice,
Sep 2 2013, 14:18:20 Bilskirnir - Wotan Redivivus (2013)
Hail Wotan!!
(1) Maribor,
Sep 2 2013, 14:14:39 Satyricon - Satyricon (2013)
Хорошо альбом однако 20.gif
(2) Maribor, vosmidesijatye,
Sep 2 2013, 12:46:32 Bilskirnir - Wotan Redivivus (2013)
Вещь true_black.gif
(1) Maribor,
Aug 26 2013, 17:34:47 Новости Black-направления
ЦИТАТА(Fryz @ Aug 26 2013, 18:31:50) *
Алексея выпустили таки? Вроде его вокал.

Выпустили давно уже,даже концерты были с ним.Вокал его и Александра из Нежеголь.
(2) infiltrator, Maribor,
Aug 26 2013, 08:04:54 Новости Black-направления
М8Л8ТХ - Сага о Чёрном Марше (промо) 2013
http://vimeo.com/73103292
(4) godkiller88, Lucius Eternal, Maribor, RUDACHUR,
Aug 11 2013, 16:39:28 Mayhem - De Mysteriis Dom Sathanas (1994)
Великий альбом!
Зло в своем чистом виде true_black.gif
Пару раз в год переслушиваю обязательно smile1.gif
(2) Maribor, vosmidesijatye,
Aug 8 2013, 18:41:29 Новости Black-направления
Трек-лист нового альбома SHINING

01. Terres Des Anonymes (featuring Famine of PESTE NOIRE)
02. Szabadulj Meg Цnmagadtуl (featuring Attila Csihar of MAYHEM, TORMENTOR)
03. Ett Liv Utan Mening (featuring Pehr Larsson of ALFAHANNE)
04. Selvdestruktivitetens Emissarie (featuring Gaahl of GOD SEED, WARDRUNA, ex-GORGOROTH)
05. Black Industrial Misery (featuring Maniac of SKITLIV, ex-MAYHEM)
06. Through Corridors Of Oppression (featuring KVARFORTH himself)
(5) Chasm, Haunting, Maribor, Starseeker, vosmidesijatye,
Aug 8 2013, 13:49:56 Новости Black-направления
Новый альбом Soli Diaboli Gloria.
Недавно карелы Soli Diaboli Gloria подали признаки жизни посредством московского значка Arma Diaboli.Релиз намечен на этот год, когда точно пока неизвестно. Ну а называться будет "The Last Blessing".Лейбл и опубликовал новый трек.
(1) Maribor,
Jul 28 2013, 15:04:16 20 Years ISD Memorial
28 сентября 2013,Харьков Украина, 20 Years ISD Memorial:
Warlord (UK), Skrew You (UK/CA), L! (DE), Sokyra Peruna (UA), Antisystem (RU), Revenge (RU), Molat (BY)


(3) Maribor, neoatheist, smes,

20 Pages V   1 2 3 > » 
- Lo-Fi Version Support form
Copyrights and abuse reports form
Time is now: 20th October 2019 - 17:59:15