Welcome Guest ( Log In | Register )

История благодарностей участнику goxther ::: Спасибо сказали: 243 раз(а)
Дата поста: В теме: За сообщение: Спасибо сказали:
Nov 2 2019, 09:45:33 Doom Rot - Great Old Ones [ep] (2019)
Архив битый, все песни порезаны. минута-две максимум. Да и размер архива намекает - 17мб на 4 трека в 320 ну никак
(1) dimpa,
Jul 12 2019, 10:09:16 Chemtrail - Collider (2019)


*Artist: Chemtrail
*Album: Collider
*Year: 2019
*Genre: Post-Rock/Instrumental
*Country: United States
*Format: mp3@CBR320kbps
*Size: 103MB

Tracklist:
01 Void Crawler
02 Young Warrior
03 Frozen Dream
04 Safe Passage
05 Tiger Cage
06 Collider
07 Parameters
08 Thrasher
******************************
Total playing time: 45:53



[more=Extended info]Line Up:
Mike Burke - Guitar / Keys
Dan Ridenour - Guitar
Chris Camano - Guitar / Keys
Cory George - Bass
Randy Kovac - Drums
Bobby Bates - Keys / Synth[/more]

[more=Technical info]
Input File: 02 Young Warrior.mp3
Channels : 2
Sample Rate : 44100
Precision : 16-bit
Duration : 00:08:04.08 = 21347708 samples = 36305.6 CDDA sectors
File Size : 19.4M
Bit Rate : 320k
Sample Encoding: MPEG audio (layer I, II or III)
Comments :
Title=Young Warrior
Artist=Chemtrail
Album=Collider
Tracknumber=02/8
Year=2019
Genre=Post Rock

[/more]

Register
(3) artscald, infiltrator, Olethros,
Jul 9 2019, 10:27:58 One Light Inside - 99 (2019)


*Artist: One Light Inside
*Album: 99
*Year: 2019
*Genre: Alternative Rock
*Country: Ukraine
*Format: mp3@CBR320kbps
*Size: 136MB

Tracklist:
01 - Intro 1:38
02 - You Try To Kill Me 3:16
03 - Stay With Me 5:08
04 - Don't Hurt My Love 4:42
05 - Wake Up 4:55
06 - Zombie 3:28
07 - In The End 4;06
08 - Stop 4:48
09 - Soldier 6:15
10 - Where Do You Go 4:47
11 - You Are Not Alone 5:09
12 - Help Me 6:32
13 - Остановись (bonus track) 4:47
******************************
Total playing time: 55:25




[more=Technical info]
Input File: 05 - Wake Up.mp3
Channels : 2
Sample Rate : 44100
Precision : 16-bit
Duration : 00:04:55.20 = 13018320 samples = 22140 CDDA sectors
File Size : 11.8M
Bit Rate : 320k
Sample Encoding: MPEG audio (layer I, II or III)
Comments :
Title=Wake Up
Artist=One Light Inside
Album=99
Tracknumber=5/13
Year=2019
Genre=Alternative Rock

[/more]

Register
(2) artscald, infiltrator,
Jul 8 2019, 13:00:04 Abhorrot - Abysmal Echoes (2019)
Запись - привет из 90х?
(1) FlammenTod666,
Jul 8 2019, 10:01:29 Северный Флот - Иnой (2018)


*Artist: Северный Флот
*Album: Иnой
*Year: 2018
*Genre: Hard-Rock/Alternative
*Country: Russian Federation
*Format: mp3@CBR320kbps
*Size: 80MB

Tracklist:
1. Иной (feat Нуки) 4:55
2. Здравствуй, страна! 4:28
3. Ленинград 3:35
4. Удачи солдат 3:57
5. Время любить 4:14
6. Колыбельная 3:39
7. Странник 3:39
8. Самая тёмная ночь 3:26
9. Вечный 3:42
******************************
Total playing time: 35:35



[more=Extended info]Группа «Северный Флот»:
Александр «Ренегат» Леонтьев — вокал, гитара, акустическая гитара;
Яков Цвиркунов — гитара;
Александр Куликов — бас-гитара;
Павел Сажинов — клавишные инструменты;
Александр «Поручик» Щиголев — ударные, электронная перкуссия, бубен.

Приглашённые участники:
Дария «Нуки» Ставрович — вокал (1);
Гуля Наумова — скрипка (8), бэк-вокал (3);
Роман Парыгин — труба (6);[/more]

[more=Technical info]
Input File: 01 - ИNОЙ (feat. Нуки).mp3
Channels : 2
Sample Rate : 44100
Precision : 16-bit
Duration : 00:04:55.88 = 13048264 samples = 22190.9 CDDA sectors
File Size : 11.8M
Bit Rate : 320k
Sample Encoding: MPEG audio (layer I, II or III)
Comments :
Title=ИNОЙ (feat. Нуки)
Artist=Северный Флот
Album=ИNОЙ
Tracknumber=01/09
Year=2018
Discnumber=1

[/more]

Register
(3) Aresson, artscald, infiltrator,
Jul 5 2019, 16:24:51 Bad Religion - Age Of Unreason (2019)


*Artist: Bad Religion
*Album: Age Of Unreason
*Year: 2019
*Genre: Punk-Rock
*Country: United States
*Format: mp3@CBR320kbps
*Size: 86MB

Tracklist:
01. Chaos from Within 1:50
02. My Sanity 2:58
03. Do the Paranoid Style 1:45
04. The Approach 2:25
05. Lose Your Head 2:50
06. End of History 2:47
07. Age of Unreason 2:40
08. Candidate 2:45
09. Faces of Grief 1:04
10. Old Regime 2:42
11. Big Black Dog 2:06
12. Downfall 2:36
13. Since Now 1:43
14. What Tomorrow Brings 3:09
15. The Kids Are Alt-Right (CD hidden track) 2:43
16. The Profane Rights of Man (CD bonus track)2:07
******************************
Total playing time: 38:10



[more=Extended info]Greg Graffin – lead vocals
Brett Gurewitz – guitar
Brian Baker – guitar
Mike Dimkich – guitar
Jay Bentley – bass
Jamie Miller – drums[/more]

[more=Technical info]
Input File: 02 - My Sanity.mp3
Channels : 2
Sample Rate : 48000
Precision : 16-bit
Duration : 00:02:58.51 = 8568576 samples ~ 13388.4 CDDA sectors
File Size : 7.14M
Bit Rate : 320k
Sample Encoding: MPEG audio (layer I, II or III)
Comments :
Title=My Sanity
Artist=Bad Religion
Album=Age Of Unreason
Tracknumber=02/16
Year=2019
Genre=Punk rock
Discnumber=1

[/more]

Register
(9) AHBAnep, AndreFrancis, artscald, infiltrator, marilin, oldvarg, Olethros, Zhelezjaka, Нигилист,
Jul 5 2019, 10:49:36 D-A-D - Pray For The Loud (2019)


*Artist: D-A-D
*Album: Pray For The Loud
*Year: 2019
*Genre: Hard-Rock
*Country: Denmark
*Format: mp3@CBR320kbps
*Size: 95MB

Tracklist:
01. Burning Star
02. A Prayer For The Loud
03. Nothing Ever Changes
04. The Sky Is Made Of Blues
05. The Real Me
06. No Doubt About It
07. A Drug For The Heart
08. Musical Chairs
09. Time Is A Train
10. Happy Days In Hell
11. If The World Just
******************************
Total playing time: 44:31


Review

[more=Extended info]D-A-D is:

Jesper Binzer - Vocals, Guitar
Stig Pedersen - Bass, Vocals
Jacob Binzer - Guitar
Laust Sonne - Drums[/more]

[more=Technical info]
Input File: 01 - Burning Star.mp3
Channels : 2
Sample Rate : 44100
Precision : 16-bit
Duration : 00:03:38.16 = 9620856 samples = 16362 CDDA sectors
File Size : 8.73M
Bit Rate : 320k
Sample Encoding: MPEG audio (layer I, II or III)
Comments :
Title=Burning Star
Artist=D-A-D
Album=A Prayer For The Loud
Tracknumber=01/11
Year=2019
Genre=Hard-Rock
Discnumber=1

[/more]

Register
(6) artscald, infiltrator, oldvarg, Olethros, smes, vir2al,
Jul 5 2019, 10:24:59 He Is Legend - White Bat (2019)


*Artist: He Is Legend
*Album: White Bat
*Year: 2019
*Genre: Southern Metal/Alternative/Sludge 'n' Roll/Hard Rock
*Country: United States
*Format: mp3@CBR320kbps
*Size: 96MB

Tracklist:
1. White Bat
2. Burn All Your Rock Records
3. When the Woods Were Young
4. Eye Teeth
5. Talking Stalker
6. Bent
7. Resister Resist Her
8. Uncanny Valley
9. The Interloper
10. Skin So Soft
11. Boogiewoman
******************************
Total playing time: 42:11


Official

[more=Extended info]Новый, 6-ой по счёту альбом от Шуйлара Крума и Ко, который придется по душе фэнам Maylene And The Sons Of Disaster, Cancer Bats, Hellyeah, Every Time I Die, Baroness, Alice In Chains и Red Fang[/more]

[more=Technical info]
Input File: 01 - White Bat.mp3
Channels : 2
Sample Rate : 44100
Precision : 16-bit
Duration : 00:03:27.21 = 9138137 samples = 15541 CDDA sectors
File Size : 8.29M
Bit Rate : 320k
Sample Encoding: MPEG audio (layer I, II or III)
Comments :
Title=White Bat
Artist=He Is Legend
Album=White Bat
Tracknumber=01/11
Year=2019
Genre=Southern Metal
Discnumber=1

[/more]

Register
(3) Angry_Chair, artscald, Olethros,
Jun 6 2019, 09:13:59 Triuwint - Über Trümmertälern (2019)
ЦИТАТА(rickzammuto @ Jun 5 2019, 19:06:33) *
This band was still from Nuremberg, Bavaria, Germany last week according to their Facebook/EM pages. When did they move to Italy?

https://www.metal-archives.com/bands/Triuwint/3540357849



Necroscum has that strange behavior to mix countries of bands. Just take it as is and write correct country. bye.gif
(1) rickzammuto,
May 24 2019, 10:43:09 Stormhammer - Seven Seals (2019)
ЦИТАТА(Old Vyaine @ May 23 2019, 23:56:21) *
неплохая вещь. Кто послушал, там ещё такие есть?



Да, альбом, в целом, в этом ключе звучит. первые 4 трека - точно, сейчас как раз Семь печатей
(1) Old Vyaine,
May 3 2019, 13:01:32 Amon Amarth - Berserker (2019)
Скучный альбом, ровный как степь и такой же "интересный".
(2) infiltrator, Shadowman,
Apr 29 2019, 08:56:33 Amon Amarth - Berserker (2019)
ЦИТАТА(Slam91 @ Apr 29 2019, 10:44:12) *
О, новый альбом Арии.


однако у Кипелова голос поменялся crazy.gif
(2) Emm Human, infiltrator,
Apr 25 2019, 10:44:22 Gabriel And The Apocalypse - Alpha Bionic (2019)


*Artist: Gabriel And The Apocalypse
*Album: Alpha Bionic
*Year: 2019
*Genre: Alternative/Industrial
*Country: United States
*Format: mp3@CBR320kbps
*Size: 87MB

Tracklist:
01 Systematic Chaos 3:30
02 Sonic Bionic 4:08
03 Electro Mechanical 4:23
04 Cellophane Nation 4:01
05 pointTHREE 2:57
06 Counting Scars 3:58
07 Bleed Me an Ocean 3:43
08 Beds Are Burning 4:16
09 Transcend 3:30
10 Disgraceful Bliss 2:46
******************************
Total playing time: 37:12


Site

[more=Extended info]Дата релиза:
12 Apr 2019[/more]

[more=Technical info]
Input File: 08 - Beds Are Burning.mp3
Channels : 2
Sample Rate : 44100
Precision : 16-bit
Duration : 00:04:16.14 = 11295950 samples = 19210.8 CDDA sectors
File Size : 10.2M
Bit Rate : 320k
Sample Encoding: MPEG audio (layer I, II or III)
Comments :
Title=Beds Are Burning
Artist=Gabriel and The Apocalypse
Album=Alpha Bionic

[/more]

Register
(3) gwar, Olethros, SyncestrA,
Apr 24 2019, 08:56:39 Misterer - Ignoramus (2019)
ЦИТАТА(DarkHorde @ Apr 24 2019, 10:44:29) *
Солянка из различный стилей, не трэш.

Ну сами себя они позиционируют. как представителей
ЦИТАТА
new school of old thrash metal


По превью на ютубе - вокал трешовый, ритм - трешовый. что еще нужно?
(1) Samaritianin,
Apr 16 2019, 09:04:12 Azathoth Circle - Lingua [ep] (2018)


*Artist: Azathoth Circle
*Album: Lingua [ep]
*Year: 2018
*Genre: Alternative/Black Metal/Stoner
*Country: Ukraine
*Format: mp3@CBR320kbps
*Size: 35MB

Tracklist:
01 Grano 6:53
02 AffectumTimoris 4:41
03 Inquam 5:37
******************************
Total playing time: 17:11


Archives

[more=Extended info]Mikhail Yablochkov Bass (2013-present)
Aleksandra Babiy Vocals (female) (2013-present)
Roman Petrov Drums (2014-present)
Andrey Shlenchak Guitars (2015-present)

Lyrical themes: H. P. Lovecraft, Self-exploration, Fear, Emotions[/more]

[more=Technical info]
Input File: 02 - AffectumTimoris.mp3
Channels : 2
Sample Rate : 44100
Precision : 16-bit
Duration : 00:04:41.39 = 12409343 samples = 21104.3 CDDA sectors
File Size : 11.2M
Bit Rate : 320k
Sample Encoding: MPEG audio (layer I, II or III)
Comments :
Title=Affectum Timoris
Artist=Azathoth Circle
Album=Lingua (EP)
Tracknumber=02/03
Genre=Alternative/Black Metal/Stoner

[/more]

Register
(7) ahp, kimkayoung, Olethros, recber, Rosen, terron, yuratroll,
Apr 16 2019, 08:51:04 Azathoth Circle - Lingua [ep] (2018)
ЦИТАТА(recber @ Apr 15 2019, 20:57:59) *
А что за код нужно ввести?

Интересненько ,сейчас гляну

Поправил
Register
(1) Ostinato,
Apr 15 2019, 10:04:12 Azathoth Circle - Lingua [ep] (2018)


*Artist: Azathoth Circle
*Album: Lingua [ep]
*Year: 2018
*Genre: Alternative/Black Metal/Stoner
*Country: Ukraine
*Format: mp3@CBR320kbps
*Size: 35MB

Tracklist:
01 Grano 6:53
02 AffectumTimoris 4:41
03 Inquam 5:37
******************************
Total playing time: 17:11



[more=Technical info]
Input File: 02 - AffectumTimoris.mp3
Channels : 2
Sample Rate : 44100
Precision : 16-bit
Duration : 00:04:41.39 = 12409343 samples = 21104.3 CDDA sectors
File Size : 11.2M
Bit Rate : 320k
Sample Encoding: MPEG audio (layer I, II or III)
Comments :
Title=Affectum Timoris
Artist=Azathoth Circle
Album=Lingua (EP)
Tracknumber=02/03
Genre=Alternative/Black Metal/Stoner

[/more]

Register
(1) stumpheavyrock,
Dec 28 2018, 15:33:28 Soilwork - Verkligheten (2019)
ЦИТАТА(MeatWolf @ Dec 28 2018, 18:24:56) *
А второй?


Phlebotomized скорее всего
(2) Ghostb, quicksand,
Dec 26 2018, 13:55:46 Medenera - Medenir (2018)
Да тут и эмбиент, и дарквейв затесались. Все композиции тягучие и, по-итальянски, воздушные
Блекового тут кот наплакал, тяготеет к вышесказанному.

Nimeredin - такая эпичная сага о хз чем, но понравилось smile1.gif
(1) Fess,
Dec 5 2018, 16:03:26 Omgeving - Wijde Wijdte (2018)
ЦИТАТА(isvili @ Dec 5 2018, 16:02:58) *
Телка на облоге на мою младшую сестру похожа, когда та с ночного клуба возвращается.

этот пост содержит скрытую рекламу headcrab.png
(2) Foneg, Shadechaser,
Nov 12 2018, 12:05:20 Dimlight - Kingdom Of Horrors (2018)
ЦИТАТА(isvili @ Oct 29 2018, 20:11:23) *
Очень не плохой альбом, лучший у них. "Мужик горло дерет" достойно, в отличии от предыдущих работ, гроула тут даже чуть больше чем женского. Достойная работа. Взял себе лося. Лет 6 назад заезжали как то в наш город вместе с W.E.B. и Inactive Messiah и ихняя часть в концерте была самая интересная.


- что вы делаете, вы убиваете его, он же гуманитарий!
- а это уже проблема.. евойная!
- иикх...

Не сдержался smile1.gif
Странное впечатление от прослушивания, вроде заходит, а, вроде, какой-то не цепляющий материал. Хотя некоторые ходы радуют. И, как выше писали, женский вокал очень даже хорошо звучит. Приятная гречанка

(1) MMMMM,
Oct 5 2018, 09:50:29 Behemoth - I Loved You At Your Darkest (2018)
ЦИТАТА(acerbus @ Oct 5 2018, 00:30:52) *
Мы рады, что ты требуешь от жизни совсем немногого (об этом, кстати, тоже писать по 18 постов совсем необязательно), но глупо ожидать того же от всех подряд.



Я рад, что у тебя есть собственное мнение. Но требовать от жизни и брать от жизни, согласись, вещи разные. Я беру всё, что мне нужно. Искать или ждать что-то от других - это бред. Получается: Ты не получаешь от исполнителя того, что ты в своем мозгу навертел и ожидал получить? Теперь исполнитель, который даже не догадывается о твоем существовании, становится пОзером и коммерсом и вообще скатился, и утратил искру? Серьезно? А может у него есть его собственное мнение и видение?

Новый альбус Бегемотов всё-же напоминает своим построением крайние работы Септиков, Мунспелов. Вот похожее очень звучание. Что-то в этом альбоме есть такое, но надо еще пару раз послушать. Может альбом и пустой. А может и нет. Мне заходят некоторые элементы композиций. Может настроение, может потому что я ничего не ждал от этого альбома.
(4) cesar, Exorcist, Old Vyaine, verner,
Oct 4 2018, 15:32:16 Behemoth - I Loved You At Your Darkest (2018)
ЦИТАТА(lafuma @ Oct 4 2018, 16:57:36) *
С этим можно поспорить.


Если конкретно тебе не заходит - то это не заходит конкретно тебе. И, соответственно, если кому-то нравится, то это нравится кому-то. Можешь разделять мнение, можешь не разделять. Но спорить на эту тему? тебе 14 лет и ты максималист до мозга костей headcrab.png ?

А по сабжу, чё-то это не блэк/дез, как в тегах указано. Но звучит красиво, не рубилово, но что-то во всем этом есть.

Зашла по первому кругу Rom 5:8
(1) Sanctus,
Aug 21 2018, 08:54:07 Breaking Benjamin - Ember (2018)


*Artist: Breaking Benjamin
*Album: Ember
*Year: 2018
*Genre: Alternative Metal/Post-Grunge
*Country: United States
*Format: mp3@CBR320kbps
*Size: 82MB

Tracklist:
01. Lyra (00:29)
02. Feed the Wolf (03:18)
03. Red Cold River (03:20)
04. Tourniquet (04:09)
05. Psycho (03:20)
06. The Dark of You (04:12)
07. Down (04:02)
08. Torn in Two (04:17)
09. Blood (03:09)
10. Save Yourself (03:06)
11. Close Your Eyes (04:01)
12. Vega (01:22)
******************************
Total playing time: 38:45



[more=Technical info]
Input File: 02 Feed The Wolf.mp3
Channels : 2
Sample Rate : 44100
Precision : 16-bit
Duration : 00:03:18.11 = 8736695 samples = 14858.3 CDDA sectors
File Size : 8.01M
Bit Rate : 324k
Sample Encoding: MPEG audio (layer I, II or III)
Comments :
Title=Feed The Wolf
Artist=Breaking Benjamin
Album=Ember
Tracknumber=02
Year=2018
Genre=Alternative Metal
Discnumber=1/1

[/more]

Register
(1) Shadechaser,
Aug 10 2018, 09:31:48 Van Canto - Trust In Rust (2018)
ЦИТАТА(Arseniy @ Aug 9 2018, 18:25:35) *
Есть такой японец Dokaka, который начал битбоксить митал гораздо раньше этих немецких бездарей, причём у него в одну каску выходило (а может до сих пор выходит, честно говоря хрен его знает, продолжает ли он это дело) куда как интересней и остроумнее, чем у Вонь Cunto. Вот у него есть кавер на Eagle Fly Free, жаль, на Ютубе его нет, не вставить, который уделывает не только эту позорную перепевку, но и всё творчество данного коллектива в принципе. Я каждый раз вообще поражаюсь, что они зачем-то продолжают существовать, да не просто, а ещё и альбомы пишут и концерты играют.


Послушал я этого японца.. ЧТО У ТЕБЯ С ВОСПРИЯТИЕМ? Ван Канто, хоть и херней страдают, но звучат в РАЗЫ лучше Докаки. Хотя их я слушал первый альбом только и он был хорош, потому что первый. Необычное звучание и все такое. Дальше слушать нет ни желания, ни сил, совсем не заходит такое.
(1) Penetralia,

3 Pages V   1 2 3 >
- Lo-Fi Version Support form
Copyrights and abuse reports form
Time is now: 11th December 2019 - 02:21:23