Welcome Guest ( Log In | Register )

История благодарностей участнику goxther ::: Спасибо сказали: 274 раз(а)
Дата поста: В теме: За сообщение: Спасибо сказали:
Jul 27 2020, 10:32:22 In Flames - I, The Mask (2019)
ЦИТАТА(assonik @ Feb 3 2020, 13:04:57) *
[youtube]YFhpGcQfGSA[/youtube]



Вот только этот ФредГитарист - ремесленник, он офигенно всех разносит, имеет хорошую технику игры на гитаре, но в сонграйтинг он уже не может. Группа в которой он играет - JASE - блеклый клон Louna, вокалистка изо всех сил старается петь так же, ну и музон - альтернатива.
В этом и разница, - одни не умеют играть (по мнению экспертов), но умеют создавать, другие - виртуозно повторяют написанные/сыгранные рифы с отточенной до микрона техникой, но придумать что-то новое - это титанический труд для них
(3) BleedingSun, SAPOGi, Starseeker,
Jun 17 2020, 12:59:12 Firelink - Firelink (2020)
Удивительно рваное построение композиций. "Вот это - классный риффак, мне нравится. А вот еще вот так можно сыграть. А вот я так умею! Зацените мой соляк! Я гроулить могу - слушайте" И так все треки.

Но альбом скачаю и послушаю. Всё же что-то есть во всей этой мешанине.
(1) Metalass,
Apr 11 2020, 14:44:32 группа Behemoth
Именно на Бегемотов я в первый раз сходил на концерт. Они у нас в клубе выступали. Шикарное шоу и звук. Ну и после концерта еще где-то полчасика с ними протусили, пока техники паковали их стафф для продолжения тура. Это было лет 12 назад, наверное.
Лично мне они нравятся, от альбома к альбому звучат всё лучше.
По поводу пОзерства, это тема для 14-15 летних спермотоксикозников у которых абсолютизм - возрастная черта. Время чистого блека, образца Бурзум, Батори, Ранних Дарктронов и Иммортала осталось в 90х, там, где он зародился. Звук и музыка должны развиваться. Если этого нет - у группы большие проблемы с творческой жилкой. Рубить одно и тоже - много ума не надо.
Мне еще Септик Флеш последние альбомы нравятся именно за счёт экспериментов со звучанием, мощный симфо блек напор. И какая-то чистая ярость, смешанная с тоской.

ЦИТАТА
но у меня ощущение, что такие группы, как Behemoth несут людям свет.

Светоносные, ага 25.gif
(4) BleedingSun, Foneg, infiltrator, plfan93,
Mar 18 2020, 21:12:48 Rawrorr - Cynism (2020)
Жанр в тегах заценил. И ведь есть что-то, в этом определении, близкое к слышимому
(2) infiltrator, Фо,
Mar 1 2020, 08:43:11 Five Finger Death Punch - F8 (2020)


*Artist: Five Finger Death Punch
*Album: F8
*Year: 2020
*Genre: Groove/Alternative Metal
*Country: United States
*Format: mp3@CBR320kbps
*Size: 128MB

Tracklist:
01. F8 1:15
02. Inside Out 3:47
03. Full Circle 3:24
04. Living The Dream 3:38
05. A Little Bit Off 3:13
06. Bottom Of The Top 3:31
07. To Be Alone 3:45
08. Mother May I (Tic Toc) 3:56
09. Darkness Settles In 4:44
10. This Is War 3:14
11. Leave It All Behind 3:33
12. Scar Tissue 2:56
13. Brighter Side Of Grey 4:32
14. Making Monsters (Bonus) 3:05
15. Death Punch Therapy (Bonus) 3:10
16. Inside Out [Radio Edit] (Bonus) 4:18
******************************
Total playing time: 56:01



[more=Extended info]Айвен Муди — вокал
Золтан Батори — ритм-гитара
Джейсон Хук — соло-гитара, бэк-вокал
Крис Кейл — бас-гитара, бэк-вокал
Чарли Энген — ударные
[youtube]https://youtu.be/FsNzdKLKsKQ[/youtube]
[youtube]https://youtu.be/6JLv8FTO_R8[/youtube][/more]

[more=Technical info]
Input File: 03 Full Circle.mp3
Channels : 2
Sample Rate : 44100
Precision : 16-bit
Duration : 00:03:24.43 = 9015495 samples = 15332.5 CDDA sectors
File Size : 8.48M
Bit Rate : 332k
Sample Encoding: MPEG audio (layer I, II or III)
Comments :
Title=Full Circle
Artist=Five Finger Death Punch
Album=F8
Tracknumber=3/16
Year=2020
Genre=Groove Metal / Alternative Metal
Discnumber=1/1

[/more]

Register
(7) Brann, Faust2016, infiltrator, Olethros, VadimBerkut, veselchak_u, zerger,
Feb 16 2020, 12:55:28 Ihsahn - Telemark [ep] (2020)
ЦИТАТА(Battaleon @ Feb 16 2020, 15:10:22) *
Я что-то пропустил походу..когда тут начался НС-симпозиум?))

Волосы русые глаза серые - за арийца сойду если что. crazy.gif


За арейца

З.Ы. ну мне альбом на пару раз послушать можно. Я за музыкальные эксперименты
(2) Ghostb, infiltrator,
Dec 20 2019, 09:12:58 Oak - Lone (2019)
На Bandcamp'e сами себя они характеризуют как - Atmospheric death/doom metal команду

ЦИТАТА
мелодий, которые вы будете насвистывать пока варятся пельмени


Мне очень, очень сложно представить дум, который кто-то насвистывает вообще в принципе. А не то, что "пока варятся пельмешки". Хоть один пример? headcrab.png
(1) Ghostb,
Nov 2 2019, 09:45:33 Doom Rot - Great Old Ones [ep] (2019)
Архив битый, все песни порезаны. минута-две максимум. Да и размер архива намекает - 17мб на 4 трека в 320 ну никак
(1) dimpa,
Jul 12 2019, 10:09:16 Chemtrail - Collider (2019)


*Artist: Chemtrail
*Album: Collider
*Year: 2019
*Genre: Post-Rock/Instrumental
*Country: United States
*Format: mp3@CBR320kbps
*Size: 103MB

Tracklist:
01 Void Crawler
02 Young Warrior
03 Frozen Dream
04 Safe Passage
05 Tiger Cage
06 Collider
07 Parameters
08 Thrasher
******************************
Total playing time: 45:53



[more=Extended info]Line Up:
Mike Burke - Guitar / Keys
Dan Ridenour - Guitar
Chris Camano - Guitar / Keys
Cory George - Bass
Randy Kovac - Drums
Bobby Bates - Keys / Synth[/more]

[more=Technical info]
Input File: 02 Young Warrior.mp3
Channels : 2
Sample Rate : 44100
Precision : 16-bit
Duration : 00:08:04.08 = 21347708 samples = 36305.6 CDDA sectors
File Size : 19.4M
Bit Rate : 320k
Sample Encoding: MPEG audio (layer I, II or III)
Comments :
Title=Young Warrior
Artist=Chemtrail
Album=Collider
Tracknumber=02/8
Year=2019
Genre=Post Rock

[/more]

Register
(3) artscald, infiltrator, Olethros,
Jul 9 2019, 10:27:58 One Light Inside - 99 (2019)


*Artist: One Light Inside
*Album: 99
*Year: 2019
*Genre: Alternative Rock
*Country: Ukraine
*Format: mp3@CBR320kbps
*Size: 136MB

Tracklist:
01 - Intro 1:38
02 - You Try To Kill Me 3:16
03 - Stay With Me 5:08
04 - Don't Hurt My Love 4:42
05 - Wake Up 4:55
06 - Zombie 3:28
07 - In The End 4;06
08 - Stop 4:48
09 - Soldier 6:15
10 - Where Do You Go 4:47
11 - You Are Not Alone 5:09
12 - Help Me 6:32
13 - Остановись (bonus track) 4:47
******************************
Total playing time: 55:25




[more=Technical info]
Input File: 05 - Wake Up.mp3
Channels : 2
Sample Rate : 44100
Precision : 16-bit
Duration : 00:04:55.20 = 13018320 samples = 22140 CDDA sectors
File Size : 11.8M
Bit Rate : 320k
Sample Encoding: MPEG audio (layer I, II or III)
Comments :
Title=Wake Up
Artist=One Light Inside
Album=99
Tracknumber=5/13
Year=2019
Genre=Alternative Rock

[/more]

Register
(2) artscald, infiltrator,
Jul 8 2019, 13:00:04 Abhorrot - Abysmal Echoes (2019)
Запись - привет из 90х?
(1) FlammenTod666,
Jul 8 2019, 10:01:29 Северный Флот - Иnой (2018)


*Artist: Северный Флот
*Album: Иnой
*Year: 2018
*Genre: Hard-Rock/Alternative
*Country: Russian Federation
*Format: mp3@CBR320kbps
*Size: 80MB

Tracklist:
1. Иной (feat Нуки) 4:55
2. Здравствуй, страна! 4:28
3. Ленинград 3:35
4. Удачи солдат 3:57
5. Время любить 4:14
6. Колыбельная 3:39
7. Странник 3:39
8. Самая тёмная ночь 3:26
9. Вечный 3:42
******************************
Total playing time: 35:35



[more=Extended info]Группа «Северный Флот»:
Александр «Ренегат» Леонтьев — вокал, гитара, акустическая гитара;
Яков Цвиркунов — гитара;
Александр Куликов — бас-гитара;
Павел Сажинов — клавишные инструменты;
Александр «Поручик» Щиголев — ударные, электронная перкуссия, бубен.

Приглашённые участники:
Дария «Нуки» Ставрович — вокал (1);
Гуля Наумова — скрипка (8), бэк-вокал (3);
Роман Парыгин — труба (6);[/more]

[more=Technical info]
Input File: 01 - ИNОЙ (feat. Нуки).mp3
Channels : 2
Sample Rate : 44100
Precision : 16-bit
Duration : 00:04:55.88 = 13048264 samples = 22190.9 CDDA sectors
File Size : 11.8M
Bit Rate : 320k
Sample Encoding: MPEG audio (layer I, II or III)
Comments :
Title=ИNОЙ (feat. Нуки)
Artist=Северный Флот
Album=ИNОЙ
Tracknumber=01/09
Year=2018
Discnumber=1

[/more]

Register
(3) Aresson, artscald, infiltrator,
Jul 5 2019, 16:24:51 Bad Religion - Age Of Unreason (2019)


*Artist: Bad Religion
*Album: Age Of Unreason
*Year: 2019
*Genre: Punk-Rock
*Country: United States
*Format: mp3@CBR320kbps
*Size: 86MB

Tracklist:
01. Chaos from Within 1:50
02. My Sanity 2:58
03. Do the Paranoid Style 1:45
04. The Approach 2:25
05. Lose Your Head 2:50
06. End of History 2:47
07. Age of Unreason 2:40
08. Candidate 2:45
09. Faces of Grief 1:04
10. Old Regime 2:42
11. Big Black Dog 2:06
12. Downfall 2:36
13. Since Now 1:43
14. What Tomorrow Brings 3:09
15. The Kids Are Alt-Right (CD hidden track) 2:43
16. The Profane Rights of Man (CD bonus track)2:07
******************************
Total playing time: 38:10



[more=Extended info]Greg Graffin – lead vocals
Brett Gurewitz – guitar
Brian Baker – guitar
Mike Dimkich – guitar
Jay Bentley – bass
Jamie Miller – drums[/more]

[more=Technical info]
Input File: 02 - My Sanity.mp3
Channels : 2
Sample Rate : 48000
Precision : 16-bit
Duration : 00:02:58.51 = 8568576 samples ~ 13388.4 CDDA sectors
File Size : 7.14M
Bit Rate : 320k
Sample Encoding: MPEG audio (layer I, II or III)
Comments :
Title=My Sanity
Artist=Bad Religion
Album=Age Of Unreason
Tracknumber=02/16
Year=2019
Genre=Punk rock
Discnumber=1

[/more]

Register
(15) AHBAnep, AndreFrancis, Aresson, artscald, cesar, DMIYUR, infiltrator, judaz, marilin, neoatheist, oldvarg, Olethros, pain, Zhelezjaka, Нигилист,
Jul 5 2019, 10:49:36 D-A-D - Pray For The Loud (2019)


*Artist: D-A-D
*Album: Pray For The Loud
*Year: 2019
*Genre: Hard-Rock
*Country: Denmark
*Format: mp3@CBR320kbps
*Size: 95MB

Tracklist:
01. Burning Star
02. A Prayer For The Loud
03. Nothing Ever Changes
04. The Sky Is Made Of Blues
05. The Real Me
06. No Doubt About It
07. A Drug For The Heart
08. Musical Chairs
09. Time Is A Train
10. Happy Days In Hell
11. If The World Just
******************************
Total playing time: 44:31


Review

[more=Extended info]D-A-D is:

Jesper Binzer - Vocals, Guitar
Stig Pedersen - Bass, Vocals
Jacob Binzer - Guitar
Laust Sonne - Drums[/more]

[more=Technical info]
Input File: 01 - Burning Star.mp3
Channels : 2
Sample Rate : 44100
Precision : 16-bit
Duration : 00:03:38.16 = 9620856 samples = 16362 CDDA sectors
File Size : 8.73M
Bit Rate : 320k
Sample Encoding: MPEG audio (layer I, II or III)
Comments :
Title=Burning Star
Artist=D-A-D
Album=A Prayer For The Loud
Tracknumber=01/11
Year=2019
Genre=Hard-Rock
Discnumber=1

[/more]

Register
(6) artscald, infiltrator, oldvarg, Olethros, smes, vir2al,
Jul 5 2019, 10:24:59 He Is Legend - White Bat (2019)


*Artist: He Is Legend
*Album: White Bat
*Year: 2019
*Genre: Southern Metal/Alternative/Sludge 'n' Roll/Hard Rock
*Country: United States
*Format: mp3@CBR320kbps
*Size: 96MB

Tracklist:
1. White Bat
2. Burn All Your Rock Records
3. When the Woods Were Young
4. Eye Teeth
5. Talking Stalker
6. Bent
7. Resister Resist Her
8. Uncanny Valley
9. The Interloper
10. Skin So Soft
11. Boogiewoman
******************************
Total playing time: 42:11


Official

[more=Extended info]Новый, 6-ой по счёту альбом от Шуйлара Крума и Ко, который придется по душе фэнам Maylene And The Sons Of Disaster, Cancer Bats, Hellyeah, Every Time I Die, Baroness, Alice In Chains и Red Fang[/more]

[more=Technical info]
Input File: 01 - White Bat.mp3
Channels : 2
Sample Rate : 44100
Precision : 16-bit
Duration : 00:03:27.21 = 9138137 samples = 15541 CDDA sectors
File Size : 8.29M
Bit Rate : 320k
Sample Encoding: MPEG audio (layer I, II or III)
Comments :
Title=White Bat
Artist=He Is Legend
Album=White Bat
Tracknumber=01/11
Year=2019
Genre=Southern Metal
Discnumber=1

[/more]

Register
(3) Angry_Chair, artscald, Olethros,
Jun 6 2019, 09:13:59 Triuwint - Über Trümmertälern (2019)
ЦИТАТА(rickzammuto @ Jun 5 2019, 19:06:33) *
This band was still from Nuremberg, Bavaria, Germany last week according to their Facebook/EM pages. When did they move to Italy?

https://www.metal-archives.com/bands/Triuwint/3540357849



Necroscum has that strange behavior to mix countries of bands. Just take it as is and write correct country. bye.gif
(1) rickzammuto,
May 24 2019, 10:43:09 Stormhammer - Seven Seals (2019)
ЦИТАТА(Old Vyaine @ May 23 2019, 23:56:21) *
неплохая вещь. Кто послушал, там ещё такие есть?



Да, альбом, в целом, в этом ключе звучит. первые 4 трека - точно, сейчас как раз Семь печатей
(1) Old Vyaine,
May 3 2019, 13:01:32 Amon Amarth - Berserker (2019)
Скучный альбом, ровный как степь и такой же "интересный".
(2) infiltrator, Shadowman,
Apr 29 2019, 08:56:33 Amon Amarth - Berserker (2019)
ЦИТАТА(Slam91 @ Apr 29 2019, 10:44:12) *
О, новый альбом Арии.


однако у Кипелова голос поменялся crazy.gif
(2) Emm Human, infiltrator,
Apr 25 2019, 10:44:22 Gabriel And The Apocalypse - Alpha Bionic (2019)


*Artist: Gabriel And The Apocalypse
*Album: Alpha Bionic
*Year: 2019
*Genre: Alternative/Industrial
*Country: United States
*Format: mp3@CBR320kbps
*Size: 87MB

Tracklist:
01 Systematic Chaos 3:30
02 Sonic Bionic 4:08
03 Electro Mechanical 4:23
04 Cellophane Nation 4:01
05 pointTHREE 2:57
06 Counting Scars 3:58
07 Bleed Me an Ocean 3:43
08 Beds Are Burning 4:16
09 Transcend 3:30
10 Disgraceful Bliss 2:46
******************************
Total playing time: 37:12


Site

[more=Extended info]Дата релиза:
12 Apr 2019[/more]

[more=Technical info]
Input File: 08 - Beds Are Burning.mp3
Channels : 2
Sample Rate : 44100
Precision : 16-bit
Duration : 00:04:16.14 = 11295950 samples = 19210.8 CDDA sectors
File Size : 10.2M
Bit Rate : 320k
Sample Encoding: MPEG audio (layer I, II or III)
Comments :
Title=Beds Are Burning
Artist=Gabriel and The Apocalypse
Album=Alpha Bionic

[/more]

Register
(3) gwar, Olethros, SyncestrA,
Apr 24 2019, 08:56:39 Misterer - Ignoramus (2019)
ЦИТАТА(DarkHorde @ Apr 24 2019, 10:44:29) *
Солянка из различный стилей, не трэш.

Ну сами себя они позиционируют. как представителей
ЦИТАТА
new school of old thrash metal


По превью на ютубе - вокал трешовый, ритм - трешовый. что еще нужно?
(1) Samaritianin,
Apr 16 2019, 09:04:12 Azathoth Circle - Lingua [ep] (2018)


*Artist: Azathoth Circle
*Album: Lingua [ep]
*Year: 2018
*Genre: Alternative/Black Metal/Stoner
*Country: Ukraine
*Format: mp3@CBR320kbps
*Size: 35MB

Tracklist:
01 Grano 6:53
02 AffectumTimoris 4:41
03 Inquam 5:37
******************************
Total playing time: 17:11


Archives

[more=Extended info]Mikhail Yablochkov Bass (2013-present)
Aleksandra Babiy Vocals (female) (2013-present)
Roman Petrov Drums (2014-present)
Andrey Shlenchak Guitars (2015-present)

Lyrical themes: H. P. Lovecraft, Self-exploration, Fear, Emotions[/more]

[more=Technical info]
Input File: 02 - AffectumTimoris.mp3
Channels : 2
Sample Rate : 44100
Precision : 16-bit
Duration : 00:04:41.39 = 12409343 samples = 21104.3 CDDA sectors
File Size : 11.2M
Bit Rate : 320k
Sample Encoding: MPEG audio (layer I, II or III)
Comments :
Title=Affectum Timoris
Artist=Azathoth Circle
Album=Lingua (EP)
Tracknumber=02/03
Genre=Alternative/Black Metal/Stoner

[/more]

Register
(7) ahp, kimkayoung, Olethros, recber, Rosen, terron, yuratroll,
Apr 16 2019, 08:51:04 Azathoth Circle - Lingua [ep] (2018)
ЦИТАТА(recber @ Apr 15 2019, 20:57:59) *
А что за код нужно ввести?

Интересненько ,сейчас гляну

Поправил
Register
(1) Ostinato,
Apr 15 2019, 10:04:12 Azathoth Circle - Lingua [ep] (2018)


*Artist: Azathoth Circle
*Album: Lingua [ep]
*Year: 2018
*Genre: Alternative/Black Metal/Stoner
*Country: Ukraine
*Format: mp3@CBR320kbps
*Size: 35MB

Tracklist:
01 Grano 6:53
02 AffectumTimoris 4:41
03 Inquam 5:37
******************************
Total playing time: 17:11



[more=Technical info]
Input File: 02 - AffectumTimoris.mp3
Channels : 2
Sample Rate : 44100
Precision : 16-bit
Duration : 00:04:41.39 = 12409343 samples = 21104.3 CDDA sectors
File Size : 11.2M
Bit Rate : 320k
Sample Encoding: MPEG audio (layer I, II or III)
Comments :
Title=Affectum Timoris
Artist=Azathoth Circle
Album=Lingua (EP)
Tracknumber=02/03
Genre=Alternative/Black Metal/Stoner

[/more]

Register
(1) stumpheavyrock,
Dec 28 2018, 15:33:28 Soilwork - Verkligheten (2019)
ЦИТАТА(MeatWolf @ Dec 28 2018, 18:24:56) *
А второй?


Phlebotomized скорее всего
(2) Ghostb, quicksand,

4 Pages V   1 2 3 > » 
- Lo-Fi Version Support form
Copyrights and abuse reports form
Time is now: 14th August 2020 - 01:36:15