Welcome Guest ( Log In | Register )

История благодарностей участнику metalblogmaniac ::: Спасибо сказали: 50 раз(а)
Дата поста: В теме: За сообщение: Спасибо сказали:
Jun 5 2017, 12:21:40 Moonfog - Blood Splatter Stories (2017)


*Artist: Moonfog
*Album: Blood Splatter Stories
*Year: 2017
*Genre: Brutal Death Metal
*Country: Slovakia
*Format: mp3@CBR320kbps
*Size: 75MB

Tracklist:
01. Guts Vomiting
02. Maggots In Your Head
03. Face Ripping Knife
04. Rotting Flesh
05. Total Sickness
06. Surgery Of Undead
07. Gored To Death
08. Festering Wounds
09. Body Dismemberment
10. Mass Murder
11. Bloodshed
******************************
Total playing time: 31:28

[more=Technical info]
Input File: 01. Guts Vomiting.mp3
Channels : 2
Sample Rate : 44100
Precision : 16-bit
Duration : 00:01:58.42 = 5222146 samples = 8881.2 CDDA sectors
File Size : 4.74M
Bit Rate : 320k
Sample Encoding: MPEG audio (layer I, II or III)
Comments :
Title=Guts Vomiting
Artist=Moonfog
Album=Blood Splatter Stories
Tracknumber=1/11
Year=2017
Genre=Death Metal

[/more]

Register

Register
(13) BERZERK, Friman, jollo, lawronchik, Orgasmik, puding, Rosen, SatanicPanzer, satanist666, SymbyoticEntity, Typhoid, vyacheslav, Wotanwatch,
Mar 12 2014, 21:04:39 Avoral - War Is Not Over (2014)


*Artist: Avoral
*Album: War Is Not Over
*Year: 2014
*Genre: Epic Metal
*Country: Italy
*Format: mp3@VBR260kbps
*Size: 82MB

Tracklist:
01. Ivory Gates
02. Unwanted Treason
03. Take The Power
04. Ill Rise Again
05. Dark Caves Melody
06. Journey To The Glory
07. War Is Not Over
******************************
Total playing time: 39:49

[more=Extended info]upload by Styxx[/more]

Register
(16) ace73pq, caro, deathrashergavo, FILDV, gwynnbleid, metala, Mogozoz, Olrak, rammstein888, Reverend, senecazm, VALERY, varlam4, wanderer73, watasan, wreak,
Jan 9 2014, 16:30:36 Phantasma - Book Of Phantasma (2010)


*Artist: Phantasma
*Album: Book Of Phantasma
*Year: 2010
*Genre: Atmospheric Death Metal
*Country: Slovenia
*Format: mp3@VBR260kbps
*Size: 87MB

Tracklist:
1. Chapter 1 - Prophet
2. Chapter 2 - Riders
3. Chapter 3 - Warrior
4. Chapter 4 - Dragon
5. Chapter 5 - Menagerie
6. Chapter 6 - King
7. Chapter 7 - Ave Satanas 5
8. Chapter 8 - Madness
9. Chapter 9 - Execution
10. Chapter 10 - Revenge
11. Chapter 11 - Destroyed, Cause He Believed
******************************
Total playing time: 43:36

[more=Extended info]upload by twister554[/more]

Register
(19) 666BlackDeath, aorta3, caro, Darkthronefoad, ddx1, Death84, Evilded, garretje, Hell_Is_Here, Johnix, jollo, maxapero, metala, MMMMM, serach, Stringer, varlam4, Vincent, vyacheslav,

- Lo-Fi Version Support form
Copyrights and abuse reports form
Time is now: 20th October 2019 - 22:10:13