Welcome Guest ( Log In | Register )

История благодарностей участнику YDV.SVARTVIND ::: Спасибо сказали: 2251 раз(а)
Дата поста: В теме: За сообщение: Спасибо сказали:
Oct 28 2018, 13:21:22 Drug Darkness - Baphomet Overdoze Reh. [demo] (2018)
После таких прекрасных растапливающих одинокие мужские сердца фоточек так и хочется посоучавствовать в garem gangbangе с Demoness, Melse, Heike Langhans, Aliera Alicefox и Sterile, не бабы, БОГИНИ!.. Лига Прекрасных Нимф, Моя Пентада, мои Девятые Симфонии Рахманинова, мои Пьеты, светочи очей моих, геены моих чресел!.. (С)
(1) vosmidesijatye,
Jul 11 2018, 08:00:04 Medieval Demon - Medieval Necromancy (2018)
неужели Легенда вновь разродилась? в топ года!
(1) nunim,
Jul 3 2018, 14:18:08 Funebres Nuptiae - A Weakness For Rotten Breasts [demo] (1994)
Наконец-то самое сокровенное частное сокровище у нас в руках! Not enought for Спасибо!

Вокал как у Weltebezwinger, немыслимый ШедеврЪ!
(1) Dead666,
Jun 23 2018, 13:06:19 Nebiros - Draft Versions For Gods Of Dust [demo] (1999)
Огроммное СПС! наконец-то эта банда добита до конца, и музыка как всегда на высоте...
(1) INDARKNESS,
Feb 23 2018, 20:30:19 Black Metal: funny artists pictures!


[more="..."]как же я скучаю по говнарям из 00х  normal_Homerdisgust3s.png

Intro:



Holocaust (Poland) = just listen it demos :3



Noromi Lucalen (Russia) :3




Esseker (Russia) DSBM :3



N.O.S.F.E.R.A.T.U 0 "В Ад" (2003) (Russia) :3



Fort (Russia) :3



Iscariot :3



Unknown Bands (Dark Univrse of Impure Crap) Casual (ACHTUNG! 21+) :3











[/more]
(5) Borderline1991, DarkHorde, Infidel, neoatheist, sethurius,
Jan 7 2018, 22:10:59 Evilfeast - Elegies Of The Stellar Wind (2017)
ЦИТАТА(Old Vyaine @ Jan 8 2018, 00:09:49) *
Хорошая рождественская музыка 5.gif


Как отрезал... 15.gif 1488.gif
(1) smes,
Dec 16 2017, 14:24:06 Evilfeast - Elegies Of The Stellar Wind (2017)
Определенно - это фиаско, братюни! (С)

Худшая работа Grimspirit-a после Funeral Sorcery... Заместо стиля 2004 года который мы заслужили послушали послушали, легли и зарюмсали...

2017 - год сплошных разочарований и на этом альбоме тезису точка! Обильные накипи тотальной халтури и нежелания вылизывать сырую недоделанную работу до блеска.

Archaic Magic... A Cenotaph Below the Cursed Moon - говорит о том, что его творческий потенциал скоро иссякнет...

Symphonic Blackcore... Pagancore...
(2) crestfallen999, SSBandera,
Sep 19 2017, 22:10:49 Schawehrmacht - Allah Mit Uns (2017)
ЦИТАТА(EvilSurround @ Sep 19 2017, 21:49:59) *
Отлично! Просто шедевр! 1488.gif metaler.gif


С какого лешего Это - "параллельный мiр"? 1488.gif
(1) EvilSurround,
Aug 6 2017, 08:09:50 Morpheus Tales - II (2017)
Шедевр проклятой Эпохи вырожденческого сюра! Автоматом в топчик!

Киньте FLAC (WAV) всего диско кто-нибудь!
(1) skidnik,
Jul 11 2017, 09:48:33 Ordrhein - Ordrhein [demo] (2010)


*Artist: Ordrhein
*Album: Ordrhein [demo]
*Year: 2010
*Genre: Raw Black Metal
*Country: United States
*Format: mp3@CBR160kbps
*Size: 24MB

Tracklist:
01. The First Sphere 04:58
02. Guillotine 02:56
03. The Strength In Silence 04:56
04. Portals To The Past 05:57
05. Brother 04:00
******************************
Total playing time: 22:47



Register
(14) 1968_janeart, ambre, Boozer, infiltrator, kim666, Razorbladeswaltz, Rosen, RUSP73, satanist666, serg1349, stub888, thenecromancer, vasiljev_sergej, wgs73,
Jul 1 2017, 22:49:21 Himelvaruwe - CCIII [demo] (2017)


*Artist: Himelvaruwe
*Album: CCIII [demo]
*Year: 2017
*Genre: Raw Atmospheric Black Metal
*Country: Netherlands
*Format: mp3@CBR320kbps
*Size: 35MB

Tracklist:
01. Carthago 08:30
02. II 05:35
******************************
Total playing time: 14:05



[more=Technical info]
Input File: 02. II.mp3
Channels : 2
Sample Rate : 44100
Precision : 16-bit
Duration : 00:05:35.73 = 14805737 samples = 25179.8 CDDA sectors
File Size : 13.6M
Bit Rate : 324k
Sample Encoding: MPEG audio (layer I, II or III)
Comments :
Title=II
Artist=Himelvaruwe
Album=CCIII
Tracknumber=2
Year=2017

[/more]

Register
(20) 1968_janeart, artscald, blacky66, Immortality, infiltrator, kim666, LVXXVL, oreoor, Raw1488, Razorbladeswaltz, rom666, Rosen, Sanc, satanist666, serg1349, stub888, varg-38ru, varlam4, vasiljev_sergej, Абигор,
Jun 19 2017, 12:44:23 Paimon - Our Burning Flame, Morningstar Will Reign [demo] (1998)
ЦИТАТА(Velkaarn @ Feb 2 2017, 13:52:24) *
Found it, should be the same thingy.


re-up!
(1) dermarsoran,
Jun 19 2017, 12:39:18 Raw Hatred - Southern Hell Rehearsal [demo] (2008)
ЦИТАТА(basher68 @ Nov 23 2016, 02:47:40) *


re-up!
(1) satanist666,
Jun 19 2017, 11:56:56 Heidenblut - Promo [best of/compilation] (2008)
ЦИТАТА(vasiljev_sergej @ Oct 16 2016, 12:28:59) *


re-up!
(1) satanist666,
May 23 2017, 23:35:48 Dimrevenant - #03 [demo] (2016)


*Artist: Dimrevenant
*Album: #03 [demo]
*Year: 2016
*Genre: Raw Black Metal
*Country: Mexico
*Format: mp3@CBR256kbps
*Size: 38MB

Tracklist:
1. #1 01:26
2. #2 00:56
3. #3 03:55
4. #4 03:47
5. #5 02:35
6. #6 05:16
7. #7 (下からの声) 02:44
******************************
Total playing time: 20:39



Register
(9) 1968_janeart, artscald, infiltrator, khzx117, Ostinato, Rosen, RUSP73, satanist666, vasiljev_sergej,
May 23 2017, 23:25:15 Eyávbëg - Eyávbëg [demo] (2015)


*Artist: Eyávbëg
*Album: Eyávbëg [demo]
*Year: 2015
*Genre: Raw Black Metal
*Country: Mexico
*Format: mp3@CBR320kbps
*Size: 37MB

Tracklist:
01. I 05:48
02. II 07:33
03. III 08:29
******************************
Total playing time: 21:50



[more=Technical info]
Input File: 02. II.mp3
Channels : 2
Sample Rate : 44100
Precision : 16-bit
Duration : 00:09:49.49 = 25996465 samples = 44211.7 CDDA sectors
File Size : 14.1M
Bit Rate : 192k
Sample Encoding: MPEG audio (layer I, II or III)
Comments :
Title=II
Artist=EyГЎvbГ«g
Album=EyГЎvbГ«g
Tracknumber=2

[/more]

Register
(9) 1968_janeart, kim666, Ostinato, Rosen, RUSP73, satanist666, Styx, varlam4, vasiljev_sergej,
May 15 2017, 15:34:41 Vetëvrakh & Snorri - Vetëvrakh/Snorri [split] (2017)


*Artist: Vetëvrakh & Snorri
*Album: Vetëvrakh/Snorri [split]
*Year: 2017
*Genre: Raw Black Metal | Raw Black Metal
*Country: Bosnia and Herzegovina | Australia
*Format: mp3@CBR192kbps
*Size: 17MB

Tracklist:
Vetëvrakh:
01. I 06:34
Snorri:
02. Sub signo pactum cum diabolo tenebrarum 6:48
******************************
Total playing time: 13:22



Register
(12) 1968_janeart, A.L.Rapsod, ddarkthrone, EmptinessCycle, kim666, LVXXVL, marilin, rom666, Rosen, RUSP73, the_cleanser, vasiljev_sergej,
May 15 2017, 15:13:11 Goatblood - Defiance & Intolerance (2016)


*Artist: Goatblood
*Album: Defiance & Intolerance
*Year: 2016
*Genre: Raw Black Metal
*Country: Australia
*Format: mp3@VBR148kbps
*Size: 32MB

Tracklist:
01. Goatblood 07:12
02. Pride of the Wolf 04:17
03. Within the Cleansing Chambers 04:00
04. Blood of the Fallen 04:20
05. Empires Keep 04:40
06. Genocide Under a Sanguine Moon 05:14
******************************
Total playing time: 29:43



Register
(23) 1968_janeart, Alexis The Best, artscald, Borderline1991, ddarkthrone, Ildjarn, Immortality, JuicyMaraca, kim666, LazarShadow, Orkkh, Razorbladeswaltz, Rosen, RUSP73, satanist666, serg1349, smysl, stub888, varg-38ru, varlam4, vasiljev_sergej, wgs73, Wolftribes,
May 15 2017, 15:10:49 Goatblood - Rehearsal [demo] (2017)


*Artist: Goatblood
*Album: Rehearsal [demo]
*Year: 2017
*Genre: Raw Black Metal
*Country: Australia
*Format: mp3@CBR320kbps
*Size: 7MB

Tracklist:
01. Phantasm of Sinister Hauntings 06:12
02. Avenue of Honour 03:19
03. Flesh for the Beast 06:30
******************************
Total playing time: 16:01



[more=Technical info]
Input File: 02. Avenue of Honour.mp3
Channels : 2
Sample Rate : 44100
Precision : 16-bit
Duration : 00:03:20.02 = 8820838 samples = 15001.4 CDDA sectors
File Size : 1.73M
Bit Rate : 69.1k
Sample Encoding: MPEG audio (layer I, II or III)
Comments :
Title=Avenue of Honour
Artist=Goatblood
Album=Rehearsal
Tracknumber=2

[/more]

Register
(17) 1968_janeart, Alexis The Best, artscald, Borderline1991, ddarkthrone, Ildjarn, Immortality, kim666, rom666, Rosen, satanist666, smysl, thenecromancer, varg-38ru, varlam4, vasiljev_sergej, Wolftribes,
May 15 2017, 14:37:55 Voin Grim - Rites Of Full Wintermoon Grandeur (2016)


*Artist: Voin Grim
*Album: Rites Of Full Wintermoon Grandeur
*Year: 2016
*Genre: Raw Black Metal
*Country: Ukraine
*Format: mp3@CBR192kbps
*Size: 95MB

Tracklist:
01. Reaching the Heights of Starlit Tavrida 08:31
02. Passing the Accrescent Sacred Ruins Towards the Frozen Kingdom 07:53
03. Custodian of Northern Lights 06:00
04. Die Goldene Wiege 13:20
05. In Mourning of Fullmoon 06:07
06. Prelude Op. I 02:25
07. Mystic Spheres Over the Citadel 06:26
08. Rites of Full Wintermoon Grandeur 08:09
09. Intro (Illa Tiðandi) 10:16
******************************
Total playing time: 1:09:07



Register
(3) 1968_janeart, murian, vasiljev_sergej,
Apr 29 2017, 14:00:35 Kur Extorquere - Dragón Primitivo Generado Del Vacío [demo] (2013)


*Artist: Kur Extorquere
*Album: Dragón Primitivo Generado Del Vacío [demo]
*Year: 2013
*Genre: Raw Black Metal
*Country: Mexico
*Format: mp3@CBR128kbps
*Size: 10MB

Tracklist:
01. Egregor del onceavo vórtice de Saturno pt I 02:48
02. Ecus Desafinatus 01:46
03. Dragón primitivo generado del vacío 05:40
******************************
Total playing time: 10:14



Register
(9) artscald, Fatalist77791, kim666, LazarShadow, Razorbladeswaltz, Rosen, RUSP73, satanist666, vasiljev_sergej,
Apr 29 2017, 11:56:44 Kur Extorquere - Octarinósmosis Primigenia [demo] (2014)


*Artist: Kur Extorquere
*Album: Octarinósmosis Primigenia [demo]
*Year: 2014
*Genre: Raw Black Metal
*Country: Mexico
*Format: mp3@CBR128kbps
*Size: 14MB

Tracklist:
01. Octarinósmosis Primigenia 05:16
02. Vexillum Catharticum 04:04
03. Apretura Arcaica 06:16
******************************
Total playing time: 15:36



Register
(7) artscald, Ildjarn, kim666, Rosen, RUSP73, satanist666, vasiljev_sergej,
Apr 29 2017, 09:49:36 Kur Extorquere - A.R.A.S. [demo] (2015)


*Artist: Kur Extorquere
*Album: A.R.A.S. [demo]
*Year: 2015
*Genre: Raw Black Metal
*Country: Mexico
*Format: mp3@CBR128kbps
*Size: 16MB

Tracklist:
01. Evocación Atávica Perpetua 04:12
02. Egregor del Onceavo Vórtice de Saturno Pt II 07:40
03. Ritual Mayor del Destierro Secreto 06:08
******************************
Total playing time: 18:00



Register
(9) artscald, Ildjarn, kim666, LazarShadow, Razorbladeswaltz, Rosen, RUSP73, satanist666, vasiljev_sergej,
Mar 4 2017, 10:41:46 Necro Disseminator - Jesus In Hell [demo] (1989)


*Artist: Necro Disseminator
*Album: Jesus In Hell [demo]
*Year: 1989
*Genre: Black Metal
*Country: Brazil
*Format: mp3@CBR320kbps
*Size: 42MB

Tracklist:
01. I 02:12
02. II 02:13
03. III 02:54
04. IV 03:10
05. V 03:34
06. VI 03:43
07. VII 01:36
08. VIII 01:23
******************************
Total playing time: 20:45



[more=Technical info]
Input File: 05. V.mp3
Channels : 2
Sample Rate : 44100
Precision : 16-bit
Duration : 00:03:34.16 = 9444456 samples = 16062 CDDA sectors
File Size : 8.56M
Bit Rate : 320k
Sample Encoding: MPEG audio (layer I, II or III)
Comments :
Title=V
Artist=Necro Disseminator
Album=Jesus in Hell
Tracknumber=5/8
Year=1989
Genre=Black Metal
Discnumber=1/1

[/more]

Register
(9) Evilded, infiltrator, Rosen, RUSP73, satanist666, thenecromancer, tireheb, vasiljev_sergej, wgs73,
Mar 3 2017, 00:27:31 Milicia Oscura - Sangre De Cristo [demo] (2007)


*Artist: Milicia Oscura
*Album: Sangre De Cristo [demo]
*Year: 2007
*Genre: Black Metal
*Country: Mexico
*Format: mp3@CBR320kbps
*Size: 46MB

Tracklist:
01. Intro 01:11
02. La Sangre de Cristo 08:50
03. Eterna Crucifixion 04:02
04. Cuando Vuelva la Oscuridad 03:46
05. El Culto al Hombre Muerto 05:47
******************************
Total playing time: 23:36

[more=Technical info]
Input File: 02. La Sangre de Cristo.mp3
Channels : 2
Sample Rate : 44100
Precision : 16-bit
Duration : 00:08:51.17 = 23424729 samples = 39838 CDDA sectors
File Size : 21.2M
Bit Rate : 320k
Sample Encoding: MPEG audio (layer I, II or III)
Comments :
Title=Pista 2
Artist=milicia oscura
Album=ГЃlbum desconocido (19/01/2009 16:18:14)
Tracknumber=2
Genre=GГ©nero desconocido

[/more]

Register
(14) 1968_janeart, artscald, ddarkthrone, Ildjarn, kim666, Ostinato, rom666, Rosen, RUSP73, satanist666, serg1349, thenecromancer, varg-38ru, vasiljev_sergej,

9 Pages V   1 2 3 > » 
- Lo-Fi Version Support form
Copyrights and abuse reports form
Time is now: 25th November 2020 - 10:03:42