Welcome Guest ( Log In | Register )

История благодарностей участнику zdcaixao ::: Спасибо сказали: 46 раз(а)
Дата поста: В теме: За сообщение: Спасибо сказали:
Apr 30 2019, 18:42:31 Filtheater - Blight Of Sempiternal Putrefaction (2019)


*Artist: Filtheater
*Album: Blight Of Sempiternal Putrefaction
*Year: 2019
*Genre: Death Metal
*Country: United States
*Format: mp3@CBR320kbps
*Size: 86MB

Tracklist:
01 Malevolent Transcendence
02 Faceless Caverns
03 A Veiled Loathing Throne
04 Monologues of Reverance
05 Swallowed at Dust
06 Vapors of Human Sacrifice
07 Unwelcome Illuminated Curiousity
08 Amorphous Bulging Appendages
09 Chalice Made of Bone
******************************
Total playing time: 37:56

[more=Extended info]foobar2000 1.0 / Dynamic Range Meter 1.1.1
log date: 2019-04-30 18:14:11

--------------------------------------------------------------------------------
Analyzed: Filtheater / Blight of Sempiternal Putrefaction
--------------------------------------------------------------------------------

DR Peak RMS Duration Track
--------------------------------------------------------------------------------
DR7 0.00 dB -7.88 dB 4:27 . 01 Malevolent Transcendence
DR7 -0.08 dB -8.01 dB 4:25 . 02 Faceless Caverns
DR7 -0.08 dB -7.98 dB 3:27 . 03 A Veiled Loathing Throne
DR7 -0.08 dB -7.94 dB 4:24 . 04 Monologues of Reverance
DR7 -0.08 dB -8.23 dB 4:28 . 05 Swallowed at Dust
DR7 -0.08 dB -7.91 dB 3:59 . 06 Vapors of Human Sacrifice
DR7 -0.08 dB -7.97 dB 5:05 . 07 Unwelcome Illuminated Curiousity
DR7 -0.08 dB -8.35 dB 3:13 . 08 Amorphous Bulging Appendages
DR7 -0.08 dB -8.30 dB 4:27 . 09 Chalice Made of Bone
--------------------------------------------------------------------------------

Number of tracks: 9
Official DR value: DR7

Samplerate: 44100 Hz
Channels: 2
Bits per sample: 16
Bitrate: 1411 kbps
Codec: PCM
================================================================================[/more]

[more=Technical info]
Input File: 08 Amorphous Bulging Appendages.mp3
Channels : 2
Sample Rate : 44100
Precision : 16-bit
Duration : 00:03:13.42 = 8529998 samples = 14506.8 CDDA sectors
File Size : 7.74M
Bit Rate : 320k
Sample Encoding: MPEG audio (layer I, II or III)
Comments :
Title=Amorphous Bulging Appendages
Artist=Filtheater
Album=Blight of Sempiternal Putrefaction
Tracknumber=8/9
Year=2019

[/more]

Register
(2) Samaritianin, Tyler,
Jan 29 2017, 17:30:55 Slaughter - Strappado (1987)
Slaughter – Strappado
High Roller Records - HRR 385 CD
CD, Album, Limited Edition, Reissue, Remastered
09 Sep 2014
Thrash / Death Metal

Strappado (Original Mix)
1 Strappado 01:33
2 The Curse 01:49
3 Disintegrator 01:01
4 Incinerator 03:03
5 Parasites 02:07
6 One Foot In The Grave 01:10
7 F.O.D. (Fuck Of Death) 03:57
8 Tortured Souls 02:55
9 Nocturnal Hell 03:35
10 Tales Of The Macabre 04:09
Strappado (Unedited Rough Mix)
11 One Foot In The Grave 01:16
12 Disintegrator 01:04
13 Incinerator 03:00
14 The Curse 02:00
15 Tales Of The Macabre 04:08
16 Strappado 01:52
17 Tyrant Of Hell 03:07
18 Nocturnal Hell 03:33
19 F.O.D. (Fuck Of Death) 03:58
20 Disintegrator 01:01
21 Incinerator (Backing Vokills Only) 03:02
22 Tortured Souls (No Chorus) 02:56
23 Parasites 02:05
24 Death Dealer 02:05
Notes
Mastered and partially restored from original vinyl and audio cassette sources by Patrick W. Engel at Temple Of Disharmony in June 2014.
Limited to 500.

Register


(14) Amsterdam, auneddu, Bestial_Summoning, CelticSPB, deceased32, Leolomb, morbidangelo, Necrodictator, Saalingurth, SatanMyMaster666, thenecromancer, troll_swamp, WarmasterChorus, wolverine,
Nov 11 2009, 16:04:40 Borgia - Mandragore [demo] (2006)
re-up, please!
thanks!
(1) dermarsoran,
Nov 9 2009, 02:18:57 Agalloch - The Silence of Forgotten Landscapes (DVD, 2009)
Register
(4) Gal, InZa, J0k3r, pain,
Jul 8 2009, 00:29:03 Powerwolf - Bible Of The Beast (The Wacken Worship - Live At Wacken) (2009)


*Artist: Powerwolf
*Album: Bible Of The Beast (The Wacken Worship - Live At Wacken)
*Year: 2009
*Genre: Power Metal
*Country: Germany
*Format: mp3@VBR192kbps
*Size: 64MB

Tracklist:
01. We Take It From The Living
02. Prayer In The Dark
03. We Came To Take Your Souls
04. Saturday Satan
05. In Blood We Trust
06. Mother Mary Is A Bird Of Prey
07. Mister Sinister
08. Kiss Of The Cobra King
09. Lupus Dei
******************************
Total playing time: 47:12

[more=Extended info]The limited edition of the album will be available as a digipack,
including the bonus DVD‚ "The Wacken Worship - Live At Wacken".[/more]

Register


QUOTE
################################################################

Powerwolf - Bible of the Beast

################################################################

RELEASE NAME..: Powerwolf-Bible_Of_The_Beast-(DVD)-2009-GRMB
ARTiST........: Powerwolf
TiTLE.........: Bible of the Beast
GENRE.........: Power Metal
RLS DATE......: 04-07-2009
YEAR..........: 2009
SOURCE........: DVD DD 2.0
LABEL.........: Metal Blade
ENCODER.......: Lame v3.97
QUALiTY.......: VBR / 44.1Hz / Joint-Stereo
NO. OF FiLES..: 10
SiZE..........: 64,8 MB
URL...........: http://metal-archives.com/release.php?id=227867


################################################################

TRACKLiST


01 : intro 01:30
02 : we take it from the living 04:12
03 : prayer in the dark 05:02
04 : we came to take your souls 04:53
05 : saturday satan 06:03
06 : in blood we trust 03:50
07 : mother mary is a bird of prey 05:38
08 : mister sinister 03:56
09 : kiss of the cobra king 05:31
10 : lupus dei 06:37

.....
47:12 min
(1) legion01,
Apr 1 2009, 17:04:18 Wither & Worship - Wither / Worship [split] (2007)
Register
(6) AndreFrancis, kluval, thate_topa, uN90D1y, Граф Д, Элиар,
Nov 21 2008, 23:59:12 Xerión & Decayed - Hymns To Satan - Na Mistica Procura De Amh-ghad-ari [split] (2005) (9) Black Plague, DarkHolocaust, DERANGED, Lanceatum, mkb31406, Nerevar, RUSP73, RussianQuaker, vasiljev_sergej,

- Lo-Fi Version Support form
Copyrights and abuse reports form
Time is now: 27th October 2020 - 07:39:14