Welcome Guest ( Log In | Register )

История благодарностей участнику Velmi ::: Спасибо сказали: 25606 раз(а)
Дата поста: В теме: За сообщение: Спасибо сказали:
Oct 14 2018, 17:12:59 Flaktiin - Souls For The Legions [demo] (2016)


Flaktiin - 2016 - Souls For The Legions

320 Kbps @Yadi.sk
Register
(1) varg-38ru,
Oct 14 2018, 17:07:32 Ruach Raah - Hate Fanaticism (2015)


Ruach Raah - 2015 - Hate Fanaticism

320 Kbps @Yadi.sk
Register
(2) Alexis The Best, varg-38ru,
Oct 13 2018, 13:38:17 Gitrog - Spectral Heraldry (2018)


*Artist: Gitrog
*Album: Spectral Heraldry
*Year: 2018
*Genre: Black Metal
*Country: Germany
*Format: mp3@CBR320kbps
*Size: 125MB

Tracklist:
1. To The Depths Within 04:26
2. Black Lunar Tombs 06:38
3. Bones To Nothing/Blood To Fog 04:12
4. Ancient Tides (Unending Stream Of Nights) 07:36
5. I Am The Tower 03:20
6. Der Trauerträger 05:52
7. Radiant Gloom 04:02
8. Spectral Heraldry 12:53
9. Dance Of Ghosts & Spectres 03:17
******************************
Total playing time: 52:16



[more=Technical info]
Input File: 02. Black Lunar Tombs.mp3
Channels : 2
Sample Rate : 44100
Precision : 16-bit
Duration : 00:06:38.08 = 17555108 samples = 29855.6 CDDA sectors
File Size : 16.2M
Bit Rate : 325k
Sample Encoding: MPEG audio (layer I, II or III)
Comments :
Title=Black Lunar Tombs
Artist=Gitrog
Album=Spectral Heraldry
Tracknumber=02/09
Year=2018
Genre=Black Metal

[/more]

Register
(20) 1968_janeart, Constantinus I, dermarsoran, garmonbozia, kim666, Necroeire, nemx, nsk2008, Orphan, Ostinato, Rosen, satanist666, SilentNidhogg, spiritualdecay666, stub888, suseka, VALERY, vasiljev_sergej, vovenom, zotyo1975,
Oct 13 2018, 11:43:13 Slægt - The Wheel (2018)


*Artist: Slægt
*Album: The Wheel
*Year: 2018
*Genre: Black/Heavy Metal
*Country: Denmark
*Format: mp3@CBR320kbps
*Size: 103MB

Tracklist:
1. Being Born (Is Going Blind) 05:13
2. Masician 06:48
3. Perfume and Steel 04:53
4. Citrinitas 05:04
5. V.W.A 06:42
6. Gauntlet of Lovers 05:43
7. The Wheel 07:33
******************************
Total playing time: 41:56



[more=Technical info]
Input File: 03. Perfume And Steel.mp3
Channels : 2
Sample Rate : 44100
Precision : 16-bit
Duration : 00:04:53.95 = 12963151 samples = 22046.2 CDDA sectors
File Size : 11.9M
Bit Rate : 325k
Sample Encoding: MPEG audio (layer I, II or III)
Comments :
Title=Perfume And Steel
Artist=Slægt
Album=The Wheel
Tracknumber=03/07
Year=2018
Genre=Black Metal

[/more]

Register
(22) 1968_janeart, acerbus, Alexis The Best, avkruchinin, cancer1974, Daale, DarkHorde, garmonbozia, helvetestoner, marilin, metala, Olrak, Orphan, Ostinato, RADeus, Rosen, satanist666, stub888, suseka, toly1917, VALERY, xska,
Oct 13 2018, 09:07:44 Новости Black-направления


Полуврак - Тътени огласят тишината

(1) Daale,
Oct 7 2018, 18:25:58 Baise Ma Hache - F​.​E​.​R​.​T (2018)


*Artist: Baise Ma Hache
*Album: F​.​E​.​R​.​T
*Year: 2018
*Genre: Black Metal
*Country: France
*Format: mp3@CBR320kbps
*Size: 118MB

Tracklist:
1. Le crépuscule des gueux 12:21
2. F​.​E​.​R​.​T 07:31
3. Traité du rebelle 02:16
4. Insociabile regnum 06:17
5. Furia francese 05:02
6. B.L.M.I 06:03
7. Aux modernes 03:59
8. Délivrance 07:39
******************************
Total playing time: 51:08



[more=Extended info]Hammerbolt Productions[/more]

[more=Technical info]
Input File: 02. F.E.R.T.mp3
Channels : 2
Sample Rate : 44100
Precision : 16-bit
Duration : 00:07:31.58 = 19914546 samples = 33868.3 CDDA sectors
File Size : 18.2M
Bit Rate : 322k
Sample Encoding: MPEG audio (layer I, II or III)
Comments :
Title=F.E.R.T
Artist=Baise Ma Hache
Album=F.E.R.T
Tracknumber=02/08
Year=2018
Genre=Black Metal

[/more]

Register
(50) 1968_janeart, acerbus, Ainar, alex-82, Amsterdam, babanguida, biroutios, Black Cat, Daale, DarkHorde, Evilded, Fatalist77791, Femto, Filosofem91, Froze, garmonbozia, gena, judaz, kim666, LEGION69, Maximvs, milosdjor, MMMMM, Moonshtook, nemx, nsk2008, Ostinato, plagueofflies, Ramcheg1981, Raw1488, Rosen, RUDACHUR, RUSP73, satanist666, SHADOW148814, SilentNidhogg, soulskinner681, stone88, Strygaldwir, the_metalist, toly1917, tOmV, Trelledorn, udt4050, VALERY, vasiljev_sergej, volostakoeto, xska, yuratroll, Авел,
Oct 6 2018, 19:30:49 Death Scepter - Black Trance (2018)


*Artist: Death Scepter
*Album: Black Trance
*Year: 2018
*Genre: Raw Black Metal
*Country: Unknown
*Format: mp3@VBR245kbps
*Size: 100MB

Tracklist:
1. Part I 20:36
2. Part II 19:36
******************************
Total playing time: 40:12

[more=Extended info]Temple of Wounds ‎– TW 031
Vinyl-rip + Scans[/more]

[more=Technical info]
Input File: 01. Part I.mp3
Channels : 2
Sample Rate : 44100
Precision : 16-bit
Duration : 00:20:36.30 = 54520698 samples = 92722.3 CDDA sectors
File Size : 42.1M
Bit Rate : 272k
Sample Encoding: MPEG audio (layer I, II or III)
Comments :
Title=Part I
Artist=Death Scepter
Album=Black Trance
Tracknumber=01/02
Year=2018
Genre=Black Metal
Discnumber=1/1

[/more]

Register
(16) 1968_janeart, Borderline1991, Evilded, gena, heinz88, kim666, nemx, Occultas, Ostinato, Rosen, satanist666, SilentNidhogg, Tyrone, udt4050, vasiljev_sergej, vovenom,
Oct 6 2018, 12:56:46 One Tail, One Head - Worlds Open, Worlds Collide (2018)


*Artist: One Tail, One Head
*Album: Worlds Open, Worlds Collide
*Year: 2018
*Genre: Black Metal
*Country: Norway
*Format: mp3@CBR320kbps
*Size: 107MB

Tracklist:
1. Certainly Not 01:02
2. Arrival, Yet Again 03:47
3. Wolrds Open, Worlds Collide 05:32
4. Stellar Storms 07:17
5. An Utter Lack Of Meaning, Hitherto Unbeknownst, Suddenly Revealed 02:25
6. Firebirds 04:23
7. Sordid Sanctitude 04:24
8. One Tail. One Head - Rise In Red 04:20
9. Passage 03:00
10. Summon Surreal Surrender 10:10
******************************
Total playing time: 46:20



[more=Extended info]Terratur Possessions[/more]

[more=Technical info]
Input File: 02. Arrival, Yet Again.mp3
Channels : 2
Sample Rate : 44100
Precision : 16-bit
Duration : 00:03:47.46 = 10031118 samples = 17059.7 CDDA sectors
File Size : 9.17M
Bit Rate : 323k
Sample Encoding: MPEG audio (layer I, II or III)
Comments :
Title=Arrival, Yet Again
Artist=One Tail, One Head
Album=Worlds Open, Worlds Collide
Tracknumber=02/10
Year=2018
Genre=Black Metal

[/more]

Register
(47) 1968_janeart, acerbus, Ainar, Amsterdam, Black Cat, cancer1974, Fatalist77791, Filosofem91, garmonbozia, Immortality, Infidel, jpvalentim, judaz, kim666, Krosis, legion01, LEGION69, marilin, MetalAreola, milosdjor, MMMMM, nemx, Ostinato, pfk505, Premature_Devotion, Radek, ripper33, Rosen, satanist666, sethurius, SilentNidhogg, smysl, spiritualdecay666, StabWound, stub888, Tha, thenecromancer, the_cleanser, toly1917, tOmV, VALERY, vasiljev_sergej, wtk.412, xska, yuratroll, Zaephar, zamunder,
Oct 6 2018, 10:20:13 Reversed - Widow Recluse [demo] (2018)


*Artist: Reversed
*Album: Widow Recluse [demo]
*Year: 2018
*Genre: Black/Death Metal
*Country: Canada
*Format: mp3@CBR320kbps
*Size: 62MB

Tracklist:
1. Venefic Noose 05:08
2. Widow Recluse 05:03
3. Sepulchral Dirt 05:10
4. Bloodthirst 04:30
5. Black Spinning Sockets 06:22
******************************
Total playing time: 26:13



[more=Technical info]
Input File: 02. Widow Recluse.mp3
Channels : 2
Sample Rate : 48000
Precision : 16-bit
Duration : 00:05:03.22 = 14554512 samples ~ 22741.4 CDDA sectors
File Size : 12.3M
Bit Rate : 325k
Sample Encoding: MPEG audio (layer I, II or III)
Comments :
Title=Widow Recluse
Artist=Reversed
Album=Widow Recluse
Tracknumber=02/05
Year=2018
Genre=Black / Death Metal

[/more]

Register
(7) marilin, Ostinato, Rosen, satanist666, SilentNidhogg, VALERY, vasiljev_sergej,
Oct 2 2018, 17:25:21 Żmij - Obrzędów Dawnych Tchnienie [demo] (2018)


*Artist: Żmij
*Album: Obrzędów Dawnych Tchnienie [demo]
*Year: 2018
*Genre: Black Metal
*Country: Poland
*Format: mp3@CBR320kbps
*Size: 40MB

Tracklist:
1. Żertwa (Prolog) 02:06
2. Góra mgieł 05:02
3. Na kurhanach materii 03:03
4. Pochód welesowych dusz / Dziady... (Epilog) 05:24
******************************
Total playing time: 15:35

[more=Extended info]Act of Hate Records - hate-25.
Tape-rip + Scans[/more]

[more=Technical info]
Input File: A2. Góra Mgieł.mp3
Channels : 2
Sample Rate : 48000
Precision : 16-bit
Duration : 00:05:07.68 = 14768784 samples ~ 23076.2 CDDA sectors
File Size : 12.3M
Bit Rate : 320k
Sample Encoding: MPEG audio (layer I, II or III)
Comments :
Title=Góra Mgieł
Artist=Żmij
Album=Obrzędów Dawnych Tchnienie
Tracknumber=02/04
Year=2018
Genre=Black Metal

[/more]

Register
(17) 0x13, 1968_janeart, Borderline1991, Fatalist77791, gena, kim666, Ostinato, Razorbladeswaltz, Rosen, RUSP73, satanist666, SilentNidhogg, Skog1349, Slavas, VALERY, vasiljev_sergej, vovenom,
Sep 29 2018, 12:48:42 Новости Black-направления
[youtube]EhQrR4fHXNg[/youtube]

Death Karma - The History of Death & Burial Rituals Part II
(6) acerbus, babanguida, Daale, Moonshtook, Occultas, Tular,
Sep 29 2018, 11:47:50 Moraš - Manifest Death [demo] (2017)


*Artist: Moraš
*Album: Manifest Death [demo]
*Year: 2017
*Genre: Raw Black Metal
*Country: Finland
*Format: mp3@CBR320kbps
*Size: 63MB

Tracklist:
1. Gateway to Cessation 02:27
2. Evoking the Unhuman Entities 03:16
3. Languishing in Depths of Sorrow 05:47
4. Caged in Flesh 04:51
5. Mourning 06:40
******************************
Total playing time: 23:01

[more=Extended info]Livor Mortis, 2017. Limited to 20 handnumbered copies.
Tape-rip + Scans.
KVLT![/more]

[more=Technical info]
Input File: A2. Evoking the Unhuman Entities.mp3
Channels : 2
Sample Rate : 48000
Precision : 16-bit
Duration : 00:03:18.29 = 9517968 samples ~ 14871.8 CDDA sectors
File Size : 8.13M
Bit Rate : 328k
Sample Encoding: MPEG audio (layer I, II or III)
Comments :
Title=Evoking the Unhuman Entities
Artist=Moraš
Album=Manifest Death
Tracknumber=02/05
Year=2017
Genre=Raw Black Metal

[/more]

Register
(14) 1968_janeart, Alexis The Best, ambre, FUDEDOR, kim666, Krosis, Ostinato, satanist666, SilentNidhogg, stub888, Tyrone, vasiljev_sergej, vovenom, Zaephar,
Sep 29 2018, 11:13:48 Cénotaphe - Horizons [ep] (2018)


*Artist: Cénotaphe
*Album: Horizons [ep]
*Year: 2018
*Genre: Black Metal
*Country: France
*Format: mp3@VBR245kbps
*Size: 53MB

Tracklist:
1. Ce qui souffre, ce qui suinte 05:05
2. Le crachat sur l'offrande 04:50
3. Bourreaux et suppliciés 05:12
4. Entre quatre cierges de cire et de sang 07:43
5. Aspic 04:15
******************************
Total playing time: 27:05

[more=Extended info]Kuunpalvelus, 12'' MLP.
Vinyl-rip by Zero.[/more]

[more=Technical info]
Input File: 02. Le Crachat Sur L\'Offrande.mp3
Channels : 2
Sample Rate : 44100
Precision : 16-bit
Duration : 00:04:50.56 = 12813696 samples = 21792 CDDA sectors
File Size : 9.96M
Bit Rate : 274k
Sample Encoding: MPEG audio (layer I, II or III)
Comments :
Title=Le Crachat Sur L'Offrande
Artist=Cénotaphe
Album=Horizons
Tracknumber=02/05
Year=2018
Genre=Black Metal
Discnumber=1/1

[/more]

Register
(21) 1968_janeart, acerbus, ambre, Boozer, garmonbozia, gena, kim666, Krosis, marilin, murian, Ostinato, Rosen, RUSP73, satanist666, SilentNidhogg, stub888, suseka, Taragorm, udt4050, VALERY, vasiljev_sergej,
Sep 29 2018, 10:57:24 Kaffaljidhma & Gethsemane - Kaffaljidhma/Gethsemane [split] (2018)


*Artist: Kaffaljidhma & Gethsemane
*Album: Kaffaljidhma/Gethsemane [split]
*Year: 2018
*Genre: Raw Black Metal | Raw Black Metal
*Country: Netherlands | Netherlands
*Format: mp3@VBR245kbps
*Size: 42MB

Tracklist:
Kaffaljidhma
1. Celestial Vessel - The Marriage of Heaven and Earth (E Temen An Ki) 12:10
Gethsemane
2. IV-V 08:22
******************************
Total playing time: 20:32

[more=Extended info]Zeitgeists, tape.
Tape-rip by Zero[/more]

[more=Technical info]
Input File: 01. Kaffaljidhma - Celestial Vessel The Marriage Of Heaven And Earth (E Temen An Ki).mp3
Channels : 2
Sample Rate : 44100
Precision : 16-bit
Duration : 00:12:05.05 = 31974881 samples = 54379 CDDA sectors
File Size : 24.8M
Bit Rate : 274k
Sample Encoding: MPEG audio (layer I, II or III)
Comments :
Title=Celestial Vessel: The Marriage Of Heaven And Earth (E Temen An Ki)
Artist=Kaffaljidhma
Album=Kaffaljidma / Gethsemane
Tracknumber=01/02
Year=2018
Genre=Black Metal
Discnumber=1/1

[/more]

Register
(13) 1968_janeart, Alexis The Best, kim666, Krosis, Ostinato, Rosen, satanist666, SilentNidhogg, simonalacacarisa, stub888, Tyrone, vasiljev_sergej, Герб,
Sep 29 2018, 09:13:03 Realglaube - Erfahrungen [demo] (2018)


*Artist: Realglaube
*Album: Erfahrungen [demo]
*Year: 2018
*Genre: Raw Black Metal
*Country: Netherlands
*Format: mp3@CBR320kbps
*Size: 55MB

Tracklist:
1. Analog mastering
2. Erfahrung I
3. Auswechseln der Ideen Ueber Realität (interludium)
4. Erfahrung II
******************************
Total playing time: 22:29

[more=Extended info]Kaladruna - essence 013
Tape-rip + Scans

"In commendation of Friedrich Heinrich Jacobi (1743 - 1819)" R.v.R.[/more]

[more=Technical info]
Input File: B1. I. Erfahrung I.mp3
Channels : 2
Sample Rate : 48000
Precision : 16-bit
Duration : 00:04:34.51 = 13176720 samples ~ 20588.6 CDDA sectors
File Size : 11.3M
Bit Rate : 330k
Sample Encoding: MPEG audio (layer I, II or III)
Comments :
Title=I. Erfahrung I
Artist=Realglaube
Album=Erfahrungen
Tracknumber=02/04
Year=2018
Genre=Black Metal

[/more]

Register
(12) 1968_janeart, ambre, garmonbozia, kim666, Ludwig Hagen, nemx, Ostinato, Rosen, satanist666, SilentNidhogg, stub888, vasiljev_sergej,
Sep 29 2018, 09:04:46 Kaffaljidhma - Untitled [demo] (2018)


*Artist: Kaffaljidhma
*Album: Untitled [demo]
*Year: 2018
*Genre: Raw Black Metal
*Country: Netherlands
*Format: mp3@CBR320kbps
*Size: 25MB

Tracklist:
1. Shaula and Lesath, Weeping Cosmic Rivers of Blight 10:43
******************************
Total playing time: 10:43



[more=Technical info]
Input File: 01. Shaula and Lesath, Weeping Cosmic Rivers of Blight.mp3
Channels : 2
Sample Rate : 44100
Precision : 16-bit
Duration : 00:10:43.46 = 28376454 samples = 48259.3 CDDA sectors
File Size : 25.8M
Bit Rate : 320k
Sample Encoding: MPEG audio (layer I, II or III)
Comments :
Title=Shaula and Lesath, Weeping Cosmic Rivers of Blight
Artist=Kaffaljidhma
Album=Untitled
Tracknumber=01/01
Year=2018
Genre=Black Metal

[/more]

Register
(9) 1968_janeart, Alexis The Best, kim666, Ostinato, Rosen, satanist666, stub888, vasiljev_sergej, vovenom,
Sep 28 2018, 14:38:38 Farsot & Coldworld - Toteninsel [split] (2018)


*Artist: Farsot & Coldworld
*Album: Toteninsel [split]
*Year: 2018
*Genre: Black Metal | Black Metal
*Country: Germany | Germany
*Format: mp3@CBR320kbps
*Size: 65MB

Tracklist:
Farsot:
1. Erde I 07:49
2. Erde II 05:42
ColdWorld:
3. Wasser I (Seaghouls) 05:14
4. Wasser II (Horizon) 08:52
******************************
Total playing time: 27:37




[more=Extended info]Lupus Lounge - WOLF 085[/more]

[more=Technical info]
Input File: 03. ColdWorld - I - Seaghouls.mp3
Channels : 2
Sample Rate : 44100
Precision : 16-bit
Duration : 00:05:14.72 = 13879020 samples = 23603.8 CDDA sectors
File Size : 12.7M
Bit Rate : 323k
Sample Encoding: MPEG audio (layer I, II or III)
Comments :
Title=I - Seaghouls
Artist=ColdWorld
Album=Toteninsel
Tracknumber=03/04
Year=2018
Genre=Black Metal

[/more]

Register
(32) 1968_janeart, artscald, BERZERK, Boozer, cancer1974, deineath, gena, Incantatore, Infidel, Kazoth, kim666, Lanceatum, LEGION69, NachtWulf, nemx, Occultas, Ostinato, peppuzzo, Rosen, satanist666, SilentNidhogg, soulskinner681, Storky, stub888, SyncestrA, udt4050, vasiljev_sergej, volostakoeto, yuratroll, zemlemer, Zenial, Герб,
Sep 27 2018, 17:10:50 Iskandr - Euprosopon (2018)


*Artist: Iskandr
*Album: Euprosopon
*Year: 2018
*Genre: Black Metal
*Country: Netherlands
*Format: mp3@CBR320kbps
*Size: 104MB

Tracklist:
1. Vlakte 08:18
2. Regnum 11:57
3. Verban 11:27
4. Heriwalt 13:02
******************************
Total playing time: 44:44



[more=Technical info]
Input File: 03. Verban.mp3
Channels : 2
Sample Rate : 44100
Precision : 16-bit
Duration : 00:11:27.48 = 30317692 samples = 51560.7 CDDA sectors
File Size : 27.6M
Bit Rate : 321k
Sample Encoding: MPEG audio (layer I, II or III)
Comments :
Title=Verban
Artist=Iskandr
Album=Euprosopon
Tracknumber=03/04
Year=2018
Genre=Black Metal

[/more]

Register
(18) 0x13, 1968_janeart, Amsterdam, d0zer, kim666, Korpse, murian, nsk2008, Ostinato, Rosen, sandr666, satanist666, SilentNidhogg, stub888, suseka, toly1917, VALERY, vasiljev_sergej,
Sep 27 2018, 17:05:27 Fluisteraars & Turia - De Oord [split] (2018)


*Artist: Fluisteraars & Turia
*Album: De Oord [split]
*Year: 2018
*Genre: Black Metal | Black Metal
*Country: Netherlands | Netherlands
*Format: mp3@CBR320kbps
*Size: 76MB

Tracklist:
Fluisteraars:
1. Oeverloos 14:49
Turia:
2. Aan den Golven der Aarde Geofferd 17:58
******************************
Total playing time: 32:47



[more=Technical info]
Input File: 01. Fluisteraars - Oeverloos.mp3
Channels : 2
Sample Rate : 44100
Precision : 16-bit
Duration : 00:14:48.81 = 39196653 samples = 66661 CDDA sectors
File Size : 35.6M
Bit Rate : 321k
Sample Encoding: MPEG audio (layer I, II or III)
Comments :
Title=Oeverloos
Artist=Fluisteraars
Album=De Oord
Tracknumber=01/02
Year=2018
Genre=Black Metal

[/more]

Register

Register
(18) 1968_janeart, acerbus, Boozer, Borderline1991, Fatalist77791, khestanow3001, kim666, Lanceatum, murian, nemx, pfk505, Rosen, satanist666, SilentNidhogg, squall8fr, VALERY, vasiljev_sergej, Zenial,
Sep 27 2018, 17:00:38 Solar Temple - Fertile Descent (2018)


*Artist: Solar Temple
*Album: Fertile Descent
*Year: 2018
*Genre: Black Metal
*Country: Netherlands
*Format: mp3@CBR320kbps
*Size: 84MB

Tracklist:
1. Those Who Dwell in the Spiral Dark 15:55
2. White Jaw 20:27
******************************
Total playing time: 36:22



[more=Technical info]
Input File: 02. White Jaw.mp3
Channels : 2
Sample Rate : 44100
Precision : 16-bit
Duration : 00:20:27.14 = 54117006 samples = 92035.7 CDDA sectors
File Size : 49.2M
Bit Rate : 321k
Sample Encoding: MPEG audio (layer I, II or III)
Comments :
Title=White Jaw
Artist=Solar Temple
Album=Fertile Descent
Tracknumber=02/02
Year=2018
Genre=Black Metal

[/more]

Register
(19) 0x13, 1968_janeart, abob, Amsterdam, Fatalist77791, gena, kim666, Naxah, nemx, Occultas, Ostinato, Rosen, sandr666, satanist666, Shadechaser, stub888, VALERY, vasiljev_sergej, volostakoeto,
Sep 27 2018, 15:42:54 Empty - Vacío (2018)


*Artist: Empty
*Album: Vacío
*Year: 2018
*Genre: Black Metal
*Country: Spain
*Format: mp3@CBR320kbps
*Size: 97MB

Tracklist:
1. The Yellow Rain 03:02
2. Empty 06:35
3. The Rope at the Mill 04:48
4. We All Taste the Same for the Worms 05:31
5. The Night Remains for Who Is 06:37
6. The Pilgrim of Desolation 05:15
7. Filandom Under the Sign of Misfortune 10:19
******************************
Total playing time: 42:07



[more=Extended info]Osmose Productions[/more]

[more=Technical info]
Input File: 02. Empty.mp3
Channels : 2
Sample Rate : 44100
Precision : 16-bit
Duration : 00:06:35.26 = 17430834 samples = 29644.3 CDDA sectors
File Size : 15.9M
Bit Rate : 321k
Sample Encoding: MPEG audio (layer I, II or III)
Comments :
Title=Empty
Artist=Empty
Album=Vacio
Tracknumber=02/07
Year=2018
Genre=Black Metal

[/more]

Register
(15) 0x13, 1968_janeart, BrutalMan, kim666, kyrkovisan, Ostinato, Rosen, sandr666, satanist666, SilentNidhogg, stub888, SyncestrA, toly1917, VALERY, vasiljev_sergej,
Sep 27 2018, 15:25:04 Gevurah - Sulphur Soul [ep] (2018)


*Artist: Gevurah
*Album: Sulphur Soul [ep]
*Year: 2018
*Genre: Black Metal
*Country: Canada
*Format: mp3@CBR320kbps
*Size: 72MB

Tracklist:
1. The Putrid Stench of Rotting Flesh
2. Across the Primordial Sea
3. Mark of Lucifer
4. Black Sun Thaumiel
******************************
Total playing time: 31:07



[more=Extended info]Profound Lore Records[/more]

[more=Technical info]
Input File: 01. The Putrid Stench of Rotting Flesh.mp3
Channels : 2
Sample Rate : 44100
Precision : 16-bit
Duration : 00:06:53.88 = 18252108 samples = 31041 CDDA sectors
File Size : 16.6M
Bit Rate : 321k
Sample Encoding: MPEG audio (layer I, II or III)
Comments :
Title=The Putrid Stench of Rotting Flesh
Artist=Gevurah
Album=Sulphur Soul
Tracknumber=01/04
Year=2018
Genre=Black Metal

[/more]

Register
(27) 1968_janeart, abob, acerbus, Amsterdam, Boozer, EndlessDrone, Henmik, khestanow3001, kim666, marilin, milosdjor, murian, nadin85, nemx, nsk2008, Ostinato, peppuzzo, RADeus, Rosen, satanist666, SilentNidhogg, stub888, Torlof, Tyrone, VALERY, vasiljev_sergej, yuratroll,
Sep 27 2018, 15:19:25 Dödsrit - Spirit Crusher (2018)


*Artist: Dödsrit
*Album: Spirit Crusher
*Year: 2018
*Genre: Black Metal/Crust
*Country: Sweden
*Format: mp3@CBR320kbps
*Size: 103MB

Tracklist:
1. Aura 11:31
2. Ändlösa ådror 09:55
3. A Drowning Voice 07:26
4. Spirit Crusher 15:10
******************************
Total playing time: 44:02



[more=Technical info]
Input File: 01. Aura.mp3
Channels : 2
Sample Rate : 44100
Precision : 16-bit
Duration : 00:11:31.63 = 30500883 samples = 51872.2 CDDA sectors
File Size : 27.8M
Bit Rate : 322k
Sample Encoding: MPEG audio (layer I, II or III)
Comments :
Title=Aura
Artist=Dödsrit
Album=Spirit Crusher
Tracknumber=01/04
Year=2018
Genre=Black Metal

[/more]

Register
(15) 1968_janeart, Black Cat, gena, Golodomor, GuldenDraak, I_Am_Hell, nsk2008, Oath19, Ostinato, Palesz 88, Rosen, satanist666, VALERY, vasiljev_sergej, wgs73,
Sep 27 2018, 11:30:34 Helrunar - Vanitas Vanitatvm (2018)


*Artist: Helrunar
*Album: Vanitas Vanitatvm
*Year: 2018
*Genre: Black Metal
*Country: Germany
*Format: mp3@CBR320kbps
*Size: 144MB

Tracklist:
1. Es ist ein sterbend Liecht 01:00
2. Saturnus 07:49
3. Lotophagoi 06:09
4. Blutmond 06:25
5. Da brachen aus böse Blattern, am Menschen und am Vieh 06:44
6. Vanitas Vanitatvm 02:36
7. In Eis und Nebel 05:44
8. Nachzehrer 08:18
9. Als die Welt zur Nacht sich wandt 05:32
10. Necropolis 09:34
11. Der Tag an dem das Meer seine Toten freigibt 02:50
******************************
Total playing time: 1:02:41



[more=Extended info]Prophecy Productions[/more]

[more=Technical info]
Input File: 02. Saturnus.mp3
Channels : 2
Sample Rate : 44100
Precision : 16-bit
Duration : 00:07:48.64 = 20666980 samples = 35147.9 CDDA sectors
File Size : 18.8M
Bit Rate : 321k
Sample Encoding: MPEG audio (layer I, II or III)
Comments :
Title=Saturnus
Artist=Helrunar
Album=Vanitas Vanitatvm
Tracknumber=02/11
Year=2018
Genre=Black Metal

[/more]

Register
(50) 0x13, 1968_janeart, avather, BlaspherionFLUL, chromeskull88, DowntownGsus, fabriziomagno, Farung, Femto, Golodomor, Infidel, judaz, kim666, Korpse, LEGION69, Lord Noctua, Lux, mardak666, Mirddin, MMMMM, Narasimha, nemx, Nicrophorus, nsk2008, nunim, Olguard, Ostinato, peppuzzo, pouya, Radek, Reverend, Rosen, RUDACHUR, sandr666, satanist666, SilentNidhogg, soulskinner681, squall8fr, stub888, Surt, suseka, Thunderbird, Tino, toly1917, udt4050, VALERY, vasiljev_sergej, Wotanwatch, yuratroll, zotyo1975,
Sep 25 2018, 20:17:17 Dakhma - Hamkar Atonement (2018)


*Artist: Dakhma
*Album: Hamkar Atonement
*Year: 2018
*Genre: Black/Death Metal
*Country: Switzerland
*Format: mp3@CBR320kbps
*Size: 161MB

Tracklist:
1. The Glorious Fall of Ohrmazd (Hail Death, Triumphant) 11:08
2. Akhoman (Spill The Blood) 11:54
3. Varun (Of Unnatural Lust) 05:24
4. Nanghait (Born Of Fire) 10:57
5. Spendarmad (Holy Devotion) 04:12
6. Gannag Menog (Foul Death, Triumphant) 10:33
7. ...Of Great Prophets 16:00
******************************
Total playing time: 1:10:08



[more=Extended info]Iron Bonehead Productions[/more]

[more=Technical info]
Input File: 02. Akhoman (Spill The Blood).mp3
Channels : 2
Sample Rate : 44100
Precision : 16-bit
Duration : 00:11:54.99 = 31530971 samples = 53624.1 CDDA sectors
File Size : 28.7M
Bit Rate : 321k
Sample Encoding: MPEG audio (layer I, II or III)
Comments :
Title=Akhoman (Spill The Blood)
Artist=Dakhma
Album=Hamkar Atonement
Tracknumber=02/07
Year=2018
Genre=Black Metal

[/more]

Register
(30) aesteticvice, Amsterdam, Daale, demonosz, El_Chibo, Evilded, Fatalist77791, FUDEDOR, gena, infozahist, Kehl05, kim666, Leshiy666, marilin, Mirddin, MMMMM, Ostinato, ripper33, Rosen, satanist666, SilentNidhogg, smysl, suseka, Tino, toly1917, Torlof, VALERY, varg-38ru, vasiljev_sergej, wtk.412,

50 Pages V   1 2 3 > » 
- Lo-Fi Version Support form
Copyrights and abuse reports form
Time is now: 18th October 2018 - 12:04:23