Welcome Guest ( Log In | Register )

История благодарностей участнику Velmi ::: Спасибо сказали: 24203 раз(а)
Дата поста: В теме: За сообщение: Спасибо сказали:
Today, 09:38:39 Viha Surma - The Tower Of Witchcraft (2016)


*Artist: Viha Surma
*Album: The Tower Of Witchcraft
*Year: 2016
*Genre: Raw Black Metal
*Country: Mexico
*Format: mp3@CBR320kbps
*Size: 108MB

Tracklist:
1. Black self destruction 09:20
2. Midnight funeral 05:54
3. Necromancer's hate 06:39
4. Macrocosmic spell 07:32
5. Die In the winter 08:10
6. Satanic pyromaniac 08:51
******************************
Total playing time: 46:26



[more=Technical info]
Input File: 01. Black self destruction.mp3
Channels : 2
Sample Rate : 44100
Precision : 16-bit
Duration : 00:09:20.28 = 24708304 samples = 42020.9 CDDA sectors
File Size : 22.5M
Bit Rate : 322k
Sample Encoding: MPEG audio (layer I, II or III)
Comments :
Title=Black self destruction
Artist=Viha Surma
Album=The Tower of Witchcraft
Tracknumber=01/06
Year=2016
Genre=Black Metal

[/more]

Register
(2) Borderline1991, Orphan,
Today, 09:02:44 Funerary Torch - Funerary Torch [demo] (2018)


*Artist: Funerary Torch
*Album: Funerary Torch [demo]
*Year: 2018
*Genre: Black Metal
*Country: Chile
*Format: mp3@CBR320kbps
*Size: 45MB

Tracklist:
1. Into Fathomless Oblivion 10:04
2. Epiphanies From Misanthropic Slumber 08:37
******************************
Total playing time: 18:41



[more=Extended info]Iron Bonehead Productions
Members of Temple Nightside and Slaughtbbath[/more]

[more=Technical info]
Input File: 01. Into Fathomless Oblivion.mp3
Channels : 2
Sample Rate : 44100
Precision : 16-bit
Duration : 00:10:04.80 = 26671548 samples = 45359.8 CDDA sectors
File Size : 24.3M
Bit Rate : 322k
Sample Encoding: MPEG audio (layer I, II or III)
Comments :
Title=Into Fathomless Oblivion
Artist=Funerary Torch
Album=Funerary Torch
Tracknumber=01/02
Year=2018
Genre=Black / Death Metal

[/more]

Register
(1) Borderline1991,
Aug 19 2018, 17:07:44 Huldrekall & Spektral Hatchery - Huldrekall/Spektral Hatchery [split] (2018)


*Artist: Huldrekall & Spektral Hatchery
*Album: Huldrekall/Spektral Hatchery [split]
*Year: 2018
*Genre: Black Metal | Raw Black Metal
*Country: United States | United States
*Format: mp3@CBR320kbps
*Size: 39MB

Tracklist:
Huldrekall:
1. Oubliette 07:09
Spektral Hatchery:
2. Beyond the Lumerian Burial Chamber 06:48
******************************
Total playing time: 13:57




[more=Technical info]
Input File: 01. Huldrekall - Oubliette.mp3
Channels : 2
Sample Rate : 44100
Precision : 16-bit
Duration : 00:07:09.92 = 18959472 samples = 32244 CDDA sectors
File Size : 17.3M
Bit Rate : 323k
Sample Encoding: MPEG audio (layer I, II or III)
Comments :
Title=Oubliette
Artist=Huldrekall
Album=Huldrekall / Spektral Hatchery Split
Tracknumber=01/02
Year=2018
Genre=Black Metal

[/more]

Register
(8) 1968_janeart, Borderline1991, infiltrator, kim666, Ostinato, stub888, VALERY, vasiljev_sergej,
Aug 19 2018, 11:05:00 Siege Column - Inferno Deathpassion (2018)


*Artist: Siege Column
*Album: Inferno Deathpassion
*Year: 2018
*Genre: Black/Death Metal
*Country: United States
*Format: mp3@CBR320kbps
*Size: 69MB

Tracklist:
1. Agonized Corpse 03:21
2. Hellspeed 02:36
3. Penetrator 02:58
4. Blasting the Moongate 03:14
5. Siege Column 02:52
6. Sathanas is Near 02:58
7. Inferno Deathpassion 04:13
8. Belial Commando 02:58
9. Trapped in the Sarcophagus 03:43
******************************
Total playing time: 28:53



[more=Extended info]Nuclear War Now! Productions[/more]

[more=Technical info]
Input File: 01. Agonized Corpse.mp3
Channels : 2
Sample Rate : 44100
Precision : 16-bit
Duration : 00:03:21.50 = 8885974 samples = 15112.2 CDDA sectors
File Size : 8.19M
Bit Rate : 325k
Sample Encoding: MPEG audio (layer I, II or III)
Comments :
Title=Agonized Corpse
Artist=Siege Column
Album=Inferno Deathpassion
Tracknumber=01/09
Year=2018
Genre=Black / Death Metal

[/more]

Register
(14) Ambercandle, Amsterdam, Daale, desekrator, infernallord, infiltrator, necromasochist, nsk2008, Ostinato, Pinhead666, ripper33, tabun, VALERY, vasiljev_sergej,
Aug 19 2018, 09:52:29 Dikasterion - Demo MMXVIII [demo] (2018)


*Artist: Dikasterion
*Album: Demo MMXVIII [demo]
*Year: 2018
*Genre: Black Metal
*Country: Belgium
*Format: mp3@CBR320kbps
*Size: 49MB

Tracklist:
1. Enter the Dikasterion
2. Matthew 4-9
3. Exodus 22-18
4. Revelation 13-6
5. Warmetal (Barathrum cover)
******************************
Total playing time: 20:24



[more=Extended info]New Era Productions / Darkness Attack Records
Tape-rip

Members of Possession, Pox[/more]

[more=Technical info]
Input File: 03. Exodus 22-18.mp3
Channels : 2
Sample Rate : 48000
Precision : 16-bit
Duration : 00:04:09.15 = 11959056 samples ~ 18686 CDDA sectors
File Size : 10.2M
Bit Rate : 328k
Sample Encoding: MPEG audio (layer I, II or III)
Comments :
Title=Exodus 22-18
Artist=Dikasterion
Album=Demo MMXVIII
Tracknumber=03/05
Year=2018
Genre=Black Metal

[/more]

Register
(10) 1968_janeart, Borderline1991, infiltrator, kim666, nemx, Ostinato, stub888, thenecromancer, VALERY, vasiljev_sergej,
Aug 18 2018, 17:25:40 Eitr - Hädanfärden (2018)


*Artist: Eitr
*Album: Hädanfärden
*Year: 2018
*Genre: Dungeon Synth
*Country: Sweden
*Format: mp3@CBR320kbps
*Size: 72MB

Tracklist:
1. Drömmarna 02:49
2. Löftet 08:38
3. Hädanfärden 03:46
4. Tårarna 03:18
5. Elden 06:18
6. Återkomsten 05:21
******************************
Total playing time: 30:10



[more=Extended info]Nordvis - NVP080
Nachtzeit side-project[/more]

[more=Technical info]
Input File: 01. Drömmarna.mp3
Channels : 2
Sample Rate : 44100
Precision : 16-bit
Duration : 00:02:49.94 = 7494310 samples = 12745.4 CDDA sectors
File Size : 6.92M
Bit Rate : 326k
Sample Encoding: MPEG audio (layer I, II or III)
Comments :
Title=Drömmarna
Artist=EITR
Album=Hädanfärden
Tracknumber=01/06
Year=2018
Genre=Dungeon Synth

[/more]

Register
(5) Daale, Konst, Sjelekval, ZA670, zargonath,
Aug 17 2018, 18:05:59 Plaguestorm - Eternal Throne [ep] (2018)


*Artist: Plaguestorm
*Album: Eternal Throne [ep]
*Year: 2018
*Genre: Black/Speed Metal
*Country: Sweden
*Format: mp3@CBR320kbps
*Size: 51MB

Tracklist:
1. Marked by the Scythe 04:44
2. Damnation's Flesh 03:06
3. With Closed Eyes I Behold 05:34
4. Eternal Throne 07:18
******************************
Total playing time: 20:42



[more=Extended info]Helter Skelter Productions[/more]

[more=Technical info]
Input File: 01. Marked by the Scythe.mp3
Channels : 2
Sample Rate : 44100
Precision : 16-bit
Duration : 00:04:44.49 = 12546097 samples = 21336.9 CDDA sectors
File Size : 11.6M
Bit Rate : 326k
Sample Encoding: MPEG audio (layer I, II or III)
Comments :
Title=Marked by the Scythe
Artist=Plaguestorm
Album=Eternal Throne
Tracknumber=01/04
Year=2018
Genre=Black Metal

[/more]

Register
(11) Borderline1991, dermarsoran, infiltrator, Kuruz, milosdjor, nemx, Ostinato, rockwell666, VALERY, varg-38ru, wgs73,
Aug 16 2018, 09:12:35 Zwarte Dood - Van Kaïn's Zaad [demo] (2018)


*Artist: Zwarte Dood
*Album: Van Kaïn's Zaad [demo]
*Year: 2018
*Genre: Black Metal
*Country: Belgium
*Format: mp3@CBR320kbps
*Size: 37MB

Tracklist:
1. Aanvang 00:58
2. Van Kaïn's Zaad 04:00
3. Ik Roep De Duisternis Aan Me Te Omarmen 03:57
4. Het Naamloze Pad 03:36
5. Nacht en Mist (Ildjarn cover) 03:22
******************************
Total playing time: 15:53



[more=Extended info]Signal Rex, tape.[/more]

[more=Technical info]
Input File: 02. Van Kaïn\'s Zaad.mp3
Channels : 1
Sample Rate : 44100
Precision : 16-bit
Duration : 00:04:00.08 = 10587440 samples = 18005.9 CDDA sectors
File Size : 9.68M
Bit Rate : 322k
Sample Encoding: MPEG audio (layer I, II or III)
Comments :
Title=Van Kaïn's Zaad
Artist=Zwarte Dood
Album=Van Kaïn's Zaad
Tracknumber=02/05
Year=2018
Genre=Black Metal

[/more]

Register
(14) 1968_janeart, axdambient, Fatalist77791, infiltrator, kim666, Orphan, Ostinato, Rosen, SilentNidhogg, stub888, thenecromancer, varg-38ru, vasiljev_sergej, zorn666,
Aug 14 2018, 13:44:28 Conjuración Repugnante - Conjuración Repugnante [compilation] (2018)


*Artist: Conjuración Repugnante
*Album: Conjuración Repugnante [compilation]
*Year: 2018
*Genre: Raw Black Metal
*Country: Netherlands
*Format: mp3@CBR320kbps
*Size: 87MB

Tracklist:
1. Debajo de las alas de la muerte estamos reunidos para realizar los ritos sagrados de putrefacción (una visión maldita de los espectros negros)
2. El ansia de la soledad y el mordido del virulento rencor contra el mundo (callendo en el profundo abismo del desamparo)
3. La última visión del hermitaño, antes de una muerte solitaria, predice una historia de cosas malvadas por venir (un maestro toma su trono de nuevo)
4. El despliegue del ave fúnebre abre camino a dimensiones fantasmagóricas (veneración a una muerte anunciada)
5. Un grito espectral retumba los pasillos de un recuerdo perturbante
6. El destino maquiavélico del emisario quimérico
7. Una sombra de pesadilla espanta los sueños del hereje
8. El fantasma putrefacto nace de las profundidades pantanales
******************************
Total playing time: 35:36

[more=Extended info]The Throat - KEEL134
Tape-rip + Scans[/more]

[more=Technical info]
Input File: A2. El Ansia De La Soledad Y El Mordido Del Virulento Rencor Contra El Mundo (Callendo En El Profundo Abismo Del Desamparo).mp3
Channels : 2
Sample Rate : 48000
Precision : 16-bit
Duration : 00:05:33.29 = 15997968 samples ~ 24996.8 CDDA sectors
File Size : 13.7M
Bit Rate : 330k
Sample Encoding: MPEG audio (layer I, II or III)
Comments :
Title=El Ansia De La Soledad Y El Mordido Del Virulento Rencor Contra El Mundo (Callendo En El Profundo Abismo Del Desamparo)
Artist=Conjuración Repugnante
Album=Conjuración Repugnante
Tracknumber=02/08
Year=2018
Genre=Black Metal

[/more]

Register
(12) 1968_janeart, ambre, Borderline1991, Daale, FUDEDOR, kim666, nemx, Ostinato, Rosen, SilentNidhogg, stub888, vasiljev_sergej,
Aug 11 2018, 17:29:11 Cataphract - The Witchpower Of Invisibility [demo] (2018)


*Artist: Cataphract
*Album: The Witchpower Of Invisibility [demo]
*Year: 2018
*Genre: Black Metal
*Country: United States
*Format: mp3@CBR245kbps
*Size: 46MB

Tracklist:
1. Weapons of the Well 05:21
2. Beyond the Night of Time 04:24
3. Drunk from the Goblet of Terror 05:02
4. Alms of Flesh 05:42
******************************
Total playing time: 20:29



[more=Extended info]Sordid Curse Productions - KILL 008
tape-rip by zero[/more]

[more=Technical info]
Input File: 01. Weapons Of The Well.mp3
Channels : 2
Sample Rate : 44100
Precision : 16-bit
Duration : 00:05:23.08 = 14247916 samples = 24231.1 CDDA sectors
File Size : 12.8M
Bit Rate : 317k
Sample Encoding: MPEG audio (layer I, II or III)
Comments :
Title=Weapons Of The Well
Artist=Cataphract
Album=The Witchpower of Invisibility
Tracknumber=01/04
Year=2017
Genre=Black Metal
Discnumber=1/1

[/more]

Register
(11) 1968_janeart, Borderline1991, kim666, murian, Ostinato, Precaria, Rosen, SilentNidhogg, stub888, VALERY, vasiljev_sergej,
Aug 11 2018, 16:55:59 Gjendød - Skygger Fra Dødsriket [compilation] (2018)


*Artist: Gjendød
*Album: Skygger Fra Dødsriket [compilation]
*Year: 2018
*Genre: Black Metal
*Country: Norway
*Format: mp3@CBR320kbps
*Size: 155MB

Tracklist:
1. Verden våkner 06:46
2. Dødsrikets pinsler 05:06
3. Utslettelsen 06:34
4. Forsteinet 04:57
5. Død manns skygge 05:06
6. I egne hender 04:31
7. Fra ei gammel grav 05:35
8. Inn i en ny krig 03:02
9. Å drukne i kjente farvann 06:28
10. Med fjell av åte 04:23
11. Infisert verdensmønster 04:38
12. En ny vår for hat 04:23
13. Når sola svartner 05:08
******************************
Total playing time: 1:06:37



[more=Extended info]Hellthrasher Productions - HELLTHRASHER LXII
A compilation featuring all of the band's post-Nedstigning demos on one CD.

Tracks 1-4 from the demo 'Dødsrikets pinsler'.
Tracks 5-8 from the demo 'Død manns skygge'.
Tracks 9-10 from the demo 'Havet tar'.
Tracks 11-13 from the demo 'En ny vår for hat'[/more]

[more=Technical info]
Input File: 01. Verden våkner.mp3
Channels : 2
Sample Rate : 44100
Precision : 16-bit
Duration : 00:06:46.57 = 17929561 samples = 30492.5 CDDA sectors
File Size : 16.4M
Bit Rate : 323k
Sample Encoding: MPEG audio (layer I, II or III)
Comments :
Title=Verden våkner
Artist=Gjendød
Album=Skygger fra dødsriket
Tracknumber=01/13
Year=2018
Genre=Black Metal

[/more]

Register
(23) 1968_janeart, Borderline1991, Eugenio, garmonbozia, gena, helvetestoner, Kazoth, kim666, Korpse, Mirddin, murian, nemx, Ostinato, Premature_Devotion, Rosen, SilentNidhogg, sksxxx, stub888, thenecromancer, VALERY, varg-38ru, vasiljev_sergej, ZA670,
Aug 11 2018, 09:09:56 Mørketida - Panphage Mysticism (2018)


*Artist: Mørketida
*Album: Panphage Mysticism
*Year: 2018
*Genre: Black Metal
*Country: Finland
*Format: mp3@CBR320kbps
*Size: 84MB

Tracklist:
1. Intro 01:06
2. Invoking the Seventh Moon 04:54
3. Witchcraft 03:53
4. Serpent's Grail 05:14
5. Throne of Unseen 04:44
6. Panphage Mysticism 05:49
7. Temple of Prevailing Darkness 06:55
8. Outro 01:53
******************************
Total playing time: 34:28



[more=Extended info]Werewolf Records - EVIL-052[/more]

[more=Technical info]
Input File: 02. Invoking The Seventh Moon.mp3
Channels : 2
Sample Rate : 44100
Precision : 16-bit
Duration : 00:04:54.50 = 12987318 samples = 22087.3 CDDA sectors
File Size : 12.0M
Bit Rate : 325k
Sample Encoding: MPEG audio (layer I, II or III)
Comments :
Title=Invoking The Seventh Moon
Artist=Mørketida
Album=Panphage Mysticism
Tracknumber=02/08
Year=2018
Genre=Black Metal

[/more]

Register
(33) 1968_janeart, craP_cillA, cryptal, Fatalist77791, helvetestoner, igorzz, kim666, Korpse, Krosis, marilin, MaXL, Mirddin, nemx, Occultas, Ostinato, princeshr, Rosen, RUDACHUR, sandr666, sethurius, SilentNidhogg, Skog1349, stub888, suseka, terron, toly1917, udt4050, VALERY, varg-38ru, vasiljev_sergej, vov7609, ZA670, Zaephar,
Aug 11 2018, 07:19:33 Malokarpatan - Cesta Podzemnými Sálami Kovovlada [ep] (2018)


*Artist: Malokarpatan
*Album: Cesta Podzemnými Sálami Kovovlada [ep]
*Year: 2018
*Genre: Black Metal
*Country: Slovakia
*Format: mp3@CBR320kbps
*Size: 25MB

Tracklist:
1. Cesta podzemnými sálami Kovovlada I. 04:47
2. Cesta podzemnými sálami Kovovlada II. 05:44
******************************
Total playing time: 10:31



[more=Technical info]
Input File: 01. Cesta podzemnými sálami Kovovlada I..mp3
Channels : 2
Sample Rate : 44100
Precision : 16-bit
Duration : 00:04:47.52 = 12679720 samples = 21564.1 CDDA sectors
File Size : 11.6M
Bit Rate : 324k
Sample Encoding: MPEG audio (layer I, II or III)
Comments :
Title=Cesta podzemnými sálami Kovovlada I.
Artist=Malokarpatan
Album=Cesta podzemnými sálami Kovovlada
Tracknumber=01/02
Year=2018
Genre=Black Metal

[/more]

Register
(21) 1968_janeart, acerbus, Beazth, Boozer, Borderline1991, Fatalist77791, helvetestoner, lordbathor, marilin, Mirddin, nadin85, nsk2008, Ostinato, Rosen, SilentNidhogg, suseka, thenecromancer, VALERY, vasiljev_sergej, Vidder242, wtk.412,
Aug 11 2018, 06:53:31 Jordablod - Promo [demo] (2016)


*Artist: Jordablod
*Album: Promo [demo]
*Year: 2016
*Genre: Black Metal
*Country: Sweden
*Format: mp3@CBR320kbps
*Size: 35MB

Tracklist:
1. Chants Of The Black One 07:11
2. A Sculptor Of The Future 07:40
******************************
Total playing time: 14:51



[more=Extended info]Iron Bonehead Productions[/more]

[more=Technical info]
Input File: 01. Chants Of The Black One.mp3
Channels : 2
Sample Rate : 44100
Precision : 16-bit
Duration : 00:07:11.70 = 19037970 samples = 32377.5 CDDA sectors
File Size : 17.4M
Bit Rate : 323k
Sample Encoding: MPEG audio (layer I, II or III)
Comments :
Title=Chants Of The Black One
Artist=Jordablod
Album=Promo '16
Tracknumber=01/02
Year=2016
Genre=Black Metal

[/more]

Register
(15) 1968_janeart, Borderline1991, craP_cillA, Fatalist77791, kim666, Occultas, Ostinato, Rosen, SilentNidhogg, Sjelekval, stub888, thenecromancer, udt4050, varg-38ru, vasiljev_sergej,
Aug 10 2018, 12:47:43 Todlicht - Einsamkeit [demo] (2018)


*Artist: Todlicht
*Album: Einsamkeit [demo]
*Year: 2018
*Genre: Raw Black Metal
*Country: Bosnia and Herzegovina
*Format: mp3@CBR320kbps
*Size: 44MB

Tracklist:
A1. Einsamkeit 18:06
******************************
Total playing time: 18:06



[more=Extended info]Nebular Carcoma Records ‎– MOSS 025
Tape-rip + Scans[/more]

[more=Technical info]
Input File: A1. Einsamkeit.mp3
Channels : 2
Sample Rate : 48000
Precision : 16-bit
Duration : 00:18:07.06 = 52178832 samples ~ 81529.4 CDDA sectors
File Size : 43.7M
Bit Rate : 322k
Sample Encoding: MPEG audio (layer I, II or III)
Comments :
Title=Untitled
Artist=Todlicht
Album=Einsamkeit
Tracknumber=01/01
Year=2018
Genre=Black Metal

[/more]

Register
(21) 1968_janeart, ambre, Boozer, craP_cillA, Domineus218, Fatalist77791, garmonbozia, kim666, Krosis, nemx, norther1998, Ostinato, Rosen, SilentNidhogg, simvolist777, stub888, thenecromancer, Tyrone, VALERY, varg-38ru, vasiljev_sergej,
Aug 10 2018, 09:42:53 Oxygen Chapel - Pelagic Sentience [demo] (2018)


*Artist: Oxygen Chapel
*Album: Pelagic Sentience [demo]
*Year: 2018
*Genre: Atmospheric Black Metal
*Country: Canada
*Format: mp3@CBR320kbps
*Size: 59MB

Tracklist:
1. Ambiguine Delicacy 04:30
2. Transcendental Flume 04:20
3. Pelagic Sentience 02:47
4. Orthodox Hindrance 04:32
5. Avalon Polo (Velvet Cacoon cover) 06:11
******************************
Total playing time: 22:20



[more=Technical info]
Input File: 02. Transcendental Flume.mp3
Channels : 2
Sample Rate : 44100
Precision : 16-bit
Duration : 00:04:20.56 = 11490652 samples = 19541.9 CDDA sectors
File Size : 10.5M
Bit Rate : 323k
Sample Encoding: MPEG audio (layer I, II or III)
Comments :
Title=Transcendental Flume
Artist=Oxygen Chapel
Album=Pelagic Sentience (demo)
Tracknumber=02/05
Year=2018
Genre=Black Metal

[/more]

Register
(12) 1968_janeart, Borderline1991, Doooomed, kim666, krotovich, nemx, Ostinato, Rosen, stub888, udt4050, VALERY, vasiljev_sergej,
Aug 10 2018, 08:38:14 Nekrohex - Solitary Death Force [demo] (2018)


*Artist: Nekrohex
*Album: Solitary Death Force [demo]
*Year: 2018
*Genre: Black Metal
*Country: United States
*Format: mp3@CBR320kbps
*Size: 44MB

Tracklist:
1. Wraith Reflection 03:31
2. Shattered Skulls on Sharpened Spikes 03:28
3. Sacred Death March 03:41
4. Nexus of Nekrotic Nephilim 01:42
5. Obscured in Extinciton 03:32
******************************
Total playing time: 15:54



[more=Technical info]
Input File: 02. Shattered Skulls On Sharpened Spikes.mp3
Channels : 2
Sample Rate : 44100
Precision : 16-bit
Duration : 00:03:28.57 = 9198069 samples = 15643 CDDA sectors
File Size : 8.56M
Bit Rate : 328k
Sample Encoding: MPEG audio (layer I, II or III)
Comments :
Title=Shattered Skulls On Sharpened Spikes
Artist=Nekrohex
Album=Solitary Death Force Demo MMXVIII
Tracknumber=02/05
Year=2018
Genre=Black Metal

[/more]

Register
(10) 1968_janeart, Borderline1991, kim666, nemx, Ostinato, Rosen, SilentNidhogg, stub888, VALERY, vasiljev_sergej,
Aug 10 2018, 08:33:21 Akasha - Consuming The Soul [ep] (2018)


*Artist: Akasha
*Album: Consuming The Soul [ep]
*Year: 2018
*Genre: Black Metal
*Country: United States
*Format: mp3@CBR320kbps
*Size: 62MB

Tracklist:
1. Children ov the Nite 02:43
2. BloodSpell 05:21
3. Soul Consumption 04:39
4. Solar Eclipse 04:48
5. Fuck the Sun 03:13
6. Moonlite RituHell 05:06
******************************
Total playing time: 25:50



[more=Technical info]
Input File: 02. Bloodspell.mp3
Channels : 2
Sample Rate : 44100
Precision : 16-bit
Duration : 00:05:21.25 = 14166905 samples = 24093.4 CDDA sectors
File Size : 13.1M
Bit Rate : 325k
Sample Encoding: MPEG audio (layer I, II or III)
Comments :
Title=BloodSpell
Artist=Akasha
Album=Consuming The Soul
Tracknumber=02/06
Year=2018
Genre=Black Metal

[/more]

Register
(10) 1968_janeart, Borderline1991, Fatalist77791, kim666, Ostinato, Rosen, SilentNidhogg, stub888, VALERY, vasiljev_sergej,
Aug 9 2018, 17:11:04 Occelensbrigg - The Quest For The Star Mountain (2018)


*Artist: Occelensbrigg
*Album: The Quest For The Star Mountain
*Year: 2018
*Genre: Raw Black Metal
*Country: Portugal
*Format: mp3@CBR320kbps
*Size: 97MB

Tracklist:
1. The Revenge of the Imposing Oak Forest 09:48
2. Ancient Tree Crowned with the Stars 11:53
3. The Falling Guardians of Death and Life 07:38
4. Night of The Black Star 12:59
******************************
Total playing time: 42:18



[more=Extended info]Harvest of Death, LP, MC.[/more]

[more=Technical info]
Input File: 03. The Falling Guardians of Death and Life.mp3
Channels : 2
Sample Rate : 44100
Precision : 16-bit
Duration : 00:07:38.95 = 20239563 samples = 34421 CDDA sectors
File Size : 18.4M
Bit Rate : 321k
Sample Encoding: MPEG audio (layer I, II or III)
Comments :
Title=The Falling Guardians of Death and Life
Artist=Occelensbrigg
Album=The Quest For the Star Mountain
Tracknumber=03/04
Year=2018
Genre=Raw Black Metal

[/more]

Register
(21) 1968_janeart, axdambient, Boozer, Evilded, Fatalist77791, garmonbozia, kim666, Krosis, Moonshtook, nemx, nsk2008, Ostinato, Rosen, RUSP73, SilentNidhogg, stub888, SyncestrA, toly1917, VALERY, varg-38ru, vasiljev_sergej,
Aug 7 2018, 07:54:09 Voëmmr - Sombr Moebrd [demo] (2018)


*Artist: Voëmmr
*Album: Sombr Moebrd [demo]
*Year: 2018
*Genre: Raw Black Metal
*Country: Portugal
*Format: mp3@CBR320kbps
*Size: 58MB

Tracklist:
1. Untitled I 09:41
2. Untitled II 06:45
3. Untitled III 06:25
******************************
Total playing time: 22:51



[more=Extended info]Harvest of Death, tape.[/more]

[more=Technical info]
Input File: 01. Untitled I.mp3
Channels : 2
Sample Rate : 44100
Precision : 16-bit
Duration : 00:09:41.99 = 25665671 samples = 43649.1 CDDA sectors
File Size : 23.4M
Bit Rate : 321k
Sample Encoding: MPEG audio (layer I, II or III)
Comments :
Title=Untitled I
Artist=VOËMMR
Album=Demo
Tracknumber=1
Year=2018

[/more]

Register
(11) 1968_janeart, Alexis The Best, Boozer, Borderline1991, kim666, nemx, Ostinato, Rosen, SilentNidhogg, stub888, vasiljev_sergej,
Aug 4 2018, 13:46:13 Mistblinde - Bortom Helgrindens Gissel [demo] (2009)


*Artist: Mistblinde
*Album: Bortom Helgrindens Gissel [demo]
*Year: 2009
*Genre: Black Metal
*Country: Sweden
*Format: mp3@CBR320kbps
*Size: 82MB

Tracklist:
1. Giganternas salar 04:26
2. Bortom helgrindens gissel 05:11
3. Galgbackens snara 04:42
4. Från djupet av din själ 04:40
5. När råttorna kom 05:10
6. Liv och död 04:38
7. Untitiled 04:50
******************************
Total playing time: 33:37

[more=Extended info]Satan Fights Humanity Records, tape.[/more]

[more=Technical info]
Input File: 01. Giganternas Salar.mp3
Channels : 2
Sample Rate : 48000
Precision : 16-bit
Duration : 00:04:26.83 = 12808080 samples ~ 20012.6 CDDA sectors
File Size : 10.9M
Bit Rate : 327k
Sample Encoding: MPEG audio (layer I, II or III)
Comments :
Title=Giganternas Salar
Artist=Mistblinde
Album=Bortom Helgrindens Gissel
Tracknumber=01/07
Year=2009
Genre=Black Metal

[/more]

Register
(12) 1968_janeart, INDARKNESS, infiltrator, maringlen, Ostinato, Rosen, SilentNidhogg, stub888, Svafrlami, thenecromancer, udt4050, vasiljev_sergej,
Aug 4 2018, 13:35:53 Vargaur - Dem Zwang Zum Trotze [demo] (2018)


*Artist: Vargaur
*Album: Dem Zwang Zum Trotze [demo]
*Year: 2018
*Genre: Black Metal
*Country: Germany
*Format: mp3@CBR320kbps
*Size: 38MB

Tracklist:
1. Aus nächtlicher Finsternis 03:19
2. Menschenpest 04:40
3. Dem Zwang zum Trotze 05:20
4. Waldreich 03:03
******************************
Total playing time: 16:22



[more=Extended info]Cirsium Kollektivet - CK-25[/more]

[more=Technical info]
Input File: 02. Menschenpest.mp3
Channels : 2
Sample Rate : 44100
Precision : 16-bit
Duration : 00:04:40.28 = 12360480 samples = 21021.2 CDDA sectors
File Size : 11.2M
Bit Rate : 320k
Sample Encoding: MPEG audio (layer I, II or III)
Comments :
Title=Menschenpest
Artist=Vargaur
Album=Dem Zwang zum Trotze
Tracknumber=02/04
Year=2018
Genre=Black Metal

[/more]

Register
(17) 1968_janeart, Fatalist77791, infiltrator, kim666, murian, NachtWulf, NappyRob, nemx, Ostinato, Rosen, RUSP73, SilentNidhogg, stub888, thenecromancer, udt4050, undeadlich, vasiljev_sergej,
Aug 3 2018, 12:40:41 Mould Palace - Fungus Empire [demo] (2018)


*Artist: Mould Palace
*Album: Fungus Empire [demo]
*Year: 2018
*Genre: Atmospheric Black Metal
*Country: Sweden
*Format: mp3@CBR320kbps
*Size: 63MB

Tracklist:
1. Hyphae Voluptatis 03:48
2. Fungus Empire 06:22
3. Orgiastic Bacterial Gathering 03:12
4. Stench of Beauty 04:54
5. Mors Initium Est 06:42
******************************
Total playing time: 24:58



[more=Extended info]Cirsium Kollektivet ‎– CK-24[/more]

[more=Technical info]
Input File: 02. Fungus Empire.mp3
Channels : 2
Sample Rate : 44100
Precision : 16-bit
Duration : 00:06:22.19 = 16854667 samples = 28664.4 CDDA sectors
File Size : 15.4M
Bit Rate : 323k
Sample Encoding: MPEG audio (layer I, II or III)
Comments :
Title=Fungus Empire
Artist=Mould Palace
Album=Fungus Empire
Tracknumber=02/05
Year=2018
Genre=Black Metal

[/more]

Register
(10) 1968_janeart, Doooomed, kim666, Ostinato, Rosen, Sjelekval, stub888, thenecromancer, varg-38ru, vasiljev_sergej,
Aug 3 2018, 09:02:08 Velo Misere - Genealogía Del Eterno Desasosiego [ep] (2018)


*Artist: Velo Misere
*Album: Genealogía Del Eterno Desasosiego [ep]
*Year: 2018
*Genre: Black Metal
*Country: Spain
*Format: mp3@CBR320kbps
*Size: 62MB

Tracklist:
1. Anunciación 05:42
2. Abdicación 06:28
3. Quimera 06:35
4. Partida 07:58
******************************
Total playing time: 26:43



[more=Extended info]Hexencave Productions ‎– hex013[/more]

[more=Technical info]
Input File: 01. Anunciación.mp3
Channels : 2
Sample Rate : 44100
Precision : 16-bit
Duration : 00:05:42.59 = 15108263 samples = 25694.3 CDDA sectors
File Size : 13.8M
Bit Rate : 322k
Sample Encoding: MPEG audio (layer I, II or III)
Comments :
Title=Anunciación
Artist=Velo Misere
Album=Genealogía Del Eterno Desasosiego
Tracknumber=01/04
Year=2018
Genre=Black Metal

[/more]

Register
(18) 1968_janeart, Borderline1991, Fatalist77791, kefka, kim666, lestllk, murian, nemx, Ostinato, Rosen, SilentNidhogg, stub888, Tyrone, VALERY, varg-38ru, vasiljev_sergej, volostakoeto, vovenom,
Aug 2 2018, 10:35:54 Dominus Mortis - Demo 2018 [demo] (2018)


*Artist: Dominus Mortis
*Album: Demo 2018 [demo]
*Year: 2018
*Genre: Raw Black Metal
*Country: United States
*Format: mp3@CBR320kbps
*Size: 51MB

Tracklist:
1. Spawn of the Demon 04:48
2. Libation of Blood 05:26
3. Queen of Witches 04:31
4. We are the Lost Ones 06:59
******************************
Total playing time: 21:44



[more=Extended info]Cruel Master member[/more]

[more=Technical info]
Input File: 01. Spawn of the Demon.mp3
Channels : 2
Sample Rate : 44100
Precision : 16-bit
Duration : 00:04:48.56 = 12725672 samples = 21642.3 CDDA sectors
File Size : 11.6M
Bit Rate : 322k
Sample Encoding: MPEG audio (layer I, II or III)
Comments :
Title=Spawn of the Demon
Artist=Dominus Mortis
Album=Demo 2018
Tracknumber=01/04
Year=2018
Genre=Raw Black Metal

[/more]

Register
(14) 1968_janeart, Alexis The Best, Borderline1991, Dead666, Fatalist77791, Hell_Is_Here, kim666, nemx, Ostinato, Rosen, stub888, thenecromancer, varg-38ru, vasiljev_sergej,

48 Pages V   1 2 3 > » 
- Lo-Fi Version Support form
Copyrights and abuse reports form
Time is now: 21st August 2018 - 10:51:26