Welcome Guest ( Log In | Register )

История благодарностей участнику Velmi ::: Спасибо сказали: 38445 раз(а)
Дата поста: В теме: За сообщение: Спасибо сказали:
Yesterday, 13:51:35 Balmog - Pillars Of Salt [ep] (2020)


*Artist: Balmog
*Album: Pillars Of Salt [ep]
*Year: 2020
*Genre: Black Metal
*Country: Spain
*Format: mp3@CBR320kbps
*Size: 43MB

Tracklist:
01. Pillars of Salt 18:23
******************************
Total playing time: 18:23



[more=Extended info]War Anthem Records[/more]

[more=Technical info]
Input File: 01. Pillars of Salt.mp3
Channels : 2
Sample Rate : 44100
Precision : 16-bit
Duration : 00:18:23.79 = 48676963 samples = 82784 CDDA sectors
File Size : 44.2M
Bit Rate : 321k
Sample Encoding: MPEG audio (layer I, II or III)
Comments :
Title=Pillars of Salt
Artist=Balmog
Album=Pillars of Salt
Tracknumber=01/01
Year=2020
Genre=Black Metal

[/more]

Register
(17) 1968_janeart, Black Cat, Bzth, infiltrator, kim666, Mannard, morbidangelo, Mortuusinfernus, Olethros, Ostinato, peppuzzo, raattent, supremo, VALERY, varlam4, vasiljev_sergej, yuratroll,
Yesterday, 09:00:37 Elfsgedroch - Gedoemd Tot De Eeuwige Jacht (2020)


*Artist: Elfsgedroch
*Album: Gedoemd Tot De Eeuwige Jacht
*Year: 2020
*Genre: Black Metal
*Country: Netherlands
*Format: mp3@CBR320kbps
*Size: 119MB

Tracklist:
1. Door de duivel gehaald 06:54
2. De vloed van 1717 07:23
3. Nachtmare 05:07
4. Doodsklauwen uit de algendrab 07:28
5. Als de nacht haar mantel werpt 08:38
6. Heggemoeder 08:46
7. Goedendag morgenster 06:48
******************************
Total playing time: 51:04

[more=Technical info]
Input File: 02. De Vloed Van 1717.mp3
Channels : 2
Sample Rate : 44100
Precision : 16-bit
Duration : 00:07:23.09 = 19540137 samples = 33231.5 CDDA sectors
File Size : 17.9M
Bit Rate : 324k
Sample Encoding: MPEG audio (layer I, II or III)
Comments :
Title=De Vloed Van 1717
Artist=Elfsgedroch
Album=Gedoemd Tot de Eeuwige Jacht
Tracknumber=02
Year=2020
Genre=Black Metal

[/more]

Register
(11) 1968_janeart, atavist, infiltrator, kim666, Morgoth, murian, Olethros, Ostinato, robertho777, VALERY, vasiljev_sergej,
Yesterday, 08:27:01 Lamp Of Murmuur - The Burning Spears Of Crimson Agony (Demo) [demo] (2020)


*Artist: Lamp Of Murmuur
*Album: The Burning Spears Of Crimson Agony (Demo) [demo]
*Year: 2020
*Genre: Raw Black Metal
*Country: United States
*Format: mp3@CBR320kbps
*Size: 64MB

Tracklist:
1. A Burning Spear To The Heart Of Dawn (Part I) 10:42
2. Meditating In The Poisonmists 01:48
3. A Burning Spear To The Heart Of Dawn (Part II) 10:24
4. Eternally Banished To Agony 01:27
******************************
Total playing time: 24:21



[more=Technical info]
Input File: 01. A Burning Spear To The Heart Of Dawn (Part I).mp3
Channels : 2
Sample Rate : 44100
Precision : 16-bit
Duration : 00:10:42.49 = 28333853 samples = 48186.8 CDDA sectors
File Size : 25.8M
Bit Rate : 321k
Sample Encoding: MPEG audio (layer I, II or III)
Comments :
Title=A Burning Spear To The Heart Of Dawn (Part I)
Artist=Lamp Of Murmuur
Album=The Burning Spears Of Crimson Agony (Demo)
Tracknumber=01/04
Year=2020
Genre=Raw Black Metal

[/more]

Register
(15) Alexis The Best, garmonbozia, infiltrator, kim666, Lamby90, murian, Olethros, Ostinato, satanist666, stub888, thenecromancer, VALERY, vasiljev_sergej, vovenom, yuratroll,
Mar 26 2020, 16:21:54 Mamaleek - Come And See (2020)


*Artist: Mamaleek
*Album: Come And See
*Year: 2020
*Genre: Avant-Garde Black Metal
*Country: United States
*Format: mp3@CBR320kbps
*Size: 102MB

Tracklist:
1. Eating Unblessed Meat 08:00
2. Cabrini-Green 09:00
3. Elsewhere 06:03
4. Whites of the Eyes (Cowards) 06:45
5. Street Nurse 05:22
6. We Hang Because We Must 09:19
******************************
Total playing time: 44:29




[more=Extended info]Flenser[/more]

[more=Technical info]
Input File: 01. Eating Unblessed Meat.mp3
Channels : 2
Sample Rate : 44100
Precision : 16-bit
Duration : 00:08:00.50 = 21190050 samples = 36037.5 CDDA sectors
File Size : 19.3M
Bit Rate : 321k
Sample Encoding: MPEG audio (layer I, II or III)
Comments :
Title=Eating Unblessed Meat
Artist=Mamaleek
Album=Come & See
Tracknumber=01/06
Year=2020
Genre=Avant-Garde Black Metal

[/more]

Register
(15) 1968_janeart, atavist, Corpuscul, CryptOn, garmonbozia, infiltrator, marilin, metala, Ostinato, satanist666, stub888, Tankard, VALERY, vasiljev_sergej, yuratroll,
Mar 26 2020, 16:04:40 Black Vice - The Alchemist's Vision (2020)


*Artist: Black Vice
*Album: The Alchemist's Vision
*Year: 2020
*Genre: Black Metal
*Country: United States
*Format: mp3@CBR320kbps
*Size: 83MB

Tracklist:
1. Ontogenesis 06:56
2. Emergence 04:06
3. Vision 04:17
4. Creation 02:35
5. Attainment 06:32
6. Salvation 06:19
7. Erasure 03:13
******************************
Total playing time: 33:58



[more=Extended info]Crown and Throne Ltd.[/more]

[more=Technical info]
Input File: 05. Attainment.mp3
Channels : 2
Sample Rate : 44100
Precision : 16-bit
Duration : 00:06:32.10 = 17291434 samples = 29407.2 CDDA sectors
File Size : 15.9M
Bit Rate : 324k
Sample Encoding: MPEG audio (layer I, II or III)
Comments :
Title=Attainment
Artist=Black Vice
Album=The Alchemist's Vision
Tracknumber=05/07
Year=2020
Genre=Black Metal

[/more]

Register
(11) atavist, garmonbozia, infiltrator, kim666, Morgoth, Ostinato, satanist666, stub888, SyncestrA, VALERY, vasiljev_sergej,
Mar 26 2020, 15:53:01 Arcada - Projections (2020)


*Artist: Arcada
*Album: Projections
*Year: 2020
*Genre: Black Metal
*Country: Peru
*Format: mp3@CBR320kbps
*Size: 92MB

Tracklist:
1. Projections 08:12
2. IAO 06:53
3. O 06:16
4. Lunar Possession 06:04
5. Setheus 11:07
******************************
Total playing time: 38:32



[more=Extended info]Edged Circle Productions[/more]

[more=Technical info]
Input File: 02. IAO.mp3
Channels : 2
Sample Rate : 44100
Precision : 16-bit
Duration : 00:06:53.31 = 18226927 samples = 30998.2 CDDA sectors
File Size : 16.7M
Bit Rate : 323k
Sample Encoding: MPEG audio (layer I, II or III)
Comments :
Title=IAO
Artist=Arcada
Album=Projections
Tracknumber=02/05
Year=2020
Genre=Black Metal

[/more]

Register
(11) -=Hass=-, 1968_janeart, atavist, infiltrator, kim666, Qliphoth, rickzammuto, satanist666, VALERY, varlam4, vasiljev_sergej,
Mar 26 2020, 15:51:50 Nox Formulae - Drakon Darshan Satan (2020)


*Artist: Nox Formulae
*Album: Drakon Darshan Satan
*Year: 2020
*Genre: Black Metal
*Country: Greece
*Format: mp3@CBR320kbps
*Size: 94MB

Tracklist:
1. Psychopath of NOX 06:35
2. Ravens of Terror 03:54
3. Eclipse of Gharrasielh 04:35
4. The Black Stone of Satan 05:21
5. The Blood Oath of Thagirion 06:01
6. The Arrival of Noctifer 03:47
7. Berzeks of OD 05:59
8. Eve of Annihilation 04:04
******************************
Total playing time: 40:16



[more=Extended info]Dark Descent Records - DDR238[/more]

[more=Technical info]
Input File: 02. Ravens of Terror.mp3
Channels : 2
Sample Rate : 44100
Precision : 16-bit
Duration : 00:03:54.65 = 10347977 samples = 17598.6 CDDA sectors
File Size : 9.45M
Bit Rate : 322k
Sample Encoding: MPEG audio (layer I, II or III)
Comments :
Title=Ravens of Terror
Artist=Nox Formulae
Album=Drakon Darshan Satan
Tracknumber=02/08
Year=2020
Genre=Black Metal

[/more]

Register
(15) atavist, DarkHorde, infiltrator, judaz, kim666, milosdjor, Morgoth, nadin85, satanist666, supremo, SyncestrA, VALERY, vasiljev_sergej, vov7609, xska,
Mar 26 2020, 12:55:14 Velnias - Scion Of Aether (2020)


*Artist: Velnias
*Album: Scion Of Aether
*Year: 2020
*Genre: Post-Metal
*Country: United States
*Format: mp3@CBR320kbps
*Size: 119MB

Tracklist:
1. Fissures within the Construct 02:44
2. Pariah of the Infinite 11:04
3. Aurora Rune 09:28
4. Confluence of Entropic Umbra 01:41
5. Supernal Emergent 09:36
6. Oblivion Horizon - Null Terminus 15:12
******************************
Total playing time: 49:45



[more=Extended info]Eisenwald[/more]

[more=Technical info]
Input File: 02. Pariah of the Infinite.mp3
Channels : 2
Sample Rate : 44100
Precision : 16-bit
Duration : 00:11:03.97 = 29280989 samples = 49797.6 CDDA sectors
File Size : 26.7M
Bit Rate : 322k
Sample Encoding: MPEG audio (layer I, II or III)
Comments :
Title=Pariah of the Infinite
Artist=Velnias
Album=Scion of Aether
Tracknumber=02/06
Year=2020
Genre=Post-Metal
Discnumber=01/01

[/more]

Register
(13) Druidir, infiltrator, Maximvs, Morgoth, Olethros, Ostinato, robertho777, SatanicPanzer, satanist666, smes, varlam4, yuratroll, Герб,
Mar 25 2020, 12:25:08 Wehrhammer - Der Befehl (2012)


Wehrhammer - 2012 - Der Befehl
Nebelklang‎

320 Kbps @Yadi.sk
Register

(2) Borderline1991, Ingvar,
Mar 24 2020, 17:35:03 Purity Renaissance - Purity Renaissance (2018)


Purity Renaissance - 2019 - Purity Renaissance (CD)
Tour de Garde, LP/CD.

320 Kbps + Scans

Register
(3) acerbus, Borderline1991, Korpse,
Mar 23 2020, 12:43:07 Akatechism & Slidhr - Amongst The Lost Light Of Misaligned Stars [split] (2020)


*Artist: Akatechism & Slidhr
*Album: Amongst The Lost Light Of Misaligned Stars [split]
*Year: 2020
*Genre: Black Metal | Black Metal
*Country: Germany | Ireland
*Format: mp3@CBR320kbps
*Size: 28MB

Tracklist:
Akatechism:
01. Amongst The Lost Light 05:40
Slidhr:
02. Of Misaligned Stars 05:58
******************************
Total playing time: 11:38

[more=Technical info]
Input File: 01. Akatechism - Amongst The Lost Light.mp3
Channels : 2
Sample Rate : 44100
Precision : 16-bit
Duration : 00:05:40.11 = 14998851 samples = 25508.2 CDDA sectors
File Size : 13.7M
Bit Rate : 322k
Sample Encoding: MPEG audio (layer I, II or III)
Comments :
Title=Amongst The Lost Light
Artist=Akatechism
Album=Amongst The Lost Light Of Misaligned Stars
Tracknumber=01/02
Year=2020
Genre=Black Metal

[/more]

Register
(19) acerbus, Bzth, doomTemplar, Fryz, infiltrator, kim666, LazarShadow, morbidangelo, Ostinato, robertho777, satanist666, SilentNidhogg, smes, soulskinner681, VALERY, varlam4, vasiljev_sergej, wolverine, yuratroll,
Mar 23 2020, 07:14:14 Obsidian Grave - Obsidian Visage Of Everlasting Hate (2020)


*Artist: Obsidian Grave
*Album: Obsidian Visage Of Everlasting Hate
*Year: 2020
*Genre: Raw Black Metal
*Country: United States
*Format: mp3@CBR320kbps
*Size: 89MB

Tracklist:
1. Shrouded Mourning, Eternal Death 04:35
2. Obsidian Orb of Sulfur and Blood 05:01
3. Awakening the Remnants of Rotting Archaic Remains 05:43
4. Descend 06:05
5. Dawn of Vampyric Might 06:20
6. Hallowed Oath 06:08
7. Obsidian Visage of Everlasting Hate 04:53
******************************
Total playing time: 38:45



[more=Extended info]Livor Mortis[/more]

[more=Technical info]
Input File: Obsidian Grave - Obsidian Visage Of Everlasting Hate - 05 Dawn of Vampyric Might.flac
Channels : 2
Sample Rate : 44100
Precision : 24-bit
Duration : 00:06:20.66 = 16787194 samples = 28549.6 CDDA sectors
File Size : 77.7M
Bit Rate : 1.63M
Sample Encoding: 24-bit FLAC
Comments :
TITLE=Dawn of Vampyric Might
ARTIST=Obsidian Grave
DATE=2020
COMMENT=Visit http://obsidiangrave1.bandcamp.com
ALBUM=Obsidian Visage Of Everlasting Hate
TRACKNUMBER=5
ALBUMARTIST=Obsidian Grave

[/more]

Register
(21) 1968_janeart, Alexis The Best, AlexSmith, atavist, ChaosArcana, craP_cillA, infiltrator, kim666, Lamby90, morbidangelo, nemx, Olethros, Ostinato, satanist666, SilentNidhogg, stub888, supremo, VALERY, vasiljev_sergej, Vidder242, vovenom,
Mar 21 2020, 09:35:45 Cénotaphe - Empyrée [ep] (2019)


Cénotaphe - 2019 - Empyrée (EP)
Nuclear War Now! Productions - ANTI-GOTH 426

320 Kbps + Scans @Yadi.sk
Register
(1) Borderline1991,
Mar 21 2020, 08:40:27 Korgonthurus - Kuolleestasyntynyt (2020)


Korgonthurus - 2020 - Kuolleestasyntynyt
320 kbps + Scans @Ya.disk

Register
(6) Aphrax, Doooomed, milosdjor, sethurius, Surt, wolverine,
Mar 21 2020, 07:51:28 Frozen Forest - Ancient Ritual (2016)


Frozen Forest - 2016 - Ancient Ritual
320 Kbps @Yadi.sk

Register
(2) Borderline1991, wendigo,
Mar 20 2020, 12:38:10 Whoredom Rife & Taake - Pakt [split] (2020)


*Artist: Whoredom Rife & Taake
*Album: Pakt [split]
*Year: 2020
*Genre: Black Metal | Black Metal
*Country: Norway | Norway
*Format: mp3@CBR320kbps
*Size: 62MB

Tracklist:
Whoredom Rife:
1. From Nameless Pagan Graves 06:40
2. En lenke smidd i blod 06:36
Taake:
3. Ubeseiret 06:58
4. Heartland (Sisters of Mercy cover) 04:00
******************************
Total playing time: 24:14



[more=Extended info]Terratur Possessions[/more]

[more=Technical info]
Input File: 01. Whoredom Rife - From Nameless Pagan Graves.mp3
Channels : 2
Sample Rate : 44100
Precision : 16-bit
Duration : 00:06:40.77 = 17673913 samples = 30057.7 CDDA sectors
File Size : 16.1M
Bit Rate : 322k
Sample Encoding: MPEG audio (layer I, II or III)
Comments :
Title=From Nameless Pagan Graves
Artist=Whoredom Rife
Album=Pakt
Tracknumber=01/04
Year=2020
Genre=Black Metal

[/more]

Register
(45) 1968_janeart, acerbus, afz902k, andeimon, Boozer, cancer1974, craP_cillA, gena, helvetestoner, Ildjarn, infiltrator, judaz, Kazoth, kim666, legion01, marilin, Maximvs, milosdjor, Moonshtook, Mortuusinfernus, multizwilling, nadin85, nemx, nsk2008, Occultas, Ostinato, QuadenThyrane, randumbum, recber, ripper33, robertho777, SadistikSlayer, satanist666, SilentNidhogg, Sjelekval, smes, soulskinner681, thenecromancer, VadimBerkut, VALERY, vasiljev_sergej, wolverine, xska, yuratroll, ZA670,
Mar 19 2020, 17:16:31 Ars Hmu - The Dawn Of Black Pansophy [demo] (2018)


Ars Hmu - 2018 - The Dawn Of Black Pansophy
Purity Through Fire ‎– PTF125
320 Kbps @Yadi.sk


Register

(4) lopuh21, milosdjor, thenecromancer, varlam4,
Mar 19 2020, 17:04:27 The True Werwolf - Devil Crisis (2020)


The True Werwolf - 2020 - Devil Crisis
Werewolf Records ‎– EVIL-000

320 kbps + Scans @Yadi.sk
Register

(4) 666days, ChaosArcana, heinz88, Tarkron,
Mar 19 2020, 15:44:27 Medico Peste - ב :the Black Bile (2020)


*Artist: Medico Peste
*Album: ב :the Black Bile
*Year: 2020
*Genre: Black Metal
*Country: Poland
*Format: mp3@CBR320kbps
*Size: 115MB

Tracklist:
1. God Knows Why 08:24
2. All Too Human 08:33
3. Numinous Catastrophy 07:10
4. Were Saviours Believers? 06:48
5. Skin 06:37
6. Holy Opium 05:48
7. The Black Bile 06:44
******************************
Total playing time: 50:04



[more=Extended info]Season of Mist Underground Activists - SUA108[/more]

[more=Technical info]
Input File: 02. All Too Human.mp3
Channels : 2
Sample Rate : 44100
Precision : 16-bit
Duration : 00:08:33.42 = 22641646 samples = 38506.2 CDDA sectors
File Size : 20.6M
Bit Rate : 320k
Sample Encoding: MPEG audio (layer I, II or III)
Comments :
Title=All Too Human
Artist=Medico Peste
Album=ב :The Black Bile
Tracknumber=02/07
Year=2020
Genre=Black Metal

[/more]

Register

Register
(62) -=Hass=-, 17Nostcide, 1968_janeart, 666days, acerbus, aleon, alikkon, Arysch_666, as71, atavist, Black Cat, Boozer, Bzth, Corpse_Of_The_Christ, Cyrci, dan22, DarkHorde, Dirt_ORFEY, Doooomed, Evgen79, garmonbozia, gena, Golodomor, Indamage, Infidel, infiltrator, Irimias, judaz, kim666, Lamby90, LEGION69, Moonshtook, morbidangelo, Morgoth, Mortuusinfernus, morve, multizwilling, nadin85, NOMIDIMON, nord6666, nsk2008, Olethros, Ostinato, peppuzzo, pirata, Premature_Devotion, ripper33, robertho777, sabr, SaintVitus, satanist666, Scorpi, tim47, Tino, Torlof, VALERY, vasiljev_sergej, vov7609, wolverine, wtk.412, yuratroll, zhol,
Mar 19 2020, 15:30:56 Malokarpatan - Krupinské Ohne (2020)


*Artist: Malokarpatan
*Album: Krupinské Ohne
*Year: 2020
*Genre: Black Metal
*Country: Slovakia
*Format: mp3@CBR320kbps
*Size: 112MB

Tracklist:
1. V brezových hájech poblíž Babinej zjavoval sa nám podsvetný velmož 13:02
2. Ze semena viselcuov čarovný koren povstáva 09:46
3. Na černém kuoni sme lítali firmamentem 06:57
4. Filipojakubská noc na Štangarígelských skalách 07:51
5. Krupinské ohne poštyrikráte teho roku vzplanuli 10:42
******************************
Total playing time: 48:18



[more=Extended info]Invictus Productions[/more]

[more=Technical info]
Input File: 02. Ze Semena Viselcuov Čarovný Koren Povstáva.mp3
Channels : 2
Sample Rate : 44100
Precision : 16-bit
Duration : 00:09:46.64 = 25870868 samples = 43998.1 CDDA sectors
File Size : 23.6M
Bit Rate : 322k
Sample Encoding: MPEG audio (layer I, II or III)
Comments :
Title=Ze Semena Viselcuov Čarovný Koren Povstáva
Artist=Malokarpatan
Album=Krupinské Ohne
Tracknumber=02/05
Year=2020
Genre=Black Metal
Discnumber=01/01

[/more]

Register
(55) 1968_janeart, acerbus, aleon, Andr, Asketto, atavist, babanguida, Boozer, DarkHorde, dim0ntius, djsema4, garmonbozia, gena, Hefir, helvetestoner, igore2911, Ildjarn, infiltrator, judaz, Kazoth, Korpse, lafuma, LEGION69, Leshiy666, lordbathor, marilin, morbidangelo, murian, nadin85, nemx, nord6666, nsk2008, Old Vyaine, Olethros, ondrazevsi, Ostinato, peppuzzo, randumbum, robertho777, sabr, SaintVitus, sarcophagus, satanist666, SilentNidhogg, smes, Tino, VALERY, VECTOR, vov7609, Wail, wolverine, xska, Yorker, yuratroll, Варяг,
Mar 19 2020, 08:36:39 Niht - Vanum (2017)


*Artist: Niht
*Album: Vanum
*Year: 2017
*Genre: Black Metal
*Country: Germany
*Format: mp3@CBR320kbps
*Size: 101MB

Tracklist:
1. I 05:53
2. II 07:29
3. III 07:28
4. IV 07:14
5. V 04:44
6. VI 06:28
7. VII 04:35
******************************
Total playing time: 43:51



[more=Technical info]
Input File: 02. II.mp3
Channels : 2
Sample Rate : 44100
Precision : 16-bit
Duration : 00:07:29.78 = 19835078 samples = 33733.1 CDDA sectors
File Size : 18.1M
Bit Rate : 321k
Sample Encoding: MPEG audio (layer I, II or III)
Comments :
Title=II
Artist=Niht
Album=Vanum
Tracknumber=02/07
Year=2017
Genre=Black Metal

[/more]

Register
(15) atavist, infiltrator, kim666, morbidangelo, multizwilling, murian, nsk2008, Olethros, Ostinato, robertho777, satanist666, SilentNidhogg, stub888, VALERY, vasiljev_sergej,
Mar 19 2020, 08:28:01 Glemsel - Unavngivet [ep] (2020)


*Artist: Glemsel
*Album: Unavngivet [ep]
*Year: 2020
*Genre: Atmospheric Black Metal
*Country: Denmark
*Format: mp3@CBR320kbps
*Size: 66MB

Tracklist:
1. Dødsværk 02:46
2. Ligegyldigheden 05:54
3. Efterårsvinde 03:33
4. Moders Gråd 02:48
5. Afsked 03:13
6. En Sidste Bøn 07:34
7. Rædsel 02:31
******************************
Total playing time: 28:19



[more=Technical info]
Input File: 05. Afsked.mp3
Channels : 2
Sample Rate : 44100
Precision : 16-bit
Duration : 00:03:13.73 = 8543669 samples = 14530 CDDA sectors
File Size : 7.82M
Bit Rate : 323k
Sample Encoding: MPEG audio (layer I, II or III)
Comments :
Title=Afsked
Artist=Glemsel
Album=Unavngivet
Tracknumber=05/07
Year=2020
Genre=Black Metal

[/more]

Register
(26) aleon, andivi, craP_cillA, djsema4, Doooomed, Ildjarn, infiltrator, kim666, morbidangelo, murian, nemx, nord6666, Olethros, ondrazevsi, Ostinato, randumbum, rauhnacht, ringworm revenant, robertho777, satanist666, senecazm, SilentNidhogg, Sjelekval, stub888, VALERY, vasiljev_sergej,
Mar 18 2020, 12:55:57 Hati - 10 [compilation] (2016)


*Artist: Hati
*Album: 10 [compilation]
*Year: 2016
*Genre: Raw Black Metal
*Country: Germany
*Format: mp3@CBR320kbps
*Size: 185MB

Tracklist:
1. Intro 01:05
2. Aus dem Dunkel 02:37
3. Wesen der Nacht 05:01
4. Erlösung aus dem Sein 03:05
5. Verrecke 02:01
6. Zu Ehren der dunklen Königin 03:25
7. Outro 01:01
8. Intro 02:03
9. Heil der Schlacht 02:46
10. Dem Leben entsagt 05:00
11. Öffne die Pforten 02:08
12. Eines Nachts 04:32
13. Auf in den Kampf 03:23
14. Visionen von Schmerzen 09:03
15. Outro 01:21
16. Intro 01:34
17. Feuersturm 03:30
18. Endlose Stille 01:40
19. Engelszerstörung 02:35
20. Instrumental 02:50
21. Trauer, Krieg, Verzweiflung & Hass 01:38
22. Todessehnsucht 08:00
23. Ich hasse alles was lebt (Grabschänder cover) 03:43
24. Grabgesänge 03:47
25. Outro 02:01
******************************
Total playing time: 1:19:49

[more=Extended info]Tracks 1-7: Aus dem Dunkel (Demo 2001)
Tracks 8-15: Auf in den Kampf (Demo 2002)
Tracks 16-25: Trauer, Krieg, Verzweiflung & Hass[/more]

[more=Technical info]
Input File: 13. Auf In Den Kampf.mp3
Channels : 2
Sample Rate : 44100
Precision : 16-bit
Duration : 00:03:22.97 = 8950977 samples = 15222.8 CDDA sectors
File Size : 8.18M
Bit Rate : 323k
Sample Encoding: MPEG audio (layer I, II or III)
Comments :
Title=Auf In Den Kampf
Artist=Hati
Album=10
Tracknumber=13/25
Year=2016
Genre=Black Metal

[/more]

Register
(22) andivi, craP_cillA, FUDEDOR, heinz88, Ildjarn, INDARKNESS, infiltrator, kim666, metal73, morbidangelo, Olethros, Orkkh, Ostinato, raaf, Raw1488, satanist666, SilentNidhogg, stub888, Styx, supremo, VALERY, vasiljev_sergej,
Mar 16 2020, 13:47:34 Nahtrunar & Hesychia - Nahtrunar/Hesychia [split] (2020)


*Artist: Nahtrunar & Hesychia
*Album: Nahtrunar/Hesychia [split]
*Year: 2020
*Genre: Black Metal | Dark Ambient
*Country: Austria | Austria
*Format: mp3@CBR320kbps
*Size: 93MB

Tracklist:
1. Nahtrunar - Nacht 19:11
2. Hesychia - Licht 20:41
******************************
Total playing time: 39:52



[more=Extended info]Altare Productions - ALTLP047[/more]

[more=Technical info]
Input File: 01. Nahtrunar - Nacht.mp3
Channels : 2
Sample Rate : 44100
Precision : 16-bit
Duration : 00:19:11.13 = 50764657 samples = 86334.5 CDDA sectors
File Size : 46.5M
Bit Rate : 323k
Sample Encoding: MPEG audio (layer I, II or III)
Comments :
Title=Nacht
Artist=Nahtrunar
Album=Nahtrunar / Hesychia
Tracknumber=1
Year=2020
Genre=Black metal

[/more]

Register
(15) acerbus, Boozer, garmonbozia, Ildjarn, infiltrator, Kazoth, morbidangelo, murian, nemx, Occultas, Ostinato, robertho777, satanist666, SilentNidhogg, stub888,
Mar 16 2020, 13:43:51 Dagon - The Call Of The Darcke Goddess [ep] (2014)


*Artist: Dagon
*Album: The Call Of The Darcke Goddess [ep]
*Year: 2014
*Genre: Raw Black Metal
*Country: Ecuador
*Format: mp3@CBR320kbps
*Size: 38MB

Tracklist:
1. Intro: Into ye Emeralde Sea of Dagon
2. Bloude of Kingu
3. Gude of Redde Desert
4. Qayin Mortifer
5. Outro: Y'ha-nthlei
******************************
Total playing time: 16:30



[more=Technical info]
Input File: 02. Bloude of Kingu.mp3
Channels : 2
Sample Rate : 44100
Precision : 16-bit
Duration : 00:03:33.95 = 9435151 samples = 16046.2 CDDA sectors
File Size : 8.62M
Bit Rate : 322k
Sample Encoding: MPEG audio (layer I, II or III)
Comments :
Title=Bloude of Kingu
Artist=Dagon
Album=The Call the Darcke Goddess (EP)
Tracknumber=02/05
Year=2014
Genre=Black Metal

[/more]

Register
(11) Ildjarn, infiltrator, kauyumari, kim666, morbidangelo, Olethros, Ostinato, satanist666, SilentNidhogg, Styx, vasiljev_sergej,

70 Pages V   1 2 3 > » 
- Lo-Fi Version Support form
Copyrights and abuse reports form
Time is now: 28th March 2020 - 09:06:03