Welcome Guest ( Log In | Register )

История благодарностей участнику Velmi ::: Спасибо сказали: 35093 раз(а)
Дата поста: В теме: За сообщение: Спасибо сказали:
Nov 11 2019, 15:52:07 Sulphuric Night - Forever Cursed (2019)


Sulphuric Night - 2019 - Forever Curse
Black Gangrene Productions

Vinyl-rip 320 Kbps + Scans @Yadi.sk
Register


(5) Borderline1991, ChaosArcana, Krosis, Radiosilence, sethurius,
Nov 10 2019, 17:12:26 Valac - Leaning Toward Bitter Misery (2019)


*Artist: Valac
*Album: Leaning Toward Bitter Misery
*Year: 2019
*Genre: Raw Black Metal
*Country: United States
*Format: mp3@CBR320kbps
*Size: 73MB

Tracklist:
1. - 02:06
2. Vile Disease 05:14
3. Enshroud The Incurable 05:27
4. Coursing Through Veins 04:50
5. Tainted Blood Spilled From Man 04:02
6. Grasping to Forgotten Spirits 04:12
7. Departure 03:54
8. - 01:44
******************************
Total playing time: 31:29



[more=Technical info]
Input File: 01. -.mp3
Channels : 2
Sample Rate : 44100
Precision : 16-bit
Duration : 00:02:06.10 = 5561010 samples = 9457.5 CDDA sectors
File Size : 5.08M
Bit Rate : 322k
Sample Encoding: MPEG audio (layer I, II or III)
Comments :
Title=-
Artist=Valac
Album=Leaning Toward Bitter Misery
Tracknumber=01/08
Year=2019
Genre=Black Metal

[/more]

Register
(9) 1968_janeart, alikkon, kim666, Olethros, Ostinato, Rosen, stub888, VALERY, vasiljev_sergej,
Nov 10 2019, 09:04:00 Assassination - Circles Within Circles (2019)


*Artist: Assassination
*Album: Circles Within Circles
*Year: 2019
*Genre: Black Metal/Occult Rock
*Country: Germany
*Format: mp3@CBR320kbps
*Size: 87MB

Tracklist:
1. Circles within Circles 04:37
2. This is Kali Yuga 05:09
3. Madness 03:54
4. Soulseeking Bullet 05:00
5. A mushroom for you 04:01
6. Once a time 03:51
7. Screams 04:58
8. Into the hellgate 05:49
******************************
Total playing time: 37:19



[more=Technical info]
Input File: 02. This Is Kali Yuga.mp3
Channels : 2
Sample Rate : 44100
Precision : 16-bit
Duration : 00:05:09.10 = 13631354 samples = 23182.6 CDDA sectors
File Size : 12.5M
Bit Rate : 323k
Sample Encoding: MPEG audio (layer I, II or III)
Comments :
Title=This Is Kali Yuga
Artist=Assassination
Album=Circles Within Circles
Tracknumber=02/08
Year=2019
Genre=Occult Rock

[/more]

Register
(28) 939, alikkon, autumnwood, BlackTroll, cielakk, FlammenTod666, Fryz, garmonbozia, gena, judaz, kimkayoung, Leshiy666, metala, metaljosue, Moonshtook, multizwilling, Olethros, Raw1488, Rosen, russ777, stub888, svartrest, VALERY, vasiljev_sergej, vosmidesijatye, Vraithee, Wail, yuratroll,
Nov 9 2019, 13:00:16 Qayin Regis - Doctrine (2019)


Qayin Regis - 2019 - Doctrine
BlackSeed Productions

Bandcamp 320 Kbps + Scans @ Yadi.sk
Register
(4) FlammenTod666, milosdjor, nadin85, nemx,
Nov 6 2019, 19:06:36 Zmora - Najczarniejsza Z Nocy [ep] (2019)


*Artist: Zmora
*Album: Najczarniejsza Z Nocy [ep]
*Year: 2019
*Genre: Black Metal
*Country: Poland
*Format: mp3@CBR320kbps
*Size: 81MB

Tracklist:
1. Czarne bramy nicestwa 03:26
2. Przyzywam Cie Smierci, wolam przyjdz! 07:08
3. Lodowata topiel istnienia 08:07
4. Plonace rzeki, czarne wstegi wiecznosci 06:01
5. Lzy czarnych slonc, martwej ziemi chlod 04:33
6. Tam tylko Smierc 05:35
******************************
Total playing time: 34:50

[more=Extended info]Werewolf Promotion[/more]

[more=Technical info]
Input File: 03. Lodowata topiel istnienia.mp3
Channels : 2
Sample Rate : 44100
Precision : 16-bit
Duration : 00:08:07.69 = 21507173 samples = 36576.8 CDDA sectors
File Size : 19.7M
Bit Rate : 323k
Sample Encoding: MPEG audio (layer I, II or III)
Comments :
Title=Lodowata topiel istnienia
Artist=Zmora
Album=Najczarniejsza z Nocy
Tracknumber=03/06
Year=2019
Genre=Black Metal

[/more]

Register
(28) 1968_janeart, ahp, Boozer, garmonbozia, gena, judaz, kim666, multizwilling, nsk2008, Olethros, Ostinato, robertho777, Rosen, SilentNidhogg, Slavas, suseka, svartrest, thenecromancer, Tino, VALERY, vasiljev_sergej, vov7609, vovenom, wolverine, xska, Абигор, Авел, Сварог Барг,
Nov 6 2019, 15:31:08 Degredo - E Foi Assim No Século Passado (2019)


*Artist: Degredo
*Album: E Foi Assim No Século Passado
*Year: 2019
*Genre: Raw Black Metal/Ritual Ambient
*Country: Portugal
*Format: mp3@CBR320kbps
*Size: 85MB

Tracklist:
1. E Foi Assim No Século Passado
******************************
Total playing time: 36:41



[more=Extended info]Harvest of Death -[/more]

[more=Technical info]
Input File: 01. E foi assim no Século Passado.mp3
Channels : 2
Sample Rate : 44100
Precision : 16-bit
Duration : 00:36:41.20 = 97072876 samples = 165090 CDDA sectors
File Size : 88.1M
Bit Rate : 320k
Sample Encoding: MPEG audio (layer I, II or III)
Comments :
Title=E foi assim no Século Passado
Artist=Degredo
Album=E foi assim no Século Passado
Tracknumber=01/01
Year=2019
Genre=Raw Black Metal / Ritual Ambient

[/more]

Register
(14) 1968_janeart, heinz88, kauyumari, kim666, lestllk, nemx, Olethros, Ostinato, Rosen, SilentNidhogg, stub888, supremo, vasiljev_sergej, Авел,
Nov 6 2019, 14:53:02 Portae Obscuritas - Lvx Atra Aeterna (2019)


*Artist: Portae Obscuritas
*Album: Lvx Atra Aeterna
*Year: 2019
*Genre: Black Metal
*Country: Austria
*Format: mp3@CBR320kbps
*Size: 111MB

Tracklist:
1. Intro 02:53
2. The Grand Invocation 09:11
3. Oracle of the Golden Temple 08:33
4. The Spell 04:36
5. Ascendant 11:04
6. Bearer of the Somber Flame 07:12
7. Outro 02:28
******************************
Total playing time: 45:57



[more=Extended info]Lamech Records - Lamech 2234[/more]

[more=Technical info]
Input File: 03. Oracle of the Golden Temple.mp3
Channels : 2
Sample Rate : 44100
Precision : 16-bit
Duration : 00:08:33.85 = 22660653 samples = 38538.5 CDDA sectors
File Size : 20.8M
Bit Rate : 323k
Sample Encoding: MPEG audio (layer I, II or III)
Comments :
Title=Oracle of the Golden Temple
Artist=Portae Obscuritas
Album=Lvx Atra Aeterna
Tracknumber=03/07
Year=2019
Genre=Black Metal

[/more]

Register
(34) 1968_janeart, AlexSmith, chickenfucker, cist, craP_cillA, cryptal, Doooomed, kauyumari, Kehl05, kim666, kipelov999, Maximvs, MMMMM, nadin85, nsk2008, Occultas, Olethros, Ostinato, robertho777, Rosen, RunningWild_AT, sandr666, scorn33, SilentNidhogg, squall8fr, stub888, suseka, thenecromancer, tim47, VALERY, vasiljev_sergej, vov7609, vovenom, yuratroll,
Nov 6 2019, 14:36:31 Devourer Of Light & Voces - Apparitions Of The Voces Unknown [split] (2019)


*Artist: Devourer Of Light & Voces
*Album: Apparitions Of The Voces Unknown [split]
*Year: 2019
*Genre: Black/Death Metal | Black Metal
*Country: United States | United States
*Format: mp3@CBR320kbps
*Size: 91MB

Tracklist:
Devourer of Light:
1. Apparitions of the Voices Unknown 04:09
2. Devour All Light, The Breath of Malignity 03:39
3. Endless Thoughts of Self Obliteration 03:39
4. Anxious Voyage of the Caliginous Mental Dimensions 03:36
5. The Voices Return 04:26
Voces:
6. I 06:06
7. II 07:20
8. III 06:01
******************************
Total playing time: 38:56



[more=Extended info]Night of the Palemoon - NP-VIII[/more]

[more=Technical info]
Input File: 02. Devourer of Light - Devour All Light, The Breath of Malignity.mp3
Channels : 2
Sample Rate : 44100
Precision : 16-bit
Duration : 00:03:39.55 = 9681935 samples = 16465.9 CDDA sectors
File Size : 8.89M
Bit Rate : 324k
Sample Encoding: MPEG audio (layer I, II or III)
Comments :
Title=Devour All Light, The Breath of Malignity
Artist=Devourer of Light
Album=Apparitions of the Voces Unknown (NP-VIII)
Tracknumber=02/08
Year=2019
Genre=Black Metal

[/more]

Register
(12) 1968_janeart, FlammenTod666, kauyumari, kim666, Legacy100, marilin, Ostinato, Rosen, SilentNidhogg, VALERY, vasiljev_sergej, vovenom,
Oct 25 2019, 17:23:41 Cthonica - Typhomanteia: Sacred Triarchy Of Spiritual Putrefaction (2019)


*Artist: Cthonica
*Album: Typhomanteia: Sacred Triarchy Of Spiritual Putrefaction
*Year: 2019
*Genre: Black Metal
*Country: Venezuela
*Format: mp3@CBR320kbps
*Size: 127MB

Tracklist:
1. Act I The Chalice 11:19
2. Act II The Verb 07:49
3. Act III The Lantern 09:51
4. IV Nor the deadliest disease shall be compared to this showcase of glory ... 06:34
5. …for the children of he who lurks beyond shall not witness this showcase of glory… 08:20
6. …not as those who served and preached in obeisance 05:30
7. Ω De Derelictum Domum Sacrorum 02:57
******************************
Total playing time: 52:20



[more=Technical info]
Input File: 02. Act II the Verb.mp3
Channels : 2
Sample Rate : 44100
Precision : 16-bit
Duration : 00:07:49.50 = 20704862 samples = 35212.4 CDDA sectors
File Size : 19.2M
Bit Rate : 328k
Sample Encoding: MPEG audio (layer I, II or III)
Comments :
Title=Act II the Verb
Artist=Cthonica
Album=Typhomanteia: Sacred Triarchy of Spiritual Putrefaction
Tracknumber=02/07
Year=2019
Genre=Black Metal

[/more]

Register
(11) artscald, Hell_Is_Here, infiltrator, kim666, Occultas, Ostinato, Pinhead666, Rosen, SilentNidhogg, VALERY, vasiljev_sergej,
Oct 20 2019, 19:04:04 Obsidian Dawn - Echoes Of A New Dawn [ep] (2019)


*Artist: Obsidian Dawn
*Album: Echoes Of A New Dawn [ep]
*Year: 2019
*Genre: Raw Black Metal
*Country: Portugal
*Format: mp3@CBR320kbps
*Size: 58MB

Tracklist:
1. Intro
2. Echoes of a New Dawn
3. Eternal Flames of Hatred
4. Bloodmoon Cries
******************************
Total playing time: 24:25

[more=Extended info]Black Gangrene Productions, 10" MLP.
Vinyl-rip + Scans[/more]

[more=Technical info]
Input File: 02. Echoes of a New Dawn.mp3
Channels : 2
Sample Rate : 48000
Precision : 16-bit
Duration : 00:08:11.33 = 23583744 samples ~ 36849.6 CDDA sectors
File Size : 19.9M
Bit Rate : 325k
Sample Encoding: MPEG audio (layer I, II or III)
Comments :
Title=Echoes Of A New Dawn
Artist=Obsidian Dawn
Album=Echoes Of A New Dawn
Tracknumber=02/04
Year=2019
Genre=Black Metal

[/more]

Register
(25) 1968_janeart, ahp, Alexis The Best, artscald, Boozer, FUDEDOR, garmonbozia, Hell_Is_Here, infiltrator, kim666, lestllk, nemx, Olethros, Ostinato, Rosen, satanist666, sethurius, SilentNidhogg, smysl, stub888, supremo, Tyrone, vasiljev_sergej, vovenom, Авел,
Oct 20 2019, 18:23:37 A:S: - Messa Prima [demo] (2016)


*Artist: A:S.:
*Album: Messa Prima [demo]
*Year: 2016
*Genre: Raw Black Metal
*Country: Italy
*Format: mp3@CBR320kbps
*Size: 122MB

Tracklist:
A1. Satanic Rites Of The Euganean Hills 05:40
A2. The Heretic 05:14
A3. Convocazioni Tenebrose 10:05
A4. Desecration Of Babylonia 06:47
B1. Ritual Mass 06:30
B2. Triumphant Majestic Whore 03:22
B3. Inferno 03:14
B4. Snu Mikrokosmos Tegn 09:22
B5. 603 01:22
******************************
Total playing time: 51:36

[more=Extended info]Tour De Garde.
Tape-rip + Scans

Abhor members side-project[/more]

[more=Technical info]
Input File: A3. Convocazioni Tenebrose.mp3
Channels : 2
Sample Rate : 48000
Precision : 16-bit
Duration : 00:10:05.21 = 29049984 samples ~ 45390.6 CDDA sectors
File Size : 24.5M
Bit Rate : 324k
Sample Encoding: MPEG audio (layer I, II or III)
Comments :
Title=Convocazioni Tenebrose
Artist=A:S:
Album=Messa Prima
Tracknumber=03/09
Year=2016
Genre=Black Metal

[/more]

Register
(16) 1968_janeart, artscald, craP_cillA, FUDEDOR, infiltrator, kim666, lestllk, Olethros, Ostinato, Razorbladeswaltz, Rosen, SilentNidhogg, smysl, stub888, thenecromancer, vasiljev_sergej,
Oct 20 2019, 17:43:52 Abhor - Nequaquam Vacuum: Beginning Of The Great Opera [compilation] (2000)


Abhor - 2000 - Nequaquam Vacuum: Beginning Of The Great Opera

CD-rip 320 Kbps @Yadi.sk
Register
(3) acerbus, Borderline1991, thenecromancer,
Oct 19 2019, 17:35:19 Seviss - Et Pleure Le Batard... (1996)


Séviss - 2019 - Et Pleure le Bâtard
Drakkar Productions ‎– DKCD130

320 Kbps + Scans @Yadi.sk
Register
(9) Borderline1991, Dirt_ORFEY, infiltrator, Pinhead666, sethurius, suseka, thenecromancer, Vakhanal, wendigo,
Oct 19 2019, 17:30:28 Dzlvarv - Demo [demo] (1996)


Dzlvarv - 2019 - Dzlvarv
Drakkar Productions ‎– DKCD129

320 Kbps + Scans @Yadi.sk
Register
(6) Dirt_ORFEY, INDARKNESS, infiltrator, sethurius, thenecromancer, the_cleanser,
Oct 19 2019, 17:26:29 Black Murder - Feasts [demo] (1995)


Black Murder - 2019 - Feasts
Drakkar Productions ‎– DKCD128

320 Kbps + Scans @Yadi.sk
Register
(8) Borderline1991, Dirt_ORFEY, FUDEDOR, infiltrator, sethurius, stumpheavyrock, thenecromancer, wendigo,
Oct 18 2019, 19:09:04 Vrač - U Vječnoj Magli Života [demo] (2019)


*Artist: Vrač
*Album: U Vječnoj Magli Života [demo]
*Year: 2019
*Genre: Raw Black Metal
*Country: Bosnia and Herzegovina
*Format: mp3@VBR245kbps
*Size: 32MB

Tracklist:
1. U vječnoj magli života
******************************
Total playing time: 15:20

[more=Extended info]Black Gangrene Productions
Tape-rip by Zero[/more]

[more=Technical info]
Input File: 01. Untitled.mp3
Channels : 2
Sample Rate : 44100
Precision : 16-bit
Duration : 00:15:22.31 = 40673651 samples = 69172.9 CDDA sectors
File Size : 32.0M
Bit Rate : 277k
Sample Encoding: MPEG audio (layer I, II or III)
Comments :
Title=Untitled
Artist=Vrač
Album=U Vječnoj Magli Života
Tracknumber=01/01
Year=2019
Genre=Black Metal
Discnumber=1/1

[/more]

Register
(19) 1968_janeart, Alexis The Best, artscald, Borderline1991, FUDEDOR, Hell_Is_Here, kim666, Krosis, nemx, obituarydark, Olethros, Ostinato, Rosen, russ777, sethurius, stub888, VALERY, vasiljev_sergej, Авел,
Oct 18 2019, 19:01:02 Sun Worship - Emanations Of Desolation (2019)


*Artist: Sun Worship
*Album: Emanations Of Desolation
*Year: 2019
*Genre: Black Metal
*Country: Germany
*Format: mp3@CBR320kbps
*Size: 138MB

Tracklist:
1. Zenith 02:08
2. Void Conqueror 06:39
3. Devoured 07:09
4. Torch Reversed 08:59
5. Soul Harvester 07:41
6. Pilgrimage 05:32
7. Coronation 08:26
8. Without End 12:34
******************************
Total playing time: 59:08



[more=Extended info]Vendetta Records - 187[/more]

[more=Technical info]
Input File: 06. Pilgrimage.mp3
Channels : 2
Sample Rate : 44100
Precision : 16-bit
Duration : 00:05:32.18 = 14649182 samples = 24913.6 CDDA sectors
File Size : 13.4M
Bit Rate : 323k
Sample Encoding: MPEG audio (layer I, II or III)
Comments :
Title=Pilgrimage
Artist=Sun Worship
Album=Emanations Of Desolation
Tracknumber=06/08
Year=2019
Genre=Black Metal

[/more]

Register
(25) 0x13, 1968_janeart, Andr, artscald, Black Cat, Boozer, El_Chibo, Forest Silence, Krosis, murian, nemx, Ostinato, Radek, robertho777, Rosen, Rover, SadistikSlayer, satanist666, ShadowHunter, SilentNidhogg, stub888, suseka, Tyrone, vasiljev_sergej, zotyo1975,
Oct 18 2019, 15:08:22 Blattaria - Life Is A Disease (2019)


*Artist: Blattaria
*Album: Life Is A Disease
*Year: 2019
*Genre: Black Metal
*Country: United States
*Format: mp3@CBR320kbps
*Size: 100MB

Tracklist:
1. Disgusting Planet 10:54
2. Life Is A Disease 07:37
3. Downwards 01:49
4. Visions Of My Corpse 10:34
5. Swarm 12:50
******************************
Total playing time: 43:44



[more=Technical info]
Input File: 01. Disgusting Planet.mp3
Channels : 2
Sample Rate : 44100
Precision : 16-bit
Duration : 00:10:54.09 = 28845369 samples = 49056.8 CDDA sectors
File Size : 26.2M
Bit Rate : 321k
Sample Encoding: MPEG audio (layer I, II or III)
Comments :
Title=Disgusting Planet
Artist=Blattaria
Album=Life Is A Disease
Tracknumber=01/05
Year=2019
Genre=Black Metal

[/more]

Register
(15) 1968_janeart, artscald, El_Chibo, kim666, kolar666, murian, Olethros, Ostinato, Rosen, Rover, SilentNidhogg, stub888, VALERY, vasiljev_sergej, yuratroll,
Oct 8 2019, 18:42:55 Dysangelium - Death Leading (2019)


Dysangelium - 2019 - Death Leading
World Terror Committee - W.T.C.176

Bandcamp 320 Kbps @ Yadi.sk
Register

(7) arkaik, FlammenTod666, Fryz, Hell_Is_Here, infiltrator, older68, stub888,
Oct 6 2019, 17:08:49 Fuil Na Seanchoille - The Crossing [demo] (2019)


*Artist: Fuil Na Seanchoille
*Album: The Crossing [demo]
*Year: 2019
*Genre: Black Metal
*Country: Ireland
*Format: mp3@CBR320kbps
*Size: 74MB

Tracklist:
01. The Crossing 28:30
******************************
Total playing time: 28:30



[more=Technical info]
Input File: 01. The Crossing.mp3
Channels : 2
Sample Rate : 44100
Precision : 16-bit
Duration : 00:28:30.18 = 75418850 samples = 128263 CDDA sectors
File Size : 68.5M
Bit Rate : 320k
Sample Encoding: MPEG audio (layer I, II or III)
Comments :
Title=The Crossing
Artist=Fuil Na Seanchoille
Album=The Crossing
Tracknumber=01/01
Year=2019
Genre=Black Metal

[/more]

Register
(15) 1968_janeart, artscald, Boozer, Fryz, kim666, nemx, Olethros, Ostinato, randumbum, robertho777, Rosen, stub888, Tyrone, VALERY, vasiljev_sergej,
Oct 6 2019, 08:51:14 Abhartach - Demo II [demo] (2019)


*Artist: Abhartach
*Album: Demo II [demo]
*Year: 2019
*Genre: Raw Black Metal
*Country: United States
*Format: mp3@CBR320kbps
*Size: 90MB

Tracklist:
A1. Archexsanguinator
A2. Hunger Of An Unholy Wolven Pulse
A3. Madness Beholding Dark Marvels
B1. A Veil Of Viscera
B2. The Strixes Dominion
******************************
Total playing time: 37:47



[more=Extended info]Behest.
Tape-rip + Scans[/more]

[more=Technical info]
Input File: A3. Madness Beholding Dark Marvels.mp3
Channels : 2
Sample Rate : 44100
Precision : 16-bit
Duration : 00:06:49.60 = 18063316 samples = 30719.9 CDDA sectors
File Size : 16.8M
Bit Rate : 328k
Sample Encoding: MPEG audio (layer I, II or III)
Comments :
Title=Madness Beholding Dark Marvels
Artist=Abhartach
Album=Demo II
Tracknumber=03/05
Year=2019
Genre=Raw Black Metal

[/more]

Register
(19) 1968_janeart, artscald, Borderline1991, DeRectify, FUDEDOR, Ildjarn, infiltrator, kim666, lestllk, nemx, Olethros, Ostinato, randumbum, Rosen, SilentNidhogg, stub888, thenecromancer, vasiljev_sergej, Авел,
Oct 5 2019, 13:54:23 Death Like Mass - Matka Na Sabacie [ep] (2019)


*Artist: Death Like Mass
*Album: Matka Na Sabacie [ep]
*Year: 2019
*Genre: Black Metal
*Country: Poland
*Format: mp3@CBR320kbps
*Size: 78MB

Tracklist:
1. Matka Na Sabacie
******************************
Total playing time: 31:48



[more=Extended info]Malignant Voices / Under The Sign of Garazel Productions[/more]

[more=Technical info]
Input File: 01. Matka na Sabacie.mp3
Channels : 2
Sample Rate : 44100
Precision : 16-bit
Duration : 00:31:48.95 = 84184739 samples = 143171 CDDA sectors
File Size : 76.4M
Bit Rate : 320k
Sample Encoding: MPEG audio (layer I, II or III)
Comments :
Title=Matka na Sabacie
Artist=Death Like Mass
Album=Matka Na Sabacie
Tracknumber=01/01
Year=2019
Genre=Black Metal

[/more]

Register
(24) 1968_janeart, acerbus, artscald, Beazth, Boozer, gena, Hell_Is_Here, helvetestoner, infiltrator, kim666, kipelov999, lestllk, Ludwig Hagen, obituarydark, Panacea, Rosen, satanist666, soulskinner681, Tino, vasiljev_sergej, wolverine, wtk.412, yuratroll, Абигор,
Oct 5 2019, 12:51:03 Lichtzehrer - Lichtzehrer [ep] (2019)


*Artist: Lichtzehrer
*Album: Lichtzehrer [ep]
*Year: 2019
*Genre: Black Metal
*Country: Germany
*Format: mp3@CBR320kbps
*Size: 26MB

Tracklist:
1. Upon The Narrow Mountain Path 05:21
2. The Fog And The Sea 05:20
******************************
Total playing time: 10:41



[more=Extended info]Harvest of Death[/more]

[more=Technical info]
Input File: 01. Upon The Narrow Mountain Path.mp3
Channels : 2
Sample Rate : 44100
Precision : 16-bit
Duration : 00:05:21.17 = 14163465 samples = 24087.5 CDDA sectors
File Size : 13.0M
Bit Rate : 323k
Sample Encoding: MPEG audio (layer I, II or III)
Comments :
Title=Upon The Narrow Mountain Path
Artist=Lichtzehrer
Album=Lichtzehrer
Tracknumber=01/02
Year=2019
Genre=Black Metal

[/more]

Register
(15) 0x13, 1968_janeart, artscald, chromeskull88, Ildjarn, infiltrator, kim666, kramer820, Olethros, Ostinato, randumbum, robertho777, Rosen, SilentNidhogg, vasiljev_sergej,
Sep 30 2019, 15:13:29 Nycteriis - L'ombre D'un Traumatisme Noir [ep] (2019)


*Artist: Nycteriis
*Album: L'ombre D'un Traumatisme Noir [ep]
*Year: 2019
*Genre: Black Metal
*Country: United States
*Format: mp3@CBR320kbps
*Size: 81MB

Tracklist:
1. Chapter 1 - Meditations Upon Pale Trauma 07:37
2. Chapter 2 - A Despondent Hermitage (A Lingering of Agony) 08:56
3. Chapter 3: The Noose of My Cold Heart's Past 08:03
4. Interlude 03:24
5. Chapter 4: This Empty Coffin Mine 07:00
******************************
Total playing time: 35:00



[more=Technical info]
Input File: 02. Chapter 2 Despondent Hermitage (A Lingering Of Agony).mp3
Channels : 2
Sample Rate : 44100
Precision : 16-bit
Duration : 00:08:56.44 = 23657092 samples = 40233.1 CDDA sectors
File Size : 21.6M
Bit Rate : 321k
Sample Encoding: MPEG audio (layer I, II or III)
Comments :
Title=Chapter 2: Despondent Hermitage (A Lingering Of Agony)
Artist=Nycteriis
Album=L'ombre D'un Traumatisme Noir
Tracknumber=02/05
Year=2018
Genre=Black Metal

[/more]

Register
(19) 1968_janeart, aleon, artscald, FUDEDOR, Ildjarn, infiltrator, kim666, lucifix, murian, obituarydark, Olethros, Ostinato, randumbum, Rosen, Sanctus, SilentNidhogg, stub888, vasiljev_sergej, Абигор,
Sep 29 2019, 11:16:48 Black Kruud - Into The Cobwebs Of Abysmal Torment [demo] (2019)


*Artist: Black Kruud
*Album: Into The Cobwebs Of Abysmal Torment [demo]
*Year: 2019
*Genre: Raw Black Metal
*Country: Canada
*Format: mp3@CBR320kbps
*Size: 49MB

Tracklist:
1. Into the cobweb of abysmal torment 02:23
2. Black death 03:19
3. When the clouds gather, evil shall reign 04:31
4. The great death of wisborg 03:05
5. Ride for vengeance 04:03
6. The vinlandic forst giant 03:41
******************************
Total playing time: 21:02



[more=Extended info]Knife Vision[/more]

[more=Technical info]
Input File: 02. Black Death.mp3
Channels : 2
Sample Rate : 48000
Precision : 16-bit
Duration : 00:03:19.11 = 9557136 samples ~ 14933 CDDA sectors
File Size : 8.07M
Bit Rate : 324k
Sample Encoding: MPEG audio (layer I, II or III)
Comments :
Title=Black Death
Artist=Black Kruud
Album=Into The Cobwebs Of Abysmal Tormen
Tracknumber=02/06
Year=2019
Genre=Raw Black Metal

[/more]

Register
(13) 1968_janeart, artscald, Fatalist77791, FUDEDOR, Hell_Is_Here, Ildjarn, kim666, Olethros, Ostinato, Rosen, SilentNidhogg, stub888, vasiljev_sergej,

65 Pages V   1 2 3 > » 
- Lo-Fi Version Support form
Copyrights and abuse reports form
Time is now: 17th November 2019 - 10:22:24