Welcome Guest ( Log In | Register )

История благодарностей участнику Velmi ::: Спасибо сказали: 27724 раз(а)
Дата поста: В теме: За сообщение: Спасибо сказали:
Jan 16 2019, 15:32:49 Heinous - Demo I [demo] (2019)


*Artist: Heinous
*Album: Demo I [demo]
*Year: 2019
*Genre: Black Metal
*Country: Belgium
*Format: mp3@CBR320kbps
*Size: 51MB

Tracklist:
1. Thirteen Thousand Knights 05:23
2. Unholy Pyre 04:30
3. Heinous Majesty 04:37
4. Disciple Of Satan 05:47
******************************
Total playing time: 20:17



[more=Extended info]Medieval Prophecy Records[/more]

[more=Technical info]
Input File: 01. Thirteen Thousand Knights.mp3
Channels : 2
Sample Rate : 44100
Precision : 16-bit
Duration : 00:05:24.04 = 14290296 samples = 24303.2 CDDA sectors
File Size : 13.1M
Bit Rate : 323k
Sample Encoding: MPEG audio (layer I, II or III)
Comments :
Title=Thirteen Thousand Knights
Artist=Heinous
Album=Demo I
Tracknumber=01/04
Year=2019
Genre=Black Metal

[/more]

Register
(14) 1968_janeart, artscald, Fatalist77791, Hell_Is_Here, kim666, Krosis, marilin, nemx, Ostinato, satanist666, SilentNidhogg, stub888, thenecromancer, vasiljev_sergej,
Jan 15 2019, 17:02:11 Luring - Interitu Caret Devotione Ad Coronam Satanas [demo] (2018)


*Artist: Luring
*Album: Interitu Caret Devotione Ad Coronam Satanas [demo]
*Year: 2018
*Genre: Raw Black Metal
*Country: United States
*Format: mp3@VBR245kbps
*Size: 31MB

Tracklist:
1. Interitu Caret Devotione Ad Coronam Satanas 16:54
******************************
Total playing time: 16:54



[more=Extended info]Knife Vision ‎– KV026
Tape-rip by zero[/more]

[more=Technical info]
Input File: 01. Interitu Caret Devotione Ad Coronam Satanas.mp3
Channels : 2
Sample Rate : 44100
Precision : 16-bit
Duration : 00:16:45.01 = 44320853 samples = 75375.6 CDDA sectors
File Size : 31.7M
Bit Rate : 253k
Sample Encoding: MPEG audio (layer I, II or III)
Comments :
Title=Interitu Caret Devotione Ad Coronam Satanas
Artist=Luring
Album=Interitu Caret Devotione Ad Coronam Satanas
Tracknumber=01/01
Year=2018
Genre=Black Metal

[/more]

Register
(10) 1968_janeart, artscald, Hell_Is_Here, kim666, Olethros, Ostinato, satanist666, stub888, varlam4, vasiljev_sergej,
Jan 13 2019, 18:12:19 Winterreise - Winterreise [demo] (2018)


*Artist: Winterreise
*Album: Winterreise [demo]
*Year: 2018
*Genre: Raw Black Metal
*Country: United States
*Format: mp3@VBR245kbps
*Size: 25MB

Tracklist:
1. Sol
2. Cosmic Journey
3. Withering World
******************************
Total playing time: 12:12



[more=Extended info]Night Of The Palemoon ‎– NP-V
Tape-rip by zero[/more]

[more=Technical info]
Input File: 01. Sol.mp3
Channels : 2
Sample Rate : 44100
Precision : 16-bit
Duration : 00:04:09.10 = 10985442 samples = 18682.7 CDDA sectors
File Size : 8.15M
Bit Rate : 262k
Sample Encoding: MPEG audio (layer I, II or III)
Comments :
Title=Sol
Artist=Winterreise
Album=Winterreise
Tracknumber=01/03
Year=2018
Genre=Black Metal
Discnumber=1/1

[/more]

Register
(14) 1968_janeart, artscald, Hell_Is_Here, kim666, Krosis, Ludwig Hagen, Olethros, Ostinato, satanist666, stub888, udt4050, VALERY, varlam4, vasiljev_sergej,
Jan 13 2019, 18:04:20 13Th Moon - Shrouded In Grave Soil [demo] (2018)


*Artist: 13Th Moon
*Album: Shrouded In Grave Soil [demo]
*Year: 2018
*Genre: Black Metal
*Country: Spain
*Format: mp3@VBR245kbps
*Size: 26MB

Tracklist:
A1. Lusting Cadaverous Tomb
A2. Nemo Ante Mortem Beatus
A3. Necrophilia
A4. Veiled In Abyssal Murk
******************************
Total playing time: 14:27

[more=Extended info]Triangulum Ignis ‎– AZOTH20
Tape-rip by zero[/more]

[more=Technical info]
Input File: 02. Nemo Ante Mortem Beatus.mp3
Channels : 2
Sample Rate : 44100
Precision : 16-bit
Duration : 00:01:52.27 = 4951283 samples = 8420.55 CDDA sectors
File Size : 3.48M
Bit Rate : 248k
Sample Encoding: MPEG audio (layer I, II or III)
Comments :
Title=Nemo Ante Mortem Beatus
Artist=13th Moon
Album=Shrouded in Grave Soil
Tracknumber=02/04
Year=2018
Genre=Black Metal

[/more]

Register
(21) 1968_janeart, acerbus, Anhra Mainyu, artscald, Hell_Is_Here, INDARKNESS, kim666, Krosis, milosdjor, Occultas, Olethros, Ostinato, RUSP73, satanist666, soulskinner681, stub888, thenecromancer, udt4050, VALERY, varlam4, vasiljev_sergej,
Jan 13 2019, 17:57:14 Liljah - From A World Of Cunning Light, I Fell Into The Night [ep] (2018)


*Artist: Liljah
*Album: From A World Of Cunning Light, I Fell Into The Night [ep]
*Year: 2018
*Genre: Raw Black Metal
*Country: Denmark
*Format: mp3@CBR320kbps
*Size: 20MB

Tracklist:
01. From A World Of Cunning Light, I Fell Into The Night 08:37
******************************
Total playing time: 8:37



[more=Extended info]Hævngær, tape.[/more]

[more=Technical info]
Input File: 01. From A World Of Cunning Light, I Fell Into The Night.mp3
Channels : 2
Sample Rate : 44100
Precision : 16-bit
Duration : 00:08:37.67 = 22829291 samples = 38825.3 CDDA sectors
File Size : 20.8M
Bit Rate : 321k
Sample Encoding: MPEG audio (layer I, II or III)
Comments :
Title=From A World Of Cunning Light, I Fell Into The Night
Artist=Liljah
Album=From A World Of Cunning Light, I Fell Into The Night
Tracknumber=01/01
Year=2018
Genre=Black Metal

[/more]

Register
(14) 1968_janeart, artscald, Hell_Is_Here, kim666, Krosis, Olethros, Ostinato, satanist666, Sjelekval, stub888, Tyrone, udt4050, varlam4, vasiljev_sergej,
Jan 9 2019, 16:33:15 Draugaz - Demo I [demo] (2018)


*Artist: Draugaz
*Album: Demo I [demo]
*Year: 2018
*Genre: Black Metal
*Country: United States
*Format: mp3@CBR320kbps
*Size: 44MB

Tracklist:
1. Visions in Solitude 02:14
2. Grimoire of Fire 05:07
3. Fastness in Emerald Sleep 08:34
4. Duskmarsh Apothecary 02:52
******************************
Total playing time: 18:47



[more=Extended info]Hammerbund, tape.[/more]

[more=Technical info]
Input File: 02. Grimoire of Fire.mp3
Channels : 2
Sample Rate : 44100
Precision : 16-bit
Duration : 00:05:07.24 = 13549416 samples = 23043.2 CDDA sectors
File Size : 12.4M
Bit Rate : 323k
Sample Encoding: MPEG audio (layer I, II or III)
Comments :
Title=Grimoire of Fire
Artist=Draugaz
Album=Demo I
Tracknumber=02/04
Year=2018
Genre=Black Metal

[/more]

Register
(18) 1968_janeart, artscald, Borderline1991, Daale, dermarsoran, kim666, Olethros, Raw1488, Razorbladeswaltz, satanist666, SilentNidhogg, stub888, thenecromancer, udt4050, VALERY, varlam4, vasiljev_sergej, Абигор,
Jan 8 2019, 08:41:42 Arnor - Northern Forge [demo] (2018)


*Artist: Arnor
*Album: Northern Forge [demo]
*Year: 2018
*Genre: Raw Black Metal
*Country: United States
*Format: mp3@VBR245kbps
*Size: 31MB

Tracklist:
1. Intro 00:56
2. I 02:55
3. II 03:39
4. III 05:19
******************************
Total playing time: 12:49



[more=Technical info]
Input File: 02. I.mp3
Channels : 2
Sample Rate : 44100
Precision : 16-bit
Duration : 00:02:58.00 = 7849712 samples = 13349.9 CDDA sectors
File Size : 7.15M
Bit Rate : 321k
Sample Encoding: MPEG audio (layer I, II or III)
Comments :
Title=I
Artist=Arnor
Album=Northern Forge
Tracknumber=02/04
Year=2018
Genre=Black Metal
Discnumber=1/1

[/more]

Register
(14) 1968_janeart, Alexis The Best, artscald, dermarsoran, kim666, Olethros, Ostinato, satanist666, SilentNidhogg, stub888, thenecromancer, udt4050, varlam4, vasiljev_sergej,
Jan 6 2019, 10:59:08 Venomous Skeleton - Arcane Chants Of Death [compilation] (2017)


*Artist: Venomous Skeleton
*Album: Arcane Chants Of Death [compilation]
*Year: 2017
*Genre: Black/Death Metal
*Country: Israel
*Format: mp3@CBR320kbps
*Size: 29MB

Tracklist:
1. Arcane Chants of Death 03:53
2. Mare Tenebrarum 03:04
3. Echoes of Light 05:28
******************************
Total playing time: 12:25



[more=Extended info]Ván Records - VÁN217
Sonne Adam members side-project.[/more]

[more=Technical info]
Input File: 01. Arcane Chants of Death.mp3
Channels : 2
Sample Rate : 44100
Precision : 16-bit
Duration : 00:03:53.76 = 10308772 samples = 17531.9 CDDA sectors
File Size : 9.41M
Bit Rate : 322k
Sample Encoding: MPEG audio (layer I, II or III)
Comments :
Title=Arcane Chants of Death
Artist=Venomous Skeleton
Album=Arcane Chants of Death
Tracknumber=01/03
Year=2017
Genre=Black / Death Metal

[/more]

Register
(12) artscald, Hell_Is_Here, Krosis, METALHUNTER, milosdjor, Olethros, Ostinato, SilentNidhogg, terron, VALERY, varlam4, vasiljev_sergej,
Jan 6 2019, 09:46:32 Nortfalke - Eeuwnder De Grys Túer (2018)


*Artist: Nortfalke
*Album: Eeuwnder De Grys Túer
*Year: 2018
*Genre: Dungeon Synth
*Country: Netherlands
*Format: mp3@CBR320kbps
*Size: 110MB

Tracklist:
A1. De Flucht Fan De Túerefalke 2:30
A2. Yn It Sicht Fan It Beken 4:10
A3. Dúnswalker 4:06
A4. Eeuwnder De Ieze 2:58
A5. Aisterkwelder 3:05
A6. Straune 2:05
A7. Fan Út De Twade Dennen Rieuwze De See 4:10
B1. Wiids 2:28
B2. Dúnfalleien 2:40
B3. Strúne Om´e Aist 4:53
B4. Opkommende Seemist 2:08
B5. Ferschyning 5:40
B6. Eeuwnder De Grys Túer 4:47
******************************
Total playing time: 45:40




[more=Extended info]Canto Críptico ‎– canto 1
DS project of Nortfalke from Standvast, Tarnkappe etc.[/more]

[more=Technical info]
Input File: A2. Yn It Sicht Fan It Beken.mp3
Channels : 1
Sample Rate : 44100
Precision : 16-bit
Duration : 00:04:07.08 = 10896360 samples = 18531.2 CDDA sectors
File Size : 9.97M
Bit Rate : 323k
Sample Encoding: MPEG audio (layer I, II or III)
Comments :
Title=Yn It Sicht Fan It Beken
Artist=Nortfalke
Album=Eewnder De Grys Túer
Tracknumber=02/13
Year=2018
Genre=Dungeon Synth
Discnumber=1/1

[/more]

Register
(5) A.L.Rapsod, garmonbozia, Infidel, Krosis, pfk505,
Jan 1 2019, 14:50:12 Geistaz'ika - Trolddomssejd I Skovens Dybe Kedel [demo] (2018)


*Artist: Geistaz'ika
*Album: Trolddomssejd I Skovens Dybe Kedel [demo]
*Year: 2018
*Genre: Black Metal
*Country: Denmark
*Format: mp3@CBR320kbps
*Size: 101MB

Tracklist:
1. O nat du skumle Hex 03:19
2. Når Solen Bløder Rød 08:48
3. I den Spejlvendte Verden 08:41
4. Dødens Horeunge 10:59
5. Tågedans 12:09
******************************
Total playing time: 43:56



[more=Extended info]Afgrundsvisioner
Raw mix[/more]

[more=Technical info]
Input File: 02. Når Solen Bløder Rød.mp3
Channels : 2
Sample Rate : 44100
Precision : 16-bit
Duration : 00:08:48.65 = 23313289 samples = 39648.5 CDDA sectors
File Size : 21.3M
Bit Rate : 322k
Sample Encoding: MPEG audio (layer I, II or III)
Comments :
Title=Når Solen Bløder Rød
Artist=Geistaz'ika
Album=Trolddomssejd I Skovens Dybe Kedel
Tracknumber=02/05
Year=2018
Genre=Black Metal

[/more]

Register
(30) 1968_janeart, acerbus, ambre, Antiscum, artscald, Boozer, chromeskull88, elsunga, garmonbozia, kim666, Krosis, lestllk, marilin, murian, NachtWulf, nsk2008, Olethros, Ostinato, rammmirez, Rosen, satanist666, SilentNidhogg, Sjelekval, Skrilava, stub888, udt4050, Unleashed, VALERY, vasiljev_sergej, vovenom,
Jan 1 2019, 11:03:04 Strigae - I​:​collision (2019)


*Artist: Strigae
*Album: I​:​collision
*Year: 2019
*Genre: Atmospheric Black Metal
*Country: Germany
*Format: mp3@CBR320kbps
*Size: 113MB

Tracklist:
1. Impact of Collision 09:52
2. Final Collapse 09:29
3. Chaos of Fluctuation 09:07
4. Mass and Spin 09:19
5. Creation out of Strings 11:02
******************************
Total playing time: 48:49



[more=Technical info]
Input File: 01. Impact of Collision.mp3
Channels : 2
Sample Rate : 44100
Precision : 16-bit
Duration : 00:09:52.73 = 26139173 samples = 44454.4 CDDA sectors
File Size : 23.8M
Bit Rate : 321k
Sample Encoding: MPEG audio (layer I, II or III)
Comments :
Title=Impact of Collision
Artist=Strigae
Album=I:Collision
Tracknumber=01/05
Year=2019
Genre=Black Metal

[/more]

Register
(36) 0x13, 1968_janeart, A.L.Rapsod, andivi, artscald, Boozer, Daale, djsema4, Frozenkult, Hell_Is_Here, kim666, Korpse, lestllk, Mogozoz, murian, NachtWulf, nsk2008, Ostinato, PierreDL, RENыч, Rita, Rosen, satanist666, serg1349, Shadechaser, SilentNidhogg, simvolist777, squall8fr, Strygaldwir, stub888, udt4050, VALERY, varg-38ru, vasiljev_sergej, vovenom, zotyo1975,
Dec 30 2018, 16:10:26 Nocturnal Triumph - Into Light's Graven Womb (2017)


*Artist: Nocturnal Triumph
*Album: Into Light's Graven Womb
*Year: 2017
*Genre: Black Metal
*Country: United States
*Format: mp3@CBR320kbps
*Size: 97MB

Tracklist:
1. Intro 01:14
2. The Key and the Stone 09:13
3. Of Worship and Principle 09:13
4. Into Light's Graven Womb 08:33
5. Desolate Chambers Echo 09:25
******************************
Total playing time: 37:38

[more=Extended info]GoatowaRex - WAXGOAT-045
Vinyl-rip + Scans[/more]

[more=Technical info]
Input File: A2. The Key and the Stone.mp3
Channels : 2
Sample Rate : 48000
Precision : 16-bit
Duration : 00:09:13.85 = 26584704 samples ~ 41538.6 CDDA sectors
File Size : 22.6M
Bit Rate : 327k
Sample Encoding: MPEG audio (layer I, II or III)
Comments :
Title=The Key And The Stone
Artist=Nocturnal Triumph
Album=Into Light's Graven Womb
Tracknumber=02/05
Year=2017
Genre=Black Metal

[/more]

Register
(24) 1968_janeart, artscald, Borderline1991, Daale, deftones, Hell_Is_Here, kim666, Krosis, lestllk, nsk2008, Olethros, Ostinato, Raw1488, Razorbladeswaltz, Rosen, satanist666, SilentNidhogg, stub888, udt4050, VALERY, varg-38ru, vasiljev_sergej, vovenom, Абигор,
Dec 28 2018, 18:07:22 Seer's Fire - Snow-Veiled Plains [ep] (2018)


*Artist: Seer's Fire
*Album: Snow-Veiled Plains [ep]
*Year: 2018
*Genre: Atmospheric Black Metal
*Country: Netherlands
*Format: mp3@CBR320kbps
*Size: 55MB

Tracklist:
1. Snow-veiled Plains 12:48
2. Rest Amongst the Elder Mountains 03:14
3. A Forlorn Name - 2018 Version 06:00
******************************
Total playing time: 22:02



[more=Extended info]The Throat - KEEL146
Tape-rip + Scans[/more]

[more=Technical info]
Input File: B1. Rest Amongst The Elder Mountains.mp3
Channels : 2
Sample Rate : 48000
Precision : 16-bit
Duration : 00:03:07.44 = 8997264 samples ~ 14058.2 CDDA sectors
File Size : 7.95M
Bit Rate : 339k
Sample Encoding: MPEG audio (layer I, II or III)
Comments :
Title=Rest Amongst The Elder Mountains
Artist=Seer's Fire
Album=Snow-veiled Plains
Year=2018
Genre=Atmospheric Black Metal

[/more]

Register
(18) 1968_janeart, artscald, Borderline1991, Darknen, Fatalist77791, garmonbozia, kim666, lestllk, Necromag, Ostinato, Rosen, satanist666, SilentNidhogg, stub888, udt4050, VALERY, vasiljev_sergej, Xutun,
Dec 28 2018, 17:48:26 Seer's Fire - Whispers In The Fire (2017)


*Artist: Seer's Fire
*Album: Whispers In The Fire
*Year: 2017
*Genre: Atmospheric Black Metal
*Country: Netherlands
*Format: mp3@CBR320kbps
*Size: 123MB

Tracklist:
1. Whispers In The Fire, Carried By The Wind 02:04
2. Windswept Cold, Winter's Grasp 08:15
3. Beyond The Mountains, The Land Is Burning 08:21
4. Aspect Of The Eagle, Mark Of The Bear 01:54
5. Misty Shores, Where Ice Rests 06:38
6. At An Elven Terrace, Lore Was Spoken 06:00
7. Desolate Roads, Destination's End 03:38
8. Mighty Walls Amongst Forlorn Fields 14:04
******************************
Total playing time: 50:54



[more=Extended info]The Throat ‎– KEEL120
Tape-rip + Scans[/more]

[more=Technical info]
Input File: A2. Windswept Cold, Winter's Grasp.mp3
Channels : 2
Sample Rate : 48000
Precision : 16-bit
Duration : 00:08:05.79 = 23317776 samples ~ 36434 CDDA sectors
File Size : 19.8M
Bit Rate : 327k
Sample Encoding: MPEG audio (layer I, II or III)
Comments :
Title=Windswept Cold, Winter's Grasp
Artist=Seer's Fire
Album=Whispers In The Fire
Tracknumber=02/08
Year=2017
Genre=Black Metal

[/more]

Register
(21) 1968_janeart, artscald, Borderline1991, garmonbozia, kim666, lestllk, Necromag, nsk2008, Ostinato, pfk505, pivi901, Rosen, russ777, satanist666, SilentNidhogg, stub888, udt4050, VALERY, vasiljev_sergej, Xutun, Абигор,
Dec 28 2018, 17:26:42 Trono Além Morte & Vetala - Trono Além Morte/Vetala [split] (2017)


Trono Além Morte & Vetala - 2017 - Trono Além Morte/Vetala
Harvest of Death, tape.

Tape-rip 320 Kbps + Scans
Register
(9) ambre, Borderline1991, ChaosArcana, lestllk, Occultas, sethurius, SilentNidhogg, SSBandera, thenecromancer,
Dec 28 2018, 17:08:16 Turiacus Tenebris - Fogo Ancestral [demo] (2018)


Turiacus Tenebris - 2018 - Fogo Ancestral
Master Of All Evil, tape

Tape-rip 320 Kbps + Scans
Register
(4) Borderline1991, Ildjarn, lestllk, Occultas,
Dec 28 2018, 17:06:09 Obsidian Dawn - The Call Of Barbaric Past [demo] (2018)


Obsidian Dawn - 2018 - The Call Of Barbaric Past
Master Of All Evil, tape.

Tape-rip 320 Kbps + Scans
Register
(4) 1968_janeart, ambre, Borderline1991, Ildjarn,
Dec 26 2018, 15:05:43 Délirant - Délirant (2018)


*Artist: Délirant
*Album: Délirant
*Year: 2018
*Genre: Black Metal
*Country: Spain
*Format: mp3@CBR320kbps
*Size: 83MB

Tracklist:
1. Délirant I 13:17
2. Délirant II 05:51
3. Délirant III 08:47
4. Délirant IV 07:13
******************************
Total playing time: 35:08



[more=Technical info]
Input File: 02. Délirant II.mp3
Channels : 2
Sample Rate : 44100
Precision : 16-bit
Duration : 00:05:51.52 = 15502164 samples = 26364.2 CDDA sectors
File Size : 14.3M
Bit Rate : 324k
Sample Encoding: MPEG audio (layer I, II or III)
Comments :
Title=Délirant II
Artist=Délirant
Album=Délirant
Tracknumber=02/04
Year=2018
Genre=Black Metal

[/more]

Register
(47) 1968_janeart, Alexis The Best, ambre, artscald, d0zer, Emhyr var Emreis, ErikGoth, Fryz, garmonbozia, gena, hatefukk, judaz, kim666, Korpse, LEGION69, lestllk, Ludwig Hagen, Lux, marilin, mirotvorets, MMMMM, murian, nadin85, nsk2008, Occultas, Ostinato, peppuzzo, pfk505, plagueofflies, rammstein888, Reverend, ripper33, Rosen, sandr666, satanist666, sethurius, SilentNidhogg, stub888, toly1917, tOmV, VALERY, vasiljev_sergej, vosmidesijatye, Witchmaster, xska, zorn666, Абигор,
Dec 26 2018, 14:56:27 Guðveiki - Vængför (2018)


*Artist: Guðveiki
*Album: Vængför
*Year: 2018
*Genre: Black Metal
*Country: Iceland
*Format: mp3@CBR320kbps
*Size: 99MB

Tracklist:
1. Fóstureyðing stjarna 07:02
2. Blóðhunang 05:42
3. Hin endalausa 05:19
4. Vængför 05:56
5. Gullveigar sverðsins 06:58
6. Undan stormi eiturtára 09:06
******************************
Total playing time: 40:03



[more=Technical info]
Input File: 02. Blóðhunang.mp3
Channels : 2
Sample Rate : 44100
Precision : 16-bit
Duration : 00:05:42.09 = 15086257 samples = 25656.9 CDDA sectors
File Size : 13.8M
Bit Rate : 323k
Sample Encoding: MPEG audio (layer I, II or III)
Comments :
Title=Blóðhunang
Artist=Guðveiki
Album=Vængför
Tracknumber=02/06
Year=2018
Genre=Black Metal

[/more]

Register
(49) 0x13, 1968_janeart, abob, Anhra Mainyu, artscald, as71, Black Cat, brth, cancer1974, Corpse_Of_The_Christ, DarkHorde, Emhyr var Emreis, Evilded, gena, Hell_Is_Here, jpvalentim, kim666, Korpse, Krosis, LEGION69, mirotvorets, MMMMM, murian, NachtWulf, nadin85, Narasimha, nazgul666, nsk2008, Ostinato, ripper33, Rosen, sarcophagus, satanist666, SilentNidhogg, Spork, stone88, stub888, suseka, SyncestrA, thenecromancer, Tino, toly1917, Torlof, udt4050, VALERY, vasiljev_sergej, xska, yuratroll, Луч,
Dec 25 2018, 15:39:18 Folteraar - Vexatie [compilation] (2018)


*Artist: Folteraar
*Album: Vexatie [compilation]
*Year: 2018
*Genre: Raw Black Metal
*Country: Netherlands
*Format: mp3@CBR320kbps
*Size: 92MB

Tracklist:
1. Innerlijk lijden 01:28
2. Vexatie 02:49
3. Ziekelijk 02:06
4. Zielengeseling 03:01
5. Doodsfixatie 04:52
6. Tenietdoener 02:42
7. Bezieling (Live in Arnhem, The Netherlands - 28th of January MMXVII) 19:24
******************************
Total playing time: 36:22



[more=Extended info]Harvest of Death - HRVST44
12" vinyl[/more]

[more=Technical info]
Input File: 05. Doodsfixatie.mp3
Channels : 2
Sample Rate : 44100
Precision : 16-bit
Duration : 00:04:52.51 = 12899779 samples = 21938.4 CDDA sectors
File Size : 11.8M
Bit Rate : 324k
Sample Encoding: MPEG audio (layer I, II or III)
Comments :
Title=Doodsfixatie
Artist=Folteraar
Album=Vexatie
Tracknumber=05/07
Year=2018
Genre=Black Metal

[/more]

Register
(20) 1968_janeart, Alexis The Best, artscald, Borderline1991, ChaosArcana, Hell_Is_Here, INDARKNESS, kim666, Legacy100, lestllk, Olethros, Ostinato, Rosen, RUSP73, satanist666, SilentNidhogg, stub888, VALERY, vasiljev_sergej, Абигор,
Dec 24 2018, 20:57:31 Ab Imo Pectore - Heaven, Hell, Earth, Chaos, All (2018)


*Artist: Ab Imo Pectore
*Album: Heaven, Hell, Earth, Chaos, All
*Year: 2018
*Genre: Black Metal
*Country: Portugal
*Format: mp3@CBR320kbps
*Size: 77MB

Tracklist:
1. 147 Vertices 05:13
2. Teartasteglory 04:42
3. Between the Fourth and the Fifth 03:55
4. Nada 02:59
5. Finitude 02:30
6. Precipice Invisible 04:29
7. Inoreincorde 07:18
******************************
Total playing time: 31:06



[more=Extended info]Oration[/more]

[more=Technical info]
Input File: 02. Teartasteglory.mp3
Channels : 2
Sample Rate : 44100
Precision : 16-bit
Duration : 00:04:42.72 = 12467732 samples = 21203.6 CDDA sectors
File Size : 11.4M
Bit Rate : 324k
Sample Encoding: MPEG audio (layer I, II or III)
Comments :
Title=Teartasteglory
Artist=Ab Imo Pectore
Album=Heaven, Hell, Earth, Chaos, All
Tracknumber=02/07
Year=2018
Genre=Black Metal

[/more]

Register
(25) 1968_janeart, abob, acerbus, artscald, Black Cat, Daale, garmonbozia, Hell_Is_Here, judaz, Kehl05, kim666, marilin, nsk2008, nunim, Ostinato, Rosen, satanist666, SilentNidhogg, stub888, udt4050, VALERY, varlam4, vasiljev_sergej, vovenom, yuratroll,
Dec 24 2018, 17:05:52 Vvervvulf - Immortality [demo] (2018)


*Artist: Vvervvulf
*Album: Immortality [demo]
*Year: 2018
*Genre: Raw Black Metal
*Country: United States
*Format: mp3@CBR320kbps
*Size: 26MB

Tracklist:
1. Ashes Arise From the Black Mountains... 03:40
2. Immortality - An Ageless Winter... 03:13
3. Conflagration of Cleansing Purity... 04:02
******************************
Total playing time: 10:55



[more=Technical info]
Input File: 03. Conflagration of Cleansing Purity....mp3
Channels : 2
Sample Rate : 44100
Precision : 16-bit
Duration : 00:04:02.53 = 10695749 samples = 18190 CDDA sectors
File Size : 9.77M
Bit Rate : 322k
Sample Encoding: MPEG audio (layer I, II or III)
Comments :
Title=Conflagration of Cleansing Purity...
Artist=VVerVVulf
Album=Immortality
Tracknumber=03/03
Year=2018
Genre=Black Metal

[/more]

Register
(14) 1968_janeart, Alexis The Best, artscald, Borderline1991, kim666, Olethros, Ostinato, Rosen, satanist666, SilentNidhogg, stub888, udt4050, vasiljev_sergej, Абигор,
Dec 24 2018, 17:04:41 Vvervvulf - Lunar Howl​.​.​. [demo] (2018)


*Artist: Vvervvulf
*Album: Lunar Howl​.​.​. [demo]
*Year: 2018
*Genre: Raw Black Metal
*Country: United States
*Format: mp3@CBR320kbps
*Size: 26MB

Tracklist:
1. Lycanthropic Spellbinding 03:00
2. Fullmoon Nighthunt 02:49
3. Deadwolf Revivification 02:10
4. Lunar Howl 03:10
******************************
Total playing time: 11:09



[more=Technical info]
Input File: 04. Lunar Howl.mp3
Channels : 2
Sample Rate : 44100
Precision : 16-bit
Duration : 00:03:10.73 = 8411193 samples = 14304.8 CDDA sectors
File Size : 7.65M
Bit Rate : 321k
Sample Encoding: MPEG audio (layer I, II or III)
Comments :
Title=Lunar Howl
Artist=VVerVVulf
Album=Lunar Howl...
Tracknumber=04/04
Year=2018
Genre=Black Metal

[/more]

Register
(12) 1968_janeart, Alexis The Best, artscald, kim666, Olethros, Ostinato, Rosen, satanist666, SilentNidhogg, stub888, udt4050, vasiljev_sergej,
Dec 22 2018, 21:10:40 Goatwielder - Bewitching Ritual [compilation] (2016)


*Artist: Goatwielder
*Album: Bewitching Ritual [compilation]
*Year: 2016
*Genre: Raw Black Metal
*Country: Sweden
*Format: mp3@CBR320kbps
*Size: 89MB

Tracklist:
01. Ancient Forest of Goat Sacrifice 07:44
02. Gates of Old 04:88
03. Bewitching Moon 03:48
04. Unholy Oblation to the Ravenous Void 03:53
05. Ritum Magni III 05:49
06. Ritum Magni IV 09:51
07. Ritum Magni V 03:06
******************************
Total playing time: 39:39

[more=Extended info]Compilation of Bewitching Moon and Ritum Magni demos.[/more]

[more=Technical info]
Input File: 03. Bewitching Moon.mp3
Channels : 2
Sample Rate : 44100
Precision : 16-bit
Duration : 00:03:48.09 = 10058637 samples = 17106.5 CDDA sectors
File Size : 9.19M
Bit Rate : 322k
Sample Encoding: MPEG audio (layer I, II or III)
Comments :
Title=Bewitching Moon
Artist=Goatwielder
Album=Bewitching Ritual
Tracknumber=03/07
Year=2016
Genre=Black Metal

[/more]

Register
(18) 1968_janeart, artscald, Borderline1991, Ildjarn, kim666, lestllk, NachtWulf, Olethros, Ostinato, Rosen, satanist666, SilentNidhogg, Sjelekval, stub888, udt4050, VALERY, vasiljev_sergej, Абигор,
Dec 22 2018, 20:55:35 Nacht Und Gnosis - Det Warder Sådt I Skröplighet Och Skal Upstå Ur Kraft (2018)


*Artist: Nacht Und Gnosis
*Album: Det Warder Sådt I Skröplighet Och Skal Upstå Ur Kraft
*Year: 2018
*Genre: Black Metal
*Country: Sweden
*Format: mp3@CBR320kbps
*Size: 100MB

Tracklist:
1. Ur Smärta Äntra Gnosis 7:06
2. Apparitional Power Of Darkness 7:23
3. Imorgon Är Jag Skuggan Av Dig 07:05
4. Der Leuchturm 4:26
5. Reverse Time 7:36
6. Nordljuset Glimma 7:24
7. Quaeres Spiritus 2:48
******************************
Total playing time: 43:48

[more=Extended info]Solstice Rex ‎– Sol 12[/more]
[more=Technical info]
Input File: 06. Nordljuset Glimma.mp3
Channels : 2
Sample Rate : 44100
Precision : 16-bit
Duration : 00:07:24.65 = 19609241 samples = 33349 CDDA sectors
File Size : 17.9M
Bit Rate : 322k
Sample Encoding: MPEG audio (layer I, II or III)
Comments :
Title=Nordljuset Glimma
Artist=Nacht Und Gnosis
Album=Det Warder Sådt i Skröplighet och Skal Upstå ur Kraft
Tracknumber=06/07
Year=2018
Genre=Black Metal
[/more]

Register
(25) 1968_janeart, acerbus, Borderline1991, garmonbozia, kefka, kim666, lestllk, NachtWulf, nsk2008, Olethros, Ostinato, Precaria, Rosen, satanist666, sethurius, SilentNidhogg, Sjelekval, stub888, toly1917, udt4050, VALERY, vasiljev_sergej, vov7609, yuratroll, Абигор,

53 Pages V   1 2 3 > » 
- Lo-Fi Version Support form
Copyrights and abuse reports form
Time is now: 23rd January 2019 - 05:51:29