Welcome Guest ( Log In | Register )

История благодарностей участнику Velmi ::: Спасибо сказали: 45140 раз(а)
Дата поста: В теме: За сообщение: Спасибо сказали:
Jan 15 2021, 18:03:27 Valac - Burning Dawn Of Vengeance (2021)


*Artist: Valac
*Album: Burning Dawn Of Vengeance
*Year: 2021
*Genre: Raw Black Metal
*Country: United States
*Format: mp3@CBR320kbps
*Size: 77MB

Tracklist:
1. Prologue 01:56
2. Awakening of Valac 05:58
3. Weep Behind the Wall of Illness 07:06
4. Echoes Cast Upon Broken Shadows 05:36
5. The Depths of Despondency 04:35
6. Woeful Voices Return 05:30
7. Epilogue 01:45
******************************
Total playing time: 32:26



[more=Extended info]Black Gangrene Productions[/more]

[more=Technical info]
Input File: 02. Awakening of Valac.mp3
Channels : 2
Sample Rate : 44100
Precision : 16-bit
Duration : 00:05:58.29 = 15800545 samples = 26871.7 CDDA sectors
File Size : 14.4M
Bit Rate : 321k
Sample Encoding: MPEG audio (layer I, II or III)
Comments :
Title=Awakening of Valac
Artist=Valac
Album=Burning Dawn of Vengeance
Tracknumber=02/07
Year=2021
Genre=Raw Black Metal

[/more]

Register
(23) AlexSmith, andivi, Bzth, djsema4, Forest Silence, grimoir, infiltrator, kim666, Korpse, Kuratsu, Lamby90, multizwilling, MushroomGoat, nemx, Olethros, Ostinato, RADeus, randumbum, Rosen, SilentNidhogg, Taakeferd, undeadlich, VALERY,
Jan 14 2021, 11:41:11 Vampirska & Glemt - By Sanguinarian Will​.​.​. [split] (2021)


*Artist: Vampirska & Glemt
*Album: By Sanguinarian Will​.​.​. [split]
*Year: 2021
*Genre: Raw Black Metal | Raw Black Metal
*Country: United States | United Kingdom
*Format: mp3@CBR320kbps
*Size: 120MB

Tracklist:
Vampirska:
1. A Curse Bearing the Nocturnal Plague I 06:45
2. A Curse Bearing the Nocturnal Plague II 07:37
3. A Curse Bearing the Nocturnal Plague III 08:59
Glemt:
4. Chambers Of Burning Malice 03:36
5. Convulsing Phantasms Of Mine Lacerations 04:41
6. Bastille Visions Of What Is To Come 06:53
7. Forever Wandering Through Jacobean Hallways 01:53
8. The Moon Weeps Blood And Bestows The Truth I Seek 06:35
9. Belas Knap In The Lust Of Night 03:31
******************************
Total playing time: 50:30



[more=Extended info]Inferna Profundus Records[/more]

[more=Technical info]
Input File: 02. Vampirska - A Curse Bearing the Nocturnal Plague II.mp3
Channels : 2
Sample Rate : 44100
Precision : 16-bit
Duration : 00:07:37.46 = 20173766 samples = 34309.1 CDDA sectors
File Size : 18.4M
Bit Rate : 322k
Sample Encoding: MPEG audio (layer I, II or III)
Comments :
Title=A Curse Bearing the Nocturnal Plague II
Artist=Vampirska
Album=By Sanguinarian Will​.​.​.
Tracknumber=02/09
Year=2021
Genre=Raw Black Metal

[/more]

Register
(14) aleon, infiltrator, kim666, Lamby90, MushroomGoat, nemx, Ostinato, randumbum, Rosen, satanist666, SilentNidhogg, SSBandera, Taakeferd, VALERY,
Jan 13 2021, 14:50:44 Belliciste - Deathsworn (2021)


*Artist: Belliciste
*Album: Deathsworn
*Year: 2021
*Genre: Black Metal
*Country: United Kingdom
*Format: mp3@CBR320kbps
*Size: 87MB

Tracklist:
1. Sin Projection 06:57
2. Morbid Delirium 06:37
3. The Descent 05:25
4. Deathsworn 06:25
5. Beyond Death 06:04
6. Lunatic Depths 05:55
******************************
Total playing time: 37:23



[more=Technical info]
Input File: 01. Sin Projection.mp3
Channels : 2
Sample Rate : 44100
Precision : 16-bit
Duration : 00:06:57.22 = 18399578 samples = 31291.8 CDDA sectors
File Size : 16.8M
Bit Rate : 322k
Sample Encoding: MPEG audio (layer I, II or III)
Comments :
Title=Sin Projection
Artist=Belliciste
Album=Deathsworn
Tracknumber=01/06
Year=2021
Genre=Black Metal

[/more]

Register
(40) Alexis The Best, AlexSmith, alikkon, atavist, Boozer, Daale, El_Chibo, ent404, grimoir, IncendiaryMight, infiltrator, judaz, kim666, Lamby90, M0ns1gn0r, Marek, mondlicht, multizwilling, murian, Ostinato, Radek, randumbum, ripper33, Rosen, sabr, SaintVitus, SilentNidhogg, smysl, squall8fr, stub888, Taragorm, TeamatSE, toly1917, VALERY, varlam4, vasiljev_sergej, VVR, Wail, WOLAND, ZambuL,
Jan 10 2021, 18:19:37 Nansarunai - Ultimul Rege (2021)


*Artist: Nansarunai
*Album: Ultimul Rege
*Year: 2021
*Genre: Raw Black Metal
*Country: Indonesia
*Format: mp3@CBR320kbps
*Size: 84MB

Tracklist:
1. I. The Summoning 01:06
2. II. Enthronement Ceremony 03:33
3. III. Old Panegyric Poem 05:22
4. IV. The Waxing Moon 03:54
5. V. Ritual Paraphernalia 04:06
6. VI. Babad I 00:38
7. VII. Territorial Expansion 03:17
8. VIII. Fallen Dynasty 03:36
9. IX. Teruna Goak 04:18
10. X. Honorable Death 04:57
11. XI. Babad II 00:49
******************************
Total playing time: 35:36



[more=Technical info]
Input File: 02. II. Enthronement Ceremony.mp3
Channels : 2
Sample Rate : 44100
Precision : 16-bit
Duration : 00:03:33.67 = 9422715 samples = 16025 CDDA sectors
File Size : 8.64M
Bit Rate : 324k
Sample Encoding: MPEG audio (layer I, II or III)
Comments :
Title=II. Enthronement Ceremony
Artist=Nansarunai
Album=Ultimul Rege
Tracknumber=02/11
Year=2021
Genre=Raw Black Metal

[/more]

Register
(20) AlexSmith, ent404, Forest Silence, Froze, gena, infiltrator, judaz, kim666, Occultas, Olethros, randumbum, Rosen, satanist666, SilentNidhogg, supremo, Taakeferd, VALERY, varlam4, vasiljev_sergej, Wail,
Jan 10 2021, 14:30:40 Kirous - Ii [demo] (2020)


*Artist: Kirous
*Album: Ii [demo]
*Year: 2020
*Genre: Raw Black Metal
*Country: Finland
*Format: mp3@CBR320kbps
*Size: 23MB

Tracklist:
1. Ω 00:28
2. Vuotava Ruumisarkku 02:58
3. Maan Musta Emä 03:34
******************************
Total playing time: 7:00



[more=Technical info]
Input File: 02. Vuotava Ruumisarkku.mp3
Channels : 2
Sample Rate : 44100
Precision : 16-bit
Duration : 00:02:58.40 = 7867572 samples = 13380.2 CDDA sectors
File Size : 7.25M
Bit Rate : 325k
Sample Encoding: MPEG audio (layer I, II or III)
Comments :
Title=Vuotava Ruumisarkku
Artist=Kirous
Album=II
Tracknumber=02/03
Year=2020
Genre=Black Metal

[/more]

Register
(11) infiltrator, kim666, Olethros, Ostinato, Rosen, satanist666, SilentNidhogg, smysl, Taakeferd, varlam4, Wail,
Jan 10 2021, 14:29:31 Kirous - I [demo] (2020)


*Artist: Kirous
*Album: I [demo]
*Year: 2020
*Genre: Raw Black Metal
*Country: Finland
*Format: mp3@CBR320kbps
*Size: 31MB

Tracklist:
1. - 00:38
2. Uhrini Kädet 03:01
3. Ikuiseen Tuleen 02:52
4. Tuomio 03:26
******************************
Total playing time: 9:57



[more=Technical info]
Input File: 02. Uhrini Kädet.mp3
Channels : 2
Sample Rate : 44100
Precision : 16-bit
Duration : 00:03:01.69 = 8012705 samples = 13627 CDDA sectors
File Size : 7.39M
Bit Rate : 325k
Sample Encoding: MPEG audio (layer I, II or III)
Comments :
Title=Uhrini Kädet
Artist=Kirous
Album=I
Tracknumber=02/04
Year=2020
Genre=Black Metal

[/more]

Register
(11) infiltrator, kim666, Olethros, Ostinato, Rosen, satanist666, SilentNidhogg, smysl, Taakeferd, varlam4, Wail,
Jan 9 2021, 11:25:52 Dearthe - Dispirited Obscurity (2020)


*Artist: Dearthe
*Album: Dispirited Obscurity
*Year: 2020
*Genre: Black Metal
*Country: Australia
*Format: mp3@CBR320kbps
*Size: 97MB

Tracklist:
1. Bloodforge 08:24
2. Dispirited 05:06
3. Throat of Shattered Voices 08:15
4. Hallways of Ruin 07:36
5. Cryptae 08:47
6. Hypocrisy of the Accursed Heavens (Demoncy Cover) 03:14
******************************
Total playing time: 41:22



[more=Extended info]Bloodforge Distribution - Blight:III[/more]

[more=Technical info]
Input File: 02. Dispirited.mp3
Channels : 2
Sample Rate : 44100
Precision : 16-bit
Duration : 00:05:06.38 = 13511534 samples = 22978.8 CDDA sectors
File Size : 12.4M
Bit Rate : 324k
Sample Encoding: MPEG audio (layer I, II or III)
Comments :
Title=Dispirited
Artist=Dearthe
Album=Dispirited Obscurity
Tracknumber=02/06
Year=2020
Genre=Black Metal
Discnumber=1/1

[/more]

Register
(25) alex-82, AlexSmith, atavist, Boozer, El_Chibo, infiltrator, kim666, Marek, multizwilling, Occultas, Olethros, Ostinato, randumbum, robertho777, Rosen, SilentNidhogg, squall8fr, Taakeferd, Tino, VALERY, varg-38ru, varlam4, VVR, Wail, wolverine,
Jan 9 2021, 08:54:20 Reliquary Ash - Agonal Hymns Of Fullmoon Majesty [demo] (2020)


*Artist: Reliquary Ash
*Album: Agonal Hymns Of Fullmoon Majesty [demo]
*Year: 2020
*Genre: Raw Black Metal
*Country: Canada
*Format: mp3@VBR245kbps
*Size: 38MB

Tracklist:
1. Entranced by the Gate 06:13
2. Sodomizing the Priest 06:05
3. Awaiting the Master's Sign 06:52
******************************
Total playing time: 19:10



[more=Extended info]Deathful Lust Productions, tape.[/more]

[more=Technical info]
Input File: 01. Entranced By The Gate.mp3
Channels : 2
Sample Rate : 44100
Precision : 16-bit
Duration : 00:06:13.55 = 16473599 samples = 28016.3 CDDA sectors
File Size : 12.5M
Bit Rate : 267k
Sample Encoding: MPEG audio (layer I, II or III)
Comments :
Title=Entranced By The Gate
Artist=Reliquary Ash
Album=Agonal Hymns Of Fullmoon Majesty
Tracknumber=01/03
Year=2020
Genre=Black Metal

[/more]

Register
(10) infiltrator, kim666, Olethros, Rosen, SilentNidhogg, Taakeferd, VALERY, varg-38ru, varlam4, Wail,
Jan 6 2021, 15:31:56 Psychic Circle - Provocation [demo] (2020)


*Artist: Psychic Circle
*Album: Provocation [demo]
*Year: 2020
*Genre: Raw Black Metal
*Country: United States
*Format: mp3@CBR320kbps
*Size: 32MB

Tracklist:
1. Chaos Near the Shrine 04:22
2. Flood of Omnipotence 07:09
3. The Spiritual War 07:09
******************************
Total playing time: 18:40

[more=Extended info]Lampshade Tapes[/more]

[more=Technical info]
Input File: 02. Flood Of Omnipotence.mp3
Channels : 2
Sample Rate : 44100
Precision : 16-bit
Duration : 00:07:07.95 = 18872507 samples = 32096.1 CDDA sectors
File Size : 17.3M
Bit Rate : 323k
Sample Encoding: MPEG audio (layer I, II or III)
Comments :
Title=Flood Of Omnipotence
Artist=Psychic Circle
Album=Provocation
Tracknumber=02/03
Year=2020
Genre=Black Metal

[/more]

Register
(18) foreverisforgotten, infiltrator, kim666, Morgoth666, Olethros, Ostinato, Rosen, satanist666, SilentNidhogg, Taakeferd, thenecromancer, Torolv, unit731, VALERY, varlam4, Wail, waltergehtwahlen, Озабоченный,
Jan 6 2021, 15:30:04 Psychic Circle - Sacrifice (2019)


*Artist: Psychic Circle
*Album: Sacrifice
*Year: 2019
*Genre: Raw Black Metal
*Country: United States
*Format: mp3@VBR245kbps
*Size: 70MB

Tracklist:
1. Spirits Forming in the Mirror 04:39
2. The Scythe 04:33
3. Ancient Symmetry 01:32
4. Levitation 02:47
5. Transformation of the Host 03:42
6. The Tainted Sanctuary 03:18
7. Ritual Blade 03:34
8. Empty Chamber 05:38
9. Poisoned in Forest Solitude 01:18
10. Sacrifice 01:51
******************************
Total playing time: 32:52

[more=Extended info]Black Gangrene Productions
Vinyl-rip by Zero[/more]

[more=Technical info]
Input File: 03. Ancient Symmetry.mp3
Channels : 2
Sample Rate : 44100
Precision : 16-bit
Duration : 00:01:32.68 = 4087276 samples = 6951.15 CDDA sectors
File Size : 3.55M
Bit Rate : 306k
Sample Encoding: MPEG audio (layer I, II or III)
Comments :
Title=Ancient Symmetry
Artist=Psychic Circle
Album=Sacrifice
Tracknumber=03/10
Year=2019
Genre=Black Metal

[/more]

Register
(18) foreverisforgotten, infiltrator, kim666, Olethros, Ostinato, Rosen, satanist666, SilentNidhogg, Taakeferd, thenecromancer, Torolv, unit731, VALERY, varlam4, Wail, waltergehtwahlen, WOLAND, Озабоченный,
Jan 3 2021, 08:36:00 Najwyższy - An Orchestration In Shadows [demo] (2018)


Najwyższy - 2020 - An Orchestration In Shadows (12'' LP Reissue)
GoatowaRex ‎– WAXGOAT164 Vinyl-rip by Zero

VBR @Yadi.sk
Register
(5) Daale, egor_aka_vile, Occultas, varg-38ru, wolverine,
Jan 2 2021, 18:54:28 Nordstern - Heidnische Trauer (2020)


*Artist: Nordstern
*Album: Heidnische Trauer
*Year: 2020
*Genre: Black Metal
*Country: Russian Federation
*Format: mp3@CBR320kbps
*Size: 68MB

Tracklist:
1. Intro 02:35
2. In The Storms Of Awakening 06:25
3. Wolf Trail 05:26
4. Heathen Mourning 05:07
5. At The Edge Of Cleansing 07:25
6. The Wanderer 02:19
******************************
Total playing time: 29:17




[more=Technical info]
Input File: 02. In The Storms Of Awakening.mp3
Channels : 2
Sample Rate : 44100
Precision : 16-bit
Duration : 00:06:25.28 = 16990628 samples = 28895.6 CDDA sectors
File Size : 15.5M
Bit Rate : 321k
Sample Encoding: MPEG audio (layer I, II or III)
Comments :
Title=In The Storms Of Awakening
Artist=NordStern
Album=Heidnische Trauer
Tracknumber=02/06
Year=2020
Genre=Black Metal

[/more]

Register
(22) axedot, Boozer, foreverisforgotten, infiltrator, kim666, metaljosue, Occultas, oldvarg, Olethros, Ostinato, randumbum, rickzammuto, ripper33, Rosen, SilentNidhogg, Taakeferd, undeadlich, VALERY, varg-38ru, varlam4, Vitald, Wail,
Jan 1 2021, 16:11:30 Ebony Pendant - The Garden Of Strangling Roots [ep] (2020)


*Artist: Ebony Pendant
*Album: The Garden Of Strangling Roots [ep]
*Year: 2020
*Genre: Black Metal
*Country: United States
*Format: mp3@CBR320kbps
*Size: 62MB

Tracklist:
1. Indulgement In Celestial Poisons 01:32
2. Sorceress Of Black Spring 06:15
3. Vampyric Bloodlust 04:07
4. The Garden Of Strangling Roots 06:04
5. Delirium Of Mortality 04:49
6. Arboreal Offering 01:49
******************************
Total playing time: 24:36



[more=Technical info]
Input File: 02. Sorceress of Black Spring.mp3
Channels : 2
Sample Rate : 44100
Precision : 16-bit
Duration : 00:06:15.48 = 16558712 samples = 28161.1 CDDA sectors
File Size : 15.5M
Bit Rate : 331k
Sample Encoding: MPEG audio (layer I, II or III)
Comments :
Title=Sorceress of Black Spring
Artist=Ebony Pendant
Album=The Garden of Strangling Roots
Tracknumber=02/06
Year=2020
Genre=Black Metal

[/more]

Register
(13) infiltrator, kim666, Olethros, Ostinato, randumbum, robertho777, Rosen, SilentNidhogg, stub888, Taakeferd, VALERY, varlam4, Wail,
Dec 26 2020, 14:16:07 Abhartach - Reigning In The Sky Of Fire (2020)


*Artist: Abhartach
*Album: Reigning In The Sky Of Fire
*Year: 2020
*Genre: Raw Black Metal
*Country: United States
*Format: mp3@CBR320kbps
*Size: 112MB

Tracklist:
1. Intro - Averging With Bleeding Blade
2. Succabysic Mysteries
3. Timeless Sacred Citadel
4. From The Casting Breen Twisted Mist
5. Light Of Lucifer Seated In Darkness
6. Harrowing Knightly Asuntings
7. Outro - Living Crypt
******************************
Total playing time: 47:15

[more=Extended info]ASRAR - ASR121
Vinyl-rip + Scans[/more]

[more=Technical info]
Input File: A3. Timeless Sacred Citadel.mp3
Channels : 2
Sample Rate : 48000
Precision : 16-bit
Duration : 00:06:53.45 = 19845648 samples ~ 31008.8 CDDA sectors
File Size : 16.7M
Bit Rate : 323k
Sample Encoding: MPEG audio (layer I, II or III)
Comments :
Title=Timeless Sacred Citadel
Artist=Abhartach
Album=Reigning In The Sky Of Fire
Tracknumber=03/07
Year=2020
Genre=Black Metal

[/more]

Register
(18) Alexis The Best, infiltrator, kim666, lestllk, Morgoth666, Occultas, Olethros, Ostinato, Rosen, satanist666, SilentNidhogg, Storky, stub888, supremo, VALERY, varlam4, Vraithee, Wail,
Dec 20 2020, 15:47:56 Ekdikēsis - Schizomenous// (2021)


*Artist: Ekdikēsis
*Album: Schizomenous//
*Year: 2021
*Genre: Black Metal
*Country: Iceland
*Format: mp3@CBR320kbps
*Size: 91MB

Tracklist:
1. Devouring a Deformed Star. 05:18
2. Carnal. 03:54
3. Paraklēsis. 02:35
4. Infinite Unrest. 02:33
5. Farewell Starchild. 06:10
6. Blackened Scars of Deceit. 06:55
7. Awful Joke. 00:46
8. Syneidēsis. 02:10
9. Construct Paralysis. 02:22
10. Landscapes. 05:26
******************************
Total playing time: 38:09



[more=Technical info]
Input File: 02. Carnal..mp3
Channels : 2
Sample Rate : 44100
Precision : 16-bit
Duration : 00:03:54.75 = 10352431 samples = 17606.2 CDDA sectors
File Size : 9.55M
Bit Rate : 325k
Sample Encoding: MPEG audio (layer I, II or III)
Comments :
Title=Carnal.
Artist=Ekdikēsis
Album=Schizomenous //
Tracknumber=02/10
Year=2020
Genre=Black Metal

[/more]

Register
(21) AlexSmith, alikkon, atavist, El_Chibo, infiltrator, kim666, Morgoth, multizwilling, nemx, Olethros, randumbum, Rosen, sabr, SilentNidhogg, supremo, VALERY, varlam4, vasiljev_sergej, Vitald, Wail, yuratroll,
Dec 20 2020, 06:49:12 Silberbach - Inferno (2005)


Silberbach - 2005 - Inferno

320 Kbps CD-rip + Scans @Yadi.sk
Register
(1) varlam4,
Dec 19 2020, 13:01:13 Directive - Beget New Eras [demo] (2020)


*Artist: Directive
*Album: Beget New Eras [demo]
*Year: 2020
*Genre: Black Metal
*Country: United States
*Format: mp3@CBR320kbps
*Size: 39MB

Tracklist:
1. Capital Dogma Protocol 02:00
2. Beget New Eras 03:15
3. Wolves Come Snarling 04:32
4. Divide By Zero 03:25
5. Teeth Barred to Strike 02:16
******************************
Total playing time: 15:28

Preview 1

[more=Technical info]
Input File: 02. Beget New Eras.mp3
Channels : 2
Sample Rate : 44100
Precision : 16-bit
Duration : 00:03:15.93 = 8640469 samples = 14694.7 CDDA sectors
File Size : 8.01M
Bit Rate : 327k
Sample Encoding: MPEG audio (layer I, II or III)
Comments :
Title=Beget New Eras
Artist=Directive
Album=Beget New Eras
Tracknumber=02/01
Year=2020

[/more]

Register
(9) infiltrator, kim666, Olethros, robertho777, Rosen, SilentNidhogg, stub888, VALERY, varlam4,
Dec 19 2020, 06:56:19 Blödskog - Labyrinth Of Asterion [demo] (2020)


*Artist: Blödskog
*Album: Labyrinth Of Asterion [demo]
*Year: 2020
*Genre: Raw Black Metal/Punk
*Country: United States
*Format: mp3@CBR320kbps
*Size: 34MB

Tracklist:
1. Labyrinth of Asterion 2:08
2. Path of Dismay 1:48
3. Chaotic Evil 1:48
4. Interlude 1:58
5. Fools and Heroes 1:28
6. Burning Blood 1:31
7. Last Meeting of Horn and Steel 3:00
******************************
Total playing time: 13:41



[more=Technical info]
Input File: 02. Path of Dismay.mp3
Channels : 2
Sample Rate : 44100
Precision : 16-bit
Duration : 00:01:48.96 = 4805224 samples = 8172.15 CDDA sectors
File Size : 4.52M
Bit Rate : 332k
Sample Encoding: MPEG audio (layer I, II or III)
Comments :
Title=Path of Dismay
Artist=Blödskog
Album=Labyrinth of Asterion
Tracknumber=02/07
Year=2020
Genre=Black Metal

[/more]

Register
(9) infiltrator, Leolomb, Olethros, Rosen, SilentNidhogg, Storky, stub888, varlam4, vasiljev_sergej,
Dec 6 2020, 14:17:47 Upir - Howling Of The Ageless Winds: Hymns For The Black Tapestry Of Night (2020)


*Artist: Upir
*Album: Howling Of The Ageless Winds: Hymns For The Black Tapestry Of Night
*Year: 2020
*Genre: Raw Black Metal
*Country: Canada
*Format: mp3@CBR320kbps
*Size: 108MB

Tracklist:
01. Moonlit Gates of the Ashen Sky 13:01
02. Somber Under the Eventide Firmament 16:30
03. Blackened Aurora over Boreal Wastes 17:05
******************************
Total playing time: 46:36



[more=Technical info]
Input File: 01. Moonlit Gates of the Ashen Sky.mp3
Channels : 2
Sample Rate : 44100
Precision : 16-bit
Duration : 00:13:01.54 = 34466090 samples = 58615.8 CDDA sectors
File Size : 31.4M
Bit Rate : 321k
Sample Encoding: MPEG audio (layer I, II or III)
Comments :
Title=Moonlit Gates of the Ashen Sky
Artist=Upir
Album=Howling of the Ageless Winds - Hymns for the Black Tapestry of Night
Tracknumber=01/03
Year=2020
Genre=Black Metal

[/more]

Register
(17) 1968_janeart, ent404, gena, infiltrator, kim666, Necromag, Olethros, Ostinato, randumbum, robertho777, Rosen, SileniusLegard, SilentNidhogg, stub888, varlam4, Wail, wreak,
Dec 5 2020, 18:12:46 Orgy Of Carrion - Everlasting Blood Of Night Mmxviii (2020)


*Artist: Orgy Of Carrion
*Album: Everlasting Blood Of Night Mmxviii
*Year: 2020
*Genre: Raw Black Metal
*Country: United States
*Format: mp3@CBR245kbps
*Size: 60MB

Tracklist:
1. Intro 02:36
2. Moonlight Summons Depressive Existence 02:19
3. Remnant Bone Ash 02:50
4. Of Hatred... 04:48
5. Behind the Fog of Human Incense 02:45
6. Sacred Skin 03:15
7. Everlasting Blood of Night 02:32
8. When I Return... The Rest Will Die 01:09
9. - 02:14
10. Outro 05:52
11. Lamb (Von cover) 01:28
******************************
Total playing time: 31:48

[more=Extended info]Final Agony Records, LP.
Vinyl-rip by Zero[/more]

[more=Technical info]
Input File: 04. Of Hatred....mp3
Channels : 2
Sample Rate : 44100
Precision : 16-bit
Duration : 00:04:48.44 = 12720380 samples = 21633.3 CDDA sectors
File Size : 9.87M
Bit Rate : 274k
Sample Encoding: MPEG audio (layer I, II or III)
Comments :
Title=Of Hatred...
Artist=Orgy Of Carrion
Album=Everlasting Blood Of Night MMXVIII
Tracknumber=04/11
Year=2020
Genre=Black Metal
Discnumber=1

[/more]

Register
(22) 1968_janeart, Alexis The Best, AlexSmith, ambre, Bzth, ChaosArcana, Cramloth, FUDEDOR, infiltrator, kim666, multizwilling, nemx, Occultas, Olethros, randumbum, Rosen, SilentNidhogg, stub888, VALERY, varlam4, Wail, wreak,
Dec 5 2020, 07:59:56 Kudlaakh & Solipsism - Kudlaakh & Solipsism [split] (2020)


*Artist: Kudlaakh & Solipsism
*Album: Kudlaakh & Solipsism [split]
*Year: 2020
*Genre: Raw Black Metal | Raw Black Metal
*Country: United States | Australia
*Format: mp3@VBR245kbps
*Size: 57MB

Tracklist:
Kudlaakh:
01. Eromurderous Proclivity
02. Divergence From Possession
03. Absolute Darkness & Filth
04. Succumbing To The Darkness Inside
05. As Death's Fog Engulfs Me...
Solipsism:
06. I'm Always Paranoid
07. Pillars Of Delusion
******************************
Total playing time: 23:25



[more=Extended info]Atrocity Altar ‎– AA-41, Perverse Homage ‎– PH-076
Tape-rip by Zero[/more]
[more=Technical info]
Input File: 06. Solipsism - I'm Always Paranoid.mp3
Channels : 2
Sample Rate : 44100
Precision : 16-bit
Duration : 00:05:13.46 = 13823718 samples = 23509.7 CDDA sectors
File Size : 12.7M
Bit Rate : 325k
Sample Encoding: MPEG audio (layer I, II or III)
Comments :
Title=I'm Always Paranoid
Artist=Solipsism
Album=Kudlaakh/Solipsism split
Tracknumber=06/07
Year=2020
Genre=Black Metal

[/more]

Register
(16) 1968_janeart, Alexis The Best, Ildjarn, infiltrator, kim666, Olethros, Ostinato, randumbum, Rosen, SilentNidhogg, stub888, thenecromancer, VALERY, varlam4, Wail, wreak,
Dec 5 2020, 07:50:10 Adytum & Ordem Satânica - Adytum & Ordem Satânica [split] (2020)


*Artist: Adytum & Ordem Satânica
*Album: Adytum & Ordem Satânica [split]
*Year: 2020
*Genre: Raw Black Metal | Raw Black Metal
*Country: United Kingdom | Portugal
*Format: mp3@VBR245kbps
*Size: 50MB

Tracklist:
Adytum:
01. The Sermon Of Blood & Magick
02. Exhuming The Ancient Mysteries
Ordem Satânica:
03. Morte Eclesiastica
******************************
Total playing time: 20:21

[more=Extended info]Signal Rex / Satanik Requiem, LP.[/more]

[more=Technical info]
Input File: 02. Adytum - Exhuming The Ancient Mysteries.mp3
Channels : 2
Sample Rate : 44100
Precision : 16-bit
Duration : 00:05:28.59 = 14490995 samples = 24644.5 CDDA sectors
File Size : 12.2M
Bit Rate : 298k
Sample Encoding: MPEG audio (layer I, II or III)
Comments :
Title=Exhuming The Ancient Mysteries
Artist=Adytum
Album=Adytum/Ordem Satânica Split
Tracknumber=02/03
Year=2020
Genre=Black Metal
Discnumber=1

[/more]

Register
(19) 1968_janeart, Alexis The Best, Cramloth, FUDEDOR, Ildjarn, infiltrator, kim666, Lanceatum, Ostinato, randumbum, Rosen, SilentNidhogg, stub888, supremo, VALERY, varlam4, Wail, wolverine, wreak,
Dec 4 2020, 19:48:03 Arazubak - Arazubak (2020)


*Artist: Arazubak
*Album: Arazubak
*Year: 2020
*Genre: Raw Black Metal
*Country: United States
*Format: mp3@VBR245kbps
*Size: 62MB

Tracklist:
1. Segment I
2. Segment II
3. Segment III
4. Segment IV
5. Segment V
6. Segment VI
7. Segment VII
******************************
Total playing time: 30:01



[more=Extended info]Black Gangrene Productions, LP.
Vinyl-rip by Zero.[/more]

[more=Technical info]
Input File: 02. SEGMENT II.mp3
Channels : 2
Sample Rate : 44100
Precision : 16-bit
Duration : 00:06:08.93 = 16269681 samples = 27669.5 CDDA sectors
File Size : 12.8M
Bit Rate : 277k
Sample Encoding: MPEG audio (layer I, II or III)
Comments :
Title=SEGMENT II
Artist=Arazubak
Album=Arazubak
Tracknumber=02/07
Year=2020
Genre=Black Metal
Discnumber=1/1

[/more]

Register
(15) 1968_janeart, acerbus, infiltrator, kim666, Olethros, Ostinato, randumbum, Rosen, SilentNidhogg, smysl, stub888, varlam4, Wail, wreak, Абигор,
Dec 4 2020, 18:20:54 Gravfraktal - Unhallowed Death Triumph [ep] (2020)


*Artist: Gravfraktal
*Album: Unhallowed Death Triumph [ep]
*Year: 2020
*Genre: Black Metal
*Country: Sweden
*Format: mp3@CBR320kbps
*Size: 42MB

Tracklist:
1. Unhallowed Death Triumph 02:19
2. Carnage into Dimensional Oblivion 05:12
3. Putrid Gloria 04:44
4. Endless Grave Fractals 05:38
******************************
Total playing time: 17:53



[more=Extended info]Iron Bonehead Productions[/more]

[more=Technical info]
Input File: 02. Carnage Into Dimensional Oblivion.mp3
Channels : 2
Sample Rate : 44100
Precision : 16-bit
Duration : 00:05:12.11 = 13763831 samples = 23407.9 CDDA sectors
File Size : 12.6M
Bit Rate : 324k
Sample Encoding: MPEG audio (layer I, II or III)
Comments :
Title=Carnage Into Dimensional Oblivion
Artist=Gravfraktal
Album=Unhallowed Death Triumph
Tracknumber=02/04
Year=2020
Genre=Black Metal

[/more]

Register
(18) Ambercandle, Boozer, infiltrator, kim666, Marek, Olethros, Ostinato, randumbum, robertho777, Rosen, SilentNidhogg, Sjelekval, smes, stub888, VALERY, varlam4, Wail, wreak,
Dec 4 2020, 18:14:10 Nexul - Scythed Wings Of Poisonous Decay [ep] (2020)


*Artist: Nexul
*Album: Scythed Wings Of Poisonous Decay [ep]
*Year: 2020
*Genre: Black Metal
*Country: United States
*Format: mp3@CBR320kbps
*Size: 85MB

Tracklist:
1. Thy Terror 02:21
2. Reflected in Glaring Eyes 07:20
3. Partitioned by Severity 04:35
4. He That Takes the Soul 05:49
5. Returns Nothing to Naught 01:22
6. M.S.R 03:13
7. T.M.I.P.L 04:10
8. N.X.L.Z.F.R 02:54
9. Raped by Demons / Luziferion 04:34
******************************
Total playing time: 36:18



[more=Extended info]Iron Bonehead Productions[/more]

[more=Technical info]
Input File: 02. Reflected in Glaring Eyes.mp3
Channels : 2
Sample Rate : 44100
Precision : 16-bit
Duration : 00:07:19.59 = 19385743 samples = 32969 CDDA sectors
File Size : 17.7M
Bit Rate : 321k
Sample Encoding: MPEG audio (layer I, II or III)
Comments :
Title=Reflected in Glaring Eyes
Artist=Nexul
Album=Scythed Wings of Poisonous Decay
Tracknumber=02/09
Year=2020
Genre=Black Metal

[/more]

Register
(26) 1968_janeart, acerbus, andivi, Boozer, El_Chibo, igore2911, infiltrator, Kaotik, kim666, Marek, multizwilling, Occultas, Olethros, Ostinato, pwoods, randumbum, robertho777, Rosen, SilentNidhogg, stub888, VALERY, varlam4, Wail, wolverine, wreak, Zaephar,

79 Pages V   1 2 3 > » 
- Lo-Fi Version Support form
Copyrights and abuse reports form
Time is now: 20th January 2021 - 22:40:33