Welcome Guest ( Log In | Register )

»стори€ благодарностей участнику Velmi ::: —пасибо сказали: 20358 раз(а)
ƒата поста: ¬ теме: «а сообщение: —пасибо сказали:
Feb 13 2018, 12:05:30 Demonomantic - Blessed In Eternal Cruelty (2017)


*Artist: Demonomantic
*Album: Blessed In Eternal Cruelty
*Year: 2017
*Genre: Black/Death Metal
*Country: Sweden
*Format: mp3@CBR320kbps
*Size: 66MB

Tracklist:
1. I
2. II
3. III
4. IV
5. V
6. VI
7. VII
8. VIII
9. IX
10. X
******************************
Total playing time: 28:02

[more=Extended info]Final Agony Records - FA69
Vinyl limited to 100 copies[/more]

[more=Technical info]
Input File: 03. III.mp3
Channels : 2
Sample Rate : 44100
Precision : 16-bit
Duration : 00:03:16.38 = 8660534 samples = 14728.8 CDDA sectors
File Size : 7.96M
Bit Rate : 324k
Sample Encoding: MPEG audio (layer I, II or III)
Comments :
Title=III
Artist=Demonomantic
Album=Blessed in Eternal Cruelty
Tracknumber=03/10
Year=2017
Genre=Black / Death Metal

[/more]

Register
(22) acerbus, Doooomed, kefka, kim666, legion01, lestllk, marilin, milosdjor, NachtWulf, Ostinato, Rosen, RUSP73, SilentNidhogg, SymbyoticEntity, Tino, VALERY, varg-38ru, varlam4, vov7609, vyacheslav, Wolftribes, Zaephar,
Feb 13 2018, 10:19:55 Umberlite - Umberlite [ep] (2014)


*Artist: Umberlite
*Album: Umberlite [ep]
*Year: 2014
*Genre: Black Metal/Screamo
*Country: Japan
*Format: mp3@CBR320kbps
*Size: 18MB

Tracklist:
1. 影 02:42
2. 監獄 04:50
******************************
Total playing time: 7:32



[more=Technical info]
Input File: 01. 影.mp3
Channels : 2
Sample Rate : 44100
Precision : 16-bit
Duration : 00:02:42.87 = 7182347 samples = 12214.9 CDDA sectors
File Size : 6.67M
Bit Rate : 328k
Sample Encoding: MPEG audio (layer I, II or III)
Comments :
Title=ељ±
Artist=umberlite
Album=umberlite
Tracknumber=01/02
Year=2014
Genre=Black Metal / Screamo

[/more]

Register
(6) Ostinato, Rosen, Styx, varg-38ru, varlam4, vasiljev_sergej,
Feb 13 2018, 10:14:36 明日の叙景 - 過誤の鳥 [ep] (2016)


*Artist: 明日の叙景
*Album: 過誤の鳥 [ep]
*Year: 2016
*Genre: Post-Black Metal
*Country: Japan
*Format: mp3@CBR320kbps
*Size: 55MB

Tracklist:
1. 石榴 05:08
2. 名付く暗涙 05:21
3. 自己に対する無関心が生んだ他人への共感 06:43
4. 幸福な旅の人へ 04:08
5. 過誤の鳥 01:44
******************************
Total playing time: 23:04



[more=Technical info]
Input File: 04. 幸福な旅の人へ(The Drowned Body).mp3
Channels : 2
Sample Rate : 48000
Precision : 16-bit
Duration : 00:04:08.38 = 11922192 samples ~ 18628.4 CDDA sectors
File Size : 9.98M
Bit Rate : 321k
Sample Encoding: MPEG audio (layer I, II or III)
Comments :
Title=еєЄз¶ПгБ™жЧЕгБЃдЇЇгБЄ(The Drowned Body)
Artist=жШОжЧ•гБЃеПЩжЩѓ(Asunojokei)
Album=йБО虧гБЃй≥•(A Bird In The Fault)
Tracknumber=04/05
Year=2016
Genre=Post-Black Metal

[/more]

Register
(10) dermarsoran, kim666, lestllk, murian, Ostinato, princeshr, Rosen, varg-38ru, varlam4, vasiljev_sergej,
Feb 13 2018, 09:57:41 Blitzgeist - Black Visions In The Moonlit Night [demo] (2018)


*Artist: Blitzgeist
*Album: Black Visions In The Moonlit Night [demo]
*Year: 2018
*Genre: Black Metal
*Country: United States
*Format: mp3@CBR320kbps
*Size: 50MB

Tracklist:
1. Black Visions In the Moonlit Night 06:38
2. Graveyards Under Every Stone 08:13
3. Smoke and Ash 02:46
4. Dark Shadow Above 06:03
******************************
Total playing time: 23:40



[more=Extended info]Hatework, 2018[/more]

[more=Technical info]
Input File: 02. Graveyards Under Every Stone.mp3
Channels : 2
Sample Rate : 44100
Precision : 16-bit
Duration : 00:08:13.27 = 21753075 samples = 36995 CDDA sectors
File Size : 19.8M
Bit Rate : 321k
Sample Encoding: MPEG audio (layer I, II or III)
Comments :
Title=Graveyards Under Every Stone
Artist=Blitzgeist
Album=Black Visions in the Moonlit Night (Demo)
Tracknumber=02/04
Year=2018
Genre=Black Metal

[/more]

Register
(13) kim666, lestllk, Ostinato, Rosen, SilentNidhogg, stub888, Styx, thenecromancer, VALERY, varg-38ru, varlam4, vasiljev_sergej, Zaephar,
Feb 13 2018, 09:20:07 Knelt Rote - Alterity (2018)


*Artist: Knelt Rote
*Album: Alterity
*Year: 2018
*Genre: Black Metal/Grindcore
*Country: United States
*Format: mp3@CBR320kbps
*Size: 50MB

Tracklist:
1. Lachesis 02:44
2. Lineage and Dependence 02:54
3. Rumination 03:37
4. Genetic Memory 01:40
5. Othering 04:45
6. Salience 03:25
7. Black Triptych 02:16
******************************
Total playing time: 21:21



[more=Extended info]Nuclear War Now! Productions - ANTI-GOTH 364[/more]

[more=Technical info]
Input File: 03. Rumination.mp3
Channels : 2
Sample Rate : 44100
Precision : 16-bit
Duration : 00:03:37.26 = 9581034 samples = 16294.3 CDDA sectors
File Size : 8.79M
Bit Rate : 323k
Sample Encoding: MPEG audio (layer I, II or III)
Comments :
Title=Rumination
Artist=Knelt Rote
Album=Alterity
Tracknumber=03/07
Year=2018
Genre=Black Metal
Discnumber=1/1

[/more]

Register
(13) FUDEDOR, lestllk, marilin, Ostinato, Rosen, satanist666, spiritualdecay666, Styx, Tyrone, VALERY, varg-38ru, varlam4, wgs73,
Feb 12 2018, 09:54:52 Funeral Altar - Demo V [demo] (2017)


*Artist: Funeral Altar
*Album: Demo V [demo]
*Year: 2017
*Genre: Raw Black Metal
*Country: United States
*Format: mp3@VBR245kbps
*Size: 31MB

Tracklist:
01. Breeding the Devil's Race
02. Interlude
03. Stillbirth of the Lamb
******************************
Total playing time: 11:27

[more=Extended info]Perished Soil, 2017
Tape ripped by subaru[/more]

[more=Technical info]
Input File: 01. Breeding the Devil's Race.mp3
Channels : 2
Sample Rate : 44100
Precision : 16-bit
Duration : 00:04:31.33 = 11965785 samples = 20350 CDDA sectors
File Size : 9.83M
Bit Rate : 290k
Sample Encoding: MPEG audio (layer I, II or III)
Comments :
Title=Breeding the Devil's Race
Artist=Funeral Altar
Album=Demo V
Tracknumber=01/03
Year=2017
Genre=Black Metal

[/more]

Register
(16) 1968_janeart, Domineus218, INDARKNESS, kauyumari, kim666, LordHaart, Ostinato, Patrick, Rosen, RUSP73, SilentNidhogg, sksxxx, stub888, varg-38ru, varlam4, vasiljev_sergej,
Feb 9 2018, 17:55:02 Old Tower - Stellary Wisdom (2018)


*Artist: Old Tower
*Album: Stellary Wisdom
*Year: 2018
*Genre: Dungeon Synth
*Country: Netherlands
*Format: mp3@CBR320kbps
*Size: 71MB

Tracklist:
1. Deep Within My Somber Castle Halls 15:21
2. Stellary Wisdom 15:09
******************************
Total playing time: 30:30



[more=Extended info]Profound Lore Records ‎Ц PFL-198[/more]

[more=Technical info]
Input File: 01. Deep Within My Somber Castle Halls.mp3
Channels : 2
Sample Rate : 44100
Precision : 16-bit
Duration : 00:15:24.59 = 40774375 samples = 69344.2 CDDA sectors
File Size : 37.0M
Bit Rate : 320k
Sample Encoding: MPEG audio (layer I, II or III)
Comments :
Title=Deep Within My Somber Castle Halls
Artist=Old Tower
Album=Stellary Wisdom
Tracknumber=01/02
Year=2018
Genre=Dungeon Synth
Discnumber=1/1

[/more]

Register
(10) abob, acerbus, Fenrirsson, Ghost, Infidel, Occultas, RUSP73, smysl, thenecromancer, tOmV,
Feb 7 2018, 12:27:45 Sopor Aeternus & The Ensemble Of Shadows - The Spiral Sacrifice (2018)


*Artist: Sopor Aeternus & The Ensemble Of Shadows
*Album: The Spiral Sacrifice
*Year: 2018
*Genre: Neoclassical/Gothic/Darkwave
*Country: Germany
*Format: flac
*Size: 462MB

Tracklist:
1. Everything Is An Illusion 5:50
2. Where The End Begins 5:19
3. There Are Scars In The Evening Sky 2:15
4. The Broken & Shattered Moon 5:12
5. I Cannot Go Back To The Way I Was 1:43
6. In The Company Of Beasts 3:58
7. When You Love A Man 6:46
8. Through The Forest Wondrously 2:16
9. By The Waters Of Forgetfulness 2:57
10. Ein Freundlich' Wort Einst Unverhofft 3:41
11. I Am Done With Men 3:29
12. Sometimes You Make Me Smile 2:41
13. At Sunset Through The Fields Aflame 2:39
14. In The Old House (We Made Out Well) 3:01
15. Light In The Attic 3:42
16. If I Could Go Back In Time 7:05
17. I Am So Glad It's Over 2:55
18. Let Me Say It Now 5:52
19. Through Your Eyes 7:21
******************************
Total playing time: 1:18:42

[more=Extended info]KVLT![/more]

Register
(28) A.L.Rapsod, BERZERK, Blut aus Nord, Borderline1991, Bruce, Dasha Ravenheart, DMIYUR, Forest Silence, FUDEDOR, garmonbozia, Ghost, gwar, Infidel, infiltrator, Lord Noctua, Mplast, princeshr, satanath, SatanicPanzer, satanist666, sethurius, Shub, Sjelekval, SS007, Strygaldwir, thenecromancer, tOmV, vosmidesijatye,
Feb 6 2018, 18:40:33 Vestige - Bruits De Chênes & D'Ossements [demo] (2018)


*Artist: Vestige
*Album: Bruits De Chênes & D'Ossements [demo]
*Year: 2018
*Genre: Black Metal
*Country: Canada
*Format: mp3@CBR320kbps
*Size: 53MB

Tracklist:
1. Brouillard du Matin 00:54
2. ...Au Soir 05:07
3. Automne - par Apollinaire 05:24
4. Bruits de Chênes & d'Ossements 04:59
5. Ennui sur la Nuit 06:14
******************************
Total playing time: 22:38



[more=Extended info]Hommage aux écrits de G. Apollinaire.[/more]

[more=Technical info]
Input File: 02. ...Au Soir.mp3
Channels : 2
Sample Rate : 44100
Precision : 16-bit
Duration : 00:05:07.33 = 13553385 samples = 23050 CDDA sectors
File Size : 12.4M
Bit Rate : 322k
Sample Encoding: MPEG audio (layer I, II or III)
Comments :
Title=...Au Soir
Artist=Vestige
Album=Bruits de Chênes & d'Ossements
Tracknumber=02/05
Year=2018
Genre=Black Metal

[/more]

Register
(10) 1968_janeart, kim666, murian, Ostinato, Rosen, RUSP73, SilentNidhogg, stub888, varg-38ru, vasiljev_sergej,
Feb 6 2018, 13:55:43 Communion - At The Announcement (2017)


*Artist: Communion
*Album: At The Announcement
*Year: 2017
*Genre: Black Metal
*Country: Chile
*Format: mp3@CBR320kbps
*Size: 65MB

Tracklist:
1. Impalement to Destroy 02:46
2. Intro 1 00:23
3. Secret Rites 03:01
4. Intro 2 01:04
5. At the Announcement 01:42
6. Enthroned Inquisition 05:23
7. Intro 3 00:33
8. Consecrated to the Abyss 02:18
9. Castigation Ceremonious Verses 03:37
10. Plague Outbreaks 03:26
11. Last Ordeal 03:36
******************************
Total playing time: 27:49



[more=Extended info]The Sinister Flame ‎Ц TSF005[/more]

[more=Technical info]
Input File: 03. Secret Rites.mp3
Channels : 2
Sample Rate : 44100
Precision : 16-bit
Duration : 00:03:00.89 = 7977293 samples = 13566.8 CDDA sectors
File Size : 7.33M
Bit Rate : 324k
Sample Encoding: MPEG audio (layer I, II or III)
Comments :
Title=Secret Rites
Artist=Communion
Album=At The Announcement
Tracknumber=03/11
Year=2017
Genre=Black Metal

[/more]

Register
(21) 1968_janeart, Albert66613, Bob, desekrator, Dirt_ORFEY, kim666, lestllk, marilin, Narasimha, Ostinato, rickzammuto, Rosen, satanist666, SilentNidhogg, skeletron215, SyncestrA, toly1917, VALERY, vasiljev_sergej, Wolftribes, wtk.412,
Feb 6 2018, 08:55:38 Unknown Artist - Untitled I [demo] (2010)


Unknown Artist - 2010 - Untitled I (CD-r)
Latrina Do Chifrudo ‎Ц LC CD001

320 kbps @Ya.disk
Register
(4) FUDEDOR, kim666, thenecromancer, varg-38ru,
Feb 5 2018, 15:34:44 Óreiða - Demó II [demo] (2017)


*Artist: Óreiða
*Album: Demó II [demo]
*Year: 2017
*Genre: Raw Black Metal
*Country: Iceland
*Format: mp3@CBR320kbps
*Size: 48MB

Tracklist:
A1. Hvad Sem Eftir Af Mer Er
******************************
Total playing time: 19:13



[more=Extended info]Harvest of Death, 2017.
Tape limited to 66 copies.[/more]

[more=Technical info]
Input File: A1. Hvad Sem Eftir Af Mer Er.mp3
Channels : 2
Sample Rate : 48000
Precision : 16-bit
Duration : 00:19:13.06 = 55346832 samples ~ 86479.4 CDDA sectors
File Size : 46.3M
Bit Rate : 322k
Sample Encoding: MPEG audio (layer I, II or III)
Comments :
Title=Hvad Sem Eftir Af Mer Er
Artist=√Уreida
Album=Demó II
Tracknumber=01/01
Year=2017
Genre=Raw Black Metal

[/more]

Register
(14) 1968_janeart, Alexis The Best, blackwerwolf, El_Chibo, kim666, lestllk, Ostinato, Rosen, RUSP73, SilentNidhogg, stub888, varg-38ru, varlam4, vasiljev_sergej,
Feb 5 2018, 15:17:17 Spiral Staircase - Spiral Staircase [demo] (2017)


*Artist: Spiral Staircase
*Album: Spiral Staircase [demo]
*Year: 2017
*Genre: Raw Black Metal
*Country: United States
*Format: mp3@CBR320kbps
*Size: 58MB

Tracklist:
1. Night Transcendence
2. Exultation Through Blood
3. Recurrent Hallway
4. Haunted Red Oak
5. Ruination
******************************
Total playing time: 21:37



[more=Extended info]Harvest of Death, 2017.
Tape limited to 66 copies.
KVLT![/more]
[more=Technical info]
Input File: A4. Haunted Red Oak.mp3
Channels : 2
Sample Rate : 48000
Precision : 16-bit
Duration : 00:04:00.19 = 11529360 samples ~ 18014.6 CDDA sectors
File Size : 9.97M
Bit Rate : 332k
Sample Encoding: MPEG audio (layer I, II or III)
Comments :
Title=Haunted Red Oak
Artist=Spiral Staircase
Album=Spiral Staircase
Tracknumber=04/05
Year=2017
Genre=Raw Black Metal

[/more]

Register
(12) 1968_janeart, kim666, lestllk, Ostinato, Rosen, satanist666, SilentNidhogg, smysl, stub888, varg-38ru, varlam4, vasiljev_sergej,
Feb 4 2018, 08:34:42 Cirrhus - Identical Hallways [demo] (2017)


*Artist: Cirrhus
*Album: Identical Hallways [demo]
*Year: 2017
*Genre: Raw Black Metal
*Country: United States
*Format: mp3@VBR245kbps
*Size: 41MB

Tracklist:
1. Intro (Identical Hallways)
2. Cruelty's Necessary Decision
3. Silent Forces
4. Electricity Of Psychic Superiority
******************************
Total playing time: 17:56

[more=Extended info]CW Productions - CW20[/more]

[more=Technical info]
Input File: 02. Cruelty\'s Necessary Decision.mp3
Channels : 2
Sample Rate : 44100
Precision : 16-bit
Duration : 00:05:54.43 = 15630319 samples = 26582.2 CDDA sectors
File Size : 14.3M
Bit Rate : 322k
Sample Encoding: MPEG audio (layer I, II or III)
Comments :
Title=Cruelty's Necessary Decision
Artist=Cirrhus
Album=Identical Hallways
Tracknumber=02/04
Year=2017
Genre=Black Metal
Discnumber=1/1

[/more]

Register
(22) 1968_janeart, abob, acerbus, ambre, Boozer, desekrator, Fatalist77791, Fryz, garmonbozia, kim666, lestllk, Ostinato, RADeus, Rosen, RUSP73, satanist666, SilentNidhogg, spiritualdecay666, stub888, the_cleanser, varlam4, vasiljev_sergej,
Feb 4 2018, 07:53:16 Axidance - The Last Cry Of Nature (2018)


*Artist: Axidance
*Album: The Last Cry Of Nature
*Year: 2018
*Genre: Atmospheric Black Metal/Crust
*Country: Russian Federation
*Format: mp3@CBR320kbps
*Size: 90MB

Tracklist:
1. The Last Cry Of Nature I - Glow 17:00
2. The Last Cry Of Nature II - Haze 15:10
3. The Last Cry Of Nature III - Deliverance 03:30
******************************
Total playing time: 35:40



[more=Extended info]Order tape:

theyliverecords@gmail.com
https://vk.com/domovitoedistro[/more]

[more=Technical info]
Input File: 01. The Last Cry Of Nature I - Glow.mp3
Channels : 2
Sample Rate : 44100
Precision : 16-bit
Duration : 00:17:01.14 = 45032406 samples = 76585.7 CDDA sectors
File Size : 41.0M
Bit Rate : 322k
Sample Encoding: MPEG audio (layer I, II or III)
Comments :
Title=The Last Cry Of Nature I - Glow
Artist=Axidance
Album=The Last Cry Of Nature
Tracknumber=01/03
Year=2018
Genre=Crust / Black Metal

[/more]

Register
(13) BloodVlad, Doooomed, Fryz, Indamage, lestllk, Ostinato, rjavula, Rosen, Sanc, tOmV, VALERY, varlam4, vasiljev_sergej,
Feb 3 2018, 07:30:55 Lykantrop - VE (2018)


*Artist: Lykantrop
*Album: VE
*Year: 2018
*Genre: Black Metal
*Country: Norway
*Format: mp3@CBR320kbps
*Size: 97MB

Tracklist:
1. Hamskifte 05:02
2. Nattens ravner 04:38
3. Ulvehyl og midnattsvrede 05:04
4. Over landstrakte åser 04:15
5. Stillhet 04:07
6. Vargtronen 05:06
7. Vargriket 03:53
8. Sjelevending 03:26
9. Fra den kalde vinteren 05:30
******************************
Total playing time: 41:01



[more=Extended info]Ewiges Eis Records ‎Ц EER070[/more]

[more=Technical info]
Input File: 02. Nattens ravner.mp3
Channels : 2
Sample Rate : 44100
Precision : 16-bit
Duration : 00:04:38.60 = 12286216 samples = 20894.9 CDDA sectors
File Size : 11.3M
Bit Rate : 326k
Sample Encoding: MPEG audio (layer I, II or III)
Comments :
Title=Nattens ravner
Artist=Lykantrop
Album=Ve
Tracknumber=02/09
Year=2018
Genre=Black Metal

[/more]

Register
(16) 1968_janeart, cancer1974, kim666, Korpse, lestllk, NachtWulf, Ostinato, Rosen, RUSP73, sandr666, satanist666, Sjelekval, stub888, VALERY, varlam4, vasiljev_sergej,
Feb 1 2018, 20:33:14 Laudanum - III [demo] (2018)


*Artist: Laudanum
*Album: III [demo]
*Year: 2018
*Genre: Atmospheric Black Metal
*Country: Sweden
*Format: mp3@VBR245kbps
*Size: 54MB

Tracklist:
1. I 06:32
2. II 07:23
3. III 06:17
4. IV 06:38
******************************
Total playing time: 26:50



[more=Extended info]Cirsium Kollektivet[/more]

[more=Technical info]
Input File: 04. IV.mp3
Channels : 2
Sample Rate : 44100
Precision : 16-bit
Duration : 00:06:38.76 = 17585272 samples = 29906.9 CDDA sectors
File Size : 13.0M
Bit Rate : 262k
Sample Encoding: MPEG audio (layer I, II or III)
Comments :
Title=IV
Artist=Laudanum
Album=III
Tracknumber=04/04
Year=2018
Genre=Black Metal

[/more]

Register
(17) 1968_janeart, kim666, Korpse, lestllk, marilin, Mefody666, Mortuusinfernus, murian, Ostinato, Rosen, SilentNidhogg, Sjelekval, stub888, VALERY, varg-38ru, varlam4, vasiljev_sergej,
Feb 1 2018, 18:03:45 Occulted Death Stance - Soil Of The Grave [demo] (2017)


*Artist: Occulted Death Stance
*Album: Soil Of The Grave [demo]
*Year: 2017
*Genre: Raw Black Metal
*Country: United Kingdom
*Format: mp3@VBR245kbps
*Size: 71MB

Tracklist:
1. Soil Of The Grave, Reborn 04:44
2. Black Sun Horizon 04:07
3. O.D.S. Song 04:09
4. Pray For Cold 03:01
5. Langranian Point 03:23
6. Lifes Ritual 03:56
7. Awaiting 02:56
8. Your Funeral 04:02
******************************
Total playing time: 30:18



[more=Extended info]Legion Blotan - BLOTTAPE062, 2017[/more]

[more=Technical info]
Input File: 02. Black Sun Horizon.mp3
Channels : 2
Sample Rate : 44100
Precision : 16-bit
Duration : 00:04:07.14 = 10899050 samples = 18535.8 CDDA sectors
File Size : 9.83M
Bit Rate : 318k
Sample Encoding: MPEG audio (layer I, II or III)
Comments :
Title=Black Sun Horizon
Artist=Occulted Death Stance
Album=Soil Of The Grave
Tracknumber=02/08
Year=2017
Genre=Raw Black Metal
Discnumber=1/1

[/more]

Register
(11) 1968_janeart, kim666, lestllk, marilin, Ostinato, Rosen, SilentNidhogg, stub888, varg-38ru, varlam4, vasiljev_sergej,
Feb 1 2018, 17:49:45 Aphotykum - The Cimmerian Sessions [demo] (2017)


*Artist: Aphotykum
*Album: The Cimmerian Sessions [demo]
*Year: 2017
*Genre: Raw Black Metal
*Country: United Kingdom
*Format: mp3@VBR245kbps
*Size: 34MB

Tracklist:
1. The Cimmerian Sessions
******************************
Total playing time: 24:42



[more=Extended info]Legion Blotan - BLOTTAPE101, 2017[/more]

[more=Technical info]
Input File: 01. Full Demo.mp3
Channels : 2
Sample Rate : 44100
Precision : 16-bit
Duration : 00:24:42.63 = 65384027 samples = 111197 CDDA sectors
File Size : 34.5M
Bit Rate : 186k
Sample Encoding: MPEG audio (layer I, II or III)
Comments :
Title=Full Demo
Artist=Aphotykum
Album=The Cimmerian Sessions
Tracknumber=01/01
Year=2017
Genre=Raw Black Metal

[/more]

Register
(11) 1968_janeart, Hell_Is_Here, kim666, lestllk, Ostinato, Razorbladeswaltz, Rosen, stub888, varg-38ru, varlam4, vasiljev_sergej,
Feb 1 2018, 17:43:16 Eofor - Demo 2015 [demo] (2017)


*Artist: Eofor
*Album: Demo 2015 [demo]
*Year: 2017
*Genre: Raw Black Metal/Punk
*Country: United Kingdom
*Format: mp3@VBR245kbps
*Size: 45MB

Tracklist:
1. Demo 2015
******************************
Total playing time: 26:23



[more=Extended info]Legion Blotan - BLOTTAPE104, 2017[/more]

[more=Technical info]
Input File: 01. Full Demo.mp3
Channels : 2
Sample Rate : 44100
Precision : 16-bit
Duration : 00:26:23.78 = 69844566 samples = 118783 CDDA sectors
File Size : 47.3M
Bit Rate : 239k
Sample Encoding: MPEG audio (layer I, II or III)
Comments :
Title=Full Demo
Artist=Eofor
Album=Demo 15
Tracknumber=01/01
Year=2017
Genre=Raw Black Metal

[/more]

Register
(11) 1968_janeart, Fryz, kim666, lestllk, marilin, Ostinato, Rosen, stub888, varg-38ru, varlam4, vasiljev_sergej,
Feb 1 2018, 15:13:33 Vraeck - Keldne Wart El Vende Vraecke [demo] (2017)


*Artist: Vraeck
*Album: Keldne Wart El Vende Vraecke [demo]
*Year: 2017
*Genre: Raw Black Metal
*Country: Netherlands
*Format: mp3@CBR320kbps
*Size: 75MB

Tracklist:
A1. Untitled
A2. Untitled
B1. Untitled
B2. Untitled
******************************
Total playing time: 29:08

[more=Extended info]Black Gangrene Productions, 2017
Tape rip exclusively for metalarea[/more]

[more=Technical info]
Input File: A2. Untitled.mp3
Channels : 2
Sample Rate : 48000
Precision : 16-bit
Duration : 00:09:51.08 = 28371600 samples ~ 44330.6 CDDA sectors
File Size : 24.1M
Bit Rate : 326k
Sample Encoding: MPEG audio (layer I, II or III)
Comments :
Title=Untitled
Artist=Vraeck
Album=Keldne Wart El Vende Vraecke
Tracknumber=02/04
Year=2017
Genre=Raw Black Metal

[/more]

Register
(12) 1968_janeart, Fatalist77791, FUDEDOR, kim666, Legacy100, lestllk, Orkkh, Ostinato, Razorbladeswaltz, Rosen, stub888, vasiljev_sergej,
Feb 1 2018, 14:26:35 Drowning The Light - Paradise Slaves [ep] (2017)


*Artist: Drowning The Light
*Album: Paradise Slaves [ep]
*Year: 2017
*Genre: Black Metal
*Country: Australia
*Format: mp3@CBR320kbps
*Size: 45MB

Tracklist:
1. Paradise Slaves 03:31
2. In Desolation 03:14
3. Fell Hearted 04:06
4. Conquering Hands 04:15
5. Sorrow of the Ages 03:42
******************************
Total playing time: 18:48



[more=Extended info]Dark Adversary Productions - DA077[/more]

[more=Technical info]
Input File: 04. Conquering Hands.mp3
Channels : 2
Sample Rate : 44100
Precision : 16-bit
Duration : 00:04:15.37 = 11261993 samples = 19153 CDDA sectors
File Size : 10.3M
Bit Rate : 324k
Sample Encoding: MPEG audio (layer I, II or III)
Comments :
Title=Conquering Hands
Artist=Drowning the Light
Album=Paradise Slaves
Tracknumber=04/05
Year=2017
Genre=Black Metal

[/more]

Register
(32) 1968_janeart, Alexis The Best, andeimon, Boozer, Femto, gena, Grimwight, grobator, Hell_Is_Here, kim666, LazarShadow, lestllk, marilin, NachtWulf, Ostinato, princeshr, Razorbladeswaltz, recber, Rosen, RUSP73, ShmiT, SilentNidhogg, stub888, supremo, the_cleanser, Thunderbird, VALERY, varg-38ru, vasiljev_sergej, vosmidesijatye, Wolfera, Wolftribes,
Jan 31 2018, 09:48:20 Apologoethia - Pillars [ep] (2017)


*Artist: Apologoethia
*Album: Pillars [ep]
*Year: 2017
*Genre: Black Metal
*Country: Spain
*Format: mp3@CBR320kbps
*Size: 57MB

Tracklist:
1. De Fundamenta Spiritus 06:17
2. De Humanae Natura 06:33
3. De Absentiae Vitae 04:44
4. De Aeterno Praesentia 07:02
******************************
Total playing time: 24:36



[more=Extended info]Invictus Productions - IP120[/more]

[more=Technical info]
Input File: 01. De Fundamenta Spiritus.mp3
Channels : 2
Sample Rate : 44100
Precision : 16-bit
Duration : 00:06:18.47 = 16690703 samples = 28385.5 CDDA sectors
File Size : 15.2M
Bit Rate : 322k
Sample Encoding: MPEG audio (layer I, II or III)
Comments :
Title=De Fundamenta Spiritus
Artist=Apologoethia
Album=Pillars
Tracknumber=01/04
Year=2017
Genre=Black Metal
Discnumber=1/1

[/more]

Register
(12) 1968_janeart, kauyumari, kim666, marilin, Ostinato, Rosen, SilentNidhogg, stub888, SyncestrA, VALERY, varlam4, vasiljev_sergej,
Jan 30 2018, 20:47:40 Slakkengang - Demo I [demo] (2017)


*Artist: Slakkengang
*Album: Demo I [demo]
*Year: 2017
*Genre: Screamo/Emoviolence/Black Metal
*Country: Netherlands
*Format: mp3@CBR320kbps
*Size: 15MB

Tracklist:
A1. Lichaam Vol Spijkers 1:44
A2. Zoektocht 1:36
A3. Duizend Ogen 1:05
A4. Slakkengang 2:49
******************************
Total playing time: 7:14

[more=Extended info]Levertraan - 12[/more]

[more=Technical info]
Input File: 03. Duizend ogen.mp3
Channels : 2
Sample Rate : 44100
Precision : 16-bit
Duration : 00:01:03.07 = 2781167 samples = 4729.88 CDDA sectors
File Size : 2.88M
Bit Rate : 365k
Sample Encoding: MPEG audio (layer I, II or III)
Comments :
Title=Duizend ogen
Artist=Slakkengang
Album=I
Tracknumber=03/04
Year=2012
Genre=Black Metal

[/more]

Register
(5) homelike, Rosen, Sanc, varlam4, vasiljev_sergej,
Jan 30 2018, 19:22:59 Pénombre - Méphistophélès (ou Le Diable Sur Terre) [demo] (2017)


*Artist: Pénombre
*Album: Méphistophélès (ou Le Diable Sur Terre) [demo]
*Year: 2017
*Genre: Black Metal
*Country: Canada
*Format: mp3@CBR320kbps
*Size: 47MB

Tracklist:
1. Méphistophélès 05:25
2. Révélations 04:56
3. 1000 Ans de Chaos 04:11
4. Paradis Perdu 05:42
******************************
Total playing time: 20:14



[more=Extended info]Tour de Garde, 2018
Shezmu members[/more]

[more=Technical info]
Input File: 01. M?phistoph?l?s.mp3
Channels : 2
Sample Rate : 44100
Precision : 16-bit
Duration : 00:05:25.23 = 14342555 samples = 24392.1 CDDA sectors
File Size : 13.1M
Bit Rate : 322k
Sample Encoding: MPEG audio (layer I, II or III)
Comments :
Title=Méphistophélès
Artist=Pénombre
Album=Méphistophélès (ou le Diable sur Terre)
Tracknumber=01/04
Year=2017
Genre=Black Metal

[/more]

Register
(10) 1968_janeart, Immortality, kim666, murian, Ostinato, Rosen, SilentNidhogg, stub888, varlam4, vasiljev_sergej,

40 Pages V   1 2 3 > » 
- Lo-Fi Version Support form
Copyrights and abuse reports form
Time is now: 21st February 2018 - 09:47:51