Welcome Guest ( Log In | Register )

История благодарностей участнику Velmi ::: Спасибо сказали: 22041 раз(а)
Дата поста: В теме: За сообщение: Спасибо сказали:
May 20 2018, 19:15:02 Reverorum Ib Malacht - Untitled [ep] (2011)


*Artist: Reverorum Ib Malacht
*Album: Untitled [ep]
*Year: 2011
*Genre: Black Metal
*Country: Sweden
*Format: mp3@CBR320kbps
*Size: 64MB

Tracklist:
1. Untitled 04:51
2. Untitled 04:39
3. Untitled 05:50
4. Untitled 04:21
5. Untitled 05:11
6. Untitled 02:52
******************************
Total playing time: 27:44



[more=Extended info]Ancient Records - AR013[/more]

[more=Technical info]
Input File: 02. Untitled.mp3
Channels : 2
Sample Rate : 44100
Precision : 16-bit
Duration : 00:04:39.44 = 12323084 samples = 20957.6 CDDA sectors
File Size : 11.2M
Bit Rate : 321k
Sample Encoding: MPEG audio (layer I, II or III)
Comments :
Title=Untitled
Artist=Reverorum ib Malacht
Album=Untitled
Tracknumber=02/06
Year=2011
Genre=Black Metal

[/more]

Register
(16) 1968_janeart, abob, acerbus, Infidel, infiltrator, milosdjor, Ostinato, Rosen, satanist666, Sjelekval, skeletron215, stub888, SyncestrA, VALERY, vasiljev_sergej, Wolfera,
May 18 2018, 18:35:59 Aeviterne - Sireless [ep] (2018)


*Artist: Aeviterne
*Album: Sireless [ep]
*Year: 2018
*Genre: Death Metal
*Country: United States
*Format: mp3@CBR320kbps
*Size: 26MB

Tracklist:
1. Spring of Mirrors 04:26
2. Inborn 05:35
******************************
Total playing time: 10:01



[more=Extended info]Flourishing, Gath Šmânê members
P2 - P2-008[/more]

[more=Technical info]
Input File: 01. Spring of Mirrors.mp3
Channels : 2
Sample Rate : 44100
Precision : 16-bit
Duration : 00:04:26.32 = 11744712 samples = 19974 CDDA sectors
File Size : 10.8M
Bit Rate : 325k
Sample Encoding: MPEG audio (layer I, II or III)
Comments :
Title=Spring of Mirrors
Artist=Aeviterne
Album=Sireless
Tracknumber=01/02
Year=2018
Genre=Death Metal

[/more]

Register
(5) Ostinato, Rosen, SymbyoticEntity, VALERY, vyacheslav,
May 18 2018, 17:32:34 Hetroertzen - Flying Across The Misty Gardens (2002)


*Artist: Hetroertzen
*Album: Flying Across The Misty Gardens
*Year: 2002
*Genre: Black Metal
*Country: Chile
*Format: mp3@CBR320kbps
*Size: 110MB

Tracklist:
1. Ancient Lytaniae 05:34
2. Black Clouds will come 03:44
3. Domine Exaudinos 06:45
4. Funeral 04:26
5. Garden of Mist 04:36
6. In the last Night... Storm 07:16
7. Nocturnal 04:30
8. Under the Moonfog 06:10
******************************
Total playing time: 43:01



[more=Extended info]Originally released in 2002. Completely re-recorded, remixed and remastered album.
Lamech Records, 2018.[/more]

[more=Technical info]
Input File: 02. Black Clouds Will Come.mp3
Channels : 2
Sample Rate : 44100
Precision : 16-bit
Duration : 00:03:45.07 = 9925543 samples = 16880.2 CDDA sectors
File Size : 9.07M
Bit Rate : 322k
Sample Encoding: MPEG audio (layer I, II or III)
Comments :
Title=Black Clouds Will Come
Artist=Hetroertzen
Album=Flying Across the Misty Gardens
Tracknumber=02/08
Year=2018
Genre=Black Metal
Discnumber=1/1

[/more]

Register
(19) 1968_janeart, acerbus, andivi, DarkHorde, kimkayoung, Lux, marilin, Moonshtook, Ostinato, rickzammuto, Rosen, Rover, satanist666, SilentNidhogg, stub888, suseka, SyncestrA, Tino, vasiljev_sergej,
May 17 2018, 17:28:39 Sect Pig - Crooked Backs [ep] (2018)


*Artist: Sect Pig
*Album: Crooked Backs [ep]
*Year: 2018
*Genre: Black Metal
*Country: United States
*Format: mp3@CBR320kbps
*Size: 39MB

Tracklist:
1. Crooked Backs 16:45
******************************
Total playing time: 16:45

[more=Extended info]Nuclear War Now! Productions - ANTI-GOTH 381[/more]

[more=Technical info]
Input File: 01. Crooked Backs.mp3
Channels : 2
Sample Rate : 44100
Precision : 16-bit
Duration : 00:16:45.72 = 44352296 samples = 75429.1 CDDA sectors
File Size : 40.2M
Bit Rate : 320k
Sample Encoding: MPEG audio (layer I, II or III)
Comments :
Title=Crooked Backs
Artist=Sect Pig
Album=Crooked Backs
Tracknumber=01/01
Year=2018
Genre=Black Metal

[/more]

Register
(12) 1968_janeart, acerbus, Daale, Incantatore, infiltrator, kim666, Ostinato, Rosen, satanist666, stub888, VALERY, vasiljev_sergej,
May 17 2018, 16:38:47 Verberis - Vorant Gnosis [ep] (2018)


*Artist: Verberis
*Album: Vorant Gnosis [ep]
*Year: 2018
*Genre: Black Metal
*Country: New Zealand
*Format: mp3@CBR320kbps
*Size: 77MB

Tracklist:
1. Vorant 10:59
2. Gnosis 21:09
******************************
Total playing time: 32:08



[more=Extended info]Pulverised Records[/more]

[more=Technical info]
Input File: 01. Vorant.mp3
Channels : 2
Sample Rate : 44100
Precision : 16-bit
Duration : 00:10:59.32 = 29075880 samples = 49448.8 CDDA sectors
File Size : 26.5M
Bit Rate : 321k
Sample Encoding: MPEG audio (layer I, II or III)
Comments :
Title=Vorant
Artist=Verberis
Album=Vorant Gnosis
Tracknumber=01/02
Year=2018
Genre=Black Metal
Discnumber=1/1

[/more]

Register
(12) Daale, Doooomed, infiltrator, kim666, marilin, Ostinato, Precaria, Rosen, satanist666, SyncestrA, VALERY, vasiljev_sergej,
May 17 2018, 12:47:37 Mûspellzheimr - Demo II [demo] (2014)


*Artist: Mûspellzheimr
*Album: Demo II [demo]
*Year: 2014
*Genre: Black Metal
*Country: Denmark
*Format: mp3@CBR320kbps
*Size: 70MB

Tracklist:
1. I 07:18
2. II 07:25
3. III 06:48
4. IV 08:43
******************************
Total playing time: 30:14



[more=Technical info]
Input File: 01. I.mp3
Channels : 2
Sample Rate : 44100
Precision : 16-bit
Duration : 00:07:18.25 = 19326737 samples = 32868.6 CDDA sectors
File Size : 17.6M
Bit Rate : 321k
Sample Encoding: MPEG audio (layer I, II or III)
Comments :
Title=I
Artist=MГєspellzheimr
Album=Demo II
Tracknumber=1
Year=2014
Genre=Black Metal

[/more]

Register
(14) 1968_janeart, acerbus, Borderline1991, Fatalist77791, infiltrator, kim666, Korpse, Ostinato, rammmirez, Rosen, satanist666, Sjelekval, stub888, vasiljev_sergej,
May 16 2018, 15:45:26 Aiwīgaz Unðergangaz - Afgrundssale (Rehearsal) [demo] (2012)


*Artist: Aiwīgaz Unðergangaz
*Album: Afgrundssale (Rehearsal) [demo]
*Year: 2012
*Genre: Black Metal
*Country: Denmark
*Format: mp3@CBR320kbps
*Size: 98MB

Tracklist:
1. I 14:27
2. II 05:32
3. III 07:17
4. IV 15:03
******************************
Total playing time: 42:19



[more=Extended info]Afgrundsvisioner[/more]

[more=Technical info]
Input File: 01. I.mp3
Channels : 2
Sample Rate : 44100
Precision : 16-bit
Duration : 00:14:27.98 = 38277742 samples = 65098.2 CDDA sectors
File Size : 34.8M
Bit Rate : 321k
Sample Encoding: MPEG audio (layer I, II or III)
Comments :
Title=I
Artist=AiwД«gaz UnГ°ergangaz
Album=Afgrundssale (Rehearsal)
Tracknumber=01/04
Year=2018
Genre=Black Metal

[/more]

Register
(9) 1968_janeart, marilin, NachtWulf, Ostinato, Rosen, satanist666, Sjelekval, stub888, vasiljev_sergej,
May 16 2018, 15:21:03 Mûspellzheimr - Demo I [demo] (2014)


*Artist: Mûspellzheimr
*Album: Demo I [demo]
*Year: 2014
*Genre: Black Metal
*Country: Denmark
*Format: mp3@CBR320kbps
*Size: 81MB

Tracklist:
1. I 07:15
2. II 11:38
3. III 08:18
4. IV 07:58
******************************
Total playing time: 35:09



[more=Technical info]
Input File: 01. I.mp3
Channels : 2
Sample Rate : 44100
Precision : 16-bit
Duration : 00:07:15.92 = 19224204 samples = 32694.2 CDDA sectors
File Size : 17.6M
Bit Rate : 322k
Sample Encoding: MPEG audio (layer I, II or III)
Comments :
Title=I
Artist=MГєspellzheimr
Album=Demo I
Tracknumber=01/04
Year=2014
Genre=Black Metal

[/more]

Register
(13) 1968_janeart, acerbus, Borderline1991, Fatalist77791, Ostinato, princeshr, rammmirez, Rosen, satanist666, Sjelekval, stub888, thenecromancer, vasiljev_sergej,
May 12 2018, 07:02:47 Gjaldur - Weltschmerz (Promo Rehearsal) [demo] (2018)


*Artist: Gjaldur
*Album: Weltschmerz (Promo Rehearsal) [demo]
*Year: 2018
*Genre: Black Metal
*Country: Germany
*Format: mp3@CBR320kbps
*Size: 44MB

Tracklist:
1. Das Mysterium 07:13
2. Unterm Totenbanner 05:09
3. Nachtalb 06:49
******************************
Total playing time: 19:11



[more=Extended info]Raw instrumental rehearsal for the upcoming first album "Unterm Totenbanner"
Aaskereia members
KVLT![/more]

[more=Technical info]
Input File: 01. Das Mysterium.mp3
Channels : 2
Sample Rate : 44100
Precision : 16-bit
Duration : 00:07:13.70 = 19126126 samples = 32527.4 CDDA sectors
File Size : 17.5M
Bit Rate : 323k
Sample Encoding: MPEG audio (layer I, II or III)
Comments :
Title=Das Mysterium
Artist=Gjaldur
Album=Weltschmerz (promo rehearsal)
Tracknumber=01/03
Year=2018
Genre=Black Metal

[/more]

Register
(17) 1968_janeart, ASkyThatBurns, Borderline1991, craP_cillA, Immortality, kim666, lestllk, NachtWulf, Ostinato, Rosen, RUSP73, satanist666, stub888, thenecromancer, udt4050, VALERY, vasiljev_sergej,
May 9 2018, 15:51:46 Subduer - Death Monolith [ep] (2018)


*Artist: Subduer
*Album: Death Monolith [ep]
*Year: 2018
*Genre: Black/Death Metal
*Country: Germany
*Format: mp3@CBR320kbps
*Size: 40MB

Tracklist:
1. Death Monolith 04:18
2. Zulifiqar 03:54
3. Execution Ritual 04:38
4. Domination Transmission 04:32
******************************
Total playing time: 17:22



[more=Extended info]Dunkelheit Produktionen[/more]

[more=Technical info]
Input File: 02. Zulifiqar.mp3
Channels : 2
Sample Rate : 44100
Precision : 16-bit
Duration : 00:03:54.37 = 10335673 samples = 17577.7 CDDA sectors
File Size : 9.42M
Bit Rate : 321k
Sample Encoding: MPEG audio (layer I, II or III)
Comments :
Title=Zulifiqar
Artist=Subduer
Album=Death Monolith
Tracknumber=02/04
Year=2018
Genre=Black / Death Metal
Discnumber=1/1

[/more]

Register
(13) ASkyThatBurns, Doooomed, Ostinato, Pinhead666, Razorbladeswaltz, Rosen, satanist666, skeletron215, SymbyoticEntity, VALERY, vasiljev_sergej, wendigo, Wolftribes,
May 6 2018, 08:02:21 Kuilu - Demo 2014 [demo] (2014)


*Artist: Kuilu
*Album: Demo 2014 [demo]
*Year: 2014
*Genre: Black Metal
*Country: Finland
*Format: mp3@CBR320kbps
*Size: 60MB

Tracklist:
1. I 11:56
2. II 14:16
******************************
Total playing time: 26:12

[more=Extended info]Tape-rip[/more]

[more=Technical info]
Input File: 02. II.mp3
Channels : 2
Sample Rate : 48000
Precision : 16-bit
Duration : 00:14:14.02 = 40992912 samples ~ 64051.4 CDDA sectors
File Size : 34.3M
Bit Rate : 321k
Sample Encoding: MPEG audio (layer I, II or III)
Comments :
Title=II
Artist=Kuilu
Album=Demo 2014
Tracknumber=02/02
Year=2014
Genre=Black Metal

[/more]

Register
(13) 1968_janeart, ASkyThatBurns, Oath19, Ostinato, Patrick, Rosen, satanist666, smysl, stub888, thenecromancer, VALERY, vasiljev_sergej, vovenom,
May 4 2018, 18:18:27 Urfaust - The Constellatory Practice (2018)


*Artist: Urfaust
*Album: The Constellatory Practice
*Year: 2018
*Genre: Black Metal
*Country: Netherlands
*Format: mp3@CBR320kbps
*Size: 124MB

Tracklist:
1. Doctrine of Spirit Obsession 13:19
2. Behind the Veil of the Trance Sleep 07:47
3. A Course in Cosmic Meditation 04:34
4. False Sensorial Impressions 06:01
5. Trail Of The Conscience of the Dead 12:44
6. Eradication Through Hypnotic Suggestions 09:23
******************************
Total playing time: 53:48



[more=Extended info]Ván ‎– Ván242[/more]

[more=Technical info]
Input File: 01. Doctrine of Spirit Obsession.mp3
Channels : 2
Sample Rate : 44100
Precision : 16-bit
Duration : 00:13:19.22 = 35245426 samples = 59941.2 CDDA sectors
File Size : 32.0M
Bit Rate : 321k
Sample Encoding: MPEG audio (layer I, II or III)
Comments :
Title=Doctrine of Spirit Obsession
Artist=Urfaust
Album=The Constellatory Practice
Tracknumber=01/06
Year=2018
Genre=Black Metal

[/more]

Register
(66) 1968_janeart, abob, acerbus, afz902k, Aphrax, BERZERK, cancer1974, cist, CryptOn, CultMetalSerge, Daale, Darkwood, doom, Doooomed, fabriziomagno, Forest Silence, Fryz, garml2, gerb, Hell_Is_Here, hpc, Infidel, judaz, Kaiser, Kazoth, kim666, Korpse, LastSupper, Lord Noctua, lordbathor, lucifix, Lux, marilin, metalfanatic666, Moonshtook, NachtWulf, Narasimha, necromaciek, Ostinato, Panacea, Precaria, Premature_Devotion, Qliphoth, r1348, Rosen, RUDACHUR, SAPOGi, sarcophagus, satanist666, ShadowHunter, Skrilava, smysl, stone88, stub888, Thunderbird, Tino, tOmV, Tyrone, VALERY, vasiljev_sergej, Victim of fate, Yanek, yuratroll, zavhoz, zotyo1975, некрософ,
May 2 2018, 19:37:03 Dimmu Borgir - Rehearsal 17.01.1994 [demo] (1994)


*Artist: Dimmu Borgir
*Album: Rehearsal 17.01.1994 [demo]
*Year: 1994
*Genre: Black Metal
*Country: Norway
*Format: mp3@CBR320kbps
*Size: 57MB

Tracklist:
1. Inn i evighetens mørke 04:44 instrumental
2. Raabjørn speiler draugheimens skodde 05:24
3. Hunnerkongens sorgsvarte ferd over steppene 03:16
4. Stien 02:16 instrumental
5. Den gjemte sannhet 03:37
6. Untitiled 5:29
******************************
Total playing time: 24:46

[more=Extended info]Tape-rip by messer the-metal-collection.blogspot.com[/more]

[more=Technical info]
Input File: 02. Raabjørn Speiler Draugheimens Skodde.mp3
Channels : 2
Sample Rate : 44100
Precision : 16-bit
Duration : 00:05:24.20 = 14297308 samples = 24315.1 CDDA sectors
File Size : 13.0M
Bit Rate : 320k
Sample Encoding: MPEG audio (layer I, II or III)
Comments :
Title=RaabjГёrn Speiler Draugheimens Skodde
Artist=Dimmu Borgir
Album=Rehearsal January 1994
Tracknumber=02/06
Year=1994
Genre=Black Metal

[/more]

Register
(28) 1968_janeart, axdambient, Borderline1991, cancer1974, craP_cillA, dulak, Evilded, Hell_Is_Here, jpvalentim, kimkayoung, lordbathor, maringlen, metaljinie, Ostinato, Pinhead666, Relicario, Rosen, RUSP73, sethurius, Shadechaser, Slavas, soulskinner681, SymbyoticEntity, thenecromancer, trabantfan, Unleashed, vasiljev_sergej, ZA670,
May 2 2018, 18:53:50 Dimmu Borgir - Eonian (2018)


*Artist: Dimmu Borgir
*Album: Eonian
*Year: 2018
*Genre: Symphonic Black Metal
*Country: Norway
*Format: mp3@CBR320kbps
*Size: 128MB

Tracklist:
1. The Unveiling 05:47
2. Interdimensional Summit 04:39
3. Ætheric 05:27
4. Council of Wolves and Snakes 05:19
5. The Empyrean Phoenix 04:44
6. Lightbringer 06:06
7. I Am Sovereign 06:48
8. Archaic Correspondence 04:55
9. Alpha Aeon Omega 05:18
10. Rite of Passage 05:16
******************************
Total playing time: 54:19

[more=Extended info]Nuclear Blast - NB 3731[/more]

[more=Technical info]
Input File: 05. The Empyrean Phoenix.mp3
Channels : 2
Sample Rate : 44100
Precision : 16-bit
Duration : 00:04:44.24 = 12535072 samples = 21318.1 CDDA sectors
File Size : 11.5M
Bit Rate : 324k
Sample Encoding: MPEG audio (layer I, II or III)
Comments :
Title=The Empyrean Phoenix
Artist=Dimmu Borgir
Album=Eonian
Tracknumber=05/10
Year=2018
Genre=Symphonic Black Metal

[/more]

Register
(156) 0x13, 1968_janeart, 6666666, acerbus, add0101, afz902k, AHBAnep, albatross, Aresson, Ash_1980, Ballisargon, BERZERK, Black Cat, blackwingtsi, BlaspherionFLUL, Bloodn Lord, Borderline1991, cancer1974, Cartman223, cesar, Cheka, CryptOn, d0zer, DarkHorde, DaRKNeSS666NL, Demonologist, DenisKov, dimitriusk, Disgorge666, djsema4, dromord, dryfter, Emhyr var Emreis, emp8080, fabeldyr, Fatalist77791, Fatalv, Felipe1986, Femto, ForzaMinardi1977, Fryz, fylopaloma, gbagrami, gena, Golodomor, gwar, Hell_Is_Here, Henmik, Igor Filth, Immolator, Indamage, Infidel, infiltrator, infozahist, ironyserg, ivanasyanin, John Beak, jollo, jpvalentim, judaz, Kazoth, khestanow3001, kim666, kostja, kupiszcze, Kuruz, KVRT, Kwaad, legion01, LEGION69, leviathanticus, Mannard, mardak666, martintrue, Max696, metala, metaljinie, Metralla47, mikerx, mizantrophist, Moonshtook, mort, Mplast, mrButcher, MеtalHead, nadin85, Narasimha, Necromayhem, nekrokilldozer, Ogneslov, Old Vyaine, oldvarg, Ostinato, Paradayz, Penetralia, pensiata, Pentium.Disel, pouya, princeshr, rabindranad, randyhermit, realexxx75, recber, Relicario, ripper33, Rosen, Rover, russ777, Saalingurth, sabbracadabra, Samogon, SatanicPanzer, satanist666, Shadechaser, Shadowman, ShmiT, Sky7Daemon, smes, soulskinner681, Sovdap, StabWound, stone88, supremo, Swastika, SymbyoticEntity, symphonicadiction, talismanFS, Tarelka, TeamatSE, Thiarnan, THROWER666, Thunderbird, tOmV, trabantfan, tranquillit, Typhoid, undeadlich, VALERY, vasiljev_sergej, Victim of fate, vir2al, vov7609, WND, wrath082, Xor, Xutun, yarrsuaa, yuratroll, ZA670, zerger, zhw8tz1, zolotoiskatel, zotyo1975, Луч, Смусмумбрик, Язва,
Apr 30 2018, 18:08:58 Old Blood - Promo 2018 [demo] (2018)


*Artist: Old Blood
*Album: Promo 2018 [demo]
*Year: 2018
*Genre: Black Metal
*Country: Spain
*Format: mp3@CBR320kbps
*Size: 41MB

Tracklist:
1. Alone in the Return 04:43
2. A sword in the Darkness 04:23
3. Lucifer's Court 04:13
4. Damned 04:07
******************************
Total playing time: 17:26



[more=Extended info]KVLT![/more]

[more=Technical info]
Input File: 01. Alone In The Return.mp3
Channels : 2
Sample Rate : 44100
Precision : 16-bit
Duration : 00:04:43.66 = 12509582 samples = 21274.8 CDDA sectors
File Size : 11.4M
Bit Rate : 322k
Sample Encoding: MPEG audio (layer I, II or III)
Comments :
Title=Alone in the Return
Artist=Old Blood
Album=Promo 2018
Tracknumber=01/04
Year=2018
Genre=Black Metal

[/more]

Register
(13) 1968_janeart, kim666, Orphan, Ostinato, Rosen, RUSP73, satanist666, smysl, stub888, thenecromancer, VALERY, vasiljev_sergej, vovenom,
Apr 30 2018, 15:30:01 Smuteční Slavnost - Zahrada Krkavců [live] (2017)


*Artist: Smuteční Slavnost
*Album: Zahrada Krkavců [live]
*Year: 2017
*Genre: Black Metal
*Country: Czech Republic
*Format: mp3@CBR320kbps
*Size: 65MB

Tracklist:
1. Moc sžírá vědomí 06:10
2. Zákonitost střídá chtíč 05:54
3. Když procházíme světem 06:43
4. Jistota na konci řady 06:58
******************************
Total playing time: 25:45



[more=Extended info]Recorded live[/more]

[more=Technical info]
Input File: 02. Zákonitost Střídá Chtíč.mp3
Channels : 2
Sample Rate : 44100
Precision : 16-bit
Duration : 00:05:54.10 = 15615634 samples = 26557.2 CDDA sectors
File Size : 14.2M
Bit Rate : 321k
Sample Encoding: MPEG audio (layer I, II or III)
Comments :
Title=ZГЎkonitost stЕ™Г­dГЎ chtГ­ДЌ
Artist=SmuteДЌnГ­ slavnost
Album=Zahrada krkavcЕЇ
Tracknumber=02/04
Year=2017
Genre=Post-Black Metal

[/more]

Register
(7) 1968_janeart, Orphan, Ostinato, Rosen, satanist666, SilentNidhogg, vasiljev_sergej,
Apr 25 2018, 14:57:19 Pantheon Of Blood - Purgatorial Awakening [ep] (2018)


*Artist: Pantheon Of Blood
*Album: Purgatorial Awakening [ep]
*Year: 2018
*Genre: Black Metal
*Country: Finland
*Format: mp3@CBR320kbps
*Size: 37MB

Tracklist:
1. The Dead End 04:30
2. Ma-Kâram 03:08
3. Incantation in Blood 03:46
4. Awakening 03:02
******************************
Total playing time: 14:26



[more=Extended info]Feuer Publications - FEUER004[/more]

[more=Technical info]
Input File: 03. Incantation in Blood.mp3
Channels : 2
Sample Rate : 44100
Precision : 16-bit
Duration : 00:03:47.05 = 10013081 samples = 17029 CDDA sectors
File Size : 9.19M
Bit Rate : 324k
Sample Encoding: MPEG audio (layer I, II or III)
Comments :
Title=Incantation in Blood
Artist=Pantheon of Blood
Album=Purgatorial Awakening
Tracknumber=03/04
Year=2018
Genre=Black Metal

[/more]

Register
(20) 1968_janeart, acerbus, andivi, Boozer, Borderline1991, gena, Hell_Is_Here, Incantatore, kim666, Ostinato, princeshr, Rosen, satanist666, SilentNidhogg, smysl, stub888, SyncestrA, undeadlich, VALERY, vasiljev_sergej,
Apr 24 2018, 16:30:10 Ordem Satânica - Submissão Total [compilation] (2018)


*Artist: Ordem Satânica
*Album: Submissão Total [compilation]
*Year: 2018
*Genre: Raw Black Metal/Dark Ambient
*Country: Portugal
*Format: mp3@CBR320kbps
*Size: 147MB

Tracklist:
1. Obcecados pelo Bode
2. Servus Sathanas
3. Tal como no Principio agora e sempre Satanás
4. A Maior de todas as calamidades
5. A Queda do Homem
6. Submissão às Trevas
7. Submissão às Trevas
******************************
Total playing time: 1:01:34

[more=Extended info]Signal Rex, 2018.
2CS box limited to 100 copies.
Compilation of unreleased tracks.[/more]

[more=Technical info]
Input File: A2. II. Servus Sathanas.mp3
Channels : 2
Sample Rate : 48000
Precision : 16-bit
Duration : 00:04:50.36 = 13937040 samples ~ 21776.6 CDDA sectors
File Size : 11.9M
Bit Rate : 328k
Sample Encoding: MPEG audio (layer I, II or III)
Comments :
Title=Servus Sathanas
Artist=Ordem SatГўnica
Album=SubmissГЈo Total
Tracknumber=02/07
Year=2018
Genre=Black Metal

[/more]

Register
(16) 1968_janeart, Alexis The Best, Borderline1991, darksmith, FUDEDOR, Hell_Is_Here, INDARKNESS, kim666, Ostinato, princeshr, Rosen, RUSP73, satanist666, SilentNidhogg, stub888, vasiljev_sergej,
Apr 24 2018, 14:19:44 Ellorsith - Orbhàis [ep] (2018)


*Artist: Ellorsith
*Album: Orbhàis [ep]
*Year: 2018
*Genre: Black Metal
*Country: Canada
*Format: mp3@CBR320kbps
*Size: 54MB

Tracklist:
1. Circumambulation 05:56
2. A Case of Healing 05:13
3. Psychic-Self Defence 04:06
4. Exposure to the Elements 06:17
******************************
Total playing time: 21:32

[more=Extended info]Dark Descent Records - DDR197[/more]

[more=Technical info]
Input File: 01. Circumambulation.mp3
Channels : 2
Sample Rate : 44100
Precision : 16-bit
Duration : 00:05:56.61 = 15726413 samples = 26745.6 CDDA sectors
File Size : 14.5M
Bit Rate : 325k
Sample Encoding: MPEG audio (layer I, II or III)
Comments :
Title=Circumambulation
Artist=Ellorsith
Album=OrbhГ is
Tracknumber=01/04
Year=2018
Genre=Black Metal

[/more]

Register
(17) Amsterdam, Boozer, Coroner, kefka, kim666, milosdjor, murian, Ostinato, Precaria, Rosen, satanist666, serach, SilentNidhogg, stub888, VALERY, vasiljev_sergej, vovenom,
Apr 22 2018, 07:33:44 Rohit - Window (2018)


*Artist: Rohit
*Album: Window
*Year: 2018
*Genre: Raw Black Metal/Noise
*Country: United States
*Format: mp3@CBR320kbps
*Size: 134MB

Tracklist:
1. Want 03:23
2. Boat 01:24
3. Horses feat. HHL 04:08
4. Mask/Dog feat. Striations 05:28
5. Faint feat. Ex God 07:24
6. Slave feat. Interracial Sex 11:59
7. Window feat. Kakerlak 08:45
******************************
Total playing time: 42:31



[more=Extended info]Dødsrune Records ‎– DDR - 004[/more]

[more=Technical info]
Input File: A1. Want.flac
Channels : 2
Sample Rate : 44100
Precision : 16-bit
Duration : 00:03:26.00 = 9084785 samples = 15450.3 CDDA sectors
File Size : 27.2M
Bit Rate : 1.05M
Sample Encoding: 16-bit FLAC
Comments :
TITLE=Want
ARTIST=Rohit
ALBUM=Window
DATE=2018
GENRE=Black Metal
TRACKNUMBER=01/07
ALBUM ARTIST=Rohit
ALBUMARTIST=Rohit
ORGANIZATION=["DГёdsrune Records","End Theory Records"]

[/more]

Register
(8) 1968_janeart, Daale, kim666, Leolomb, marcelo666, Ostinato, stub888, vasiljev_sergej,
Apr 21 2018, 10:34:33 Adzalaan - Into Vermilion Mirrors (2018)


*Artist: Adzalaan
*Album: Into Vermilion Mirrors
*Year: 2018
*Genre: Black Metal
*Country: United States
*Format: mp3@CBR320kbps
*Size: 66MB

Tracklist:
1. Haven to Flesh 03:31
2. Succumb and Vanquish 04:17
3. False Cleansing 04:48
4. Haven in Blood 01:15
5. Wretched Oaths Fall From Wicked Tongues 04:55
6. Paralysis Euphoria 04:02
7. Vermilion in Abstentia 04:41
******************************
Total playing time: 27:29



[more=Extended info]Vrasubatlat - VT-XX[/more]

[more=Technical info]
Input File: 02. Succumb and Vanquish.mp3
Channels : 2
Sample Rate : 44100
Precision : 16-bit
Duration : 00:04:17.73 = 11365673 samples = 19329.4 CDDA sectors
File Size : 10.4M
Bit Rate : 322k
Sample Encoding: MPEG audio (layer I, II or III)
Comments :
Title=Succumb and Vanquish
Artist=Adzalaan
Album=Into Vermilion Mirrors
Tracknumber=02/07
Year=2018
Genre=Black Metal

[/more]

Register
(27) 1968_janeart, Amsterdam, babanguida, Beazth, Boozer, Borderline1991, Corpse_Of_The_Christ, El_Chibo, erthrt, gena, Hell_Is_Here, ingram, kim666, Moonshtook, nsk2008, Ostinato, Panacea, Rosen, sacrut, satanist666, SSBandera, stub888, suseka, Tino, toly1917, VALERY, vasiljev_sergej,
Apr 21 2018, 08:32:46 Serum Dreg - Lustful Vengeance (2018)


*Artist: Serum Dreg
*Album: Lustful Vengeance
*Year: 2018
*Genre: Black/Death Metal
*Country: United States
*Format: mp3@CBR320kbps
*Size: 53MB

Tracklist:
1. Rotten Pillar / Lustful Vengeance 07:48
2. Edifice of Hatred 02:30
3. Holy Disease 03:45
4. Death Ritual 01:56
5. Impure Ceremony 02:13
6. Blasphemic Black Death Noise 04:18
******************************
Total playing time: 22:30



[more=Extended info]Vrasubatlat - VT-XVIII[/more]

[more=Technical info]
Input File: 02. Edifice of Hatred.mp3
Channels : 2
Sample Rate : 44100
Precision : 16-bit
Duration : 00:02:29.57 = 6595949 samples = 11217.6 CDDA sectors
File Size : 6.06M
Bit Rate : 324k
Sample Encoding: MPEG audio (layer I, II or III)
Comments :
Title=Edifice of Hatred
Artist=Serum Dreg
Album=Lustful Vengeance
Tracknumber=02/06
Year=2018
Genre=Black Metal

[/more]

Register
(26) Amsterdam, babanguida, Beazth, Boozer, Doooomed, gena, Hell_Is_Here, ingram, kim666, marilin, Murphy, nord6666, Orphan, Ostinato, Panacea, Pinhead666, Rosen, sacrut, satanist666, SilentNidhogg, skeletron215, Tino, VALERY, Vidder242, WX419, Ниб,
Apr 21 2018, 08:24:43 Dagger Lust - Siege Bondage Adverse To The Godhead (2018)


*Artist: Dagger Lust
*Album: Siege Bondage Adverse To The Godhead
*Year: 2018
*Genre: Black/Death Metal
*Country: United States
*Format: mp3@CBR320kbps
*Size: 58MB

Tracklist:
1. Augury 01:28
2. Corroded Vein 02:38
3. Black Blood of Mockery 04:24
4. Perverse Divine 04:30
5. Capitulation 01:39
6. Antediluvian Battery 04:15
7. Siege Bondage Adverse to the Godhead 05:06
******************************
Total playing time: 24:00



[more=Extended info]Vrasubatlat - VT-XIX[/more]

[more=Technical info]
Input File: 02. Corroded Vein.mp3
Channels : 2
Sample Rate : 44100
Precision : 16-bit
Duration : 00:02:38.32 = 6981912 samples = 11874 CDDA sectors
File Size : 6.39M
Bit Rate : 323k
Sample Encoding: MPEG audio (layer I, II or III)
Comments :
Title=Corroded Vein
Artist=Dagger Lust
Album=Siege Bondage Adverse to the Godhead
Tracknumber=02/07
Year=2018
Genre=Black Metal

[/more]

Register
(24) Amsterdam, babanguida, Beazth, Boozer, Daale, Doooomed, gena, Hell_Is_Here, ingram, kim666, marilin, nord6666, Ostinato, Panacea, Pinhead666, Rosen, sacrut, satanist666, Shadechaser, suseka, SymbyoticEntity, Tino, VALERY, Vidder242,
Apr 20 2018, 15:38:08 Albionic Hermeticism - Ancient Hermetic Purity (2018)


*Artist: Albionic Hermeticism
*Album: Ancient Hermetic Purity
*Year: 2018
*Genre: Black Metal
*Country: United Kingdom
*Format: mp3@CBR320kbps
*Size: 85MB

Tracklist:
1. Mutilated Hermetic Fragments 05:06
2. Consulting the Hermetic Oracle 06:09
3. Ancient Hermetic Purity 04:08
4. The Recoiling Spine of Hermes 05:54
5. Along the Spinal Column 03:43
6. Wielding Caduceus 03:40
7. AA Moete Hermes 06:42
******************************
Total playing time: 35:22



[more=Extended info]The Aryan Hermetic Order[/more]

[more=Technical info]
Input File: 01. Mutilated Hermetic Fragments.mp3
Channels : 2
Sample Rate : 44100
Precision : 16-bit
Duration : 00:05:06.58 = 13519958 samples = 22993.1 CDDA sectors
File Size : 12.4M
Bit Rate : 325k
Sample Encoding: MPEG audio (layer I, II or III)
Comments :
Title=Mutilated Hermetic Fragments
Artist=Albionic Hermeticism
Album=Ancient Hermetic Purity
Tracknumber=01/07
Year=2018
Genre=Black Metal

[/more]

Register
(16) 1968_janeart, boba, garmonbozia, kim666, Mortuusinfernus, Ostinato, Precaria, Razorbladeswaltz, Rosen, satanist666, SSBandera, stub888, suseka, udt4050, VALERY, vasiljev_sergej,
Apr 20 2018, 14:30:28 Elfsgedroch - Dwalend Bij Nacht En Ontij (2018)


*Artist: Elfsgedroch
*Album: Dwalend Bij Nacht En Ontij
*Year: 2018
*Genre: Black Metal
*Country: Netherlands
*Format: mp3@CBR320kbps
*Size: 102MB

Tracklist:
1. De Broedermoordvloek 09:58
2. Het Duivelsvuur Van Schiermonnikoog 09:38
3. De Armemanskisten 08:29
4. Het Dansende Duivelslicht Van Dood En Verderf 10:17
5. Geweeklaag Der Helleveeg 05:44
******************************
Total playing time: 44:06



[more=Technical info]
Input File: 02. Het Duivelsvuur Van Schiermonnikoog.mp3
Channels : 2
Sample Rate : 44100
Precision : 16-bit
Duration : 00:09:38.62 = 25517010 samples = 43396.3 CDDA sectors
File Size : 23.2M
Bit Rate : 321k
Sample Encoding: MPEG audio (layer I, II or III)
Comments :
Title=Het Duivelsvuur Van Schiermonnikoog
Artist=Elfsgedroch
Album=Dwalend Bij Nacht en Ontij
Tracknumber=02/05
Year=2018
Genre=BLack Metal
Discnumber=1/1

[/more]

Register
(13) 1968_janeart, Emhyr var Emreis, kim666, murian, Ostinato, Rosen, satanist666, serach, stub888, suseka, udt4050, VALERY, vasiljev_sergej,

43 Pages V   1 2 3 > » 
- Lo-Fi Version Support form
Copyrights and abuse reports form
Time is now: 24th May 2018 - 03:11:45