Welcome Guest ( Log In | Register )

История благодарностей участнику Velmi ::: Спасибо сказали: 32885 раз(а)
Дата поста: В теме: За сообщение: Спасибо сказали:
Jul 13 2019, 18:30:48 Marid - ٧٧٧٧٧٧٧ [ep] (2018)


*Artist: Marid
*Album: ٧٧٧٧٧٧٧ [ep]
*Year: 2018
*Genre: Black Metal
*Country: Unknown
*Format: mp3@CBR320kbps
*Size: 63MB

Tracklist:
1. Babalon 10:31
2. Al Hayah Al Abadeyya 05:48
3. Al Loha Lo Zomorrodeyya 10:33
******************************
Total playing time: 26:52



[more=Technical info]
Input File: 02. Al Hayat Al Abadeyyah.mp3
Channels : 2
Sample Rate : 44100
Precision : 16-bit
Duration : 00:05:48.81 = 15382345 samples = 26160.5 CDDA sectors
File Size : 14.2M
Bit Rate : 325k
Sample Encoding: MPEG audio (layer I, II or III)
Comments :
Title=Al Hayat Al Abadeyyah
Artist=Marid
Album=vvvvvvv
Tracknumber=02/03
Year=2018
Genre=Black Metal

[/more]

Register
(11) ahp, Eugenio, kim666, lestllk, Occultas, Olethros, Ostinato, robertho777, SilentNidhogg, vasiljev_sergej, yuratroll,
Jul 13 2019, 10:20:45 Bestiis Dare - Odio [ep] (2019)


*Artist: Bestiis Dare
*Album: Odio [ep]
*Year: 2019
*Genre: Black Metal
*Country: International
*Format: mp3@CBR320kbps
*Size: 54MB

Tracklist:
1. Garden of Asphodel 04:53
2. Creatures of Hades 04:00
3. Pain and Torture 04:56
4. Glory of the Beast 04:08
5. The Emperor Above 05:21
******************************
Total playing time: 23:18

[more=Technical info]
Input File: 04. Glory of the Beast.mp3
Channels : 2
Sample Rate : 44100
Precision : 16-bit
Duration : 00:04:07.75 = 10925863 samples = 18581.4 CDDA sectors
File Size : 10.0M
Bit Rate : 324k
Sample Encoding: MPEG audio (layer I, II or III)
Comments :
Title=Glory of the Beast
Artist=Bestiis Dare
Album=Odio
Tracknumber=04/05
Year=2019
Genre=Black Metal

[/more]

Register
(14) 1968_janeart, Altkiller, Anhra Mainyu, craP_cillA, kim666, lestllk, nadin85, Olethros, Ostinato, Panacea, Pinhead666, robertho777, SilentNidhogg, vasiljev_sergej,
Jul 13 2019, 10:01:23 Heinous - Lucifer Vult [ep] (2019)


*Artist: Heinous
*Album: Lucifer Vult [ep]
*Year: 2019
*Genre: Black Metal
*Country: Belgium
*Format: mp3@CBR320kbps
*Size: 23MB

Tracklist:
1. Temple's Fall 04:01
2. Maudits 04:58
******************************
Total playing time: 8:59



[more=Extended info]New Era Productions / Medieval Prophecy Records
7'' EP[/more]

[more=Technical info]
Input File: 01. Temple\'s Fall.mp3
Channels : 2
Sample Rate : 44100
Precision : 16-bit
Duration : 00:04:01.49 = 10649797 samples = 18111.9 CDDA sectors
File Size : 9.82M
Bit Rate : 325k
Sample Encoding: MPEG audio (layer I, II or III)
Comments :
Title=Temple's Fall
Artist=Heinous
Album=Lucifer Vult
Tracknumber=01/02
Year=2019
Genre=Black Metal

[/more]

Register
(12) 1968_janeart, ahp, Altkiller, andivi, FUDEDOR, garmonbozia, kim666, Olethros, Ostinato, robertho777, SilentNidhogg, vasiljev_sergej,
Jul 8 2019, 15:55:07 Grizelda - A War Drenched In Fantasy [demo] (2019)


*Artist: Grizelda
*Album: A War Drenched In Fantasy [demo]
*Year: 2019
*Genre: Raw Black Metal
*Country: United States
*Format: mp3@CBR320kbps
*Size: 84MB

Tracklist:
1. No Living Man May Hinder Me
2. With a Great Braying of Horns
3. Orthanc
4. Crestfallen
******************************
Total playing time: 34:18

[more=Extended info]CW Productions - CW24
ex-Nefaria

Tape-rip + Scans[/more]

[more=Technical info]
Input File: B2. Crestfallen.mp3
Channels : 2
Sample Rate : 48000
Precision : 16-bit
Duration : 00:05:16.47 = 15190416 samples ~ 23735 CDDA sectors
File Size : 13.1M
Bit Rate : 332k
Sample Encoding: MPEG audio (layer I, II or III)
Comments :
Title=Crestfallen
Artist=Grizelda
Album=A War Drenched In Fantasy
Tracknumber=04/04
Year=2019
Genre=Raw Black Metal

[/more]

Register
(15) 1968_janeart, craP_cillA, DeRectify, heinz88, kauyumari, kim666, lestllk, Olethros, Ostinato, SilentNidhogg, stub888, thenecromancer, vasiljev_sergej, wreak, Абигор,
Jul 6 2019, 08:20:46 Ctenizidae - Endless Decay In Putrescent Void [compilation] (2019)


*Artist: Ctenizidae
*Album: Endless Decay In Putrescent Void [compilation]
*Year: 2019
*Genre: Raw Black Metal
*Country: United States
*Format: mp3@CBR320kbps
*Size: 45MB

Tracklist:
1. Endless Decay in Putrescent Void, Part I 02:11
2. Moribund Depths of Night 01:38
3. The Black Altar of Human Extinction 03:40
4. Endless Decay in Putrescent Void, Part II 02:46
5. Unknown Reaches of Hell Too Vast for the Perdition of Man 03:22
6. ...In Death 02:55
******************************
Total playing time: 16:32



[more=Extended info]Funeral Maelstrom[/more]

[more=Technical info]
Input File: 02. Moribund Depths of Night.mp3
Channels : 2
Sample Rate : 44100
Precision : 16-bit
Duration : 00:01:38.07 = 4324843 samples = 7355.18 CDDA sectors
File Size : 4.14M
Bit Rate : 337k
Sample Encoding: MPEG audio (layer I, II or III)
Comments :
Title=Moribund Depths of Night
Artist=Ctenizidae
Album=Endless Decay in Putrescent Void
Tracknumber=02/06
Year=2019
Genre=Raw Black Metal

[/more]

Register
(14) 1968_janeart, FUDEDOR, Hell_Is_Here, HviteGuden, kim666, Olethros, Ostinato, Rosen, SilentNidhogg, stub888, VALERY, vasiljev_sergej, wreak, Абигор,
Jul 5 2019, 18:06:54 Carved Cross - The Yawning Abyss Of Perdition (2018)


*Artist: Carved Cross
*Album: The Yawning Abyss Of Perdition
*Year: 2018
*Genre: Raw Black Metal
*Country: Australia
*Format: mp3@CBR320kbps
*Size: 92MB

Tracklist:
1. Nourished by the Marrow of Those Once Yours 17:58
2. Tortured Journey Towards That Face Which Stares Only Back at You 20:10
******************************
Total playing time: 38:08

[more=Extended info]GoatowaRex - WAXGOAT120[/more]

[more=Technical info]
Input File: 01. Nourished By The Marrow Of Those Once Yours.mp3
Channels : 2
Sample Rate : 44100
Precision : 16-bit
Duration : 00:18:28.44 = 48882204 samples = 83133 CDDA sectors
File Size : 44.5M
Bit Rate : 321k
Sample Encoding: MPEG audio (layer I, II or III)
Comments :
Title=Nourished By The Marrow Of Those Once Yours
Artist=Carved Cross
Album=The Yawning Abyss Of Perdition
Tracknumber=01/02
Year=2018
Genre=Raw Black Metal
Discnumber=1/1

[/more]

Register
(19) 1968_janeart, Alexis The Best, ambre, ChaosArcana, FUDEDOR, Hell_Is_Here, kim666, Olethros, Ostinato, robertho777, Rosen, SilentNidhogg, stub888, the_cleanser, tim47, VALERY, vasiljev_sergej, wreak, Абигор,
Jul 4 2019, 16:14:08 Revenant Marquis - Polterngeyst (2019)


*Artist: Revenant Marquis
*Album: Polterngeyst
*Year: 2019
*Genre: Raw Black Metal
*Country: United Kingdom
*Format: mp3@CBR320kbps
*Size: 96MB

Tracklist:
1. Rites of the Bloodline 04:54
2. Descending at Last into an Impenetrable Blackness 04:54
3. Sovereign of the Origin 05:04
4. Starvation 04:24
5. Absolute Untethered Vengeance 06:10
6. Phantoms Have a Right to Their Children 05:48
7. Vituperative Vows 07:00
8. A Grand Sacrosanct 01:05
******************************
Total playing time: 39:19



[more=Extended info]Death Kvlt Productions[/more]

[more=Technical info]
Input File: Revenant Marquis - Polterngeyst - 05 Absolute Untethered Vengeance.flac
Channels : 2
Sample Rate : 44100
Precision : 16-bit
Duration : 00:06:10.01 = 16317551 samples = 27750.9 CDDA sectors
File Size : 38.3M
Bit Rate : 828k
Sample Encoding: 16-bit FLAC
Comments :
TITLE=Absolute Untethered Vengeance
ARTIST=Revenant Marquis
DATE=2019
COMMENT=Visit http://deathkvltproductions.bandcamp.com
ALBUM=Polterngeyst
TRACKNUMBER=5
ALBUMARTIST=Revenant Marquis

[/more]

Register
(18) 1968_janeart, acerbus, craP_cillA, Fatalist77791, FUDEDOR, Hell_Is_Here, kim666, Olethros, Ostinato, robertho777, Rosen, SilentNidhogg, stub888, suseka, VALERY, vasiljev_sergej, wreak, Абигор,
Jul 4 2019, 16:07:47 Velo Misere - Retrospectiva De La Fatalidad [compilation] (2019)


*Artist: Velo Misere
*Album: Retrospectiva De La Fatalidad [compilation]
*Year: 2019
*Genre: Black Metal
*Country: Spain
*Format: mp3@CBR320kbps
*Size: 122MB

Tracklist:
1. I 08:00
2. II 05:15
3. III 05:40
4. IV 06:20
5. Anunciación 05:42
6. Abdicación 06:28
7. Quimera 06:35
8. Partida 07:58
******************************
Total playing time: 51:58



[more=Extended info]Death Kvlt Productions - DKP-40[/more]

[more=Technical info]
Input File: 02. II.mp3
Channels : 2
Sample Rate : 44100
Precision : 16-bit
Duration : 00:05:15.08 = 13895028 samples = 23631 CDDA sectors
File Size : 12.8M
Bit Rate : 325k
Sample Encoding: MPEG audio (layer I, II or III)
Comments :
Title=II
Artist=Velo Misere
Album=Retrospectiva de la fatalidad
Tracknumber=02/08
Year=2019
Genre=Black Metal

[/more]

Register
(16) 1968_janeart, FUDEDOR, Hell_Is_Here, kim666, Olethros, Ostinato, Razorbladeswaltz, robertho777, Rosen, SilentNidhogg, smysl, stub888, VALERY, vasiljev_sergej, wreak, Абигор,
Jul 4 2019, 15:42:35 Glorificated Genocide - Warwolves Arising [demo] (2019)


*Artist: Glorificated Genocide
*Album: Warwolves Arising [demo]
*Year: 2019
*Genre: Raw Black Metal
*Country: Ecuador
*Format: mp3@CBR320kbps
*Size: 42MB

Tracklist:
1. Vampiric Dungeons 01:03
2. Proud of the Past 04:10
3. Great Mystic Woods 04:02
4. Warwolves Arising 04:24
5. Honor, Loyalty and War 04:12
******************************
Total playing time: 17:51



[more=Extended info]Death Kvlt Productions - DKP-43
Lossy mastered[/more]

[more=Technical info]
Input File: Glorificated Genocide - Warwolves Arising - 02 Proud Of The Past.flac
Channels : 2
Sample Rate : 44100
Precision : 16-bit
Duration : 00:04:13.88 = 11196288 samples = 19041.3 CDDA sectors
File Size : 35.5M
Bit Rate : 1.12M
Sample Encoding: 16-bit FLAC
Comments :
TITLE=Proud Of The Past
ARTIST=Glorificated Genocide
DATE=2019
COMMENT=Visit http://deathkvltproductions.bandcamp.com
ALBUM=Warwolves Arising
TRACKNUMBER=2
ALBUMARTIST=Glorificated Genocide

[/more]

Register
(15) 1968_janeart, Fatalist77791, FUDEDOR, Hell_Is_Here, kim666, Olethros, Ostinato, rickzammuto, Rosen, SilentNidhogg, thenecromancer, VALERY, vasiljev_sergej, wreak, Абигор,
Jul 4 2019, 15:28:14 Sanguine Eagle - Shores Of Avarice (2019)


*Artist: Sanguine Eagle
*Album: Shores Of Avarice
*Year: 2019
*Genre: Black Metal
*Country: United States
*Format: mp3@CBR320kbps
*Size: 97MB

Tracklist:
1. Bloodborn Veneration 11:15
2. By The Breath Of Victory 09:56
3. Shores Of Avarice 20:24
******************************
Total playing time: 41:35



[more=Extended info]HOFL / Profound Lore[/more]

[more=Technical info]
Input File: 02. By the Breath of Victory.mp3
Channels : 2
Sample Rate : 44100
Precision : 16-bit
Duration : 00:09:56.88 = 26322452 samples = 44766.1 CDDA sectors
File Size : 24.0M
Bit Rate : 321k
Sample Encoding: MPEG audio (layer I, II or III)
Comments :
Title=By the Breath of Victory
Artist=Sanguine Eagle
Album=Shores of Avarice
Tracknumber=02/03
Year=2019
Genre=Black Metal

[/more]

Register
(23) 1968_janeart, acerbus, Alexis The Best, Cavemania, Doooomed, El_Chibo, Hell_Is_Here, kim666, legion01, nemx, Olethros, Ostinato, Razorbladeswaltz, robertho777, Rosen, SilentNidhogg, simonalacacarisa, stub888, suseka, VALERY, vasiljev_sergej, wreak, Абигор,
Jul 3 2019, 19:08:55 Impavida - Antipode (2019)


*Artist: Impavida
*Album: Antipode
*Year: 2019
*Genre: Black Metal
*Country: Germany
*Format: mp3@CBR320kbps
*Size: 92MB

Tracklist:
1. Demons' Eerie Flutes Accompany with the Decay of Corpses Defiled 15:55
2. Corpse Devourer 03:40
3. The First Flame Initiates the Cleansing of Putrid Terrestrial Spirits 16:28
4. Towards the Pyre 03:07
******************************
Total playing time: 39:10

[more=Extended info]Ván Records - VAN278[/more]

[more=Technical info]
Input File: 03. The First Flame Initiates the Cleansing of Putrid Terrestrial Spirits.mp3
Channels : 2
Sample Rate : 44100
Precision : 16-bit
Duration : 00:16:30.03 = 43660499 samples = 74252.5 CDDA sectors
File Size : 39.8M
Bit Rate : 321k
Sample Encoding: MPEG audio (layer I, II or III)
Comments :
Title=The First Flame Initiates the Cleansing of Putrid Terrestrial Spirits
Artist=Impavida
Album=Antipode
Tracknumber=03/04
Year=2019
Genre=Black Metal

[/more]

Register
(23) 1968_janeart, ahp, andivi, craP_cillA, GorAtheist, Hell_Is_Here, helvetesrike, Kehl05, kim666, lestllk, murian, Olethros, Ostinato, robertho777, Rosen, SilentNidhogg, stub888, tim47, VALERY, vasiljev_sergej, vov7609, wreak, yuratroll,
Jul 3 2019, 18:49:08 Arkhaaik - Dʰg̑ʰm̥tós (2019)


*Artist: Arkhaaik
*Album: Dʰg̑ʰm̥tós
*Year: 2019
*Genre: Black/Death Metal
*Country: Switzerland
*Format: mp3@CBR320kbps
*Size: 76MB

Tracklist:
1. u̯iHrós i̯émos-kʷe 16:00
2. *dʰg̑ʰm̥tós 06:34
3. u̯rsn̥gwhé̄n 10:06
******************************
Total playing time: 32:40



[more=Extended info]Iron Bonehead[/more]

[more=Technical info]
Input File: 02. _dhghmtos.mp3
Channels : 2
Sample Rate : 44100
Precision : 16-bit
Duration : 00:06:34.16 = 17382456 samples = 29562 CDDA sectors
File Size : 16.0M
Bit Rate : 324k
Sample Encoding: MPEG audio (layer I, II or III)
Comments :
Title=_dhghmtos
Artist=Arkhaaik
Album=*dhghmtós
Tracknumber=02/03
Year=2019
Genre=Black / Death Metal

[/more]

Register
(18) Ash_1980, Beazth, Boozer, craP_cillA, Doooomed, GorAtheist, Hell_Is_Here, Kehl05, kim666, Olethros, Ostinato, Rosen, sarcophagus, SilentNidhogg, VALERY, vasiljev_sergej, wreak, wtk.412,
Jul 3 2019, 17:28:27 Sinthgunt - The Infernal Wounds Of Man (2019)


*Artist: Sinthgunt
*Album: The Infernal Wounds Of Man
*Year: 2019
*Genre: Black Metal
*Country: United States
*Format: mp3@CBR320kbps
*Size: 59MB

Tracklist:
1. The Crumbling Man
2. Mary with Her Bones
3. Mouldering And Rotten In the Desert
4. The Call
5. Laughing At Christ
6. A Patch of Earth
******************************
Total playing time: 25:51

[more=Extended info]Perished Soil[/more]

[more=Technical info]
Input File: 05. Laughing At Christ.mp3
Channels : 2
Sample Rate : 44100
Precision : 16-bit
Duration : 00:02:39.92 = 7052516 samples = 11994.1 CDDA sectors
File Size : 6.43M
Bit Rate : 322k
Sample Encoding: MPEG audio (layer I, II or III)
Comments :
Title=Laughing At Christ
Artist=Sinthgunt
Album=The Infernal Wounds Of Man
Tracknumber=05/06
Year=2019
Genre=Black Metal

[/more]

Register
(17) 1968_janeart, GorAtheist, Hell_Is_Here, HviteGuden, Kehl05, kim666, Olethros, Ostinato, Razorbladeswaltz, robertho777, Rosen, SilentNidhogg, stub888, toly1917, vasiljev_sergej, wreak, Абигор,
Jul 2 2019, 19:28:16 Óreiða - Óreiða (2019)


*Artist: Óreiða
*Album: Óreiða
*Year: 2019
*Genre: Black Metal
*Country: Iceland
*Format: mp3@CBR320kbps
*Size: 80MB

Tracklist:
1. Dagar 09:36
2. Draumar 07:03
3. Daudi 09:04
4. Draugar 08:36
******************************
Total playing time: 34:19



[more=Extended info]Harvest of Death - HRVST57[/more]

[more=Technical info]
Input File: 02. Draumar.mp3
Channels : 2
Sample Rate : 44100
Precision : 16-bit
Duration : 00:07:02.76 = 18643848 samples = 31707.2 CDDA sectors
File Size : 17.0M
Bit Rate : 322k
Sample Encoding: MPEG audio (layer I, II or III)
Comments :
Title=Draumar
Artist=Óreiða
Album=Óreiða
Tracknumber=02/04
Year=2019
Genre=Black Metal

[/more]

Register
(44) 1968_janeart, acerbus, Alexis The Best, Branis, dromord, Evgen79, Fatalist77791, Fryz, FUDEDOR, gena, Hey_You, HviteGuden, igore2911, infernallord, jet55, judaz, Kehl05, kim666, murian, nadin85, nannoblack, NappyRob, Olethros, Ostinato, randumbum, ripper33, robertho777, Rosen, Samaritianin, Sanctus, Scuns, SilentNidhogg, stub888, Surt, suseka, svargodin, TDM, thenecromancer, vasiljev_sergej, wreak, Абигор, Авел, Волос, Козлотролль,
Jun 28 2019, 19:40:59 Лучшие Black Metal релизы 2019
Infamous - Muttos Pro S'Aristocratzia
Flamen - Furor Lunae
Vothana - Không Bao Giờ Nộp - Never to Submit
Thunar - Hammerslag
Nacht Und Gnosis ‎– Det Warder Sådt i Skröplighet och Skal Upstå ur Kraft
Ossuaire - Premiers Chants
Nocturnal Triumph - The Fangs of Miseries Past
Carved Cross ‎– Sapped Of Strength, Left To Wither And Fade Away
(2) Daale, judaz,
Jun 28 2019, 18:41:41 Hagazussa - Wintertraum (2016)


*Artist: Hagazussa
*Album: Wintertraum
*Year: 2016
*Genre: Black Metal
*Country: Germany
*Format: mp3@CBR320kbps
*Size: 116MB

Tracklist:
A1. Zorn der vergessenen Götter 12:42
A2. Das Wehklagen der verlorenen Waldër 11:29
B1. Traum vom ewigen Winter 14:53
B2. Erhöre den Klang der sterbenden Sonne 09:32
******************************
Total playing time: 48:36

[more=Extended info]Astral Nightmare Productions - NP 004
Vinyl-rip + Scans

Recorded on an analogue 8-track in winter 2006/2007.[/more]

[more=Technical info]
Input File: A1. Zorn der vergessenen Götter.mp3
Channels : 2
Sample Rate : 48000
Precision : 16-bit
Duration : 00:12:42.89 = 36618768 samples ~ 57216.8 CDDA sectors
File Size : 30.7M
Bit Rate : 322k
Sample Encoding: MPEG audio (layer I, II or III)
Comments :
Title=Zorn Der Vergessenen Götter
Artist=Hagazussa
Album=Wintertraum
Tracknumber=01/04
Year=2016
Genre=Black Metal

[/more]

Register
(29) 1968_janeart, ahp, craP_cillA, gena, GorAtheist, Grimmsberg, kim666, Korpse, lestllk, Machine Head, murian, NachtWulf, Olethros, Ostinato, RADeus, Razorbladeswaltz, robertho777, Rosen, RUDACHUR, Sanctus, Seelenbrecher, SilentNidhogg, stub888, suseka, VALERY, vasiljev_sergej, V_H_H_V, wreak, Абигор,
Jun 27 2019, 21:44:22 Krowos - Verbum Luciferi (2017)


*Artist: Krowos
*Album: Verbum Luciferi
*Year: 2017
*Genre: Black Metal
*Country: Italy
*Format: mp3@CBR320kbps
*Size: 105MB

Tracklist:
1. Verbum Luciferi 06:43
2. Infamia in Excelsis 08:19
3. Vangelo 05:30
4. Malignus 07:16
5. Credo 09:09
6. Offertorio 08:00
******************************
Total playing time: 44:57



[more=Extended info]Nigredo Records - NP003
CD-rip + Scans

Exclusively for metalarea.[/more]
[more=Technical info]
Input File: 02. Infamia In Excelsis.mp3
Channels : 2
Sample Rate : 44100
Precision : 16-bit
Duration : 00:08:21.95 = 22135863 samples = 37646 CDDA sectors
File Size : 20.3M
Bit Rate : 324k
Sample Encoding: MPEG audio (layer I, II or III)
Comments :
Title=Infamia In Excelsis
Artist=Krowos
Album=Verbum Luciferi
Tracknumber=02/06
Year=2017
Genre=Black Metal
Discnumber=1/1

[/more]

Register
(20) 1968_janeart, ahp, Daale, El_Chibo, Hell_Is_Here, infiltrator, kim666, lestllk, Ludwig Hagen, makarytch, Olethros, Ostinato, Rosen, SilentNidhogg, Skog1349, stub888, thenecromancer, vasiljev_sergej, wreak, Абигор,
Jun 24 2019, 18:26:44 Precambrian - Glaciology [compilation] (2019)


*Artist: Precambrian
*Album: Glaciology [compilation]
*Year: 2019
*Genre: Black Metal
*Country: Ukraine
*Format: mp3@CBR320kbps
*Size: 103MB

Tracklist:
1. Voice of Snow 00:40
2. Cryolithozone 14:46
3. Firn 07:53
4. Basalt 06:46
5. Lava 04:19
6. Permafrost 05:51
7. Sulphur 04:13
******************************
Total playing time: 44:28



[more=Extended info]Primitive Reaction[/more]

[more=Technical info]
Input File: 02. Cryolithozone.mp3
Channels : 2
Sample Rate : 44100
Precision : 16-bit
Duration : 00:14:46.83 = 39109247 samples = 66512.3 CDDA sectors
File Size : 35.7M
Bit Rate : 322k
Sample Encoding: MPEG audio (layer I, II or III)
Comments :
Title=Cryolithozone
Artist=Precambrian
Album=Glaciology
Tracknumber=02/07
Year=2019
Genre=Black Metal

[/more]

Register
(27) 1968_janeart, acerbus, ahp, aimtoknow, Boozer, Cartman223, Femto, Fryz, igore2911, kauyumari, kim666, Namnlos, Olethros, Ostinato, recber, RENыч, robertho777, Rosen, SilentNidhogg, squall8fr, suseka, technoboy69, toly1917, vasiljev_sergej, waltergehtwahlen, wreak, Авел,
Jun 23 2019, 12:27:21 Tenebra Arcana - Martiri Dell'odio (2019)


*Artist: Tenebra Arcana
*Album: Martiri Dell'odio
*Year: 2019
*Genre: Melodic Black Metal
*Country: Italy
*Format: mp3@CBR320kbps
*Size: 102MB

Tracklist:
1. Martyrium Principium 02:07
2. Martiri dell'odio 05:58
3. La stirpe dell'uomo 05:37
4. Il Calvario 05:06
5. Senza alcun dio 04:36
6. Santa Morte 07:15
7. Funerale 04:45
8. Dolor Aeternum 06:09
9. In Fine Martyrium 02:21
******************************
Total playing time: 43:54



[more=Technical info]
Input File: 02. Martiri dell\'odio.mp3
Channels : 2
Sample Rate : 44100
Precision : 16-bit
Duration : 00:05:58.84 = 15824888 samples = 26913.1 CDDA sectors
File Size : 14.5M
Bit Rate : 323k
Sample Encoding: MPEG audio (layer I, II or III)
Comments :
Title=Martiri dell'odio
Artist=Tenebra Arcana
Album=Martiri dell'odio
Tracknumber=02/09
Year=2019
Genre=Symphonic Black Metal

[/more]

Register
(31) 1968_janeart, ALBIGON, alikkon, Black Cat, BugEyes, demonosz, djsema4, FuneralWolf, GorAtheist, Hell_Is_Here, Indamage, kim666, Korpse, makarytch, metala, Mogozoz, murian, nadin85, Olethros, Ostinato, robertho777, Rosen, sergsazan, Shadechaser, SilentNidhogg, talismanFS, thenecromancer, vasiljev_sergej, wreak, Авел, Сварог Барг,
Jun 23 2019, 12:08:40 Moon's Veneris - Vexilla Deliquium Lunae I [demo] (2019)


*Artist: Moon's Veneris
*Album: Vexilla Deliquium Lunae I [demo]
*Year: 2019
*Genre: Raw Black Metal
*Country: Norway
*Format: mp3@CBR320kbps
*Size: 49MB

Tracklist:
1. Virulent Orgy Into the Secret Libations 05:22
2. Malicious Lunar Trance 08:08
3. Ascension Through the Catacombs 07:05
******************************
Total playing time: 20:35



[more=Extended info]Mahamvantara Arts / Nebula Ad Noctem Recs - Mist-023 / Mort-002
Lossy mastered[/more]

[more=Technical info]
Input File: Malicious Lunar Trance.flac
Channels : 2
Sample Rate : 44100
Precision : 16-bit
Duration : 00:08:08.39 = 21537792 samples = 36628.9 CDDA sectors
File Size : 52.2M
Bit Rate : 855k
Sample Encoding: 16-bit FLAC
Comments :
TITLE=Malicious Lunar Trance
ARTIST=Moon´s Veneris
DATE=2019
COMMENT=Visit
ALBUM=Vexilla Deliquium Lunae I
TRACKNUMBER=2
ALBUMARTIST=Moon´s Veneris

[/more]

Register
(17) 1968_janeart, Beazth, cancer1974, Fatalist77791, Hell_Is_Here, kim666, morve, nemx, Olethros, Ostinato, robertho777, Rosen, SilentNidhogg, stub888, thenecromancer, vasiljev_sergej, wreak,
Jun 23 2019, 08:22:27 Initiation - Initiation [demo] (2019)


*Artist: Initiation
*Album: Initiation [demo]
*Year: 2019
*Genre: Black Metal
*Country: Sweden
*Format: mp3@CBR320kbps
*Size: 38MB

Tracklist:
1. Intro 00:56
2. Initiation 04:25
3. Mörkrets Ulvar 05:14
4. Contaminated Salvation 05:00
******************************
Total playing time: 15:35



[more=Technical info]
Input File: 02. Initiation.mp3
Channels : 2
Sample Rate : 44100
Precision : 16-bit
Duration : 00:04:25.09 = 11690381 samples = 19881.6 CDDA sectors
File Size : 10.7M
Bit Rate : 322k
Sample Encoding: MPEG audio (layer I, II or III)
Comments :
Title=Initiation
Artist=Initiation
Album=Demo 2019
Tracknumber=02/04
Year=2019
Genre=Black / Death Metal

[/more]

Register
(20) 1968_janeart, Amsterdam, cielakk, craP_cillA, GorAtheist, Hell_Is_Here, infiltrator, kim666, Occultas, Olethros, Ostinato, robertho777, Rosen, SilentNidhogg, Sjelekval, stub888, thenecromancer, vasiljev_sergej, Wizard_in_Black, wreak,
Jun 22 2019, 18:14:17 Knoest - Dag (2019)


*Artist: Knoest
*Album: Dag
*Year: 2019
*Genre: Black Metal
*Country: Netherlands
*Format: mp3@CBR320kbps
*Size: 75MB

Tracklist:
A1. Ochtend
A2. Middag
B1. Avond
B2. Nacht
******************************
Total playing time: 32:26

[more=Extended info]Ván ‎– Ván271[/more]

[more=Technical info]
Input File: 04. Nacht.mp3
Channels : 2
Sample Rate : 44100
Precision : 16-bit
Duration : 00:11:44.82 = 31082738 samples = 52861.8 CDDA sectors
File Size : 28.3M
Bit Rate : 321k
Sample Encoding: MPEG audio (layer I, II or III)
Comments :
Title=Nacht
Artist=Knoest
Album=Dag
Tracknumber=04/04
Year=2019
Genre=Black Metal

[/more]

Register
(25) 1968_janeart, autumnwood, Bob, cryptal, GorAtheist, Hell_Is_Here, Irimias, kim666, Krosis, Ludwig Hagen, murian, Namnlos, Olethros, Ostinato, ripper33, robertho777, Rosen, Shadechaser, SilentNidhogg, stub888, Tyrone, vasiljev_sergej, wreak, yuratroll, дивин,
Jun 22 2019, 17:30:56 Valaraukar - Demonian Abyssal Visions (2019)


*Artist: Valaraukar
*Album: Demonian Abyssal Visions
*Year: 2019
*Genre: Black Metal
*Country: United Kingdom
*Format: mp3@CBR320kbps
*Size: 101MB

Tracklist:
1. Harnessing of Hostile Forces 07:35
2. The Unassailable Throne 07:33
3. Red Eyes Behold the Heart of Ruin 08:14
4. Visions of Truth Amidst Black Fume 06:36
5. Servants of the Nameless 05:00
6. Conquering the Void 07:09
******************************
Total playing time: 42:07



[more=Extended info]Iron Bonehead Productions[/more]

[more=Technical info]
Input File: 02. The Unassailable Throne.mp3
Channels : 2
Sample Rate : 44100
Precision : 16-bit
Duration : 00:07:32.54 = 19956926 samples = 33940.4 CDDA sectors
File Size : 18.2M
Bit Rate : 322k
Sample Encoding: MPEG audio (layer I, II or III)
Comments :
Title=The Unassailable Throne
Artist=Valaraukar
Album=Demonian Abyssal Visions
Tracknumber=02/06
Year=2019
Genre=Black Metal

[/more]

Register
(26) 1968_janeart, alikkon, autumnwood, Boozer, craP_cillA, cryptal, dermarsoran, Doooomed, GorAtheist, infernallord, infiltrator, judaz, kim666, legion01, nadin85, nemx, Occultas, Olethros, robertho777, Rosen, RUDACHUR, SilentNidhogg, stub888, suseka, vasiljev_sergej, wreak,
Jun 22 2019, 07:04:50 Old Forest - Black Forests Of Eternal Doom (2019)


*Artist: Old Forest
*Album: Black Forests Of Eternal Doom
*Year: 2019
*Genre: Black Metal
*Country: United Kingdom
*Format: mp3@CBR320kbps
*Size: 105MB

Tracklist:
1. Subterranean Soul 07:59
2. Wastelands of Dejection 07:08
3. Black Forests of Eternal Doom 07:41
4. Shroud of my Dreams 05:38
5. A Spell upon Thee 07:42
6. Hang'ed Man 08:54
******************************
Total playing time: 45:02



[more=Technical info]
Input File: 01. Subterranean Soul.mp3
Channels : 2
Sample Rate : 44100
Precision : 16-bit
Duration : 00:07:59.35 = 21139335 samples = 35951.2 CDDA sectors
File Size : 19.3M
Bit Rate : 322k
Sample Encoding: MPEG audio (layer I, II or III)
Comments :
Title=Subterranean Soul
Artist=Old Forest
Album=Black forests of eternal doom
Tracknumber=01/06
Year=2019
Genre=Black Metal

[/more]

Register
(39) 1968_janeart, alikkon, BERZERK, cist, craP_cillA, Eisbar, Femto, GorAtheist, Ildjarn, infernallord, infiltrator, isvili, judaz, Kazoth, kim666, legion01, LEGION69, Nerevar, nsk2008, Olethros, Olrak, Ostinato, Panacea, Reverend, ripper33, robertho777, Rosen, Scuns, SilentNidhogg, stub888, supremo, suseka, thenecromancer, Tino, toly1917, udt4050, vasiljev_sergej, V_H_H_V, wreak,
Jun 21 2019, 18:29:02 Tristengrav - II - Nychavge [demo] (2019)


*Artist: Tristengrav
*Album: II - Nychavge [demo]
*Year: 2019
*Genre: Black Metal
*Country: Greece
*Format: mp3@CBR320kbps
*Size: 42MB

Tracklist:
1. Inwards and Backwards 04:05
2. Becoming 03:31
3. Tower of Silence 04:03
4. Pitch Black Catacombs 03:19
5. Nuxauyn 01:11
******************************
Total playing time: 16:09



[more=Extended info]Caligari Records - CAL 120[/more]

[more=Technical info]
Input File: 02. Becoming.mp3
Channels : 2
Sample Rate : 44100
Precision : 16-bit
Duration : 00:03:30.53 = 9284461 samples = 15789.9 CDDA sectors
File Size : 8.50M
Bit Rate : 323k
Sample Encoding: MPEG audio (layer I, II or III)
Comments :
Title=Becoming
Artist=Tristengrav
Album=II - Nychavgé
Tracknumber=02/05
Year=2019
Genre=Black Metal

[/more]

Register
(16) 1968_janeart, arkaik, Ash_1980, FUDEDOR, GorAtheist, Hell_Is_Here, Ildjarn, kim666, Kuruz, Olethros, Ostinato, Rosen, SilentNidhogg, vasiljev_sergej, Wolftribes, wreak,

62 Pages V   1 2 3 > » 
- Lo-Fi Version Support form
Copyrights and abuse reports form
Time is now: 21st July 2019 - 21:59:24