Welcome Guest ( Log In | Register )

История благодарностей участнику Prometei ::: Спасибо сказали: 300 раз(а)
Дата поста: В теме: За сообщение: Спасибо сказали:
Sep 18 2016, 10:07:23 Сильнейшая школа метала в мире
Да, я такой. Я ретивый, я лихой, прадоруб как Витя Цой, девки ссутся под мой вой, я ядреный пля герой!!!
(1) Genuine Thrashiac,
Sep 18 2016, 09:34:20 Сильнейшая школа метала в мире
clublen,
facessspalm.png это из-за Хеллхаммера, Келтик Фроста и Пунжент Стенча C Саммонингом например...
(1) vosmidesijatye,
Sep 17 2016, 17:37:39 Asphyx - Servants Of Death [ep] (2016)
Не понял смысла выпуска эпихи, если честно... новая песня на 2 минуты всего - она неплоха конечно, но это даже не сингл, а бред полный.

Ковёр так себе, ливы гамно.

И смысл этой эпихи?

Хотя бы 3-4 песенки новых выдали бы.

Асфикс вообще группа, которую нельзя слушать треково - его суть в длине и погружении в танковые борозды.

А так бред какой-то. Обожаю Асфикс, но тут полный незачёт.
(1) RUDACHUR,
Sep 16 2016, 20:02:08 In The Woods... - Pure (2016)
Подытожу своё мнение - это Green Carnation, а не In The Woods... и именно под первой вывеской должен был выйти этот альбом.

Но для меня это радостно, ибо первых я ценю несоизмеримо больше вторых, да и вообще, гвоздика лично для меня почти гениальная группа и живые классики.
(1) bes_internal,
Sep 16 2016, 15:36:49 In The Woods... - Pure (2016)
Блэка нет вообще, авангарда почти нет - это ну можно сказать чистый Прогрессив Метал и конечно же звучание ОЧЕНЬ изменилось.

Я бы сказал, что это некая смесь Арктуруса и Винтерсорга... Очень много чистого вокала, неторопливые мелодии...

Альбом не хитовый, он скорее медитативно-задумчивый и его нужно РАССЛУШИВАТЬ.

В целом по первому впечатлению на ухо ложится неплохо... Вообще, хочется закинуть в плеер и пойти с ним гулять по природе, по холмам и лесам именно в такую погоду - он осенний.

Кстати, именно по настроению, очень напоминает Грин Карнэйшн... Да и вообще, я бы с ними провёл бы некоторую аналогию.

Но это точно не провал - интересная, очень интересная работа. Но вот вывеску может и стоило сменить)
(1) Evilded,
Sep 15 2016, 20:30:56 Johansson & Speckmann - Edge Of The Abyss (2016)
Не знаю, название звучит как сомнительная конторка двух евреев - толи адвокатов, толи просто жуликов-ростовщиков.

Мойша Йогансон и Рувим Спекманн таки кошегненько проанализируют ваши финансовые возможности и невозможности!
(3) Deze, maxmagmas, SAPOGi,
Sep 15 2016, 18:14:31 Rage - Unity (2002)
БЛЯХА МУХА, ЛЕТ 7 почему-то не слушал этот альбом, А ВОТ ОН ГДЕ РОК ТО!!!


ПРОСТО БОМБЕЗНЫЙ АЛЬБОМИЩЕ!!! ПОРВАЛ!!! ТАНЦУЮТ ВСЕ!!!


ВСЕ ТРЕКИ ПРОСТО ССУТ НА МЕНЯ СТРУЁЙ ДРАЙВА, Я ПОПРОСТУ ИЗНЕМОГАЮ!!!

АЛЬБОМ НЕИМОВЕРЕН!!! Я СУЧКА ТВОЯ САМАЯ ВЕРНАЯ!!! БЕРИ МЕНЯ, ЮНИТЯ, ДЕРИ МЕНЯ, ЮНИТЯ!!!
(1) Tular,
Sep 14 2016, 11:50:38 Метал на основе эпосов-мифов-культовых исторических артефактов
Соответственно, интересует метал по различным мифам-легендам или же попросту исторический метал например про историю Тевтонского Ордена или про древнюю Грецию и её богов, ОЧЕНЬ интересует метал про древний Рим и Цезаря или вообще тогдашнее устройство.

Интересен метал на основе историй про шумеров-парфян-скифов-германцев, только с действительно ГЛУБОКОЙ проработкой фактической базы.

Интересен метал, который на основательном профессиональном уровне прорабатывает исторические ВЕХИ и исторические монолиты.

То есть это вообще оперный подход или симфонический, но с единой концепцией на весь альбом. То есть конкретная тема и её реализую весь альбом.

АБСОЛЮТНО НЕ ИНТЕРЕСНЫ ВСЯКИЕ ТОЛКИЕНЫ И ПРОЧЕЕ ФЭНТЕЗИ!

Но Вальхалла и германо-скандинавская мифология интересны. То есть то, что находит интерес и с научной точки зрения.
(1) abob,
Sep 13 2016, 17:23:00 Kypck - 3epo (2016)
Нет, вы ещё учитывайте другое - тут же данные по россиянам, а не по русским.

А кто такие россияне в наше время мы прекрасно знаем - в Москве например сейчас проживает только 30% русских, зато 600 тыщ ярмян, 400 тыщ грузин, 300 тыщ цыган и так далее и тому подобное - все бывшие дотационные советские республики прибежали в Россию.

Это как в Питере - в нём до революции жило 2 миллиона человек, осталось через 3 года 700 тысяч с уже прибежавшей пархатой братией, то есть реального населения пережило революцию в Питере 300-400 тыщ, то есть в лучшем случае пятая часть, то есть город по сути умер и наполнился всяким сбродом и проходимцами.

Так и эти данные - это данные по тюбетейкам и прочим людям, которые в общем-то никогда из своего свинского образа жизни не вылезут. Генетика не позволит.
(2) Goatrex, infiltrator,
Sep 13 2016, 10:47:01 Kypck - 3epo (2016)
ЦИТАТА(Penetralia @ 13th September 2016 - 10:45:22) *
Запорожец это Фиат. Фиат это Италия. Италия это Европа.

normal_Homerdisgust3.png Педофилия - это Древний Рим. Древний Рим - это Италия. Италия - это Европа.

Угу. hung.gif
(2) folker, Goatrex,
Sep 13 2016, 10:33:08 Kypck - 3epo (2016)
Я люблю Бунина, Рихтера, Набокова, Мережковского, Есенина, Блока, Столыпина - вот это я люблю.


Период русской истории, когда во главе страны стояло безграмотное быдло, которое по пьяни на сеновале настрогали, которое уничтожило лучшие умы страны и считало, и кстати в большинстве случаев считает до сих пор, что в том, что их уровень - это запорожец и скачки в полупьяном виде - виноват Сталин, Путин, Гитлер, ну вот весь мир, кроме них самих.

В том, что их по пьяни на сеновале настрогали виноват Путин. В том, что эти люди физически и генетически не способны производить и создавать тоже видимо виноват Путин. Или Сталин.

Я не понимаю, как человек в здравом уме может любить запорожец. Вот до чего докатилась страна.

А эти финские клоуны ещё про это песенки поют.
(2) ersegoth, Goatrex,
Sep 13 2016, 10:26:15 Kypck - 3epo (2016)
Вообще, если по чесноку, то тот СССР 30-ых годов был настоящим ИГИЛОМ - куча терактов по всему миру, топили кучу кораблей, сжигали порты и так далее и так далее - один "Морро Кастл" чего стоит. Кучу людей убивали по всему миру.

Тот СССР - это была обезъяна с гранатой в мировых масштабах, причем фины от этого тоже пострадали огого.

И я как-то слабо понимаю, как люди в здравом уме могут на такое фапать - тем более сами фины тоже не мало получили от нашего демократичного советского режима.

Такое надо забыть как страшный сон и никогда не вспоминать, а лучше сделать выводы и при воспоминании ОБ ЭТОМ краснеть и бледнеть с ощущением стыда.
(2) folker, Goatrex,
Sep 13 2016, 09:50:41 Kypck - 3epo (2016)
Здоровые адекватные люди наяривать на военный совок не будут точно. Уже за одни такие интересы и симпатии можно сдавать в клинику Сербского для опытов.
(1) Goatrex,
Sep 12 2016, 20:28:13 Sodom & Running Wild - Warmongers/Inside My Crosshairs [split] (2016)
Не знаю, какой-то галимый фотошоп на облоге, мы такое в 6 классе на компьютерных курсах за 5 минут делали.
(3) Genuine Thrashiac, infiltrator, Velemysl,
Sep 11 2016, 18:13:46 Nightwish - Imaginaerum (2011)
ЦИТАТА(paganheart @ 11th September 2016 - 17:35:59) *
Если такой же, как первые, особенно нанесший мне в 98м "психическую травму" oceanborn - значит прохожу мимо.

Этот альбом можешь слушать смело - он вообще не похож на ту сопливую шнягу и пмс-ное нытьё прыщавых институток с недойопом...

Тут и жазик и авангард - оч похоже на Дьяблу Свинг Оркестру, только попсовеее, но торкает сильно) Вообще, нотки многих авангардных команд проскакивают, нотки Ника Кэйва, групп а-ля Идиот Флеш, Сай, ну только в попсовом варианте.

Но, ПОВТОРЮСЬ - с той куитой аля ошенбурн и прочего сопливого убожества ВООБЩЕ НИЧЕГО ОБЩЕГО НЕТ!
(4) infiltrator, MeatWolf, paganheart, vosmidesijatye,
Sep 11 2016, 17:14:57 Nightwish - Imaginaerum (2011)
Если честно, я всегда после прослушивания этого альбома в шоке и испуге перепроверяю название группы - ЭТО ТОЧНО НАЙТВИШ?!

Ну настолько, НАСТОЛЬКО этот альбом на тысячи световых лет выделяется от всего тв-ва группы, он НАСТОЛЬКО КРУЧЕ ,ПРОФЕССИОНАЛЬНЕЕ, МОЩНЕЕ, ТАЛАНТЛИВЕЕ, ПРОНИКНОВЕННЕЕ, ДА ЭТО ПРОСТО ПРАКТИЧЕСКИ ШЕДЕВР!!!

Я до сих пор не верю, что этот альбом записали не Дьябло Свинг Оркестра, даже не Терион, а какой-то убогий пшивый второсортный Найтвиш!


Этот альбом - симфония, он гениален композиционно и римтически, он гениален рисунком и идеей, он попросту слушается как ОДНО ЦЕЛОЕ ГЕНИАЛЬНОЕ ПРОИЗВЕДЕНИЕ! Тут есть нотки авангарда, джаза, готики, да тут столько всего!


КТО ИМ написал этот альбом?! Ну не могли эти бездари сами сочинить ТАКОЙ шедеврище!

Если честно, я от этого альбома банально протекаю как 50-летняя труба в хрущёвке. ЭТО - НЕЧТО!

Влажно удаляюсь...
(2) infiltrator, MeatWolf,
Sep 15 2014, 13:09:15 Goatpenis - Flesh Consumed In The Battlefield (2014)
Не понял, чо каментов-то нету???

это же ГОАТПЕНИС, вы чо, мужики???

это же АТЦЫ! 25.gif 25.gif
(1) Goatrex,
Sep 14 2014, 21:45:23 Dominhate - Towards The Light (2014)


*Artist: Dominhate
*Album: Towards The Light
*Year: 2014
*Genre: Death Metal
*Country: Italy
*Format: mp3@CBR320kbps
*Size: 92MB

Tracklist:
01. Towards The Light (Intro) 01:27
02. The Light Of The Last Legion 04:22
03. In The Principle The Great Sleep 03:40
04. The New Wave Of Domination 03:30
05. The First Seed 06:03
06. The Essence Of Choice 02:56
07. Perception 03:28
08. Obscure The Call Of Salvation 04:40
09. King Without Crown 04:32
10. Redemption Of One 05:08
******************************
Total playing time: 39:46

[more=Extended info]по музыке ничего особенного, да и запись глуховата, но обложка так впечатлила, что решил залить![/more]

[more=Technical info]
Input File: 03. In The Principle The Great Sleep.mp3
Channels : 2
Sample Rate : 44100
Precision : 16-bit
Duration : 00:03:40.73 = 9734281 samples = 16554.9 CDDA sectors
File Size : 8.83M
Bit Rate : 320k
Sample Encoding: MPEG audio (layer I, II or III)
Comments :
Title=In The Principle The Great Sleep
Artist=Dominhate
Album=Towards The Light
Tracknumber=03/10
Year=2014
Genre=Death Metal

[/more]

Register
(19) andreikun, Buregon, cuimit1349, Darkthronefoad, Doooomed, Euthanasiast, goregrindexx, Hell_Is_Here, marilin, metala, MMMMM, Ostinato, randumbum, respect, Rosen, satanist666, VALERY, varlam4, wreak,
Sep 14 2014, 20:42:23 Solbrud - Jærtegn (2014)
ЦИТАТА(sadmannn @ 14th September 2014 - 20:39:39) *
Я вот всё пытаюсь понять (металлист с четвертьвековым стажем) - что вы в этой, с позволения сказать, музыке находите?.............Я сам музыкант. Такого дермантина сейчас на компе можно записать за неделю пару альбомов...И все эти дрязги вокруг жанров...Детский сад. Не было никогда за всем этим НИЧЕГО,кроме: неУмения писать хорошей КОНКРЕТНОЙ музыки...Это вам любой музыкант районного масштаба скажет...Атмосфееееера...Какая,на фиг?...

Я не понимаю, а почему не написать об в этом в теме циркуль уроборус? hmm.gif
(3) andeimon, Daecadance, suseka,
Sep 14 2014, 16:24:13 Solbrud - Jærtegn (2014)
Альбом спокойно может потянуть и на альбом года в блэке, не проходите мимо.

Настолько мрачно и атмосферно, что уносит на альфа-центавру и просто подавляет всего.

И да, это реально МОЩЬ И ЖЫР!!!
(1) smes,
Sep 14 2014, 16:10:11 Solbrud - Jærtegn (2014)
mirror
Register
(12) Constantinus I, Emhyr var Emreis, Glioma, hellbibber, Kwaad, lucifix, maochen, NachtWulf, Ramires, RUSP73, VALERY, Xor,
Sep 14 2014, 15:53:45 Solbrud - Jærtegn (2014)


*Artist: Solbrud
*Album: Jærtegn
*Year: 2014
*Genre: Atmospheric Black Metal
*Country: Denmark
*Format: mp3@CBR320kbps
*Size: 107MB

Tracklist:
01. Sortedøden 11:08
02. Afbed 10:28
03. Klippemennesket 15:28
04. Ursult 09:38
******************************
Total playing time: 46:42



[more=Technical info]
Input File: 01. Sorted?den.mp3
Channels : 2
Sample Rate : 44100
Precision : 16-bit
Duration : 00:11:15.78 = 29801678 samples = 50683.1 CDDA sectors
File Size : 27.2M
Bit Rate : 321k
Sample Encoding: MPEG audio (layer I, II or III)
Comments :
Title=SortedГёden
Artist=Solbrud
Album=Jærtegn
Tracknumber=1/4
Year=2014

[/more]

Register
(89) 0x13, 1968_janeart, 666BlackDeath, andeimon, aorta3, arioch82, Barbiturat, Bas®, bka, Blut aus Nord, Buregon, CelticSPB, Constantinus I, Corpse_Of_The_Christ, craP_cillA, d0zer, Darkthronefoad, ddarkthrone, Doooomed, drud, Fess, Forest Silence, Froster, furia666, garml2, Glioma, Groundzerocorpse1990, HMHamster, homelike, igorzz, Ildjarn, ImNotRussian, Jurmagund, Konst, Koscheyushka, lestllk, Lone Reaper, mardak666, Metalass, mikethebeast, MMMMM, Moonshtook, murian, NachtWulf, Necrokilldozer, neoatheist, Nerevar, nsmetalhead, oldvarg, Ostinato, pfk505, QuadenThyrane, Ramires, randumbum, Razorbladeswaltz, Reverend, rickzammuto, Rosen, Ruben, RUDACHUR, RUSP73, sacrut, sandr666, Sathana, Scuns, Semargl2010, Sergei78, shkin00, Sjelekval, smes, spiritualdecay666, StoneTemple, stub888, talismanFS, Taragorm, Tino, toly1917, tont, unas.slayer.of.gods, Unscarted, varg-38ru, varlam4, vasiljev_sergej, waldemardr, wreak, xska, ZA670, ZambuL, Zoloft,
Sep 14 2014, 14:37:39 Xerath - III (2014)
Вдогонку ипопка -
Register
(4) avkruchinin, Canadian Bear, Emhyr var Emreis, realexxx75,
Sep 14 2014, 13:47:59 Xerath - III (2014)


*Artist: Xerath
*Album: III
*Year: 2014
*Genre: Orchestral Groove/Progressive Metal
*Country: United Kingdom
*Format: mp3@CBR320kbps
*Size: 157MB

Tracklist:
01. 2053
02. Autonomous
03. Bleed This Body Clean
04. Death Defiant
05. Demigod Doctrine
06. I Hold Dominion
07. I Hunt For The Weak
08. Ironclad
09. Passenger
10. Sentinels
11. the Chaos Reign
12. Veil Pt 1
13. Veil Pt 2
14. Witness
******************************
Total playing time: 1:08:28



[more=Technical info]
Input File: 01 - 2053.mp3
Channels : 2
Sample Rate : 44100
Precision : 16-bit
Duration : 00:07:10.85 = 19000661 samples = 32314 CDDA sectors
File Size : 17.3M
Bit Rate : 321k
Sample Encoding: MPEG audio (layer I, II or III)
Comments :
Title=2053
Artist=Xerath
Album=iii
Tracknumber=1/14
Year=2014

[/more]

Register
(26) 66666666, AndreFrancis, avkruchinin, BlackArrow, Demuirg, garml2, gwynnbleid, Lone Reaper, LordOvDarkness, Ludwig Hagen, MeatKnife, metala, Mogozoz, Moonshtook, nospeedlimit, Old Vyaine, Ostinato, realexxx75, Reverend, Rosen, toly1917, tranquillit, varlam4, wreak, yuratroll, ZambuL,
Sep 13 2014, 20:12:07 Top 10 Thrash Metal Bands
СЛАВА SLAYER!!!

DEATH TO FALSE METAL, DEATH TO DAVE MUSTAINE!!!

Expendable youths
Fighting for possession
Having control the principle obsession
Rivalry and retribution
Death the only solution

Inured soul lies on the ground
Head blown off face down
Lying in a pool of blood
An accidental death homicide
look.gif

(1) suseka,

2 Pages V   1 2 >
- Lo-Fi Version Support form
Copyrights and abuse reports form
Time is now: 13th November 2019 - 23:07:05