Welcome Guest ( Log In | Register )

История благодарностей участнику queimada ::: Спасибо сказали: 222 раз(а)
Дата поста: В теме: За сообщение: Спасибо сказали:
Aug 13 2015, 00:50:06 Dicktator - What You Excrete Is What You Are [ep] (1990)
Reupload please.
Thanks.
(1) wgs73,
Mar 30 2015, 22:10:13 Thou Shalt Suffer - In The Woods Of Belial (2000)
Register

2004 version. Does anyone have the 2013 version with bonus tracks?
(3) souldeathtoxic, varlam4, zlvd,
Jan 27 2015, 14:49:53 Human Waste & Obscure - Human Waste/Obscure [split] (2011)
MP3@320kbps, Mediafire
Register
(2) Mist13Signifier, varlam4,
Jan 27 2015, 14:14:40 Unnatural - Life [compilation] (2004)
Mediafire
Register
(8) CelticSPB, Corpuscul, lawronchik, lordsloth, METALHUNTER, Pinhead666, SyncestrA, Tino,
Jan 27 2015, 13:41:30 Entety - Exhumed Sarcophagus 1990 - 1994 [best of/compilation] (2014)


*Artist: Entety
*Album: Exhumed Sarcophagus 1990 - 1994 [best of/compilation]
*Year: 2014
*Genre: Death Metal/Grindcore
*Country: United States
*Format: mp3@CBR320kbps
*Size: 159MB

Tracklist:
1. Carnage Of Massacred 02:12
2. Exhumed Sarcophagous 04:56
3. Exhumed To Consume (Carcass Cover) 04:10
4. Ejaculated Necrospermia 05:37
5. Eviserated Then Mummificated 03:48
6. Excremented Visceral Organs 05:40
7. Slash Jugular Bloodclot Asphyxiation 04:37
8. Munching On Mordant Miscarriage 04:34
9. Eviserated Then Mummificated 03:20
10. Hideous Malformation 04:46
11. Carnage Of Massacred 04:57
12. Fraudulent Funeral Mortician 04:00
13. Exsanguination 03:37
14. Into The Desolate Funeral Home Smorgasbord Mortuary 03:23
15. Carcinogenic Carrion 02:55
16. Grevious Epitaph 08:29
******************************
Total playing time: 1:11:01

[more=Extended info]Tracks 1-8 Live at The Waters Club 1990
Tracks 9-13 Cadaveric Necrogrind Sessions 1993
Tracks 14-16 Into The Desolate Sessions 1994[/more]

[more=Technical info]
Input File: 01. CD Track 01.mp3
Channels : 2
Sample Rate : 44100
Precision : 16-bit
Duration : 00:02:12.32 = 5835532 samples = 9924.37 CDDA sectors
File Size : 5.34M
Bit Rate : 323k
Sample Encoding: MPEG audio (layer I, II or III)
Comments :
Title=Carnage Of Massacred
Artist=Entety
Album=Exhumed Sarcophagus 1990-1994
Tracknumber=1
Year=2014

[/more]

Register
(9) Alfredoelruso, cuimit1349, ddarkthrone, FUDEDOR, Proteus_666, Rosen, Tino, varlam4, wgs73,
Jan 27 2015, 12:44:04 Nathaniel - Hidden Inside A Spirit (1999)


*Artist: Nathaniel
*Album: Hidden Inside A Spirit
*Year: 1999
*Genre: Black/Death Metal
*Country: Poland
*Format: mp3@CBR192kbps
*Size: 54MB

Tracklist:
1. The Trodden Garden 04:22
2. Adonai 04:49
3. Waiting for Death 04:18
4. Hidden Inside a Spirit 03:50
5. Annihilation of Humankind 04:22
6. There Is No End 04:32
7. I Am the Beggar of Love 04:19
8. The Remedy 04:16
9. Overflow Of Emotions 5:17
******************************
Total playing time: 40:05

Register
(14) Borderline1991, dermarsoran, Evilded, jorgeguldur, metala, MMMMM, morbidangelo, Ostinato, rom666, Rosen, satanist666, varlam4, vov7609, wreak,
Jan 27 2015, 01:48:00 Human Waste - The Miracle Of Death [demo] (1991) (1) Evilded,
Jan 26 2015, 23:31:08 Stress - III (1996)


*Artist: Stress
*Album: III
*Year: 1996
*Genre: Heavy Metal
*Country: Brazil
*Format: mp3@CBR128kbps
*Size: 46MB

Tracklist:
1. Estrela Azul 3:39
2. Sexo Anual 4:47
3. Nada A Perder 3:50
4. Dança do Trem 4:05
5. Folha No Vento 6:31
6. Maria Mentira 4:41
7. Dor E Prazer 3:09
8. Aventura 4:51
9. A Tua Mãe é Moça? 3:34
10. Vigília 1:42
11. Fé em Procissão 8:42
******************************
Total playing time: 49:31

Register
(3) lawronchik, spiritualdecay666, tashkinoff,
Jan 26 2015, 20:42:57 Stress - Flor Atômica (1985)


*Artist: Stress
*Album: Flor Atômica
*Year: 1985
*Genre: Heavy Metal
*Country: Brazil
*Format: mp3@CBR128kbps
*Size: 43MB

Tracklist:
1. Heavy Metal 4:14
2. Não Desista 3:00
3. Mate O Réu 3:54
4. Flor Atômica 4:00
5. Esperando O Messias 4:25
6. Forças Do Mal 3:24
7. Inferno Nuclear 4:39
8. Sodoma E Gomorra 4:17
9. Tributo Ao Prazer 3:04
10. Jennie 4:25
11. Coração De Metal 3:16
12. Vida E Glória 2:41
******************************
Total playing time: 45:19

Register
(5) goregrindexx, pain, spiritualdecay666, tashkinoff, wgs73,
Jan 26 2015, 20:38:11 Stress - Amazon, First Metal Attack! [best of/compilation] (2009)


*Artist: Stress
*Album: Amazon, First Metal Attack! [best of/compilation]
*Year: 2009
*Genre: Heavy Metal
*Country: Brazil
*Format: mp3@CBR320kbps
*Size: 170MB

Tracklist:
1. Sodoma E Gomorra 4:07
2. A Chacina 4:17
3. 2031 4:13
4. O Oráculo Do Judas 5:49
5. Stressencefalodrama 5:29
6. O Viciado 4:03
7. Mate O Réu 3:52
8. O Lixo 4:11
9. Inferno Nuclear 4:50
10. Forças Do Mal 3:27
11. Heavy Metal 5:08
12. Thunder 3:13
13. Estrela Azul 3:54
14. Nada A Perder 4:03
15. Folha No Vento 7:33
16. A Tua Mãe É Moça 3:11
17. Coração De Metal 3:59
******************************
Total playing time: 1:15:19

[more=Extended info]Tracks 1-8 taken from the self-titled 1982 LP.
Track 9 taken from Demo, recorded at TOK Studio, Rio de Janeiro, Brazil, July 1984.
Track 10 recorded live rehearsal in Rio de Janeiro, January 1985.
Track 11 recorded by TV Record in "Estádio de Remo da Lagoa", Rio de Janeiro, Brazil, August 1985.
Track 12 recorded live in "Castelo do Parque Lage", Rio de Janeiro, Brazil, 15.03.1985.
Track 13 recorded live rehearsal in Belém/PA, Brazil, October 1995.
Track 14 recorded live in Rio de Janeiro, Brazil, November 1996.
Tracks 15 and 16 recorded by "Rádio Cultura", Belém/PA, Brazil, 2003.
Track 17 recorded live in Gasômetro Theatre, Belém/PA, Brazil, 13.05.2005.[/more]

[more=Technical info]
Input File: Stress - 12 - Thunder.mp3
Channels : 2
Sample Rate : 44100
Precision : 16-bit
Duration : 00:03:13.22 = 8521090 samples = 14491.6 CDDA sectors
File Size : 7.73M
Bit Rate : 320k
Sample Encoding: MPEG audio (layer I, II or III)
Comments :
Title=Thunder
Artist=Stress
Album=Amazon, First Metal Attack!
Tracknumber=12

[/more]

Register
(2) Rosen, spiritualdecay666,
Jan 26 2015, 20:27:27 Various Artists - Cold Still Earth (Frozen Dawn Records Comp I) [best of/compilation] (1996)


*Artist: Various Artists
*Album: Cold Still Earth (Frozen Dawn Records Comp I) [best of/compilation]
*Year: 1996
*Genre: Death Metal/Grindcore
*Country: United States
*Format: mp3@CBR320kbps
*Size: 142MB

Tracklist:
01. Shredded Corpse - Dead Inside Myself 3:43
02. Shredded Corpse - Slaughter And Masterbate 2:53
03. Shredded Corpse - World Holocaust 1:31
04. Shredded Corpse - Erase My Existence 1:06
05. Regurgitation - Vomitted Birth 5:48
06. Regurgitation - Rotting In The Bowls Of The Dead 4:36
07. Inhuman - Crack The Casket 5:43
08. Inhuman - Inhuman 5:29
09. Skinless - Crispy Kids 3:55
10. Skinless - Cuntaminated 3:29
11. Skinless - Tug-Of-War Intestines 3:32
12. Deaden - And The Dead Shall Rot 3:25
13. Deaden - Lying In A Ditch 5:52
14. Umbilical Strangulation - Spontaneous Human Combustion 3:39
15. Umbilical Strangulation - Necrology 3:14
16. Umbilical Strangulation - Love Not Life 4:11
******************************
Total playing time: 1:02:06

[more=Technical info]
Input File: 04. Erase My Existence.mp3
Channels : 2
Sample Rate : 44100
Precision : 16-bit
Duration : 00:01:06.26 = 2921846 samples = 4969.13 CDDA sectors
File Size : 2.65M
Bit Rate : 320k
Sample Encoding: MPEG audio (layer I, II or III)
Comments :
Title=Erase My Existence
Artist=Shredded Corpse
Album=Cold Still Earth - Frozen Dawn Records Comp. 1
Tracknumber=4/16

[/more]

Register
(8) Evilded, Hell_Is_Here, morbidangelo, Rosen, spiritualdecay666, varlam4, wreak, Герб,
Jan 26 2015, 18:58:23 Various Artists - Frozen Dawn IV [best of/compilation] (1998)


*Artist: Various Artists
*Album: Frozen Dawn IV [best of/compilation]
*Year: 1998
*Genre: Death Metal/Grindcore
*Country: United States
*Format: mp3@CBR320kbps
*Size: 169MB

Tracklist:
1. Morbid Entree - Chitterlingus 3:26
2. Morbid Entree - Carnagecopia 6:24
3. Burning Human - As Good As Dead 4:49
4. Burning Human - Tormented Mind 5:02
5. Arctic Symphony - The Sound Of Smashing Bones 2:41
6. Arctic Symphony - Euphony 3:30
7. Arctic Symphony - Eternal Hypocrisy 5:29
8. Wake - Adado 5:10
9. Wake - Nebula 6:00
10. Wake - Insectial Dieism 3:24
11. Corpsicle - Life Sentence 3:44
12. Corpsicle - Slayed 4:02
13. Corpsicle - Evil Or Insanity 4:04
14. Hollow Point - Tainted Blood 3:41
15. Hollow Point - R.I.D. 3:21
16. Hollow Point - Cotton Mouth 1:51
17. Hollow Point - Left Behind 2:45
18. Shredded Corpse - Hate Device 2:40
19. Shredded Corpse - In The Flesh 1:59
******************************
Total playing time: 1:14:02

[more=Technical info]
Input File: 16. Cotton Mouth.mp3
Channels : 2
Sample Rate : 44100
Precision : 16-bit
Duration : 00:01:50.77 = 4885045 samples = 8307.9 CDDA sectors
File Size : 4.43M
Bit Rate : 320k
Sample Encoding: MPEG audio (layer I, II or III)
Comments :
Title=Cotton Mouth
Artist=Hollow Point
Album=Frozen Dawn IV
Tracknumber=16/19
Year=1998
Genre=Rock

[/more]

Register
(9) condamn, Evilded, Hell_Is_Here, morbidangelo, Rosen, spiritualdecay666, varlam4, wreak, Герб,
Jan 26 2015, 18:51:02 Various Artists - Frozen Dawn III [best of/compilation] (1997)


*Artist: Various Artists
*Album: Frozen Dawn III [best of/compilation]
*Year: 1997
*Genre: Death Metal/Grindcore
*Country: United States
*Format: mp3@CBR320kbps
*Size: 162MB

Tracklist:
1. Drogheda - Black God's Shadow 1:21
2. Drogheda - Destination Extreme 1:40
3. Drogheda - Devastating Hate Bomb 1:46
4. Drogheda - Die In Pain 2:35
5. Drogheda - Blowout 1:44
6. Violent Fury - Occult Ritual 4:51
7. Violent Fury - Channeling The Satanic Hordes 3:47
8. Violent Fury - Religions Denial 3:46
9. Goliah - Once I Was 3:41
10. Goliah - Condition 6:16
11. Exceed - Impunity 3:57
12. Exceed - Systematic Elimination 6:23
13. Vials Of Wrath - Labor 1:50
14. Vials Of Wrath - Gutcheck 2:24
15. Seminal Death - Low Sacks 1:02
16. Seminal Death - They Take The Head 1:28
17. Seminal Death - Ultimate Sitdown 0:59
18. Seminal Death - Unicorn Foo Foo 1:42
19. Seminal Death - Secretions 1:19
20. Seminal Death - Army Of Sperm 1:03
21. Seminal Death - Colons With Ketchup 1:03
22. Seminal Death - Have A Nice Jizz 0:47
23. Seminal Death - Worms 1:30
24. Seminal Death - A** Cheerios 0:38
25. Seminal Death - Dead Body Love 1:37
26. Seminal Death - Poop 1:28
27. Seminal Death - Thickend With Vol 0:19
28. Seminal Death - Sperm Bath 1:51
29. Seminal Death - Melons Vol. 17 1:22
30. Shredded Corpse - Dismemberment Erodes 3:34
31. Shredded Corpse - Ejaculate On The Soul 3:06
******************************
Total playing time: 1:10:49

[more=Technical info]
Input File: 27. Seminal Death-Thicked With Vol..mp3
Channels : 2
Sample Rate : 44100
Precision : 16-bit
Duration : 00:00:19.31 = 851527 samples = 1448.18 CDDA sectors
File Size : 775k
Bit Rate : 321k
Sample Encoding: MPEG audio (layer I, II or III)
Comments :
Title=Thickend With Vol
Artist=Seminal Death
Album=Frozen Dawn III
Tracknumber=27
Year=1997
Genre=Rock

[/more]

Register
(8) condamn, Evilded, Hell_Is_Here, morbidangelo, Rosen, spiritualdecay666, varlam4, wreak,
Dec 3 2014, 14:53:15 NecroK.I.L.L.Dozer - Outpouring Of Reasons Sterility [demo] (1992)


*Artist: NecroK.I.L.L.Dozer
*Album: Outpouring Of Reasons Sterility [demo]
*Year: 1992
*Genre: Death Metal/Grindcore
*Country: Russian Federation
*Format: mp3@VBR247kbps
*Size: 51MB

Tracklist:
1. Outpouring of Reasons Sterility 01:59
2. Paralyse Smells Frost Odour 02:26
3. Fuck You 01:41
4. Two-Three-Two-Four 03:50
5. Killing Doze 00:58
6. Doors in Empiria 03:31
7. One-Three 02:27
8. Enjoy Membrane Your Corpse 02:28
9. Deicide 02:23
10. Reborn with Atavistic Signs 02:03
11. Seven Blows 00:14
12. Calm Waters 02:25
13. Five-Six 01:55
******************************
Total playing time: 28:20

[more=Extended info]Necrokilldozer's demo tape.[/more]

Register
(20) abob, andreikun, Brutal, ddarkthrone, enslaver, Esophagus, Evilded, gav-gafi, Hellstriker, Hell_Is_Here, Kazoth, morbidangelo, Mucupurulence, Paradayz, Proteus_666, Rosen, sperminator, Unknown, wreak, Герб,
Dec 3 2014, 14:34:09 Morbid Entree - Smorgasgore [remastered 1997] [demo] (1996)
Mediafire
Register
(1) Evilded,
Dec 3 2014, 14:21:17 Resurrection - Demo II [demo] (1991)
Mediafire
Register
(3) Alfredoelruso, Evilded, SatyrIX,
Dec 3 2014, 14:11:24 Smirnoff - Inhuman Torture [demo] (2001)
Mediafire
Register
(1) Proteus_666,
Dec 3 2014, 13:57:41 Autumn Nostrum - Autumn Nostrum (1998)
VBR, Mediafire
Register
(2) jorgeguldur, xtormlord,
Dec 1 2014, 14:11:12 Blatherskite - 40 Daze And 40 Nights [demo] (1993)
Mediafire:
Register
(4) Alfredoelruso, Evilded, Requiescat, varlam4,
Nov 28 2014, 15:09:31 Necrobutcher - Schizophrenic Noisy Torment [best of/compilation] (2013)


*Artist: Necrobutcher
*Album: Schizophrenic Noisy Torment [best of/compilation]
*Year: 2013
*Genre: Black Metal/Grindcore
*Country: Brazil
*Format: mp3@CBR320kbps
*Size: 102MB

Tracklist:
1. Christ Psychic Butchery 01:53
2. Hell 00:45
3. Cerebral Disturbance 00:07
4. Schizophrenic Christianity 01:05
5. Noise Vomiters 00:33
6. Death to Posers 01:13
7. No Thrash 00:07
8. Mrs. Death 01:56
9. Abomination of God 01:21
10. Anthropophoby 00:58
11. Inhuman Capitalist Christ 00:23
12. Bullshit Infestation 00:44
13. Brutal Diarrhoea 00:09
14. Verminal Eructation 00:16
15. Slow Cremation 00:44
16. N.P.N.S. 00:06
17. Intestinal Pollution 00:19
18. Schizophrenic Christianity 00:55
19. Proliferation of Diseases 00:28
20. Encephalic Oncogenesis 00:06
21. Proclivity to the Exploitation 00:49
22. Blood Vomit (Necrovomit cover) 02:21
23. Nightmare (Sarcófago cover) 05:30
24. Satanas (Sarcófago cover) 01:37
25. Cerebral Disturbance 00:06
26. Hell 00:43
27. Abomination of God 01:24
28. Incubus 01:48
29. Noise Vomiters 00:39
30. Death to Posers 01:10
31. Mrs. Death 01:41
32. H.C.M. (Hardcore Metal) 00:13
33. Massacre 01:27
34. No Thrash 00:09
35. Fuckin the Holy Virgin 01:12
36. Necrobutcher 01:40
37. Que Grande Merda 00:17
38. Nuclear Consequences 01:33
39. Instrumental 00:06 instrumental
40. Imundas Religiões 00:33
41. The Mind of a Cut-Throat 01:15
42. Religious Exterminator 01:48
43. War Remembrances 01:30
44. H.C.M. (noise version) 00:52
******************************
Total playing time: 44:31

[more=Extended info]CD rip.
Tracks 1-9: Schizophrenic Christianity Demo 1 - Studio demo released July, 1989
Tracks 10-21: Corrosive Noisy Torment Demo 2 - Demo-reh released October 7th, 1989
Tracks 22-29: rehearsal, 01-1989
Tracks 30-44: rehearsal, January 13th, 1989[/more]

[more=Technical info]
Input File: 34. CD Track 34.mp3
Channels : 2
Sample Rate : 44100
Precision : 16-bit
Duration : 00:00:09.33 = 411409 samples = 699.675 CDDA sectors
File Size : 420k
Bit Rate : 360k
Sample Encoding: MPEG audio (layer I, II or III)
Comments :
Title=No Thrash
Artist=Necrobutcher
Album=Schizophrenic Noisy Torment
Tracknumber=34
Year=2013

[/more]

Register
(18) abob, blacky66, ctakahooss, dermarsoran, Evilded, grobator, Hell_Is_Here, LordHaart, Mesrine, morbidangelo, Rosen, sacramentary, satanist666, tireheb, tont, Unknown, wreak, Герб,
Nov 10 2014, 23:21:32 Impetus - The First Movement [demo] (1994)
Zippy link
Register
(2) marilin, varlam4,
Nov 5 2014, 19:53:38 Amenthis - Dualism (2007)
2 years later...
Register
(1) samokot,
Oct 21 2014, 18:46:31 Impetus - Bloody Minded [demo] (1994)
Mediafire:
Register
(6) Evilded, marilin, marrtins, sperminator, sumeriarising, varlam4,
Oct 6 2014, 16:04:06 Backyard Burial - The $ 2 Pe-ep [ep] (2001)


*Artist: Backyard Burial
*Album: The $ 2 Pe-ep [ep]
*Year: 2001
*Genre: Death Metal/Grindcore
*Country: New Zealand
*Format: wma@192kbps
*Size: 15MB

Tracklist:
1. Digging Up the Dead 03:16
2. If It Came Down To It I'd Eat You 02:38
3. You've Got Tourettes Syndrome 00:29
4. Psychotic Amok in the Morgue 04:38
5. Backyard Buds 03:55
******************************
Total playing time: 14:56

Register
(9) canadaspaceman, Euthanasiast, Hell_Is_Here, morbidangelo, Proteus_666, Rosen, varlam4, wreak, Герб,
Oct 6 2014, 15:59:24 Backyard Burial - A Promising Young Law Student [single] (2007)


*Artist: Backyard Burial
*Album: A Promising Young Law Student [single]
*Year: 2007
*Genre: Death Metal/Grindcore
*Country: New Zealand
*Format: wma@192kbps
*Size: 7MB

Tracklist:
1. A Promising Young Law Student 02:07
2. First She Raped Him Then She Killed Him (Live) 00:56
3. Spunking Batter Chunks (Live) 01:07
4. Hedonistic Cravings (Live) 00:57
******************************
Total playing time: 5:07

Register
(9) canadaspaceman, Euthanasiast, Hell_Is_Here, morbidangelo, Proteus_666, Rosen, satanist666, varlam4, wreak,

2 Pages V   1 2 >
- Lo-Fi Version Support form
Copyrights and abuse reports form
Time is now: 19th April 2021 - 09:30:38